osu file format v14

[General]
AudioFilename: audio.mp3
AudioLeadIn: 0
PreviewTime: 49988
Countdown: 0
SampleSet: Soft
StackLeniency: 0.5
Mode: 0
LetterboxInBreaks: 0
WidescreenStoryboard: 1

[Editor]
Bookmarks: 1742,12092,21692,31292,38642,41042,45842,50492,60092,64892,68642,69692,73442,79292,86492,98492,108092,117842,127292,136892,141692,145442,146492,153092,156092,163292,172892,182492,192092,201692,211292,216242,222092,231692,236492,240242,242492,252092,256892,260642,261692,271292,278492,280892,283292
DistanceSpacing: 2.6
BeatDivisor: 4
GridSize: 4
TimelineZoom: 2.1

[Metadata]
Title:REVIVER
TitleUnicode:REVIVER
Artist:MY FIRST STORY
ArtistUnicode:MY FIRST STORY
Creator:HabiHolic
Version:Asphyre's Insane
Source:
Tags:ALL LEAD TRACKS Japanese English J-Rock jrock rock Hiroki Moriuchi Nobuaki Katou Teruki Nishizawa Shouhei Sasaki 森内寛樹 加藤伸明 佐々木翔平 西澤照貴 Nob Teru Hiro Kid'z Enerugi Battle Asphyre
BeatmapID:2539942
BeatmapSetID:1205497

[Difficulty]
HPDrainRate:5
CircleSize:3.9
OverallDifficulty:7
ApproachRate:9
SliderMultiplier:1.75
SliderTickRate:1

[Events]
//Background and Video events
0,0,"BG.jpg",0,0
Video,0,"Video.mp4"
//Break Periods
2,99088,107288
2,222238,231038
//Storyboard Layer 0 (Background)
//Storyboard Layer 1 (Fail)
//Storyboard Layer 2 (Pass)
//Storyboard Layer 3 (Foreground)
//Storyboard Layer 4 (Overlay)
//Storyboard Sound Samples

[TimingPoints]
188,300,4,2,1,40,1,0
638,-200,4,2,1,20,0,0
788,-200,4,2,1,20,0,0
938,-200,4,2,1,30,0,0
1088,-200,4,2,1,30,0,0
1238,-200,4,2,1,40,0,0
1388,-200,4,2,1,40,0,0
1538,-200,4,2,1,50,0,0
1613,-200,4,2,1,50,0,0
1688,-200,4,2,1,50,0,0
1763,-200,4,2,1,50,0,0
1838,-200,4,2,1,50,0,0
1988,-200,4,2,1,50,0,0
2138,-200,4,2,1,75,0,0
2588,-133.333333333333,4,2,1,75,0,0
7313,-133.333333333333,4,2,1,25,0,0
7388,-133.333333333333,4,2,1,75,0,0
10988,-100,4,2,1,75,0,0
12038,-95.2380952380952,4,2,1,75,0,1
21638,-105.263157894737,4,2,1,60,0,0
31238,-100,4,2,1,60,0,0
40988,-153.846153846153,4,2,1,60,0,0
45788,-133.333333333333,4,2,1,60,0,0
46988,-125,4,2,1,60,0,0
48188,-90.0900900900901,4,2,1,40,0,0
48413,-100,4,2,1,40,0,0
48488,-100,4,2,1,50,0,0
48788,-100,4,2,1,60,0,0
49088,-100,4,2,1,70,0,0
49988,-153.846153846153,4,2,1,70,0,0
50438,-90.9090909090909,4,2,1,80,0,1
59888,-86.9565217391304,4,2,1,80,0,0
60038,-90.9090909090909,4,2,1,80,0,1
68588,-133.333333333333,4,2,1,80,0,0
69638,-90.9090909090909,4,2,1,80,0,1
88838,-95.2380952380952,4,2,1,75,0,0
98288,-142.857142857143,4,2,1,75,0,0
98438,-142.857142857143,4,2,1,60,0,0
108038,-100,4,2,1,70,0,0
117788,-153.846153846153,4,2,1,70,0,0
122588,-133.333333333333,4,2,1,70,0,0
123788,-117.647058823529,4,2,1,70,0,0
124988,-90.9090909090909,4,2,1,40,0,0
125588,-90.9090909090909,4,2,1,50,0,0
126188,-90.9090909090909,4,2,1,60,0,0
126788,-90.9090909090909,4,2,1,70,0,0
126938,-133.333333333333,4,2,1,70,0,0
127238,-90.9090909090909,4,2,1,80,0,1
136388,-100,4,2,1,80,0,0
136838,-86.9565217391304,4,2,1,80,0,1
145388,-133.333333333333,4,2,1,80,0,0
145988,-100,4,2,1,80,0,0
146438,-90.9090909090909,4,2,1,80,0,1
162788,-200,4,2,1,80,0,1
163238,-153.846153846153,4,2,1,70,0,0
172838,-117.647058823529,4,2,1,60,0,0
182438,-111.111111111111,4,2,1,60,0,0
189788,-105.263157894737,4,2,1,60,0,0
192038,-90.9090909090909,4,2,1,60,0,0
201638,-117.647058823529,4,2,1,60,0,0
216188,-105.263157894737,4,2,1,75,0,0
222038,-200,4,2,1,35,0,0
231188,-142.857142857143,4,2,1,75,0,0
236888,-142.857142857143,4,2,1,40,0,0
238388,-133.333333333333,4,2,1,60,0,0
238988,-125,4,2,1,70,0,0
241838,-222.222222222221,4,2,1,40,0,0
242438,-83.3333333333333,4,2,1,80,0,1
251588,-111.111111111111,4,2,1,80,0,0
252038,-83.3333333333333,4,2,1,80,0,0
252488,-83.3333333333333,4,2,1,80,0,1
261638,-86.9565217391304,4,2,1,80,0,0
283238,-357.142857142857,4,2,1,80,0,0
283313,-357.142857142857,4,2,1,30,0,0
289163,-357.142857142857,4,2,1,30,0,0
289238,-357.142857142857,4,2,1,50,0,0

[Colours]
Combo1 : 241,44,94
Combo2 : 173,173,173
Combo3 : 87,176,230

[HitObjects]
200,228,2138,5,0,3:0:0:0:
200,228,2213,1,0,3:0:0:0:
200,228,2288,1,8,0:0:0:0:
216,232,2588,5,4,0:0:0:0:
368,192,2738,1,2,3:2:0:0:
336,284,2888,1,8,0:0:0:0:
280,167,3038,6,0,B|288:105|288:105|292:97|292:97|307:20,1,131.25000500679,2|2,3:2|3:2,0:0:0:0:
200,88,3488,1,8,0:0:0:0:
216,232,3638,6,0,B|219:293|219:293|222:301|222:301|229:380,1,131.25000500679,2|2,3:2|3:2,0:0:0:0:
360,304,4088,1,8,0:0:0:0:
360,304,4538,5,0,3:0:0:0:
460,372,4688,2,0,L|486:277,1,98.4375037550928,8|0,0:0|0:0,0:0:0:0:
484,240,4988,6,0,L|472:152,1,65.6250025033952,2|0,3:2|3:0,0:0:0:0:
440,68,5288,1,10,0:0:0:0:
316,116,5438,6,0,B|256:132|256:132|220:132|180:92,1,131.25000500679,2|2,3:2|3:2,0:0:0:0:
112,32,5888,1,8,0:0:0:0:
20,148,6038,6,0,B|84:136|84:136|120:136|156:172,1,131.25000500679,2|2,3:2|3:2,0:0:0:0:
200,252,6488,1,8,0:0:0:0:
184,344,6638,1,2,0:0:0:0:
207,254,6788,2,0,L|179:213,3,32.8125012516976,2|0|2|0,3:2|3:0|3:2|3:0,0:0:0:0:
280,247,7088,2,0,P|328:251|372:307,1,98.4375037550928,10|0,0:0|0:0,0:0:0:0:
381,308,7388,5,4,0:0:0:0:
476,248,7538,1,0,3:0:0:0:
504,356,7688,1,10,0:0:0:0:
476,220,7838,6,0,B|468:164|468:164|484:122|445:71,1,131.25000500679,2|2,3:2|3:2,0:0:0:0:
348,104,8288,1,8,0:0:0:0:
384,232,8438,6,0,B|392:292|392:292|376:330|415:381,1,131.25000500679,2|2,3:2|3:2,0:0:0:0:
288,308,8888,1,8,0:0:0:0:
288,308,9338,5,0,3:0:0:0:
180,368,9488,2,0,L|156:264,1,98.4375037550928,8|0,0:0|0:0,0:0:0:0:
136,240,9788,6,0,L|156:156,1,65.6250025033952,2|2,3:2|3:2,0:0:0:0:
76,104,10088,1,10,0:0:0:0:
184,84,10238,6,0,B|236:76|236:76|252:80|252:80|340:68,1,131.25000500679,2|2,3:2|3:2,0:0:0:0:
416,24,10688,1,10,0:0:0:0:
504,144,10838,5,0,3:0:0:0:
504,144,10913,1,0,3:0:0:0:
504,144,10988,2,0,L|416:120,1,87.5,8|0,0:0|3:0,0:0:0:0:
388,120,11213,21,0,3:0:0:0:
388,120,11288,2,0,L|411:208,1,87.5,8|0,0:0|3:0,0:0:0:0:
428,240,11513,21,0,3:0:0:0:
428,240,11588,2,0,L|497:173,1,87.5,0|8,3:0|0:0,0:0:0:0:
512,156,11813,5,0,3:0:0:0:
512,156,11888,1,0,3:0:0:0:
480,304,12038,6,0,B|404:320|404:320|348:276|288:324,1,183.749994392395,4|0,0:0|3:0,0:0:0:0:
192,220,12488,1,10,0:0:0:0:
128,316,12638,2,0,L|236:296,1,91.8749971961976,0|2,0:0|3:2,0:0:0:0:
276,220,12938,1,0,3:0:0:0:
192,124,13088,1,10,0:0:0:0:
104,192,13238,6,0,L|-4:172,1,91.8749971961976,2|0,3:2|0:0,0:0:0:0:
0,64,13538,1,2,3:2:0:0:
96,152,13688,1,8,0:0:0:0:
168,36,13838,6,0,B|236:24|272:80|272:80|356:64,1,183.749994392395,2|2,3:2|3:2,0:0:0:0:
444,40,14288,1,8,0:0:0:0:
472,180,14438,6,0,B|404:192|368:136|368:136|284:152,1,183.749994392395,4|2,0:0|3:2,0:0:0:0:
176,112,14888,1,8,0:0:0:0:
128,224,15038,2,0,L|232:188,1,91.8749971961976,0|2,0:0|3:2,0:0:0:0:
306,147,15338,1,0,3:0:0:0:
268,268,15488,1,10,0:0:0:0:
360,228,15638,6,0,P|396:196|404:140,1,91.8749971961976,0|2,0:0|3:2,0:0:0:0:
384,56,15938,1,2,3:2:0:0:
306,147,16088,1,10,0:0:0:0:
256,64,16238,1,0,0:0:0:0:
176,144,16388,5,8,3:0:0:0:
152,140,16463,1,0,3:0:0:0:
128,136,16538,1,4,3:3:0:0:
104,132,16613,1,0,3:0:0:0:
80,128,16688,1,8,0:0:0:0:
164,36,16838,6,0,B|168:116|168:116|120:180|188:244,1,183.749994392395,4|0,0:0|3:0,0:0:0:0:
280,152,17288,1,10,0:0:0:0:
344,268,17438,2,0,L|240:240,1,91.8749971961976,0|2,0:0|3:2,0:0:0:0:
161,212,17738,1,0,0:3:0:0:
200,340,17888,1,8,0:0:0:0:
108,304,18038,6,0,L|4:332,1,91.8749971961976,2|0,3:2|0:0,0:0:0:0:
0,216,18338,1,2,3:2:0:0:
132,260,18488,1,8,0:0:0:0:
216,104,18638,6,0,B|264:48|328:84|328:84|400:48,1,183.749994392395,2|2,3:2|3:2,0:0:0:0:
460,140,19088,1,8,0:0:0:0:
399,273,19238,6,0,B|385:200|312:199|312:199|267:132,1,183.749994392395,4|2,0:0|3:2,0:0:0:0:
180,48,19688,1,10,0:0:0:0:
96,152,19838,2,0,L|200:132,1,91.8749971961976,2|0,0:0|3:0,0:0:0:0:
279,150,20138,1,2,3:2:0:0:
192,248,20288,1,10,0:0:0:0:
264,320,20438,6,0,B|280:276|280:276|268:200,1,91.8749971961976,0|0,3:0|3:0,0:0:0:0:
396,140,20738,2,0,P|356:172|348:232,1,91.8749971961976,2|10,3:2|0:0,0:0:0:0:
380,328,21038,2,0,L|360:264,2,45.9374985980988,2|0|10,3:2|3:2|0:0,0:0:0:0:
284,280,21338,1,0,3:0:0:0:
424,216,21488,1,10,0:0:0:0:
280,124,21638,6,0,B|224:108|188:128|204:156|148:176|96:144,1,166.249995560646,4|0,0:0|3:0,0:0:0:0:
172,48,22088,2,0,P|196:92|196:140,1,83.1249977803231,10|0,0:0|0:0,0:0:0:0:
146,231,22388,2,0,P|122:187|134:131,1,83.1249977803231,2|0,3:2|3:0,0:0:0:0:
240,208,22688,2,0,L|212:316,1,83.1249977803231,10|0,0:0|0:0,0:0:0:0:
320,256,22988,1,2,3:2:0:0:
388,344,23138,6,0,L|496:368,1,83.1249977803231,0|8,0:3|0:0,0:0:0:0:
424,264,23438,2,0,P|456:228|500:220,2,83.1249977803231,2|0|0,3:2|0:0|3:0,0:0:0:0:
388,344,23888,1,8,0:0:0:0:
312,220,24038,6,0,P|348:240|276:256,1,166.249995560646,4|0,0:0|3:0,0:0:0:0:
244,168,24488,2,0,P|200:128|160:128,1,83.1249977803231,10|0,0:0|0:0,0:0:0:0:
92,216,24788,2,0,L|200:196,1,83.1249977803231,2|0,3:2|3:0,0:0:0:0:
240,340,25088,2,0,P|200:288|200:252,1,83.1249977803231,10|0,0:0|0:0,0:0:0:0:
297,193,25388,6,0,L|273:301,1,83.1249977803231,2|0,3:2|0:0,0:0:0:0:
212,192,25688,1,8,0:0:0:0:
316,116,25838,2,0,P|372:160|372:200,2,83.1249977803231,2|0|0,0:0|0:0|3:0,0:0:0:0:
216,164,26288,1,8,0:0:0:0:
152,56,26438,6,0,B|120:156|120:156|112:124|80:108,1,166.249995560646,4|0,0:0|3:0,0:0:0:0:
24,196,26888,2,0,P|69:212|103:269,1,83.1249977803231,10|0,0:0|0:0,0:0:0:0:
188,296,27188,2,0,L|84:324,1,83.1249977803231,2|0,3:2|3:0,0:0:0:0:
264,232,27488,2,0,L|368:252,1,83.1249977803231,10|0,0:0|0:0,0:0:0:0:
476,292,27788,6,0,P|435:265|423:221,1,83.1249977803231,2|0,3:2|0:0,0:0:0:0:
494,134,28088,2,0,B|506:238|506:238|489:269|473:297,1,166.249995560646,8|2,0:0|3:2,0:0:0:0:
416,208,28538,1,0,0:0:0:0:
336,320,28688,1,8,0:0:0:0:
320,160,28838,6,0,P|308:88|260:148,1,166.249995560646,4|0,0:0|3:0,0:0:0:0:
128,224,29288,2,0,B|200:192|200:192|244:220|296:196,1,166.249995560646,10|0,0:0|3:0,0:0:0:0:
372,168,29738,1,0,3:0:0:0:
284,92,29888,1,10,0:0:0:0:
205,218,30038,6,0,P|193:290|145:230,1,166.249995560646,4|2,0:0|3:2,0:0:0:0:
64,112,30488,2,0,L|82:30,1,83.1249977803231,10|0,0:0|3:0,0:0:0:0:
28,184,30788,1,0,3:0:0:0:
32,200,30863,1,0,3:0:0:0:
36,220,30938,2,0,L|20:276,2,41.5624988901615,0|0|8,3:0|3:0|0:0,0:0:0:0:
120,288,31238,6,0,B|164:276|208:280|196:312|240:328|320:292,1,175,4|0,0:0|3:0,0:0:0:0:
384,188,31688,2,0,P|356:264|368:300,1,87.5,10|0,0:0|0:0,0:0:0:0:
448,336,31988,2,0,L|432:248,1,87.5,2|0,3:2|3:0,0:0:0:0:
408,112,32288,6,0,P|456:160|460:192,1,87.5,10|0,0:0|0:0,0:0:0:0:
388,268,32588,1,2,3:2:0:0:
332,196,32738,2,0,L|220:216,1,87.5,2|8,3:2|0:0,0:0:0:0:
148,152,33038,2,0,P|128:114|88:98,2,87.5,2|0|0,0:0|0:0|3:0,0:0:0:0:
168,232,33488,1,8,0:0:0:0:
76,336,33638,6,0,B|100:216|100:216|64:188|68:144,1,175,4|0,0:0|3:0,0:0:0:0:
162,65,34088,2,0,L|146:161,1,87.5,10|0,0:0|0:0,0:0:0:0:
224,168,34388,1,2,3:2:0:0:
301,125,34538,1,0,3:0:0:0:
376,220,34688,2,0,L|284:204,1,87.5,10|0,0:0|0:0,0:0:0:0:
236,80,34988,6,0,P|300:48|380:112,1,175,2|8,3:2|0:0,0:0:0:0:
289,205,35438,2,0,B|280:152|280:152|312:112,2,87.5,2|0|0,0:0|0:0|3:0,0:0:0:0:
328,296,35888,1,8,0:0:0:0:
432,184,36038,6,0,B|396:252|396:252|428:312|368:364,1,175,4|0,0:0|3:0,0:0:0:0:
276,356,36488,2,0,P|248:288|268:240,1,87.5,10|0,0:0|0:0,0:0:0:0:
192,168,36788,2,0,L|168:280,1,87.5,2|0,3:2|3:0,0:0:0:0:
40,172,37088,2,0,P|84:188|107:244,1,87.5,10|0,0:0|0:0,0:0:0:0:
52,332,37388,2,0,L|28:228,1,87.5,2|0,3:2|0:0,0:0:0:0:
127,136,37688,2,0,L|101:235,1,87.5,10|0,0:0|0:0,0:0:0:0:
200,168,37988,5,2,3:2:0:0:
200,168,38138,1,0,0:0:0:0:
268,260,38288,2,0,B|168:244,1,87.5,10|0,0:0|0:0,0:0:0:0:
56,164,38588,6,0,P|123:188|79:268,2,175,4|8|2,0:0|0:0|3:2,0:0:0:0:
0,240,39338,1,0,0:0:0:0:
20,96,39488,2,0,L|0:4,1,87.5,8|0,0:0|0:0,0:0:0:0:
112,84,39788,6,0,B|172:72|172:72|208:84|208:84|292:64,1,175,6|10,3:2|0:0,0:0:0:0:
420,88,40238,2,0,L|472:104,2,43.75,0|0|10,3:0|3:0|0:0,0:0:0:0:
348,109,40538,1,8,3:0:0:0:
348,196,40688,1,4,3:0:0:0:
432,226,40838,1,0,3:0:0:0:
272,248,40988,6,0,P|204:192|256:316,1,398.124981775285,4|0,0:0|0:0,0:0:0:0:
320,97,42188,2,0,L|254:322,1,227.499989585877,4|0,3:2|0:0,0:0:0:0:
312,68,43238,5,0,3:0:0:0:
216,102,43388,2,0,B|188:100|172:60|172:60|136:184|136:184|16:112|24:300|132:248|132:200,1,398.124981775285,4|0,3:2|0:0,0:0:0:0:
243,184,44588,6,0,P|226:247|280:208,1,170.624992189408,4|0,3:2|3:0,0:0:0:0:
280,209,45338,5,0,3:0:0:0:
352,192,45488,1,0,3:0:0:0:
420,144,45638,1,0,3:0:0:0:
420,144,45713,1,0,3:0:0:0:
420,144,45788,6,0,L|432:216,1,65.6250025033952,4|0,3:2|0:0,0:0:0:0:
352,192,46088,2,0,L|295:238,1,65.6250025033952,0|0,3:0|0:0,0:0:0:0:
272,160,46388,2,0,L|203:134,1,65.6250025033952,0|0,3:0|0:0,0:0:0:0:
264,76,46688,2,0,L|252:5,1,65.6250025033952,0|0,3:0|0:0,0:0:0:0:
210,136,46988,6,0,L|136:108,1,70,0|0,3:0|0:0,0:0:0:0:
132,204,47288,2,0,L|68:248,1,70,0|0,3:0|0:0,0:0:0:0:
156,296,47588,2,0,L|164:372,1,70,0|0,3:0|0:0,0:0:0:0:
248,312,47888,2,0,L|312:344,1,70,0|0,3:0|0:0,0:0:0:0:
388,180,48188,6,0,L|371:319,1,97.1250023712159,8|0,0:0|3:0,0:0:0:0:
395,291,48413,1,0,3:0:0:0:
407,299,48488,2,0,L|408:360,3,43.75,8|0|0|0,0:0|3:0|3:0|3:0,0:0:0:0:
328,360,48788,5,8,0:0:0:0:
296,356,48863,1,8,0:0:0:0:
264,352,48938,1,8,0:0:0:0:
236,348,49013,1,8,0:0:0:0:
208,344,49088,2,0,L|200:284,1,43.75,8|8,0:0|0:0,0:0:0:0:
148,256,49238,2,0,L|176:188,1,43.75,8|8,0:0|0:0,0:0:0:0:
140,128,49388,5,12,0:0:0:0:
376,124,49988,5,2,0:0:0:0:
280,120,50138,2,0,L|376:136,1,85.3124960947039,0|0,0:0|0:0,0:0:0:0:
316,32,50438,6,0,B|300:92|332:124|332:124|348:248,1,192.500005874634,4|0,0:0|3:0,0:0:0:0:
300,368,50888,2,0,B|296:310|296:310|274:295|265:259,1,96.250002937317,10|0,0:0|0:0,0:0:0:0:
172,124,51188,2,0,B|146:175|146:175|157:199|148:235,1,96.250002937317,2|0,3:2|3:0,0:0:0:0:
80,356,51488,2,0,B|137:352|137:352|152:330|188:321,1,96.250002937317,10|0,0:0|0:0,0:0:0:0:
331,227,51788,6,0,B|269:179|215:224|215:224|121:207,1,192.500005874634,2|8,3:2|0:0,0:0:0:0:
52,180,52238,1,0,0:0:0:0:
128,104,52388,1,2,3:2:0:0:
60,228,52538,2,0,L|44:100,1,96.250002937317,2|8,3:2|0:0,0:0:0:0:
196,24,52838,6,0,B|164:148|164:148|204:240,1,192.500005874634,4|0,0:0|3:0,0:0:0:0:
316,72,53288,2,0,B|266:100|266:100|261:126|234:150,1,96.250002937317,10|0,0:0|0:0,0:0:0:0:
408,272,53588,2,0,B|380:222|380:222|354:217|329:190,1,96.250002937317,2|0,3:2|3:0,0:0:0:0:
160,288,53888,2,0,B|217:289|217:289|234:268|270:261,1,96.250002937317,10|0,0:0|0:0,0:0:0:0:
316,72,54188,6,0,B|354:126|322:182|322:182|346:302,1,192.500005874634,2|8,3:2|0:0,0:0:0:0:
396,336,54638,1,0,0:0:0:0:
476,252,54788,1,2,3:2:0:0:
348,328,54938,2,0,L|472:352,1,96.250002937317,2|8,3:2|0:0,0:0:0:0:
296,240,55238,6,0,B|244:228|196:228|224:288|160:308|88:264,1,192.500005874634,4|0,0:0|3:0,0:0:0:0:
60,176,55688,2,0,L|28:268,1,96.250002937317,10|0,0:0|0:0,0:0:0:0:
208,304,55988,2,0,P|208:268|176:212,1,96.250002937317,2|0,3:2|3:0,0:0:0:0:
56,344,56288,2,0,L|164:376,1,96.250002937317,10|0,0:0|0:0,0:0:0:0:
299,240,56588,6,0,B|239:220|203:268|203:268|82:283,1,192.500005874634,2|8,3:2|0:0,0:0:0:0:
56,200,57038,1,0,0:0:0:0:
144,88,57188,1,2,3:2:0:0:
60,56,57338,1,0,0:0:0:0:
136,172,57488,2,0,P|200:156|228:112,1,96.250002937317,10|0,0:0|0:0,0:0:0:0:
308,12,57788,6,0,B|292:84|292:84|304:124|304:124|272:236,1,192.500005874634,4|8,0:0|0:0,0:0:0:0:
252,296,58238,1,0,3:0:0:0:
352,252,58388,1,0,3:0:0:0:
436,328,58538,1,0,0:0:0:0:
432,208,58688,1,10,0:0:0:0:
332,332,58838,6,0,B|184:292,1,144.375004405975,4|0,0:0|3:0,0:0:0:0:
124,272,59138,1,0,3:0:0:0:
120,252,59213,1,0,3:0:0:0:
116,232,59288,1,8,0:0:0:0:
112,212,59363,1,0,3:0:0:0:
108,192,59438,2,0,L|128:136,1,48.1250014686585,0|0,3:0|3:0,0:0:0:0:
160,64,59588,5,8,0:0:0:0:
216,116,59738,2,0,L|186:213,1,96.250002937317,0|0,3:0|3:0,0:0:0:0:
46,94,60038,6,0,B|141:61|141:61|229:125,1,192.500005874634,4|0,0:0|3:0,0:0:0:0:
348,148,60488,2,0,P|292:156|256:192,1,96.250002937317,10|0,0:0|0:0,0:0:0:0:
284,316,60788,1,2,3:2:0:0:
332,232,60938,1,0,3:0:0:0:
208,272,61088,2,0,L|108:256,1,96.250002937317,10|0,0:0|0:0,0:0:0:0:
32,100,61388,6,0,B|56:192|56:192|8:248|44:300,1,192.500005874634,2|8,3:2|0:0,0:0:0:0:
128,344,61838,1,0,0:0:0:0:
136,216,61988,1,2,3:2:0:0:
36,316,62138,2,0,L|156:304,1,96.250002937317,2|8,3:2|0:0,0:0:0:0:
292,200,62438,6,0,B|260:136|260:136|300:20,1,192.500005874634,4|0,0:0|3:0,0:0:0:0:
432,72,62888,2,0,P|372:84|344:120,1,96.250002937317,10|0,0:0|0:0,0:0:0:0:
404,244,63188,2,0,L|416:136,1,96.250002937317,2|0,3:2|0:0,0:0:0:0:
292,200,63488,2,0,P|348:244|356:296,1,96.250002937317,10|0,0:0|0:0,0:0:0:0:
188,348,63788,6,0,L|204:224,1,96.250002937317,2|0,3:2|0:0,0:0:0:0:
292,200,64088,1,8,0:0:0:0:
276,292,64238,1,0,0:0:0:0:
180,168,64388,5,8,0:0:0:0:
184,144,64463,1,0,3:0:0:0:
188,120,64538,1,0,3:0:0:0:
192,96,64613,1,0,3:0:0:0:
196,72,64688,1,8,0:0:0:0:
276,108,64838,6,0,B|185:115|185:115|162:125|162:125|40:136,1,192.500005874634,4|0,0:0|3:0,0:0:0:0:
32,268,65288,1,8,0:0:0:0:
0,156,65438,1,0,3:0:0:0:
116,248,65588,1,10,0:0:0:0:
12,336,65738,2,0,L|20:276,2,48.1250014686585,0|0|10,3:0|0:0|0:0,0:0:0:0:
124,224,66038,6,0,B|104:124|104:124|36:100|60:24,1,192.500005874634,4|0,0:0|3:0,0:0:0:0:
188,4,66488,1,8,0:0:0:0:
152,112,66638,1,0,3:0:0:0:
304,148,66788,1,10,0:0:0:0:
248,80,66938,1,0,3:0:0:0:
248,80,67013,1,0,0:0:0:0:
248,80,67088,1,10,0:0:0:0:
240,204,67238,6,0,L|404:168,1,144.375004405975,4|0,0:0|0:0,0:0:0:0:
452,152,67538,1,0,3:0:0:0:
456,128,67613,1,0,3:0:0:0:
460,104,67688,1,8,0:0:0:0:
464,80,67763,1,0,3:0:0:0:
468,56,67838,6,0,L|440:0,1,48.1250014686585,0|0,3:0|3:0,0:0:0:0:
376,40,67988,2,0,L|320:24,3,48.1250014686585,8|8|8|8,3:0|3:0|3:0|3:0,0:0:0:0:
276,84,68288,5,4,3:0:0:0:
276,84,68363,1,4,3:0:0:0:
276,84,68438,2,0,L|204:104,1,48.1250014686585,4|4,3:0|3:0,0:0:0:0:
300,200,68588,6,0,B|272:304|272:304|188:248|136:372|248:416|276:360|276:332,1,328.125012516976,12|0,0:0|3:0,0:0:0:0:
283,342,69413,1,0,3:0:0:0:
291,346,69488,1,8,0:0:0:0:
196,228,69638,6,0,B|128:196|96:220|104:240|52:272|-8:224,1,192.500005874634,4|0,0:0|3:0,0:0:0:0:
24,76,70088,2,0,L|52:188,1,96.250002937317,10|0,0:0|0:0,0:0:0:0:
164,120,70388,2,0,P|132:148|128:208,1,96.250002937317,2|0,3:2|3:0,0:0:0:0:
232,280,70688,2,0,L|196:164,1,96.250002937317,8|0,0:0|0:0,0:0:0:0:
228,60,70988,5,2,3:2:0:0:
312,132,71138,1,0,0:0:0:0:
376,20,71288,2,0,B|424:28|424:28|433:33|433:33|500:48,1,96.250002937317,8|0,0:0|0:0,0:0:0:0:
504,164,71588,5,2,3:2:0:0:
416,100,71738,1,0,3:0:0:0:
340,240,71888,1,10,0:0:0:0:
384,320,72038,6,0,P|440:232|356:164,1,192.500005874634,4|0,0:0|3:0,0:0:0:0:
249,259,72488,2,0,B|292:237|292:237|372:241,1,96.250002937317,8|0,0:0|3:0,0:0:0:0:
252,160,72788,1,0,3:0:0:0:
256,164,72938,1,0,3:0:0:0:
140,208,73088,6,0,B|97:230|97:230|17:226,1,96.250002937317,8|0,0:0|0:0,0:0:0:0:
160,368,73388,2,0,L|176:264,1,96.250002937317,0|0,3:0|0:0,0:0:0:0:
40,152,73688,2,0,L|68:356,1,192.500005874634,8|0,0:0|3:0,0:0:0:0:
144,248,74138,1,0,3:0:0:0:
40,152,74288,1,8,0:0:0:0:
160,40,74438,6,0,B|132:164|132:164|156:128|200:120,1,192.500005874634,4|0,0:0|3:0,0:0:0:0:
304,176,74888,2,0,P|244:180|204:232,1,96.250002937317,10|0,0:0|0:0,0:0:0:0:
196,324,75188,1,2,3:2:0:0:
144,248,75338,1,0,3:0:0:0:
280,304,75488,2,0,B|324:292|324:292|336:292|336:292|392:276,1,96.250002937317,8|0,0:0|0:0,0:0:0:0:
448,208,75788,6,0,P|396:276|456:368,1,192.500005874634,2|8,3:2|0:0,0:0:0:0:
484,288,76238,1,0,0:0:0:0:
372,208,76388,1,2,3:2:0:0:
436,132,76538,1,0,0:0:0:0:
404,280,76688,1,10,0:0:0:0:
360,132,76838,6,0,B|296:112|260:132|272:156|228:180|168:156,1,192.500005874634,4|0,0:0|3:0,0:0:0:0:
48,108,77288,2,0,B|39:65|39:65|40:56|40:56|32:4,1,96.250002937317,8|0,0:0|0:0,0:0:0:0:
128,100,77588,1,0,3:0:0:0:
64,188,77738,1,0,3:0:0:0:
120,324,77888,6,0,B|126:281|126:281|125:272|125:272|134:229,1,96.250002937317,8|0,0:0|0:0,0:0:0:0:
252,192,78188,1,0,3:0:0:0:
208,276,78338,1,0,3:0:0:0:
178,159,78488,5,8,0:0:0:0:
264,212,78638,1,0,3:0:0:0:
352,168,78788,1,0,3:0:0:0:
374,178,78863,1,0,3:0:0:0:
396,188,78938,1,0,3:0:0:0:
418,198,79013,1,0,3:0:0:0:
444,209,79088,1,8,0:0:0:0:
368,288,79238,6,0,B|376:192|376:192|416:152|390:96,1,192.500005874634,4|0,0:0|3:0,0:0:0:0:
360,96,79613,1,0,3:0:0:0:
360,96,79688,2,0,L|336:-8,1,96.250002937317,12|0,0:0|3:0,0:0:0:0:
200,36,79988,1,2,3:2:0:0:
256,104,80138,1,0,3:0:0:0:
128,92,80288,2,0,P|108:40|132:-20,1,96.250002937317,10|0,0:0|0:0,0:0:0:0:
184,152,80588,6,0,L|152:248,1,96.250002937317,2|0,3:2|0:0,0:0:0:0:
56,296,80888,2,0,B|128:280|128:280|172:288|172:288|276:272,1,192.500005874634,8|2,0:0|3:2,0:0:0:0:
352,244,81338,1,0,3:0:0:0:
432,324,81488,1,10,0:0:0:0:
508,216,81638,6,0,B|428:200|428:200|388:144|320:168,1,192.500005874634,4|0,0:0|3:0,0:0:0:0:
180,224,82088,2,0,B|223:232|223:232|294:218,1,96.250002937317,10|0,0:0|0:0,0:0:0:0:
196,144,82388,1,2,3:2:0:0:
196,144,82538,1,0,3:0:0:0:
96,232,82688,6,0,B|56:212|56:212|-16:208,1,96.250002937317,10|0,0:0|0:0,0:0:0:0:
88,316,82988,1,2,3:2:0:0:
88,316,83138,1,0,3:0:0:0:
180,224,83288,5,10,0:0:0:0:
88,136,83438,1,8,0:0:0:0:
184,56,83588,2,0,L|160:168,1,96.250002937317,0|0,3:0|0:0,0:0:0:0:
272,264,83888,1,8,0:0:0:0:
321,163,84038,6,0,P|225:151|185:255,1,192.500005874634,4|0,0:0|3:0,0:0:0:0:
262,359,84488,2,0,L|274:243,1,96.250002937317,10|0,0:0|0:0,0:0:0:0:
244,148,84788,1,2,3:2:0:0:
328,208,84938,1,0,3:0:0:0:
432,132,85088,2,0,L|328:116,1,96.250002937317,10|0,0:0|0:0,0:0:0:0:
200,68,85388,6,0,P|235:104|243:156,1,96.250002937317,2|0,3:2|0:0,0:0:0:0:
140,232,85688,1,10,0:0:0:0:
168,140,85838,1,0,0:0:0:0:
56,92,85988,1,2,3:2:0:0:
60,108,86063,1,0,3:0:0:0:
64,124,86138,1,0,3:0:0:0:
68,140,86213,1,0,3:0:0:0:
72,156,86288,1,10,0:0:0:0:
160,212,86438,6,0,B|80:152|80:152|0:204,1,192.500005874634,4|0,0:0|3:0,0:0:0:0:
28,324,86888,1,10,0:0:0:0:
76,244,87038,1,0,3:0:0:0:
180,316,87188,5,10,0:0:0:0:
160,212,87338,1,0,3:0:0:0:
268,284,87488,5,10,0:0:0:0:
296,188,87638,1,0,3:0:0:0:
435,267,87788,6,0,L|335:251,1,96.250002937317,10|0,0:0|3:0,0:0:0:0:
252,120,88088,2,0,P|308:108|360:148,1,96.250002937317,10|0,0:0|3:0,0:0:0:0:
412,180,88388,1,10,0:0:0:0:
339,251,88538,1,0,3:0:0:0:
343,275,88613,1,0,3:0:0:0:
347,299,88688,1,8,0:0:0:0:
432,336,88838,6,0,B|356:316|356:316|315:326|315:326|224:304,1,183.749994392395,4|0,0:0|3:0,0:0:0:0:
124,360,89288,1,10,0:0:0:0:
64,256,89438,2,0,L|168:280,1,91.8749971961976,0|2,0:0|3:2,0:0:0:0:
236,212,89738,1,0,3:0:0:0:
184,88,89888,1,10,0:0:0:0:
100,144,90038,6,0,L|8:164,1,91.8749971961976,2|0,3:2|0:0,0:0:0:0:
8,52,90338,1,0,3:0:0:0:
108,128,90488,1,8,0:0:0:0:
244,28,90638,6,0,B|292:84|244:148|244:148|252:224,1,183.749994392395,2|0,3:2|3:0,0:0:0:0:
272,328,91088,1,8,0:0:0:0:
388,248,91238,6,0,P|424:280|348:280,1,183.749994392395,4|0,0:0|3:0,0:0:0:0:
328,164,91688,1,10,0:0:0:0:
440,84,91838,2,0,B|430:132|430:132|416:208,1,91.8749971961976,0|2,0:0|3:2,0:0:0:0:
356,84,92138,1,0,3:0:0:0:
240,148,92288,1,10,0:0:0:0:
168,88,92438,6,0,P|208:56|260:56,1,91.8749971961976,2|2,0:0|3:2,0:0:0:0:
240,148,92738,1,2,3:2:0:0:
108,168,92888,1,10,0:0:0:0:
168,88,93038,1,0,0:0:0:0:
180,244,93188,5,2,3:2:0:0:
204,248,93263,1,0,3:0:0:0:
228,252,93338,1,2,3:2:0:0:
252,256,93413,1,0,3:0:0:0:
276,260,93488,1,10,0:0:0:0:
208,356,93638,6,0,B|187:264|187:264|208:200|156:160,1,183.749994392395,4|0,0:0|0:0,0:0:0:0:
88,80,94088,1,10,0:0:0:0:
16,192,94238,2,0,L|120:148,1,91.8749971961976,0|2,0:0|3:2,0:0:0:0:
208,192,94538,1,0,3:0:0:0:
120,272,94688,1,10,0:0:0:0:
212,316,94838,6,0,L|316:360,1,91.8749971961976,2|0,3:2|0:0,0:0:0:0:
360,272,95138,1,0,3:0:0:0:
428,372,95288,1,10,0:0:0:0:
440,248,95438,6,0,B|420:184|348:188|348:188|316:112,1,183.749994392395,2|0,3:2|0:0,0:0:0:0:
280,16,95888,1,10,0:0:0:0:
220,152,96038,6,0,B|158:178|158:178|112:127|53:153,1,183.749994392395,4|0,0:0|3:0,0:0:0:0:
0,256,96488,1,10,0:0:0:0:
108,324,96638,2,0,L|84:212,1,91.8749971961976,0|2,0:0|3:2,0:0:0:0:
136,136,96938,1,0,3:0:0:0:
200,240,97088,1,10,0:0:0:0:
260,160,97238,6,0,B|272:112|272:112|260:92|260:60,1,91.8749971961976,0|2,0:0|3:2,0:0:0:0:
408,16,97538,2,0,P|356:36|332:72,1,91.8749971961976,2|10,3:2|0:0,0:0:0:0:
356,160,97838,1,2,3:2:0:0:
360,180,97913,1,0,3:2:0:0:
364,200,97988,1,10,0:0:0:0:
388,296,98138,1,8,3:0:0:0:
448,200,98288,1,4,3:0:0:0:
284,196,98438,6,0,P|236:196|220:320,1,183.749994392395,4|2,0:0|3:2,0:0:0:0:
344,256,107888,5,0,1:0:0:0:
376,344,108038,2,0,B|392:252|392:252|432:220|416:140,1,175,4|0,0:0|0:0,0:0:0:0:
332,96,108488,2,0,L|348:212,1,87.5,10|0,0:0|0:0,0:0:0:0:
216,216,108788,2,0,P|244:160|288:144,1,87.5,2|0,3:2|3:0,0:0:0:0:
272,264,109088,2,0,L|192:356,1,87.5,10|0,0:0|0:0,0:0:0:0:
132,264,109388,5,2,3:2:0:0:
56,344,109538,2,0,B|108:356|108:356|148:348,1,87.5,0|10,3:0|0:0,0:0:0:0:
104,196,109838,2,0,P|60:248|60:280,2,87.5,2|0|0,3:2|0:0|3:0,0:0:0:0:
200,160,110288,1,8,0:0:0:0:
132,264,110438,6,0,B|132:144|132:144|108:112|120:68,1,175,4|0,0:0|3:0,0:0:0:0:
28,48,110888,2,0,L|48:136,1,87.5,10|0,0:0|0:0,0:0:0:0:
164,158,111188,2,0,P|144:110|108:90,1,87.5,2|0,3:2|3:0,0:0:0:0:
12,224,111488,2,0,L|112:192,1,87.5,10|0,0:0|0:0,0:0:0:0:
240,132,111788,6,0,P|280:92|272:172,1,175,2|8,3:2|0:0,0:0:0:0:
240,292,112238,2,0,L|224:184,2,87.5,2|0|0,0:0|0:0|3:0,0:0:0:0:
256,380,112688,1,8,0:0:0:0:
352,284,112838,6,0,B|416:260|448:312|448:312|524:336,1,175,4|0,0:0|3:0,0:0:0:0:
448,216,113288,2,0,L|427:320,1,87.5,10|0,0:0|0:0,0:0:0:0:
376,196,113588,2,0,P|408:148|448:136,1,87.5,2|0,3:2|3:0,0:0:0:0:
304,180,113888,2,0,L|204:152,1,87.5,10|0,0:0|0:0,0:0:0:0:
91,183,114188,6,0,P|155:195|179:227,1,87.5,2|0,3:2|0:0,0:0:0:0:
109,358,114488,2,0,L|89:162,1,175,10|2,0:0|3:2,0:0:0:0:
24,112,114938,1,0,0:0:0:0:
135,19,115088,2,0,B|107:59|107:59|103:123,1,87.5,10|0,0:0|0:0,0:0:0:0:
242,137,115388,6,0,P|210:89|94:109,2,175,4|10|2,0:0|0:0|3:2,0:0:0:0:
268,232,116138,1,0,0:0:0:0:
168,316,116288,2,0,B|188:268|188:268|188:220,1,87.5,8|0,0:0|0:0,0:0:0:0:
92,212,116588,5,4,0:0:0:0:
8,320,116738,2,0,L|100:288,1,87.5,8|2,0:0|3:2,0:0:0:0:
60,192,117038,5,0,3:0:0:0:
64,176,117113,1,0,3:0:0:0:
68,160,117188,1,8,0:0:0:0:
92,84,117338,1,8,3:0:0:0:
152,140,117488,1,4,3:0:0:0:
172,64,117638,1,0,3:0:0:0:
196,208,117788,6,0,P|348:212|216:140,1,398.124981775285,4|0,0:0|0:0,0:0:0:0:
120,220,118988,2,0,B|156:240|160:272|160:272|238:109,1,227.499989585877,4|0,0:0|0:0,0:0:0:0:
404,228,120038,5,0,3:0:0:0:
500,184,120188,2,0,P|440:356|300:252,1,398.124981775285,4|0,3:2|0:0,0:0:0:0:
331,158,121388,6,0,L|295:290,1,113.749994792938,4|0,0:0|3:2,0:0:0:0:
404,228,121838,1,0,0:0:0:0:
404,228,122138,5,8,3:0:0:0:
331,158,122288,1,4,3:0:0:0:
384,80,122438,1,0,3:0:0:0:
384,80,122513,1,0,3:0:0:0:
384,80,122588,6,0,L|360:-8,1,65.6250025033952,0|0,3:0|0:0,0:0:0:0:
288,72,122888,2,0,L|199:48,1,65.6250025033952,0|0,3:0|0:0,0:0:0:0:
247,151,123188,2,0,L|182:215,1,65.6250025033952,0|0,3:0|0:0,0:0:0:0:
286,246,123488,2,0,L|310:334,1,65.6250025033952,0|0,3:0|0:0,0:0:0:0:
201,198,123788,6,0,L|120:248,1,74.3750014185906,0|0,3:0|0:0,0:0:0:0:
212,296,124088,2,0,L|212:392,1,74.3750014185906,0|0,3:0|0:0,0:0:0:0:
303,309,124388,2,0,L|388:360,1,74.3750014185906,0|0,3:0|0:0,0:0:0:0:
376,252,124688,2,0,L|460:204,1,74.3750014185906,0|0,3:0|0:0,0:0:0:0:
512,168,124988,1,0,3:0:0:0:
472,284,125138,5,0,3:0:0:0:
448,276,125213,1,0,3:0:0:0:
424,268,125288,1,8,0:0:0:0:
400,260,125363,1,0,3:0:0:0:
376,252,125438,2,0,L|384:172,1,48.1250014686585,0|0,3:0|3:0,0:0:0:0:
336,144,125588,5,8,3:0:0:0:
320,148,125663,1,8,3:0:0:0:
304,152,125738,1,8,3:0:0:0:
288,156,125813,1,8,3:0:0:0:
272,160,125888,2,0,L|248:216,1,48.1250014686585,8|8,0:0|0:0,0:0:0:0:
200,260,126038,2,0,L|216:312,1,48.1250014686585,8|8,0:0|0:0,0:0:0:0:
308,384,126188,6,0,B|316:332|316:332|280:276,1,96.250002937317,8|8,0:0|3:0,0:0:0:0:
200,260,126488,1,8,0:0:0:0:
180,264,126563,1,4,3:0:0:0:
160,268,126638,1,4,3:0:0:0:
140,272,126713,1,4,3:0:0:0:
112,276,126788,5,4,3:0:0:0:
32,352,126938,2,0,B|40:296|40:296|20:280|16:244,1,98.4375037550928,8|0,0:0|0:0,0:0:0:0:
29,152,127238,6,0,P|85:188|1:252,1,192.500005874634,4|0,0:0|0:0,0:0:0:0:
156,152,127688,2,0,B|141:118|141:118|108:110|74:51,1,96.250002937317,10|0,0:0|0:0,0:0:0:0:
263,233,127988,2,0,B|292:254|292:254|324:245|383:279,1,96.250002937317,2|0,3:2|3:0,0:0:0:0:
148,290,128288,2,0,B|133:323|133:323|100:331|66:390,1,96.250002937317,10|0,0:0|0:0,0:0:0:0:
156,152,128588,6,0,B|136:212|184:244|184:244|216:360,1,192.500005874634,2|8,3:2|0:0,0:0:0:0:
280,264,129038,1,0,0:0:0:0:
400,304,129188,1,2,3:2:0:0:
284,356,129338,2,0,L|392:332,1,96.250002937317,0|10,3:0|0:0,0:0:0:0:
500,248,129638,6,0,B|376:213|376:213|316:133,1,192.500005874634,4|0,0:0|3:0,0:0:0:0:
196,88,130088,2,0,B|161:76|161:76|150:44|87:16,1,96.250002937317,10|0,0:0|0:0,0:0:0:0:
267,198,130388,2,0,B|249:229|249:229|261:259|233:322,1,96.250002937317,2|0,3:2|3:0,0:0:0:0:
336,84,130688,2,0,B|368:65|368:65|372:31|427:-8,1,96.250002937317,10|0,0:0|0:0,0:0:0:0:
508,148,130988,6,0,L|400:124,1,96.250002937317,2|0,3:2|0:0,0:0:0:0:
308,184,131288,1,8,0:0:0:0:
376,304,131438,1,8,0:0:0:0:
284,364,131588,2,0,P|264:308|284:256,1,96.250002937317,2|2,3:2|3:2,0:0:0:0:
384,220,131888,1,8,0:0:0:0:
500,336,132038,6,0,B|376:304|376:304|360:356|296:348,1,192.500005874634,4|0,0:0|3:0,0:0:0:0:
200,252,132488,2,0,P|248:200|300:200,1,96.250002937317,10|0,0:0|0:0,0:0:0:0:
176,332,132788,2,0,L|60:308,1,96.250002937317,2|0,3:2|3:0,0:0:0:0:
16,172,133088,2,0,P|68:200|80:264,1,96.250002937317,10|0,0:0|0:0,0:0:0:0:
0,363,133388,6,0,L|20:139,1,192.500005874634,2|8,3:2|0:0,0:0:0:0:
108,124,133838,1,2,3:2:0:0:
56,8,133988,1,2,3:2:0:0:
36,92,134138,1,0,0:0:0:0:
156,60,134288,2,0,P|188:112|172:164,1,96.250002937317,10|0,0:0|0:0,0:0:0:0:
204,300,134588,6,0,B|252:172|252:172|252:200|276:228,1,192.500005874634,4|10,0:0|0:0,0:0:0:0:
360,260,135038,1,0,0:0:0:0:
432,144,135188,1,0,3:0:0:0:
452,236,135338,1,0,3:0:0:0:
344,168,135488,1,10,0:0:0:0:
476,60,135638,6,0,L|316:84,1,144.375004405975,4|0,0:0|0:0,0:0:0:0:
260,92,135938,1,0,3:0:0:0:
240,88,136013,1,0,3:0:0:0:
220,84,136088,1,8,0:0:0:0:
200,80,136163,1,0,3:0:0:0:
180,76,136238,2,0,L|172:136,1,48.1250014686585,0|0,3:0|3:0,0:0:0:0:
160,224,136388,5,0,3:0:0:0:
80,240,136538,1,0,3:0:0:0:
76,252,136613,1,0,3:0:0:0:
73,265,136688,2,0,L|81:309,1,43.75,0|0,3:0|3:0,0:0:0:0:
152,372,136838,6,0,P|144:264|52:288,1,201.250003838539,4|0,0:0|3:0,0:0:0:0:
226,175,137288,2,0,P|290:187|314:247,1,100.62500191927,10|0,0:0|0:0,0:0:0:0:
298,331,137588,2,0,B|254:291|254:291|238:235,1,100.62500191927,2|0,3:2|3:0,0:0:0:0:
370,163,137888,2,0,P|386:231|358:275,1,100.62500191927,10|0,0:0|0:0,0:0:0:0:
240,384,138188,2,0,B|268:320|268:320|232:228|340:204,1,201.250003838539,2|8,3:2|0:0,0:0:0:0:
400,160,138638,1,0,0:0:0:0:
336,64,138788,1,2,3:2:0:0:
432,128,138938,2,0,L|320:96,1,100.62500191927,0|10,3:0|0:0,0:0:0:0:
176,0,139238,6,0,B|211:124|211:124|172:216,1,201.250003838539,4|0,0:0|3:0,0:0:0:0:
52,96,139688,2,0,P|92:116|112:176,1,100.62500191927,10|0,0:0|0:0,0:0:0:0:
52,272,139988,2,0,L|32:160,1,100.62500191927,2|0,3:2|3:0,0:0:0:0:
132,288,140288,2,0,P|164:325|212:332,1,100.62500191927,10|0,0:0|0:0,0:0:0:0:
312,192,140588,2,0,L|295:291,1,100.62500191927,2|0,3:2|0:0,0:0:0:0:
424,236,140888,1,10,0:0:0:0:
408,352,141038,1,0,0:0:0:0:
512,228,141188,1,10,0:0:0:0:
492,220,141263,1,0,3:0:0:0:
472,212,141338,1,0,3:0:0:0:
452,204,141413,1,0,3:0:0:0:
432,196,141488,1,0,3:0:0:0:
448,324,141638,6,0,B|472:236|472:236|471:211|471:211|500:88,1,201.250003838539,4|2,0:0|3:2,0:0:0:0:
416,0,142088,1,8,0:0:0:0:
352,100,142238,1,0,3:0:0:0:
492,44,142388,1,10,0:0:0:0:
380,4,142538,2,0,L|320:24,2,50.3125009596348,0|0|10,3:0|0:0|0:0,0:0:0:0:
456,144,142838,6,0,B|356:124|356:124|296:148|244:84,1,201.250003838539,4|0,0:0|3:0,0:0:0:0:
140,0,143288,1,8,0:0:0:0:
218,82,143438,1,0,3:0:0:0:
95,179,143588,1,10,0:0:0:0:
117,94,143738,1,0,3:0:0:0:
117,94,143813,1,0,0:0:0:0:
117,94,143888,1,10,0:0:0:0:
188,208,144038,6,0,P|88:212|64:280,1,150.937502878904,4|0,0:0|3:0,0:0:0:0:
40,324,144338,1,0,3:0:0:0:
60,328,144413,1,0,3:0:0:0:
84,332,144488,1,8,0:0:0:0:
104,336,144563,1,0,3:0:0:0:
124,340,144638,6,0,L|156:276,1,50.3125009596348,0|0,3:0|3:0,0:0:0:0:
216,316,144788,2,0,L|264:292,3,50.3125009596348,0|0|0|0,3:0|3:0|3:0|3:0,0:0:0:0:
328,344,145088,5,8,3:0:0:0:
328,344,145163,1,8,3:0:0:0:
328,344,145238,2,0,L|384:356,1,50.3125009596348,8|8,3:0|3:0,0:0:0:0:
312,196,145388,6,0,P|236:200|304:244,1,196.875007510186,12|0,0:0|0:0,0:0:0:0:
332,124,145988,6,0,L|294:250,1,131.25,10|0,0:0|0:0,0:0:0:0:
220,256,146288,1,10,0:0:0:0:
332,124,146438,6,0,B|356:156|400:152|400:152|376:192|416:268,1,192.500005874634,4|0,0:0|3:0,0:0:0:0:
504,380,146888,2,0,L|516:268,1,96.250002937317,10|0,0:0|0:0,0:0:0:0:
430,172,147188,2,0,P|406:236|433:291,1,96.250002937317,2|0,3:2|3:0,0:0:0:0:
512,156,147488,2,0,L|488:44,1,96.250002937317,8|0,0:0|0:0,0:0:0:0:
360,24,147788,6,0,P|400:56|412:128,1,96.250002937317,2|0,3:2|0:0,0:0:0:0:
308,212,148088,2,0,L|324:96,1,96.250002937317,8|0,0:0|0:0,0:0:0:0:
192,160,148388,1,2,3:2:0:0:
144,64,148538,1,0,3:0:0:0:
96,224,148688,1,10,0:0:0:0:
24,168,148838,6,0,P|3:256|76:316,1,192.500005874634,4|0,0:0|3:0,0:0:0:0:
186,204,149288,2,0,B|143:226|143:226|63:222,1,96.250002937317,8|0,0:0|0:0,0:0:0:0:
172,308,149588,1,0,3:0:0:0:
172,308,149738,1,0,3:0:0:0:
296,256,149888,6,0,B|339:234|339:234|419:238,1,96.250002937317,8|0,0:0|0:0,0:0:0:0:
284,100,150188,2,0,L|256:200,1,96.250002937317,0|0,3:0|0:0,0:0:0:0:
336,340,150488,2,0,L|384:140,1,192.500005874634,8|0,0:0|3:0,0:0:0:0:
484,96,150938,1,0,3:0:0:0:
444,236,151088,1,8,0:0:0:0:
472,80,151238,6,0,P|402:122|391:42,1,192.500005874634,4|0,0:0|3:0,0:0:0:0:
264,100,151688,2,0,L|144:76,1,96.250002937317,10|0,0:0|0:0,0:0:0:0:
80,164,151988,1,2,3:2:0:0:
48,72,152138,1,0,3:0:0:0:
168,172,152288,2,0,B|144:216|144:216|144:224|144:224|120:264,1,96.250002937317,10|0,0:0|0:0,0:0:0:0:
68,328,152588,6,0,P|126:258|214:282,1,192.500005874634,2|8,3:2|0:0,0:0:0:0:
288,336,153038,1,0,0:0:0:0:
264,184,153188,1,2,3:2:0:0:
340,248,153338,1,0,0:0:0:0:
214,282,153488,1,10,0:0:0:0:
224,108,153638,6,0,B|288:88|324:108|312:132|356:156|416:132,1,192.500005874634,4|0,0:0|3:0,0:0:0:0:
504,8,154088,2,0,L|484:112,1,96.250002937317,8|0,0:0|0:0,0:0:0:0:
440,228,154388,1,0,3:0:0:0:
405,135,154538,1,0,3:0:0:0:
404,296,154688,6,0,L|528:272,1,96.250002937317,8|0,0:0|0:0,0:0:0:0:
512,144,154988,1,0,3:0:0:0:
440,228,155138,1,0,3:0:0:0:
316,152,155288,2,0,P|264:176|244:224,1,96.250002937317,8|0,0:0|0:0,0:0:0:0:
216,328,155588,1,0,3:0:0:0:
128,252,155738,1,8,0:0:0:0:
124,272,155813,1,8,0:0:0:0:
120,292,155888,1,0,3:0:0:0:
40,372,156038,6,0,B|88:312|88:312|68:164,1,192.500005874634,2|0,3:2|3:0,0:0:0:0:
44,176,156413,1,0,0:0:0:0:
44,176,156488,2,0,L|68:60,1,96.250002937317,12|0,0:0|0:0,0:0:0:0:
172,0,156788,1,2,3:2:0:0:
200,108,156938,1,0,3:0:0:0:
308,0,157088,6,0,B|326:45|326:45|331:51|331:51|360:112,1,96.250002937317,10|0,0:0|0:0,0:0:0:0:
464,108,157388,2,0,P|424:156|420:204,1,96.250002937317,2|0,3:2|0:0,0:0:0:0:
508,240,157688,2,0,B|432:216|432:216|396:224|396:224|292:192,1,192.500005874634,10|2,0:0|3:2,0:0:0:0:
220,168,158138,1,0,3:0:0:0:
128,284,158288,1,10,0:0:0:0:
228,348,158438,6,0,B|252:288|204:242|204:242|224:146,1,192.500005874634,4|0,0:0|3:0,0:0:0:0:
120,84,158888,2,0,L|136:200,1,96.250002937317,8|0,0:0|0:0,0:0:0:0:
40,248,159188,1,0,3:0:0:0:
40,248,159338,1,0,3:0:0:0:
112,376,159488,6,0,L|128:260,1,96.250002937317,8|0,0:0|0:0,0:0:0:0:
236,244,159788,2,0,P|284:244|336:284,1,96.250002937317,0|0,3:0|3:0,0:0:0:0:
460,344,160088,2,0,L|348:364,1,96.250002937317,8|0,0:0|0:0,0:0:0:0:
260,336,160388,1,0,3:0:0:0:
304,180,160538,1,8,0:0:0:0:
408,260,160688,1,8,0:0:0:0:
372,116,160838,6,0,P|296:84|212:164,1,192.500005874634,2|0,3:2|3:0,0:0:0:0:
127,283,161288,2,0,L|111:183,1,96.250002937317,10|0,0:0|0:0,0:0:0:0:
92,80,161588,1,2,3:2:0:0:
24,152,161738,1,0,3:0:0:0:
44,0,161888,1,10,0:0:0:0:
128,104,162038,6,0,L|124:164,2,48.1250014686585,0|0|8,3:0|3:0|3:0,0:0:0:0:
176,32,162338,1,8,3:0:0:0:
256,72,162488,1,4,3:0:0:0:
336,28,162638,1,4,3:0:0:0:
436,96,162788,2,0,P|446:44|494:22,1,109.375,8|0,0:0|0:0,0:0:0:0:
494,22,163238,6,0,L|468:208,1,170.624992189408,4|0,0:0|3:0,0:0:0:0:
470,190,163988,1,0,1:0:0:0:
436,332,164438,5,0,0:0:0:0:
436,332,164513,1,0,0:0:0:0:
436,332,164588,1,0,3:2:0:0:
348,300,164738,1,0,1:0:0:0:
212,256,165038,5,0,3:0:0:0:
296,228,165188,2,0,P|272:188|192:172,1,113.749994792938,0|0,1:0|0:0,0:0:0:0:
128,288,165638,6,0,P|87:310|9:284,1,113.749994792938,4|0,1:2|3:0,0:0:0:0:
72,216,166088,1,0,3:0:0:0:
24,88,166388,1,0,1:0:0:0:
24,88,166988,5,0,1:0:0:0:
4,0,167138,2,0,P|72:4|108:48,1,113.749994792938,0|0,1:0|3:0,0:0:0:0:
148,116,167588,2,0,L|280:88,1,113.749994792938,0|0,1:0|0:0,0:0:0:0:
368,8,168038,6,0,P|340:52|360:120,1,113.749994792938,4|0,1:2|3:0,0:0:0:0:
432,68,168488,1,0,3:0:0:0:
496,184,168788,1,0,1:0:0:0:
504,192,169238,5,0,0:0:0:0:
504,192,169313,1,0,0:0:0:0:
504,192,169388,1,0,3:0:0:0:
428,256,169538,1,0,1:0:0:0:
280,176,169838,5,0,3:0:0:0:
332,248,169988,2,0,P|296:264|224:248,1,113.749994792938,0|0,1:2|0:0,0:0:0:0:
200,116,170438,6,0,P|149:91|94:99,1,113.749994792938,4|0,1:2|3:0,0:0:0:0:
136,192,170888,1,0,3:0:0:0:
28,284,171188,1,0,1:0:0:0:
28,284,171788,1,0,3:0:0:0:
8,372,171938,2,0,P|76:368|112:324,1,113.749994792938,0|0,1:0|3:0,0:0:0:0:
152,256,172388,2,0,L|284:284,1,113.749994792938,0|0,1:0|0:0,0:0:0:0:
372,364,172838,6,0,P|344:320|352:276,1,74.3750014185906,4|0,0:0|0:0,0:0:0:0:
376,208,173138,1,2,0:0:0:0:
448,304,173288,2,0,L|372:288,1,74.3750014185906,2|0,3:2|0:0,0:0:0:0:
296,196,173588,2,0,P|312:152|356:128,1,74.3750014185906,2|0,1:2|0:0,0:0:0:0:
416,104,173888,1,2,0:0:0:0:
480,196,174038,2,0,L|508:104,1,74.3750014185906,2|0,3:2|0:0,0:0:0:0:
448,24,174338,5,0,3:0:0:0:
416,104,174488,1,2,3:2:0:0:
332,135,174638,1,0,0:0:0:0:
260,72,174788,2,0,L|244:-4,1,74.3750014185906,2|0,3:2|0:0,0:0:0:0:
348,44,175088,1,2,3:2:0:0:
260,72,175238,2,0,B|212:56|180:64|192:80|152:96|108:72,1,148.750002837181,4|0,0:0|0:0,0:0:0:0:
12,184,175688,6,0,L|108:156,1,74.3750014185906,0|0,3:0|0:0,0:0:0:0:
188,236,175988,2,0,P|180:276|148:316,1,74.3750014185906,2|0,1:2|0:0,0:0:0:0:
104,240,176288,1,2,0:0:0:0:
176,156,176438,2,0,L|264:172,1,74.3750014185906,2|0,3:2|0:0,0:0:0:0:
360,220,176738,5,0,0:0:0:0:
269,238,176888,2,0,P|247:179|252:154,1,74.3750014185906,2|0,3:2|0:0,0:0:0:0:
288,88,177188,1,2,1:2:0:0:
376,72,177338,1,0,0:0:0:0:
424,152,177488,1,2,3:2:0:0:
360,220,177638,2,0,P|424:248|452:292,1,111.562502127886,4|0,0:0|0:0,0:0:0:0:
452,300,177938,5,2,3:2:0:0:
492,200,178088,2,0,B|504:148|504:148|500:140|500:140|512:72,1,111.562502127886,2|0,0:0|0:0,0:0:0:0:
512,68,178388,5,2,1:2:0:0:
392,0,178538,2,0,B|404:52|404:52|400:60|400:60|412:128,1,111.562502127886,2|0,0:0|0:0,0:0:0:0:
412,132,178838,5,2,0:0:0:0:
304,208,178988,2,0,B|316:156|316:156|312:148|312:148|324:80,1,111.562502127886,2|0,3:2|0:0,0:0:0:0:
324,76,179288,5,2,3:2:0:0:
208,0,179438,2,0,P|232:44|232:84,1,74.3750014185906,2|2,0:0|1:2,0:0:0:0:
172,164,179738,5,2,0:0:0:0:
80,140,179888,1,2,0:0:0:0:
144,76,180038,2,0,L|104:244,1,148.750002837181,2|0,3:2|0:0,0:0:0:0:
0,272,180488,2,0,P|48:284|76:324,1,74.3750014185906,2|0,3:2|0:0,0:0:0:0:
160,356,180788,2,0,L|80:380,1,74.3750014185906,2|0,1:2|0:0,0:0:0:0:
160,276,181088,5,2,3:2:0:0:
244,248,181238,1,0,0:0:0:0:
316,304,181388,2,0,L|400:280,1,74.3750014185906,2|0,3:2|0:0,0:0:0:0:
416,164,181688,2,0,L|336:188,1,74.3750014185906,2|0,3:2|3:0,0:0:0:0:
320,196,181913,1,0,3:0:0:0:
320,196,181988,1,10,0:0:0:0:
236,128,182138,1,2,3:2:0:0:
292,44,182288,1,10,0:0:0:0:
320,196,182438,6,0,B|252:188|240:212|244:220|202:238|132:208,1,157.499995193482,4|0,1:2|0:0,0:0:0:0:
48,176,182888,1,2,3:2:0:0:
128,136,183038,1,0,0:0:0:0:
168,219,183188,1,0,1:2:0:0:
80,268,183338,2,0,L|-4:284,1,78.7499975967408,0|0,0:0|0:0,0:0:0:0:
128,348,183638,2,0,L|216:364,1,78.7499975967408,2|0,3:2|0:0,0:0:0:0:
312,284,183938,6,0,P|272:328|348:356,1,157.499995193482,2|0,0:0|3:0,0:0:0:0:
436,268,184388,2,0,L|520:292,1,78.7499975967408,2|0,1:2|0:0,0:0:0:0:
428,348,184688,1,2,3:2:0:0:
368,236,184838,6,0,B|356:192|372:156|384:172|412:140|388:68,1,157.499995193482,4|0,0:0|3:0,0:0:0:0:
284,12,185288,2,0,L|296:100,1,78.7499975967408,2|0,3:2|0:0,0:0:0:0:
232,160,185588,1,2,1:2:0:0:
280,248,185738,1,0,0:0:0:0:
240,328,185888,1,0,0:0:0:0:
288,236,186038,2,0,L|312:200,2,39.3749987983704,0|0|2,3:0|3:0|3:2,0:0:0:0:
168,276,186338,6,0,B|112:256|64:276|64:276|20:328,1,157.499995193482,8|4,3:0|3:0,0:0:0:0:
112,212,186788,1,2,1:2:0:0:
36,128,186938,1,0,3:0:0:0:
116,48,187088,1,2,1:2:0:0:
36,8,187238,6,0,L|56:180,1,157.499995193482,4|2,0:0|3:2,0:0:0:0:
148,204,187688,1,0,3:2:0:0:
124,296,187838,1,0,0:0:0:0:
232,356,187988,6,0,L|216:260,1,78.7499975967408,2|0,1:2|0:0,0:0:0:0:
252,168,188288,1,0,0:0:0:0:
316,240,188438,2,0,L|304:296,2,39.3749987983704,2|0|0,3:2|0:0|0:0,0:0:0:0:
344,124,188738,6,0,P|368:76|408:56,1,78.7499975967408,2|0,0:0|0:0,0:0:0:0:
488,40,189038,1,2,3:2:0:0:
488,40,189113,1,0,3:0:0:0:
488,40,189188,1,2,1:2:0:0:
444,128,189338,1,0,0:0:0:0:
500,216,189488,2,0,L|476:308,1,78.7499975967408,2|0,0:0|3:0,0:0:0:0:
368,368,189788,5,2,3:2:0:0:
388,284,189938,1,0,3:0:0:0:
292,220,190088,1,10,0:0:0:0:
308,308,190238,1,0,0:0:0:0:
376,196,190388,6,0,L|392:104,1,83.1249977803231,8|0,0:0|3:0,0:0:0:0:
316,20,190688,1,0,3:0:0:0:
204,108,190838,2,0,P|148:116|120:96,1,83.1249977803231,2|0,0:0|0:0,0:0:0:0:
28,12,191138,5,0,3:0:0:0:
32,36,191213,1,0,3:0:0:0:
36,60,191288,1,0,3:0:0:0:
40,84,191363,1,0,3:0:0:0:
44,108,191438,1,0,3:0:0:0:
48,132,191513,1,0,3:0:0:0:
52,156,191588,6,0,L|16:224,1,41.5624988901615,8|8,0:0|0:0,0:0:0:0:
92,240,191738,2,0,L|100:296,1,41.5624988901615,8|8,0:0|0:0,0:0:0:0:
176,288,191888,2,0,L|228:300,1,41.5624988901615,8|8,0:0|0:0,0:0:0:0:
264,380,192038,6,0,B|248:336|272:308|272:308|264:272|264:272|296:244|276:180,1,192.500005874634,4|0,1:2|3:0,0:0:0:0:
280,164,192413,1,0,0:0:0:0:
280,164,192488,1,8,0:0:0:0:
344,96,192638,1,2,0:0:0:0:
440,124,192788,1,2,3:2:0:0:
452,220,192938,1,0,3:0:0:0:
368,272,193088,1,10,0:0:0:0:
280,164,193238,6,0,B|284:112|284:112|288:100|288:100|292:44,1,96.250002937317,0|2,0:0|3:2,0:0:0:0:
208,0,193538,1,2,3:2:0:0:
140,104,193688,1,10,0:0:0:0:
52,80,193838,6,0,P|88:32|136:20,1,96.250002937317,2|0,3:2|0:0,0:0:0:0:
216,80,194138,1,0,3:0:0:0:
148,184,194288,1,10,0:0:0:0:
296,272,194438,6,0,B|366:257|366:257|390:267|390:267|410:249|410:249|503:228,1,192.500005874634,4|2,0:0|3:2,0:0:0:0:
512,132,194888,1,10,0:0:0:0:
432,0,195038,6,0,B|448:52|448:52|440:96,1,96.250002937317,0|2,3:0|3:2,0:0:0:0:
380,172,195338,1,2,3:2:0:0:
296,76,195488,1,10,0:0:0:0:
216,120,195638,6,0,B|201:63|201:63|223:13,1,96.250002937317,0|2,0:0|3:2,0:0:0:0:
296,92,195938,1,2,3:2:0:0:
224,204,196088,1,10,0:0:0:0:
296,264,196238,6,0,B|310:320|310:320|288:370,1,96.250002937317,2|2,3:2|3:2,0:0:0:0:
268,372,196463,1,0,3:0:0:0:
268,372,196538,1,2,3:2:0:0:
192,288,196688,1,10,0:0:0:0:
80,376,196838,6,0,B|64:312|64:312|80:260|80:260|60:168,1,192.500005874634,4|2,0:0|3:2,0:0:0:0:
24,84,197288,1,10,0:0:0:0:
152,8,197438,6,0,B|132:48|132:48|132:56|132:56|108:104,1,96.250002937317,0|0,0:0|0:0,0:0:0:0:
64,189,197738,1,0,3:0:0:0:
168,288,197888,1,10,0:0:0:0:
244,228,198038,6,0,P|200:192|148:192,1,96.250002937317,2|2,3:2|3:2,0:0:0:0:
160,300,198338,1,0,3:0:0:0:
276,368,198488,1,10,0:0:0:0:
348,304,198638,6,0,P|392:268|444:268,1,96.250002937317,0|2,0:0|3:2,0:0:0:0:
512,300,198938,1,0,3:2:0:0:
456,184,199088,1,10,0:0:0:0:
504,100,199238,5,0,0:0:0:0:
500,80,199313,1,0,0:0:0:0:
496,60,199388,2,0,L|484:0,1,48.1250014686585,2|2,3:2|0:0,0:0:0:0:
416,40,199538,2,0,L|352:16,1,48.1250014686585,2|2,3:2|0:0,0:0:0:0:
300,8,199688,5,8,0:0:0:0:
296,28,199763,1,2,0:0:0:0:
292,52,199838,2,0,L|280:104,3,48.1250014686585,2|2|2|2,3:2|0:0|3:2|0:0,0:0:0:0:
212,60,200138,2,0,L|164:28,1,48.1250014686585,2|2,0:0|0:0,0:0:0:0:
96,40,200288,5,10,0:0:0:0:
92,60,200363,1,2,0:0:0:0:
88,80,200438,1,2,0:0:0:0:
84,100,200513,1,2,0:0:0:0:
92,124,200588,2,0,L|120:184,1,48.1250014686585,2|0,3:2|0:0,0:0:0:0:
52,216,200738,2,0,L|32:264,1,48.1250014686585,2|0,3:2|0:0,0:0:0:0:
112,328,200888,6,0,L|18:347,1,96.250002937317,0|0,0:0|0:0,0:0:0:0:
132,252,201188,1,10,0:0:0:0:
132,252,201263,1,0,3:0:0:0:
132,252,201338,1,0,3:0:0:0:
216,308,201488,1,10,0:0:0:0:
256,172,201638,6,0,B|268:120|248:92|240:108|216:72|240:0,1,148.750002837181,4|0,0:0|3:0,0:0:0:0:
344,68,202088,2,0,P|400:80|432:68,1,74.3750014185906,10|0,0:0|0:0,0:0:0:0:
500,24,202388,1,2,3:0:0:0:
500,24,202538,2,0,L|520:124,1,74.3750014185906,0|10,3:0|0:0,0:0:0:0:
465,214,202838,2,0,B|457:158|457:158|414:74,1,148.750002837181,0|0,3:2|3:0,0:0:0:0:
360,172,203288,2,0,L|344:260,1,74.3750014185906,8|0,0:0|0:0,0:0:0:0:
276,344,203588,5,2,3:2:0:0:
280,348,203738,2,0,P|278:303|256:264,1,74.3750014185906,2|8,3:2|0:0,0:0:0:0:
192,148,204038,2,0,B|212:204|192:232|176:220|156:256|180:316,1,148.750002837181,4|0,0:0|3:0,0:0:0:0:
72,376,204488,2,0,L|96:288,1,74.3750014185906,10|0,0:0|3:0,0:0:0:0:
16,200,204788,5,2,3:2:0:0:
16,200,204938,2,0,P|12:256|28:288,1,74.3750014185906,0|10,3:0|0:0,0:0:0:0:
84,144,205238,2,0,P|56:72|12:4,1,148.750002837181,0|0,0:0|3:0,0:0:0:0:
124,32,205688,2,0,P|180:44|216:40,1,74.3750014185906,8|0,0:0|0:0,0:0:0:0:
328,100,205988,5,2,3:2:0:0:
328,100,206138,2,0,P|271:107|238:123,1,74.3750014185906,2|8,3:2|0:0,0:0:0:0:
148,212,206438,2,0,P|180:184|172:252,1,148.750002837181,4|0,0:0|3:0,0:0:0:0:
76,292,206888,2,0,L|-14:265,1,74.3750014185906,10|0,0:0|0:0,0:0:0:0:
108,368,207188,5,2,3:2:0:0:
108,368,207338,2,0,P|144:340|156:304,1,74.3750014185906,0|10,3:0|0:0,0:0:0:0:
240,208,207638,2,0,L|268:376,1,148.750002837181,2|0,3:2|3:0,0:0:0:0:
360,304,208088,2,0,P|418:309|452:328,1,74.3750014185906,8|0,0:0|0:0,0:0:0:0:
384,220,208388,6,0,P|404:184|456:152,1,74.3750014185906,2|0,3:2|3:0,0:0:0:0:
512,128,208688,1,10,0:0:0:0:
444,15,208838,2,0,P|438:103|424:187,1,148.750002837181,0|0,0:0|0:0,0:0:0:0:
348,88,209288,2,0,P|336:32|336:-4,1,74.3750014185906,10|0,0:0|0:0,0:0:0:0:
248,88,209588,2,0,P|260:144|260:180,1,74.3750014185906,0|0,3:0|0:0,0:0:0:0:
156,236,209888,1,10,0:0:0:0:
84,176,210038,6,0,P|144:144|180:148,2,74.3750014185906,2|0|2,0:0|0:0|3:2,0:0:0:0:
72,280,210488,2,0,L|56:364,1,74.3750014185906,8|0,0:0|0:0,0:0:0:0:
176,268,210788,1,2,3:2:0:0:
264,352,210938,1,2,3:2:0:0:
268,328,211013,1,0,3:0:0:0:
272,304,211088,1,8,0:0:0:0:
248,180,211238,6,0,P|276:228|372:200,1,148.750002837181,4|0,0:0|3:0,0:0:0:0:
460,148,211688,2,0,P|480:204|504:236,1,74.3750014185906,10|0,0:0|0:0,0:0:0:0:
512,324,211988,1,2,3:2:0:0:
512,324,212138,2,0,P|452:328|424:340,1,74.3750014185906,0|8,3:0|0:0,0:0:0:0:
320,368,212438,6,0,B|276:344|240:352|248:364|216:372|160:340,1,148.750002837181,2|0,3:2|3:0,0:0:0:0:
100,272,212888,2,0,P|96:200|92:184,1,74.3750014185906,8|0,0:0|0:0,0:0:0:0:
200,116,213188,1,2,3:2:0:0:
200,116,213338,2,0,P|184:184|180:208,1,74.3750014185906,2|8,3:2|0:0,0:0:0:0:
296,96,213638,6,0,P|212:84|128:56,1,148.750002837181,4|0,0:0|3:0,0:0:0:0:
24,128,214088,2,0,P|12:76|0:44,1,74.3750014185906,10|0,0:0|0:0,0:0:0:0:
112,144,214388,1,2,3:2:0:0:
112,144,214538,2,0,P|124:196|136:228,1,74.3750014185906,2|8,3:2|0:0,0:0:0:0:
96,320,214838,6,0,P|136:276|248:296,1,148.750002837181,4|0,0:0|3:0,0:0:0:0:
296,364,215288,1,8,0:0:0:0:
224,296,215438,1,0,0:0:0:0:
336,228,215588,1,10,0:0:0:0:
264,172,215738,2,0,L|240:220,5,37.1875007092953,0|0|0|0|0|0,3:0|3:0|3:0|3:0|3:0|3:0,0:0:0:0:
228,96,216188,6,0,P|213:59|184:4,1,83.1249977803231,12|0,0:0|3:0,0:0:0:0:
352,164,216488,2,0,P|388:149|444:120,1,83.1249977803231,10|0,0:0|3:0,0:0:0:0:
284,288,216788,2,0,P|298:324|328:380,1,83.1249977803231,10|0,0:0|3:0,0:0:0:0:
160,219,217088,2,0,P|123:234|67:264,1,83.1249977803231,10|0,0:0|3:0,0:0:0:0:
304,104,217388,6,0,P|319:67|338:8,1,83.1249977803231,10|0,0:0|3:0,0:0:0:0:
343,240,217688,2,0,P|380:255|439:274,1,83.1249977803231,10|0,0:0|3:0,0:0:0:0:
207,279,217988,2,0,P|192:316|173:375,1,83.1249977803231,10|0,0:0|3:0,0:0:0:0:
168,143,218288,2,0,P|131:128|72:109,1,83.1249977803231,10|0,0:0|3:0,0:0:0:0:
60,124,218513,5,0,3:0:0:0:
60,124,218588,1,10,0:0:0:0:
0,224,218738,1,0,3:0:0:0:
136,176,218888,5,8,0:0:0:0:
132,292,219038,1,0,3:0:0:0:
232,184,219188,6,0,L|248:124,1,55.4166651868821,8|0,0:0|3:0,0:0:0:0:
312,244,219388,2,0,L|355:287,1,55.4166651868821,0|8,3:0|3:0,0:0:0:0:
208,288,219588,2,0,L|148:304,1,55.4166651868821,4|0,3:0|3:0,0:0:0:0:
256,368,219788,5,12,0:0:0:0:
256,192,219863,12,0,222038,0:0:0:0:
144,232,231638,6,0,P|88:188|132:284,1,306.249990653992,4|0,3:2|0:0,0:0:0:0:
165,45,232988,2,0,L|127:297,1,244.999992523194,4|0,3:2|0:0,0:0:0:0:
448,300,234038,6,0,P|392:256|436:352,1,306.249990653992,4|0,3:2|0:0,0:0:0:0:
468,112,235388,2,0,L|432:360,1,244.999992523194,4|8,3:2|3:0,0:0:0:0:
360,308,236138,1,0,3:0:0:0:
288,344,236288,1,4,3:0:0:0:
216,276,236438,6,0,P|160:268|88:304,1,122.499996261597,4|0,0:0|0:0,0:0:0:0:
12,336,236888,2,0,L|16:296,3,30.6249990653992,0|0|0|0,3:0|3:0|3:0|3:0,0:0:0:0:
72,256,237188,6,0,L|88:228,1,30.6249990653992,0|0,3:0|3:0,0:0:0:0:
40,172,237338,2,0,L|32:140,3,30.6249990653992,0|0|0|0,3:0|3:0|3:0|3:0,0:0:0:0:
92,96,237638,5,0,3:0:0:0:
104,98,237713,1,0,3:0:0:0:
116,101,237788,1,0,3:0:0:0:
128,104,237863,1,0,3:0:0:0:
141,107,237938,1,0,3:0:0:0:
153,110,238013,1,0,3:0:0:0:
168,116,238088,2,0,L|188:72,3,30.6249990653992,0|0|0|0,3:0|3:0|3:0|3:0,0:0:0:0:
256,80,238388,6,0,L|288:48,1,32.8125012516976,0|0,3:0|3:0,0:0:0:0:
348,84,238538,2,0,L|384:72,3,32.8125012516976,0|0|0|0,3:0|3:0|3:0|3:0,0:0:0:0:
468,84,238838,1,0,3:0:0:0:
472,100,238913,1,0,3:0:0:0:
476,116,238988,1,0,3:0:0:0:
476,132,239063,1,0,3:0:0:0:
472,148,239138,1,0,3:0:0:0:
468,164,239213,1,0,3:0:0:0:
460,180,239288,5,0,3:0:0:0:
448,196,239363,1,0,3:0:0:0:
436,212,239438,2,0,L|448:248,1,35,0|0,3:0|3:0,0:0:0:0:
448,320,239588,2,0,L|432:360,3,35,0|0|0|0,3:0|3:0|3:0|3:0,0:0:0:0:
360,360,239888,5,0,3:0:0:0:
336,356,239963,1,0,3:0:0:0:
316,344,240038,1,0,3:0:0:0:
300,324,240113,1,0,3:0:0:0:
292,300,240188,1,2,3:0:0:0:
292,276,240263,1,0,3:0:0:0:
296,252,240338,6,0,L|312:212,1,35,0|0,3:0|0:0,0:0:0:0:
340,140,240488,1,10,0:0:0:0:
300,48,240638,5,0,3:0:0:0:
204,108,240788,2,0,L|116:92,1,70,10|8,0:0|3:0,0:0:0:0:
44,76,241088,1,2,3:2:0:0:
112,196,241238,5,8,0:0:0:0:
128,108,241388,1,0,3:0:0:0:
20,180,241538,5,10,0:0:0:0:
72,276,241688,1,0,3:0:0:0:
216,208,241838,2,0,B|240:248|240:248|212:352,1,137.812495794296,10|0,0:0|0:0,0:0:0:0:
136,372,242438,6,0,B|180:320|240:352|240:352|368:320,1,209.999993591309,4|0,0:0|3:0,0:0:0:0:
400,152,242888,2,0,P|332:200|332:256,1,104.999996795654,10|0,0:0|0:0,0:0:0:0:
424,376,243188,2,0,L|448:244,1,104.999996795654,2|0,3:2|3:0,0:0:0:0:
306,113,243488,2,0,L|330:233,1,104.999996795654,10|0,0:0|0:0,0:0:0:0:
380,12,243788,6,0,B|292:20|292:20|264:48|264:48|152:60,1,209.999993591309,2|8,3:2|0:0,0:0:0:0:
116,148,244238,1,0,0:0:0:0:
44,40,244388,1,2,3:2:0:0:
152,96,244538,2,0,L|32:116,1,104.999996795654,0|10,3:0|0:0,0:0:0:0:
36,312,244838,6,0,B|184:296|184:296|136:288|124:232,1,209.999993591309,4|0,0:0|3:0,0:0:0:0:
232,104,245288,2,0,L|208:236,1,104.999996795654,10|0,0:0|0:0,0:0:0:0:
395,148,245588,2,0,P|363:100|319:92,1,104.999996795654,2|0,3:2|3:0,0:0:0:0:
278,297,245888,2,0,L|386:273,1,104.999996795654,10|0,0:0|0:0,0:0:0:0:
319,91,246188,6,0,B|299:183|299:183|302:188|302:188|275:311,1,209.999993591309,2|10,3:2|0:0,0:0:0:0:
180,240,246638,1,0,0:0:0:0:
128,360,246788,1,2,3:2:0:0:
248,312,246938,2,0,L|120:288,1,104.999996795654,2|8,3:2|0:0,0:0:0:0:
0,192,247238,6,0,B|136:160|136:160|48:96|48:96,1,209.999993591309,4|0,0:0|3:0,0:0:0:0:
252,16,247688,2,0,P|196:48|176:104,1,104.999996795654,10|0,0:0|0:0,0:0:0:0:
292,188,247988,2,0,B|347:174|347:174|353:174|353:174|420:160,1,104.999996795654,2|0,3:2|3:0,0:0:0:0:
496,4,248288,2,0,P|452:48|452:108,1,104.999996795654,10|0,0:0|0:0,0:0:0:0:
442,286,248588,6,0,B|478:158|478:158|438:70,1,209.999993591309,2|8,3:2|0:0,0:0:0:0:
388,8,249038,1,0,0:0:0:0:
282,101,249188,2,0,L|161:79,1,104.999996795654,2|0,3:2|0:0,0:0:0:0:
120,176,249488,1,10,0:0:0:0:
16,92,249638,6,0,B|100:68|100:68|125:-7|208:8,1,209.999993591309,0|0,3:0|3:0,0:0:0:0:
224,112,250088,1,8,0:0:0:0:
228,132,250163,1,8,0:0:0:0:
232,152,250238,1,8,0:0:0:0:
236,172,250313,1,8,0:0:0:0:
240,192,250388,2,0,L|304:176,1,52.4999983978272,0|0,3:0|3:0,0:0:0:0:
368,152,250538,5,0,3:0:0:0:
372,132,250613,1,0,3:0:0:0:
368,112,250688,1,8,0:0:0:0:
360,96,250763,1,8,0:0:0:0:
348,80,250838,6,0,B|396:73|396:73|402:76|402:76|460:72,1,104.999996795654,8|0,0:0|3:0,0:0:0:0:
512,152,251138,1,0,3:0:0:0:
508,168,251213,1,0,3:0:0:0:
504,184,251288,2,0,L|524:248,3,52.4999983978272,8|8|8|8,0:0|0:0|0:0|0:0,0:0:0:0:
452,272,251588,5,8,0:0:0:0:
440,284,251663,1,8,3:0:0:0:
424,296,251738,2,0,L|444:360,3,39.3749987983704,8|8|8|8,3:0|3:0|3:0|3:0,0:0:0:0:
368,204,252038,6,0,B|300:180|248:196|280:240|220:260|160:228,1,209.999993591309,0|0,3:0|3:0,0:0:0:0:
88,160,252488,2,0,B|72:212|72:212|72:217|72:217|56:276,1,104.999996795654,12|0,0:0|0:0,0:0:0:0:
180,144,252788,2,0,P|160:88|104:64,1,104.999996795654,2|0,3:2|3:0,0:0:0:0:
173,234,253088,2,0,L|301:206,1,104.999996795654,10|0,0:0|0:0,0:0:0:0:
360,56,253388,6,0,B|336:148|336:148|388:192|356:256,1,209.999993591309,2|8,3:2|0:0,0:0:0:0:
320,356,253838,1,0,0:0:0:0:
256,224,253988,1,2,3:2:0:0:
220,316,254138,2,0,L|328:332,1,104.999996795654,0|10,3:0|0:0,0:0:0:0:
160,188,254438,6,0,B|184:320|184:320|112:372,1,209.999993591309,4|0,0:0|3:0,0:0:0:0:
72,160,254888,2,0,P|104:108|168:96,1,104.999996795654,10|0,0:0|0:0,0:0:0:0:
92,256,255188,2,0,L|-16:236,1,104.999996795654,2|0,3:2|3:0,0:0:0:0:
248,172,255488,2,0,L|356:152,1,104.999996795654,10|0,0:0|0:0,0:0:0:0:
472,32,255788,5,8,0:0:0:0:
496,148,255938,1,0,3:0:0:0:
492,164,256013,1,8,0:0:0:0:
488,180,256088,1,8,0:0:0:0:
484,196,256163,1,0,3:0:0:0:
480,212,256238,2,0,L|500:268,1,52.4999983978272,0|0,3:0|3:0,0:0:0:0:
456,328,256388,5,10,0:0:0:0:
448,340,256463,1,0,3:0:0:0:
440,352,256538,2,0,L|372:332,1,52.4999983978272,0|0,3:0|3:0,0:0:0:0:
316,296,256688,1,10,0:0:0:0:
260,368,256838,6,0,B|272:284|272:284|344:236|296:132,1,209.999993591309,4|0,0:0|3:0,0:0:0:0:
220,84,257288,1,8,0:0:0:0:
208,188,257438,1,0,3:0:0:0:
56,144,257588,5,10,0:0:0:0:
116,52,257738,1,0,3:0:0:0:
116,52,257813,1,0,0:0:0:0:
116,52,257888,1,10,0:0:0:0:
120,208,258038,6,0,B|80:344|80:344|76:308|36:280,1,209.999993591309,4|0,0:0|3:0,0:0:0:0:
172,356,258488,1,8,0:0:0:0:
248,276,258638,1,0,3:0:0:0:
352,348,258788,5,10,0:0:0:0:
396,252,258938,1,0,3:0:0:0:
396,252,259013,1,0,0:0:0:0:
396,252,259088,1,10,0:0:0:0:
448,360,259238,6,0,B|384:352|384:352|364:364|364:364|252:352,1,157.499995193482,4|0,0:0|0:0,0:0:0:0:
240,304,259538,1,8,0:0:0:0:
236,284,259613,1,8,0:0:0:0:
232,264,259688,1,8,0:0:0:0:
228,244,259763,1,0,3:0:0:0:
224,224,259838,2,0,L|244:168,1,52.4999983978272,0|0,3:0|3:0,0:0:0:0:
208,108,259988,2,0,L|192:52,3,52.4999983978272,8|8|8|8,3:0|3:0|3:0|3:0,0:0:0:0:
268,44,260288,5,4,3:0:0:0:
284,48,260363,1,4,3:0:0:0:
304,52,260438,2,0,L|372:32,1,52.4999983978272,4|4,3:0|3:0,0:0:0:0:
436,8,260588,1,8,0:0:0:0:
492,88,260738,5,8,0:0:0:0:
484,108,260813,1,8,0:0:0:0:
476,128,260888,1,8,0:0:0:0:
468,148,260963,1,8,0:0:0:0:
460,168,261038,2,0,P|476:208|472:240,1,52.4999983978272,8|8,0:0|0:0,0:0:0:0:
424,276,261188,5,8,0:0:0:0:
404,268,261263,1,8,0:0:0:0:
384,260,261338,1,8,0:0:0:0:
360,264,261413,1,8,0:0:0:0:
336,260,261488,1,8,0:0:0:0:
312,252,261563,1,8,0:0:0:0:
288,244,261638,6,0,B|336:200|336:200|292:364,1,201.250003838539,4|0,0:0|3:0,0:0:0:0:
240,376,262013,1,0,3:0:0:0:
240,376,262088,2,0,L|104:344,1,100.62500191927,12|0,0:0|0:0,0:0:0:0:
88,204,262388,2,0,P|128:220|152:284,1,100.62500191927,2|0,3:2|3:0,0:0:0:0:
56,376,262688,2,0,B|84:304|84:304|72:292|72:260,1,100.62500191927,10|0,0:0|0:0,0:0:0:0:
24,136,262988,6,0,L|4:244,1,100.62500191927,2|0,3:2|0:0,0:0:0:0:
160,168,263288,2,0,L|140:52,1,100.62500191927,8|0,0:0|0:0,0:0:0:0:
24,32,263588,1,2,3:2:0:0:
24,136,263738,1,0,3:0:0:0:
132,56,263888,1,10,0:0:0:0:
240,108,264038,6,0,B|380:128|380:128|328:68,1,201.250003838539,4|0,0:0|3:0,0:0:0:0:
472,0,264488,2,0,B|462:52|462:52|462:57|462:57|452:108,1,100.62500191927,8|0,0:0|0:0,0:0:0:0:
504,200,264788,1,0,3:0:0:0:
504,200,264938,1,0,3:0:0:0:
432,340,265088,6,0,B|420:292|420:292|422:287|422:287|412:232,1,100.62500191927,8|0,0:0|0:0,0:0:0:0:
328,168,265388,1,0,3:2:0:0:
328,168,265538,1,0,0:0:0:0:
208,280,265688,5,8,0:0:0:0:
324,256,265838,1,0,0:0:0:0:
228,192,265988,2,0,P|172:196|124:248,1,100.62500191927,0|0,3:0|3:0,0:0:0:0:
64,352,266288,1,8,0:0:0:0:
28,232,266438,6,0,B|52:132|52:132|8:80|44:24,1,201.250003838539,4|0,0:0|3:0,0:0:0:0:
176,0,266888,2,0,L|140:112,1,100.62500191927,10|0,0:0|0:0,0:0:0:0:
260,68,267188,1,2,3:2:0:0:
336,136,267338,1,0,3:0:0:0:
456,64,267488,2,0,B|408:53|408:53|401:54|401:54|344:44,1,100.62500191927,10|0,0:0|0:0,0:0:0:0:
260,144,267788,5,2,3:2:0:0:
336,212,267938,1,0,3:0:0:0:
244,324,268088,2,0,L|256:216,1,100.62500191927,10|0,0:0|0:0,0:0:0:0:
376,140,268388,5,2,3:2:0:0:
416,244,268538,1,0,3:0:0:0:
512,152,268688,1,10,0:0:0:0:
512,300,268838,6,0,B|432:280|432:280|392:296|392:296|292:280,1,201.250003838539,4|0,0:0|3:0,0:0:0:0:
204,192,269288,1,8,0:0:0:0:
216,296,269438,1,0,3:0:0:0:
120,216,269588,5,8,0:0:0:0:
72,312,269738,1,0,3:0:0:0:
104,200,269888,5,8,0:0:0:0:
16,144,270038,1,0,3:0:0:0:
152,108,270188,5,8,0:0:0:0:
172,112,270263,1,0,3:0:0:0:
192,116,270338,2,0,L|248:100,3,50.3125009596348,0|0|0|0,3:0|3:0|3:0|3:0,0:0:0:0:
304,48,270638,5,8,0:0:0:0:
328,52,270713,1,0,3:0:0:0:
352,56,270788,1,0,3:0:0:0:
376,60,270863,1,0,3:0:0:0:
400,64,270938,2,0,L|448:20,1,50.3125009596348,0|0,3:0|0:0,0:0:0:0:
480,104,271088,2,0,L|532:124,1,50.3125009596348,8|0,0:0|3:0,0:0:0:0:
472,248,271238,6,0,B|424:224|368:232|392:264|320:308|264:248,1,201.250003838539,4|0,0:0|3:0,0:0:0:0:
156,192,271688,2,0,L|152:72,1,100.62500191927,10|0,0:0|0:0,0:0:0:0:
244,180,271988,1,2,3:2:0:0:
196,268,272138,1,0,3:0:0:0:
261,362,272288,6,0,L|286:249,1,100.62500191927,10|0,0:0|0:0,0:0:0:0:
360,160,272588,1,2,3:2:0:0:
380,260,272738,1,0,0:0:0:0:
460,136,272888,2,0,P|440:88|384:64,1,100.62500191927,8|0,0:0|0:0,0:0:0:0:
276,60,273188,5,2,3:2:0:0:
332,160,273338,1,0,3:0:0:0:
352,4,273488,1,10,0:0:0:0:
256,80,273638,6,0,B|172:68|172:68|136:80|136:80|52:68,1,201.250003838539,4|0,0:0|3:0,0:0:0:0:
152,192,274088,2,0,P|168:136|152:88,1,100.62500191927,8|0,0:0|0:0,0:0:0:0:
68,196,274388,1,0,3:0:0:0:
120,280,274538,1,0,3:0:0:0:
8,384,274688,6,0,L|28:256,1,100.62500191927,8|0,0:0|0:0,0:0:0:0:
76,172,274988,1,0,3:0:0:0:
132,260,275138,1,0,3:0:0:0:
248,164,275288,5,8,0:0:0:0:
232,264,275438,1,0,3:0:0:0:
304,360,275588,1,0,3:0:0:0:
312,336,275663,1,0,3:0:0:0:
320,312,275738,1,0,3:0:0:0:
328,288,275813,1,0,3:0:0:0:
336,264,275888,1,0,3:0:0:0:
440,224,276038,6,0,B|340:248|340:248|264:160,1,201.250003838539,4|0,0:0|3:0,0:0:0:0:
368,40,276488,2,0,L|376:156,1,100.62500191927,10|0,0:0|0:0,0:0:0:0:
468,240,276788,1,2,3:2:0:0:
476,144,276938,1,0,3:0:0:0:
352,240,277088,2,0,B|308:232|308:232|301:233|301:233|228:220,1,100.62500191927,10|0,0:0|0:0,0:0:0:0:
116,260,277388,5,2,3:2:0:0:
208,316,277538,1,0,3:0:0:0:
172,176,277688,2,0,B|196:128|196:128|188:104|194:81,1,100.62500191927,10|0,0:0|0:0,0:0:0:0:
104,8,277988,5,8,3:0:0:0:
12,112,278138,1,0,3:0:0:0:
36,108,278213,1,0,3:0:0:0:
60,104,278288,1,10,0:0:0:0:
200,196,278438,6,0,B|88:176|88:176|64:217|21:229,1,201.250003838539,4|0,0:0|3:0,0:0:0:0:
124,360,278888,1,10,0:0:0:0:
232,312,279038,1,0,3:0:0:0:
196,160,279188,5,10,0:0:0:0:
156,264,279338,1,0,3:0:0:0:
296,196,279488,5,10,0:0:0:0:
320,304,279638,1,0,3:0:0:0:
400,160,279788,5,10,0:0:0:0:
312,88,279938,1,0,3:0:0:0:
388,244,280088,6,0,L|516:212,1,100.62500191927,10|0,0:0|3:0,0:0:0:0:
512,108,280388,1,10,0:0:0:0:
400,160,280538,1,0,3:0:0:0:
400,160,280613,1,0,3:0:0:0:
400,160,280688,1,10,0:0:0:0:
256,36,280838,6,0,B|136:64|136:64|40:24,1,201.250003838539,4|0,0:0|3:0,0:0:0:0:
40,20,281213,1,0,3:0:0:0:
40,20,281288,1,10,0:0:0:0:
0,136,281438,1,0,3:0:0:0:
152,112,281588,5,10,0:0:0:0:
144,228,281738,1,0,3:0:0:0:
12,296,281888,5,10,0:0:0:0:
76,176,282038,1,0,3:0:0:0:
108,320,282188,5,8,0:0:0:0:
132,324,282263,1,0,3:0:0:0:
156,328,282338,2,0,L|180:264,3,50.3125009596348,0|0|10|0,3:0|3:0|0:0|0:0,0:0:0:0:
248,304,282638,5,0,3:2:0:0:
276,300,282713,1,0,3:0:0:0:
304,296,282788,1,2,3:2:0:0:
332,292,282863,1,0,3:0:0:0:
360,288,282938,2,0,L|395:344,1,50.3125009596348,2|0,3:2|3:0,0:0:0:0:
312,376,283088,1,10,0:0:0:0:
364,212,283238,6,0,B|420:176|396:76|396:76|340:76|312:-4|312:-4|264:196|264:196|184:116|44:148|36:332|123:383|253:383|276:271,1,980.000011962891,12|0,0:0|0:0,0:0:0:0:
