osu file format v14

[General]
AudioFilename: audio.mp3
AudioLeadIn: 0
PreviewTime: 185867
Countdown: 0
SampleSet: Soft
StackLeniency: 0.4
Mode: 0
LetterboxInBreaks: 0
WidescreenStoryboard: 1

[Editor]
Bookmarks: 37441,39749,45902,47287,71902,91595,100056,101441,121133,130364,140826,186364,205441,213441,220791,225714,235560,250175,250791
DistanceSpacing: 1
BeatDivisor: 4
GridSize: 16
TimelineZoom: 1.7

[Metadata]
Title:Mukoku
TitleUnicode:無告
Artist:MY FIRST STORY
ArtistUnicode:MY FIRST STORY
Creator:AirinCat
Version:Normal
Source:
Tags:mfs Kowari single hiro moriuchi Katou Nobuaki Nishizawa Teruki hiroki nob teru kid'z japanese rock jrock j-rock 森内寛樹 加藤伸明 佐々木翔平 西澤照貴
BeatmapID:2199223
BeatmapSetID:1047546

[Difficulty]
HPDrainRate:3
CircleSize:3.6
OverallDifficulty:4
ApproachRate:5.4
SliderMultiplier:1
SliderTickRate:1

[Events]
//Background and Video events
0,0,"harucute.jpg",0,0
//Break Periods
2,94231,99046
2,186329,204277
//Storyboard Layer 0 (Background)
//Storyboard Layer 1 (Fail)
//Storyboard Layer 2 (Pass)
//Storyboard Layer 3 (Foreground)
//Storyboard Layer 4 (Overlay)
//Storyboard Sound Samples

[TimingPoints]
5416,307.692307692308,4,2,2,30,1,0
12800,-117.647058823529,4,2,2,30,0,0
13416,-117.647058823529,4,2,2,50,0,0
14031,-117.647058823529,4,2,1,50,0,0
15262,-111.111111111111,4,2,1,76,0,0
15416,-111.111111111111,4,2,2,76,0,0
20185,-111.111111111111,4,2,2,76,0,0
25569,-111.111111111111,4,2,2,76,0,0
26185,-111.111111111111,4,2,2,76,0,0
27569,-125,4,2,1,60,0,0
28801,-125,4,2,1,50,0,0
31108,-125,4,2,1,60,0,0
31416,-125,4,2,1,60,0,0
32492,-125,4,2,1,60,0,0
33724,-125,4,2,1,50,0,0
36031,-125,4,2,1,60,0,0
36339,-125,4,2,1,60,0,0
37416,-125,4,2,1,66,0,0
40954,-125,4,2,1,70,0,0
41262,-125,4,2,1,75,0,0
43262,-125,4,2,1,75,0,0
44185,-125,4,2,1,82,0,0
44800,-125,4,2,2,60,0,0
45723,-111.111111111111,4,2,1,70,0,0
46031,-111.111111111111,4,2,1,80,0,0
47262,-125,4,2,1,50,0,0
55724,-125,4,2,1,60,0,0
56031,-125,4,2,1,72,0,0
57108,-117.647058823529,4,2,1,78,0,0
62031,-117.647058823529,4,2,1,80,0,0
63262,-117.647058823529,4,2,1,80,0,0
64492,-117.647058823529,4,2,1,50,0,0
65416,-125,4,2,1,46,0,0
66954,-125,4,2,1,60,0,0
67262,-125,4,2,1,64,0,0
67569,-125,4,2,1,72,0,0
67877,-125,4,2,1,76,0,0
68185,-125,4,2,1,80,0,0
69262,-125,4,2,1,80,0,0
70339,-125,4,2,1,80,0,0
70647,-125,4,2,10,60,0,0
71262,-105.263157894737,4,2,1,80,0,0
71877,-100,4,2,1,86,0,1
81723,-100,4,2,1,90,0,1
86646,-105.263157894737,4,2,1,80,0,0
90339,-125,4,2,1,80,0,0
90954,-125,4,2,1,80,0,0
91570,-125,4,2,1,80,0,0
91724,-125,4,2,1,40,0,0
100031,-125,4,2,1,50,0,0
101416,-125,4,2,1,56,0,0
111262,-125,4,2,1,60,0,0
116185,-125,4,2,1,66,0,0
117416,-125,4,2,1,68,0,0
118646,-125,4,2,1,80,0,0
119569,-125,4,2,1,80,0,0
119877,-125,4,2,1,80,0,0
120492,-125,4,2,1,70,0,0
121108,-117.647058823529,4,2,1,60,0,0
128493,-117.647058823529,4,2,1,65,0,0
129313,-117.647058823529,4,2,1,70,0,0
130339,-125,4,2,1,68,0,0
130954,-111.111111111111,4,2,1,74,0,0
139262,-111.111111111111,4,2,1,76,0,0
140031,-111.111111111111,4,2,1,72,0,0
140492,-100,4,2,1,76,0,0
140800,-100,4,2,1,86,0,1
150646,-100,4,2,1,90,0,1
155569,-117.64705882353,4,2,1,80,0,0
159416,-117.647058823529,4,2,1,76,0,0
160185,-111.111111111111,4,2,1,80,0,0
160492,-111.111111111111,4,2,1,80,0,0
160646,-111.111111111111,4,2,2,80,0,0
178339,-111.111111111111,4,2,2,80,0,0
178800,-111.111111111111,4,2,1,80,0,0
178954,-111.111111111111,4,2,2,80,0,0
181108,-111.111111111111,4,2,2,86,0,0
181877,-111.111111111111,4,2,2,80,0,0
183108,-111.111111111111,4,2,1,70,0,0
205416,-111.111111111111,4,2,1,70,0,0
206031,-125,4,2,1,70,0,0
210339,-125,4,2,1,70,0,0
210954,-111.111111111111,4,2,1,80,0,0
212031,-111.111111111111,4,2,1,70,0,0
213416,-100,4,2,1,86,0,1
220800,-100,4,2,1,92,0,1
224492,-100,4,2,1,90,0,1
225108,-100,4,2,1,86,0,1
225723,-105.263157894737,4,2,1,84,0,0
226492,-105.263157894737,4,2,1,86,0,0
226800,-105.263157894737,4,2,1,82,0,0
230646,-105.263157894737,4,2,1,80,0,0
233108,-105.263157894737,4,2,1,84,0,0
234339,-117.647058823529,4,2,1,84,0,0
235108,-105.263157894737,4,2,2,76,0,0
235569,-105.263157894737,4,2,1,80,0,0
235723,-111.111111111111,4,2,2,80,0,0
245108,-111.111111111111,4,2,2,80,0,0
245416,-111.111111111111,4,2,2,82,0,0
248954,-111.111111111111,4,2,2,88,0,0
250185,-111.111111111111,4,2,2,70,0,0
250801,-111.111111111111,4,2,2,10,0,0

[Colours]
Combo1 : 255,179,179
Combo2 : 202,162,147
Combo3 : 252,198,143

[HitObjects]
0,261,12800,6,0,L|91:256,1,85.0000016212464,2|2,0:0|0:0,0:0:0:0:
148,313,13416,2,0,L|242:307,1,85.0000016212464,2|2,0:0|0:0,0:0:0:0:
305,351,14031,2,0,P|363:328|423:348,1,127.50000243187,2|2,0:0|0:0,0:0:0:0:
462,364,14646,1,2,1:3:0:0:
492,284,14954,2,0,L|487:232,1,42.5000008106232,8|8,0:0|0:0,0:0:0:0:
461,204,15262,6,0,P|418:216|368:201,1,89.9999972534181,4|10,1:0|0:0,0:0:0:0:
299,155,15877,1,2,1:2:0:0:
316,66,16185,1,10,0:0:0:0:
241,16,16492,2,0,L|186:19,1,44.999998626709,2|2,1:2|1:2,0:0:0:0:
154,35,16800,2,0,L|156:136,1,89.9999972534181,10|2,0:0|1:2,0:0:0:0:
81,176,17416,1,10,0:0:0:0:
114,259,17723,6,0,L|165:259,1,44.999998626709,2|2,1:2|1:2,0:0:0:0:
204,262,18031,1,10,0:0:0:0:
265,327,18339,2,0,L|321:327,1,44.999998626709,2|2,1:2|1:2,0:0:0:0:
355,327,18646,1,10,0:0:0:0:
423,268,18954,2,0,P|436:221|419:182,1,89.9999972534181,14|10,0:0|0:0,0:0:0:0:
356,121,19569,1,10,0:0:0:0:
269,147,19877,2,0,L|216:147,1,44.999998626709,10|8,0:0|0:0,0:0:0:0:
178,144,20185,6,0,P|180:99|181:46,1,89.9999972534181,6|10,1:2|0:0,0:0:0:0:
257,6,20800,1,2,1:2:0:0:
335,50,21108,1,10,0:0:0:0:
418,16,21416,2,0,L|469:17,1,44.999998626709,2|2,1:2|1:2,0:0:0:0:
503,37,21723,2,0,P|501:82|500:142,1,89.9999972534181,10|2,0:0|1:2,0:0:0:0:
494,217,22339,1,10,0:0:0:0:
404,214,22646,6,0,P|350:217|318:302,1,134.999995880127,10|0,0:0|1:0,0:0:0:0:
314,327,23262,1,8,1:3:0:0:
226,348,23569,2,0,L|176:355,1,44.999998626709,12|0,0:0|1:0,0:0:0:0:
136,357,23877,2,0,L|122:252,1,89.9999972534181,10|10,0:0|0:0,0:0:0:0:
117,222,24339,1,2,1:2:0:0:
36,182,24646,2,0,P|43:129|49:82,1,89.9999972534181,6|0,1:2|1:0,0:0:0:0:
68,52,25108,6,0,P|110:70|162:57,1,89.9999972534181,14|0,0:0|1:0,0:0:0:0:
191,40,25569,1,12,1:3:0:0:
271,80,25877,1,8,0:0:0:0:
257,169,26185,1,12,0:0:0:0:
257,169,27569,6,0,L|376:156,2,120,4|2|2,1:2|1:3|0:0,0:0:0:0:
214,237,28800,2,0,L|228:331,1,80,2|2,0:0|0:0,0:0:0:0:
11,348,30031,2,0,L|-2:262,1,80,2|2,0:0|0:0,0:0:0:0:
24,238,30492,2,0,L|14:155,1,80,2|2,0:0|0:0,0:0:0:0:
27,80,31108,5,2,1:3:0:0:
105,96,31416,2,0,L|201:92,1,80,2|0,1:3|0:0,0:0:0:0:
301,254,32492,6,0,P|294:308|287:379,2,120,2|2|2,1:3|1:3|0:0,0:0:0:0:
359,199,33723,2,0,L|453:210,1,80,2|2,0:0|0:0,0:0:0:0:
469,15,34954,2,0,L|387:6,1,80,2|2,0:0|0:0,0:0:0:0:
350,16,35416,2,0,L|344:105,1,80,2|2,0:0|0:0,0:0:0:0:
294,157,36031,5,2,1:3:0:0:
348,215,36339,2,0,L|433:224,1,80,2|0,1:3|0:0,0:0:0:0:
132,304,37416,6,0,L|136:223,1,80,6|2,1:2|1:2,0:0:0:0:
119,187,37877,2,0,P|74:185|34:182,1,80,2|2,0:2|0:0,0:0:0:0:
8,156,38339,1,2,1:2:0:0:
40,83,38646,2,0,P|82:85|135:87,1,80,2|2,1:2|1:2,0:0:0:0:
176,30,39262,1,0,1:0:0:0:
237,81,39569,1,0,1:0:0:0:
237,81,39723,1,10,0:2:0:0:
388,315,40954,5,2,1:3:0:0:
440,255,41262,2,0,L|436:163,1,80,2|8,1:3|0:3,0:0:0:0:
464,147,41723,2,0,L|460:97,1,40,8|8,0:3|0:3,0:0:0:0:
478,72,42031,1,4,0:3:0:0:
414,23,42339,6,0,L|321:24,1,80,6|2,1:2|0:0,0:0:0:0:
312,57,42800,2,0,L|317:145,1,80,2|0,1:2|0:0,0:0:0:0:
307,176,43262,2,0,L|221:177,1,80,2|2,1:2|0:2,0:0:0:0:
198,204,43723,2,0,L|204:292,1,80,2|0,1:2|1:0,0:0:0:0:
208,323,44185,5,8,1:2:0:0:
140,364,44492,2,0,L|92:362,1,40,8|0,0:0|0:0,0:0:0:0:
62,348,44800,2,0,P|92:293|73:238,1,120,2|2,0:0|0:0,0:0:0:0:
0,129,45723,2,0,L|3:74,1,44.999998626709,8|0,0:0|1:0,0:0:0:0:
7,38,46031,1,2,0:0:0:0:
92,9,46339,1,10,0:0:0:0:
140,84,46646,1,10,0:0:0:0:
228,64,46954,1,8,0:3:0:0:
304,38,47262,6,0,L|313:164,1,120,6|2,1:2|1:2,0:0:0:0:
335,234,48031,2,0,P|378:229|422:226,1,80,2|0,0:0|0:0,0:0:0:0:
454,223,48492,2,0,L|446:133,2,80,2|2|2,1:2|0:0|1:2,0:0:0:0:
500,288,49416,1,2,1:2:0:0:
456,354,49723,6,0,P|420:341|329:340,1,120,2|2,1:2|1:2,0:0:0:0:
259,346,50492,2,0,P|239:312|239:266,1,80,2|0,0:0|0:0,0:0:0:0:
220,235,50954,2,0,L|123:240,1,80,2|0,1:2|0:0,0:0:0:0:
66,270,51569,1,2,1:2:0:0:
5,217,51877,1,2,1:2:0:0:
44,147,52185,6,0,P|52:105|37:68,1,80,2|2,1:2|0:0,0:0:0:0:
20,35,52646,2,0,L|146:26,1,120,2|2,1:2|1:2,0:0:0:0:
202,76,53416,2,0,L|195:162,1,80,2|2,1:2|0:2,0:0:0:0:
221,186,53877,2,0,P|278:162|326:205,1,120,2|2,1:2|1:2,0:0:0:0:
366,259,54646,6,0,L|452:260,1,80,2|2,1:2|0:0,0:0:0:0:
483,245,55108,2,0,L|483:155,1,80,2|2,1:2|1:2,0:0:0:0:
483,84,55723,1,2,1:3:0:0:
418,37,56031,5,8,0:0:0:0:
418,37,56185,1,8,0:0:0:0:
355,86,56492,2,0,L|269:85,1,80,8|8,0:0|0:3,0:0:0:0:
242,164,57108,6,0,L|245:254,1,85.0000016212464,6|2,1:2|1:2,0:0:0:0:
265,286,57569,1,2,0:0:0:0:
214,354,57877,1,2,0:0:0:0:
139,312,58185,2,0,L|38:313,1,85.0000016212464,14|0,0:0|0:0,0:0:0:0:
24,282,58646,1,2,1:2:0:0:
7,198,58954,1,2,1:2:0:0:
84,162,59262,2,0,L|128:162,1,42.5000008106232,2|8,1:2|0:0,0:0:0:0:
168,158,59569,6,0,P|184:115|175:75,1,85.0000016212464,6|0,1:2|1:0,0:0:0:0:
158,38,60031,1,2,0:0:0:0:
235,3,60339,1,2,0:0:0:0:
306,48,60646,2,0,L|396:41,1,85.0000016212464,12|2,0:0|0:0,0:0:0:0:
433,36,61108,1,0,1:2:0:0:
492,96,61416,2,0,L|496:191,1,85.0000016212464,2|4,1:2|0:3,0:0:0:0:
498,223,61877,1,4,0:3:0:0:
498,223,62031,6,0,P|457:211|415:217,1,85.0000016212464,6|2,1:2|1:2,0:0:0:0:
384,246,62492,2,0,L|389:303,1,42.5000008106232,2|0,0:0|1:0,0:0:0:0:
323,344,62954,1,0,1:0:0:0:
250,299,63262,2,0,P|220:302|159:308,1,85.0000016212464,14|2,0:0|1:2,0:0:0:0:
123,314,63723,2,0,L|118:259,1,42.5000008106232,10|8,0:0|1:2,0:0:0:0:
86,243,64031,2,0,L|40:245,2,42.5000008106232,10|10|10,0:0|1:2|0:0,0:0:0:0:
100,202,64492,5,4,1:0:0:0:
261,236,66646,1,2,0:3:0:0:
210,174,66954,2,0,B|189:140|189:140|195:100,1,80,6|2,1:2|1:2,0:0:0:0:
273,87,67569,2,0,B|294:121|294:121|287:160,1,80,2|2,1:2|1:2,0:0:0:0:
322,179,68031,1,8,0:0:0:0:
322,179,68185,2,0,L|419:161,1,80,2|2,1:2|1:2,0:0:0:0:
478,144,68800,2,0,L|456:22,1,120,10|12,1:2|0:0,0:0:0:0:
456,25,70646,1,6,0:0:0:0:
327,165,71262,6,0,L|220:153,1,94.9999974632264,8|10,0:0|0:0,0:0:0:0:
133,168,71877,6,0,P|105:208|110:257,1,100,4|10,1:1|0:0,0:0:0:0:
176,331,72492,1,2,1:2:0:0:
271,298,72800,2,0,L|380:310,1,100,10|0,0:0|1:0,0:0:0:0:
419,322,73262,1,2,1:2:0:0:
419,322,73416,1,10,0:0:0:0:
495,257,73723,1,2,1:2:0:0:
441,172,74031,2,0,L|444:115,1,50,10|2,0:0|0:0,0:0:0:0:
439,71,74339,6,0,P|392:49|344:60,1,100,6|10,1:2|0:0,0:0:0:0:
257,105,74954,1,2,1:2:0:0:
172,51,75262,2,0,L|71:53,1,100,10|0,0:0|1:0,0:0:0:0:
22,58,75723,1,2,1:2:0:0:
22,58,75877,1,10,0:0:0:0:
0,159,76185,1,2,1:2:0:0:
85,210,76492,1,10,0:0:0:0:
161,145,76800,6,0,L|229:144,1,50,6|0,1:2|1:0,0:0:0:0:
240,184,77108,2,0,P|236:235|232:289,1,100,10|0,0:0|1:0,0:0:0:0:
253,329,77569,2,0,L|310:333,1,50,2|10,1:2|0:0,0:0:0:0:
344,303,77877,2,0,P|400:290|448:324,1,100,6|0,0:0|1:0,0:0:0:0:
471,343,78339,1,10,0:0:0:0:
511,251,78646,2,0,L|508:195,1,50,0|2,1:0|1:2,0:0:0:0:
501,151,78954,1,10,0:0:0:0:
403,173,79262,6,0,P|350:175|292:177,1,100,2|8,1:2|0:0,0:0:0:0:
213,132,79877,2,0,L|211:79,1,50,2|0,1:2|1:0,0:0:0:0:
212,31,80185,1,10,0:0:0:0:
112,28,80492,2,0,L|113:131,1,100,14|14,0:0|0:0,0:0:0:0:
79,165,80954,1,2,1:2:0:0:
79,165,81108,1,6,1:2:0:0:
33,254,81416,2,0,L|32:306,1,50,8|8,1:2|0:0,0:0:0:0:
64,342,81723,6,0,P|111:317|163:340,1,100,4|10,1:0|0:0,0:0:0:0:
242,376,82339,1,2,1:2:0:0:
326,322,82646,2,0,L|324:217,1,100,10|0,0:0|1:0,0:0:0:0:
320,171,83108,1,2,1:2:0:0:
320,171,83262,1,10,0:2:0:0:
221,185,83569,1,2,1:2:0:0:
162,103,83877,1,10,0:2:0:0:
217,19,84185,6,0,P|264:5|313:19,1,100,4|10,1:0|0:0,0:0:0:0:
394,75,84800,1,2,1:2:0:0:
338,157,85108,2,0,L|342:262,1,100,10|0,0:0|1:0,0:0:0:0:
403,336,85723,1,10,0:0:0:0:
312,378,86031,2,0,L|260:375,1,50,10|8,0:2|0:3,0:0:0:0:
211,372,86339,1,10,0:2:0:0:
122,338,86646,6,0,P|89:278|129:223,1,142.49999619484,4|8,1:2|0:0,0:0:0:0:
170,199,87262,2,0,L|167:141,1,47.4999987316132,8|6,0:0|1:2,0:0:0:0:
228,78,87723,2,0,L|339:72,1,94.9999974632264,4|0,1:2|1:0,0:0:0:0:
363,47,88185,1,8,0:0:0:0:
456,64,88492,1,8,0:0:0:0:
476,156,88800,2,0,L|473:210,1,47.4999987316132,14|0,0:0|1:0,0:0:0:0:
465,250,89108,6,0,P|420:263|376:247,1,94.9999974632264,14|8,0:0|0:0,0:0:0:0:
302,204,89723,1,8,0:0:0:0:
246,269,90031,1,10,0:0:0:0:
168,222,90339,6,0,L|36:227,1,120,6|2,1:2|0:0,0:0:0:0:
8,226,90954,2,0,L|5:134,1,80,8|8,0:0|0:3,0:0:0:0:
2,66,91569,5,4,1:3:0:0:
256,192,91723,12,0,94031,0:0:0:0:
21,318,100185,6,0,L|74:310,1,40,2|0,3:0|1:0,0:0:0:0:
100,306,100492,1,8,0:0:0:0:
164,352,100800,2,0,L|210:346,1,40,4|4,0:3|1:3,0:0:0:0:
243,338,101108,1,8,0:0:0:0:
293,275,101416,6,0,L|278:185,2,80,6|10|10,1:2|0:0|0:0,0:0:0:0:
362,314,102339,1,10,0:0:0:0:
413,253,102646,2,0,L|452:245,1,40,10|2,0:0|0:0,0:0:0:0:
492,241,102954,2,0,L|477:157,1,80,10|8,0:0|0:2,0:0:0:0:
463,83,103569,1,10,0:0:0:0:
388,111,103877,6,0,P|342:117|302:94,2,80,14|10|8,0:0|0:0|0:0,0:0:0:0:
360,35,104800,1,8,0:0:0:0:
280,23,105108,2,0,L|223:18,1,40,10|2,0:0|0:0,0:0:0:0:
211,47,105416,2,0,L|126:40,1,80,10|8,0:0|0:0,0:0:0:0:
62,82,106031,1,8,0:0:0:0:
83,159,106339,6,0,L|77:241,2,80,14|10|10,0:0|0:0|0:0,0:0:0:0:
155,124,107262,1,10,0:0:0:0:
216,175,107569,1,10,0:0:0:0:
282,130,107877,2,0,L|371:135,1,80,10|8,0:0|0:0,0:0:0:0:
424,85,108492,2,0,L|468:85,1,40,10|2,0:0|1:2,0:0:0:0:
502,96,108800,6,0,L|503:16,2,80,12|8|8,0:0|0:0|0:0,0:0:0:0:
462,165,109723,1,8,0:0:0:0:
508,230,110031,2,0,L|506:276,1,40,10|2,0:0|1:2,0:0:0:0:
479,300,110339,2,0,P|441:288|403:301,1,80,12|0,0:0|1:0,0:0:0:0:
337,344,110954,2,0,L|293:342,1,40,8|8,0:0|0:0,0:0:0:0:
257,346,111262,6,0,L|258:254,1,80,6|10,1:2|0:2,0:0:0:0:
219,195,111877,1,2,1:2:0:0:
144,223,112185,2,0,L|96:222,1,40,2|10,1:2|0:0,0:0:0:0:
63,221,112492,1,2,1:2:0:0:
8,157,112800,2,0,L|12:65,1,80,10|0,0:2|1:0,0:0:0:0:
73,26,113416,2,0,L|125:28,1,40,2|10,1:2|0:0,0:0:0:0:
145,50,113723,6,0,P|185:62|227:47,1,80,2|10,1:2|0:0,0:0:0:0:
251,26,114185,2,0,L|297:32,1,40,2|0,0:0|1:0,0:0:0:0:
347,87,114646,2,0,L|341:129,1,40,2|10,1:2|0:0,0:0:0:0:
338,166,114954,1,2,1:2:0:0:
395,221,115262,2,0,L|489:229,1,80,10|0,1:2|1:0,0:0:0:0:
498,304,115877,1,14,0:0:0:0:
432,350,116185,6,0,L|350:345,1,80,6|10,1:2|0:0,0:0:0:0:
319,367,116646,1,2,0:0:0:0:
319,367,116800,2,0,L|226:358,1,80,2|2,1:2|1:2,0:0:0:0:
176,309,117416,2,0,L|181:252,1,40,2|2,1:2|1:2,0:0:0:0:
178,229,117723,2,0,L|93:225,1,80,10|0,0:0|1:0,0:0:0:0:
42,167,118339,1,2,1:2:0:0:
91,104,118646,6,0,P|127:89|165:101,1,80,14|2,0:0|0:0,0:0:0:0:
201,119,119108,2,0,P|239:132|277:118,1,80,10|2,0:0|0:0,0:0:0:0:
305,93,119569,2,0,L|360:93,1,40,10|0,0:0|1:0,0:0:0:0:
383,104,119877,2,0,L|382:202,2,80,2|8|8,1:2|0:0|0:0,0:0:0:0:
447,56,120800,1,8,0:3:0:0:
507,116,121108,6,0,L|507:216,1,85.0000016212464,6|2,1:2|0:0,0:0:0:0:
503,257,121621,2,0,P|444:251|405:295,1,113.333335494995,2|2,0:0|0:0,0:0:0:0:
347,345,122339,1,2,0:0:0:0:
279,293,122646,1,2,0:0:0:0:
211,344,122954,2,0,L|126:334,1,85.0000016212464,2|2,0:0|3:2,0:0:0:0:
42,322,123569,6,0,L|52:230,1,85.0000016212464,2|2,1:2|0:0,0:0:0:0:
115,181,124185,2,0,L|105:91,1,85.0000016212464,2|2,0:0|0:0,0:0:0:0:
157,29,124800,2,0,B|236:18|182:67|297:49,1,127.50000243187,2|0,0:0|3:0,0:0:0:0:
317,35,125416,1,2,3:2:0:0:
376,94,125723,1,2,0:0:0:0:
331,166,126031,6,0,L|238:168,1,85.0000016212464,6|2,1:2|0:0,0:0:0:0:
194,191,126544,2,0,P|169:228|192:296,1,113.333335494995,2|2,3:2|0:0,0:0:0:0:
266,318,127262,2,0,L|359:316,1,85.0000016212464,2|2,0:0|0:0,0:0:0:0:
403,336,127774,2,0,P|472:347|500:310,1,113.333335494995,10|2,0:0|0:0,0:0:0:0:
504,234,128492,6,0,P|482:197|496:125,1,113.333335494995,8|8,0:0|0:0,0:0:0:0:
448,93,129108,2,0,L|330:101,1,113.333335494995,8|10,0:0|0:0,0:0:0:0:
278,105,129723,1,10,0:0:0:0:
124,60,130339,2,0,L|131:154,1,80,8|10,0:0|0:0,0:0:0:0:
115,232,130954,5,14,0:0:0:0:
115,232,131108,1,8,0:0:0:0:
103,321,131416,1,2,0:0:0:0:
182,363,131723,1,10,0:0:0:0:
259,317,132031,2,0,L|353:313,1,89.9999972534181,10|8,0:0|0:0,0:0:0:0:
386,338,132492,1,2,1:2:0:0:
459,286,132800,2,0,P|444:244|454:200,1,89.9999972534181,10|4,0:0|0:3,0:0:0:0:
505,126,133416,5,14,0:0:0:0:
505,126,133569,1,8,0:0:0:0:
445,58,133877,1,2,0:0:0:0:
365,100,134185,1,10,0:0:0:0:
291,48,134492,2,0,L|191:48,1,89.9999972534181,10|10,0:2|0:2,0:0:0:0:
183,182,135262,2,0,L|277:182,1,89.9999972534181,10|8,1:2|1:2,0:0:0:0:
311,204,135723,1,8,0:0:0:0:
311,204,135877,6,0,L|315:296,1,89.9999972534181,4|2,1:2|1:2,0:0:0:0:
290,331,136339,2,0,P|248:316|206:331,1,89.9999972534181,10|0,0:0|1:0,0:0:0:0:
174,362,136800,1,8,0:0:0:0:
84,349,137108,2,0,L|82:245,1,89.9999972534181,6|0,1:2|0:0,0:0:0:0:
9,206,137723,1,2,1:2:0:0:
35,120,138031,2,0,L|83:121,1,44.999998626709,10|8,0:0|0:0,0:0:0:0:
119,98,138339,6,0,L|121:1,2,89.9999972534181,6|0|8,1:2|1:0|0:0,0:0:0:0:
196,155,139262,1,10,1:2:0:0:
196,155,139416,2,0,B|240:143|240:143|271:163|271:163|336:150,1,134.999995880127,10|8,0:0|1:3,0:0:0:0:
367,149,140031,2,0,L|354:247,1,89.9999972534181,8|4,1:2|1:3,0:0:0:0:
389,274,140492,1,10,0:0:0:0:
486,251,140800,6,0,L|475:149,1,100,4|10,1:0|0:0,0:0:0:0:
456,52,141416,1,2,1:2:0:0:
365,94,141723,2,0,P|317:104|272:84,1,100,10|0,0:0|1:0,0:0:0:0:
231,55,142185,1,2,1:2:0:0:
231,55,142339,1,10,0:0:0:0:
133,77,142646,1,2,1:2:0:0:
145,176,142954,1,10,0:0:0:0:
234,221,143262,6,0,L|231:324,1,100,6|10,1:2|0:0,0:0:0:0:
139,360,143877,1,2,1:2:0:0:
47,319,144185,2,0,P|31:272|50:227,1,100,10|0,0:0|1:0,0:0:0:0:
92,199,144646,2,0,P|90:157|85:100,1,100,2|2,1:2|1:2,0:0:0:0:
63,53,145108,1,2,1:2:0:0:
149,3,145416,1,10,0:0:0:0:
220,72,145723,6,0,L|276:65,1,50,6|0,1:2|1:0,0:0:0:0:
319,59,146031,2,0,L|332:165,1,100,10|0,0:0|1:0,0:0:0:0:
297,194,146492,2,0,L|246:200,1,50,2|10,1:2|0:0,0:0:0:0:
201,219,146800,2,0,P|176:261|194:306,1,100,6|0,0:0|1:0,0:0:0:0:
228,342,147262,1,10,0:0:0:0:
326,358,147569,2,0,L|380:353,1,50,0|2,1:0|1:2,0:0:0:0:
423,368,147877,1,10,0:0:0:0:
490,293,148185,6,0,P|485:243|482:191,1,100,6|8,1:2|0:0,0:0:0:0:
504,95,148800,1,0,1:0:0:0:
422,37,149108,2,0,L|371:43,1,50,10|0,0:0|1:0,0:0:0:0:
331,73,149416,2,0,L|340:177,1,100,14|14,0:0|0:0,0:0:0:0:
350,221,149877,1,2,1:2:0:0:
350,221,150031,1,6,1:2:0:0:
298,306,150339,1,8,0:0:0:0:
210,258,150646,6,0,P|164:240|117:256,1,100,4|10,1:0|0:0,0:0:0:0:
26,296,151262,1,2,1:2:0:0:
1,199,151569,2,0,L|6:96,1,100,10|0,0:0|1:0,0:0:0:0:
12,49,152031,1,2,1:2:0:0:
12,49,152185,1,10,0:0:0:0:
104,11,152492,1,2,1:2:0:0:
167,88,152800,1,10,0:0:0:0:
111,171,153108,6,0,L|108:270,1,100,4|10,1:0|0:0,0:0:0:0:
171,348,153723,1,2,1:2:0:0:
254,292,154031,2,0,P|306:279|349:303,1,100,10|0,0:0|1:0,0:0:0:0:
427,356,154646,1,10,0:0:0:0:
508,311,154954,2,0,P|507:275|513:211,1,100,10|10,0:0|0:0,0:0:0:0:
459,144,155569,6,0,B|386:134|422:187|335:172,1,127.50000243187,6|4,1:2|0:3,0:0:0:0:
301,156,156185,2,0,L|259:161,1,42.5000008106232,4|6,0:3|1:2,0:0:0:0:
174,135,156646,2,0,L|184:278,1,127.50000243187,4|8,1:2|0:0,0:0:0:0:
120,320,157416,1,8,0:0:0:0:
40,290,157723,2,0,L|37:240,1,42.5000008106232,14|0,0:0|1:0,0:0:0:0:
63,213,158031,6,0,L|58:116,1,85.0000016212464,14|8,0:0|0:0,0:0:0:0:
112,61,158646,1,8,0:0:0:0:
188,97,158954,1,14,0:0:0:0:
258,50,159262,2,0,B|298:32|298:32|349:50,1,85.0000016212464,6|10,1:2|1:2,0:0:0:0:
376,61,159723,2,0,L|379:156,1,85.0000016212464,8|8,0:0|0:0,0:0:0:0:
413,175,160185,2,0,L|464:171,1,44.999998626709,8|8,1:2|1:2,0:0:0:0:
494,193,160492,6,0,L|499:294,1,89.9999972534181,4|10,1:0|0:0,0:0:0:0:
434,346,161108,2,0,L|382:349,1,44.999998626709,2|2,1:2|1:2,0:0:0:0:
344,353,161416,1,10,0:0:0:0:
270,301,161723,2,0,L|272:204,1,89.9999972534181,2|10,1:2|0:0,0:0:0:0:
203,152,162339,2,0,L|146:149,1,44.999998626709,2|2,1:2|1:2,0:0:0:0:
113,149,162646,1,10,0:0:0:0:
42,204,162954,6,0,L|38:298,1,89.9999972534181,2|10,1:2|0:0,0:0:0:0:
41,339,163416,1,2,0:0:0:0:
41,339,163569,1,2,1:2:0:0:
128,362,163877,2,0,L|177:363,1,44.999998626709,10|2,0:0|0:0,0:0:0:0:
210,338,164185,2,0,P|222:296|208:249,1,89.9999972534181,2|10,1:2|0:0,0:0:0:0:
163,175,164800,2,0,B|145:132|145:132|165:93,1,89.9999972534181,2|10,1:2|0:0,0:0:0:0:
240,43,165416,6,0,L|300:45,1,44.999998626709,6|2,1:2|1:2,0:0:0:0:
324,66,165723,2,0,L|422:69,1,89.9999972534181,10|2,0:0|1:2,0:0:0:0:
474,136,166339,1,10,0:0:0:0:
401,188,166646,2,0,L|333:185,2,67.4999979400635,6|2|2,1:2|0:0|0:0,0:0:0:0:
427,224,167262,2,0,L|514:228,2,67.4999979400635,2|2|2,1:2|0:0|1:2,0:0:0:0:
413,266,167877,6,0,L|409:323,1,44.999998626709,14|8,1:2|0:3,0:0:0:0:
339,367,168339,2,0,L|289:362,1,44.999998626709,14|4,0:0|0:3,0:0:0:0:
228,301,168800,2,0,L|232:255,1,44.999998626709,14|4,0:0|1:3,0:0:0:0:
233,210,169108,1,10,0:0:0:0:
171,143,169416,1,10,0:0:0:0:
97,194,169723,2,0,L|4:196,1,89.9999972534181,10|8,1:2|0:0,0:0:0:0:
32,109,170339,6,0,L|31:20,1,89.9999972534181,4|10,1:2|0:0,0:0:0:0:
118,41,170954,1,2,1:2:0:0:
118,41,171108,2,0,L|168:40,1,44.999998626709,2|8,1:2|0:0,0:0:0:0:
212,115,171569,1,2,1:2:0:0:
193,203,171877,1,10,1:2:0:0:
249,273,172185,2,0,L|301:274,1,44.999998626709,2|2,1:2|1:2,0:0:0:0:
326,304,172492,2,0,L|381:305,1,44.999998626709,10|10,0:0|0:0,0:0:0:0:
413,287,172800,6,0,P|427:244|415:201,1,89.9999972534181,2|10,1:2|0:0,0:0:0:0:
500,170,173416,2,0,P|480:130|440:107,1,89.9999972534181,2|10,1:2|0:0,0:0:0:0:
482,27,174031,2,0,P|439:12|396:25,1,89.9999972534181,2|10,1:2|0:0,0:0:0:0:
328,81,174646,2,0,L|333:154,2,67.4999979400635,2|2|2,1:2|1:2|1:2,0:0:0:0:
284,67,175262,6,0,L|181:72,1,89.9999972534181,6|8,1:2|0:0,0:0:0:0:
115,26,175877,1,0,1:0:0:0:
42,78,176185,1,10,0:0:0:0:
90,153,176492,2,0,B|110:193|110:193|90:249,1,89.9999972534181,14|10,0:2|0:0,0:0:0:0:
144,311,177108,2,0,B|181:304|181:304|194:309|194:309|249:303,1,89.9999972534181,10|4,0:0|1:3,0:0:0:0:
276,324,177569,1,4,1:3:0:0:
276,324,177723,6,0,L|377:312,1,89.9999972534181,14|8,0:0|1:2,0:0:0:0:
424,244,178339,2,0,P|402:204|411:160,1,89.9999972534181,10|2,1:2|1:2,0:0:0:0:
437,125,178800,2,0,L|281:130,1,134.999995880127,6|10,1:2|1:2,0:0:0:0:
239,64,179569,1,10,1:2:0:0:
153,93,179877,2,0,L|157:151,1,44.999998626709,10|4,1:2|1:3,0:0:0:0:
156,183,180185,6,0,B|109:158|69:191|69:191|50:240|90:273,1,179.999994506836,14|8,0:0|0:0,0:0:0:0:
149,333,181108,1,10,0:0:0:0:
231,296,181416,2,0,L|304:298,2,67.4999979400635,14|14|14,0:0|0:0|0:0,0:0:0:0:
423,303,183262,2,0,L|474:305,1,44.999998626709,8|0,1:2|1:0,0:0:0:0:
511,307,183569,1,0,1:0:0:0:
511,307,183723,1,10,0:0:0:0:
41,137,205416,6,0,P|67:172|70:216,1,89.9999972534181,12|8,0:0|0:0,0:0:0:0:
12,272,206031,6,0,L|144:263,1,120,6|8,1:2|0:0,0:0:0:0:
186,205,206800,1,0,1:0:0:0:
186,205,206954,2,0,P|176:133|204:95,1,120,8|8,0:0|0:0,0:0:0:0:
308,41,207877,2,0,L|401:49,1,80,12|10,0:2|0:0,0:0:0:0:
452,94,208492,5,12,0:0:0:0:
418,166,208800,2,0,L|421:221,1,40,2|2,1:2|0:0,0:0:0:0:
425,245,209108,2,0,L|428:300,1,40,2|2,1:2|0:0,0:0:0:0:
434,324,209416,1,2,1:2:0:0:
434,324,209569,1,8,0:0:0:0:
231,283,210339,6,0,P|194:267|154:270,1,80,8|10,0:0|1:2,0:0:0:0:
65,285,210954,2,0,P|37:250|35:206,1,89.9999972534181,6|10,1:2|0:0,0:0:0:0:
49,163,211416,1,12,1:2:0:0:
49,163,211569,1,10,0:0:0:0:
121,109,211877,2,0,L|216:115,1,89.9999972534181,14|8,1:2|0:0,0:0:0:0:
273,179,212492,2,0,L|273:224,1,44.999998626709,10|10,0:0|0:0,0:0:0:0:
243,258,212800,2,0,L|243:303,1,44.999998626709,2|8,1:2|1:3,0:0:0:0:
271,338,213108,1,10,0:0:0:0:
369,358,213416,6,0,P|424:356|477:355,1,100,4|10,1:0|0:0,0:0:0:0:
501,260,214031,1,2,1:2:0:0:
436,183,214339,2,0,P|419:136|443:87,1,100,10|0,0:0|1:0,0:0:0:0:
475,57,214800,1,2,1:2:0:0:
475,57,214954,1,10,0:0:0:0:
392,0,215262,1,2,1:2:0:0:
312,60,215569,1,10,0:0:0:0:
341,155,215877,6,0,L|340:219,1,50,6|0,1:2|1:0,0:0:0:0:
312,246,216185,2,0,L|206:241,1,100,10|0,0:0|1:0,0:0:0:0:
175,275,216646,2,0,L|172:341,1,50,2|10,1:2|0:0,0:0:0:0:
140,363,216954,2,0,P|89:372|50:343,1,100,6|0,1:2|1:0,0:0:0:0:
28,301,217416,1,10,0:0:0:0:
49,203,217723,2,0,L|51:152,1,50,8|4,0:0|0:3,0:0:0:0:
24,110,218031,1,10,1:3:0:0:
97,41,218339,6,0,L|198:50,1,100,12|8,0:0|1:3,0:0:0:0:
224,91,218800,2,0,L|325:82,1,100,12|8,0:0|1:3,0:0:0:0:
362,113,219262,1,10,1:2:0:0:
459,87,219569,1,14,1:2:0:0:
510,172,219877,1,14,0:0:0:0:
442,245,220185,2,0,L|451:348,1,100,14|8,1:2|0:0,0:0:0:0:
356,311,220800,6,0,L|250:319,1,100,4|10,1:0|0:0,0:0:0:0:
165,361,221416,1,10,0:0:0:0:
95,289,221723,1,10,0:0:0:0:
136,197,222031,1,12,0:0:0:0:
234,214,222339,1,10,0:0:0:0:
308,147,222646,1,10,0:0:0:0:
277,51,222954,2,0,L|219:49,1,50,10|2,0:0|1:2,0:0:0:0:
180,68,223262,6,0,B|136:47|136:47|88:65,1,100,4|10,1:0|0:0,0:0:0:0:
12,131,223877,1,10,0:0:0:0:
65,215,224185,2,0,L|66:319,1,100,10|12,0:0|0:0,0:0:0:0:
154,362,224800,1,10,0:0:0:0:
237,306,225108,2,0,P|283:289|330:303,1,100,8|8,0:0|0:3,0:0:0:0:
421,330,225723,6,0,P|418:284|413:224,1,94.9999974632264,6|0,1:2|1:0,0:0:0:0:
408,187,226185,1,8,0:0:0:0:
471,116,226492,1,4,1:2:0:0:
408,44,226800,2,0,L|298:53,1,94.9999974632264,4|8,1:2|0:0,0:0:0:0:
265,56,227262,1,2,0:0:0:0:
224,141,227569,2,0,P|246:182|245:229,1,94.9999974632264,10|10,0:0|0:0,0:0:0:0:
223,271,228031,1,2,1:2:0:0:
223,271,228185,6,0,B|131:256|179:320|71:293,1,142.49999619484,14|8,0:0|0:0,0:0:0:0:
16,235,228954,1,0,1:0:0:0:
16,235,229108,2,0,L|20:172,1,47.4999987316132,10|0,0:0|1:0,0:0:0:0:
26,140,229416,2,0,B|71:157|71:157|122:135,1,94.9999974632264,6|2,1:2|0:0,0:0:0:0:
190,82,230031,2,0,L|287:87,1,94.9999974632264,8|10,0:0|0:2,0:0:0:0:
362,32,230646,5,4,1:0:0:0:
362,32,233108,5,12,0:2:0:0:
429,98,233416,1,8,0:0:0:0:
381,180,233723,1,8,0:0:0:0:
290,149,234031,1,10,0:0:0:0:
271,65,234339,2,0,B|199:58|199:58|167:78|167:78|94:68,1,170.000003242493,6|0,1:2|1:0,0:0:0:0:
60,62,235108,1,8,0:0:0:0:
60,62,235262,1,10,0:0:0:0:
13,144,235569,6,0,L|25:240,1,94.9999974632264,4|10,1:0|0:2,0:0:0:0:
28,328,236185,1,2,1:2:0:0:
113,355,236492,1,10,0:0:0:0:
167,283,236800,2,0,L|221:280,1,44.999998626709,6|2,1:2|1:2,0:0:0:0:
248,307,237108,2,0,L|351:303,1,89.9999972534181,10|2,0:0|1:2,0:0:0:0:
399,370,237723,1,10,0:0:0:0:
476,324,238031,6,0,L|470:271,1,44.999998626709,2|2,1:2|1:2,0:0:0:0:
462,234,238339,1,10,0:0:0:0:
508,156,238646,2,0,L|502:103,1,44.999998626709,2|2,1:2|1:2,0:0:0:0:
494,66,238954,1,10,0:0:0:0:
410,31,239262,2,0,P|365:23|328:44,1,89.9999972534181,2|10,1:2|0:0,0:0:0:0:
239,25,239877,2,0,P|210:60|209:102,1,89.9999972534181,2|10,1:2|0:0,0:0:0:0:
188,190,240492,6,0,L|83:175,1,89.9999972534181,6|10,1:2|0:0,0:0:0:0:
23,227,241108,1,2,1:2:0:0:
30,316,241416,1,10,0:0:0:0:
110,356,241723,2,0,L|169:350,1,44.999998626709,2|2,1:2|1:2,0:0:0:0:
199,359,242031,2,0,L|191:269,1,89.9999972534181,10|2,0:2|1:2,0:0:0:0:
271,227,242646,1,10,0:0:0:0:
325,298,242954,6,0,L|416:287,1,89.9999972534181,14|10,1:2|0:0,0:0:0:0:
503,273,243569,1,10,0:0:0:0:
508,183,243877,1,10,0:0:0:0:
435,129,244185,2,0,P|391:120|350:137,1,89.9999972534181,6|8,1:2|0:0,0:0:0:0:
314,165,244646,1,10,1:3:0:0:
225,148,244954,2,0,L|225:92,1,44.999998626709,6|12,0:3|0:0,0:0:0:0:
187,21,245416,6,0,B|144:11|144:11|101:26,1,89.9999972534181,6|10,1:2|0:0,0:0:0:0:
74,63,245877,2,0,L|80:155,1,89.9999972534181,2|2,1:3|1:3,0:0:0:0:
51,187,246339,2,0,L|56:237,1,44.999998626709,10|2,0:2|1:3,0:0:0:0:
35,272,246646,1,14,0:0:0:0:
105,327,246954,1,10,0:0:0:0:
171,266,247262,2,0,L|275:259,1,89.9999972534181,10|10,0:0|0:0,0:0:0:0:
298,235,247723,6,0,P|284:192|299:147,1,89.9999972534181,6|14,1:2|0:0,0:0:0:0:
328,118,248185,2,0,L|386:117,1,44.999998626709,4|4,1:3|1:3,0:0:0:0:
418,117,248492,1,12,0:0:0:0:
486,176,248800,2,0,L|486:224,1,44.999998626709,8|8,0:3|0:0,0:0:0:0:
479,265,249108,2,0,P|417:245|371:291,1,134.999995880127,10|8,0:0|0:3,0:0:0:0:
348,329,249723,2,0,L|257:318,1,89.9999972534181,10|12,1:2|1:2,0:0:0:0:
216,334,250185,6,0,B|187:320|187:320|146:320|116:347|116:347|69:338|71:295,1,179.999994506836,6|0,1:2|0:0,0:0:0:0:
