osu file format v14

[General]
AudioFilename: audio.mp3
AudioLeadIn: 0
PreviewTime: 185867
Countdown: 0
SampleSet: Soft
StackLeniency: 0.7
Mode: 0
LetterboxInBreaks: 0
WidescreenStoryboard: 1

[Editor]
Bookmarks: 37441,39749,45902,47287,71902,91595,100056,101441,121133,130364,140826,186364,205441,213441,220791,225714,235560,250175,250791
DistanceSpacing: 1.1
BeatDivisor: 4
GridSize: 32
TimelineZoom: 1.8

[Metadata]
Title:Mukoku
TitleUnicode:無告
Artist:MY FIRST STORY
ArtistUnicode:MY FIRST STORY
Creator:AirinCat
Version:Kowari's Extra
Source:
Tags:mfs Kowari single hiro moriuchi Katou Nobuaki Nishizawa Teruki hiroki nob teru kid'z japanese rock jrock j-rock 森内寛樹 加藤伸明 佐々木翔平 西澤照貴
BeatmapID:2222669
BeatmapSetID:1047546

[Difficulty]
HPDrainRate:6
CircleSize:3.8
OverallDifficulty:8.5
ApproachRate:9.2
SliderMultiplier:1.8
SliderTickRate:1

[Events]
//Background and Video events
0,0,"harucute.jpg",0,0
//Break Periods
2,91769,99461
2,121308,127922
2,186329,204846
//Storyboard Layer 0 (Background)
//Storyboard Layer 1 (Fail)
//Storyboard Layer 2 (Pass)
//Storyboard Layer 3 (Foreground)
//Storyboard Layer 4 (Overlay)
//Storyboard Sound Samples

[TimingPoints]
5416,307.692307692308,4,2,2,30,1,0
10339,-100,4,2,2,20,0,0
11569,-100,4,2,2,30,0,0
12800,-100,4,2,2,40,0,0
13416,-100,4,2,2,50,0,0
14031,-125,4,2,1,50,0,0
15262,-100,4,2,1,76,0,0
15569,-100,4,2,2,76,0,0
25569,-105.263157894737,4,2,2,76,0,0
26185,-200,4,2,2,76,0,0
27416,-200,4,2,2,5,0,0
27569,-125,4,2,1,60,0,0
28339,-125,4,2,1,50,0,0
29108,-250,4,2,1,50,0,0
31108,-117.647058823529,4,2,1,60,0,0
31416,-277.777777777778,4,2,1,60,0,0
31569,-250,4,2,1,50,0,0
32492,-125,4,2,1,60,0,0
33262,-125,4,2,1,50,0,0
34031,-250,4,2,1,50,0,0
36031,-117.647058823529,4,2,1,60,0,0
36339,-277.777777777778,4,2,1,60,0,0
36492,-277.777777777778,4,2,1,50,0,0
37416,-125,4,2,1,66,0,0
40954,-117.647058823529,4,2,1,70,0,0
41262,-133.333333333333,4,2,1,75,0,0
43262,-117.647058823529,4,2,1,75,0,0
44185,-117.647058823529,4,2,1,82,0,0
44800,-200,4,2,2,60,0,0
45723,-200,4,2,1,70,0,0
46031,-117.647058823529,4,2,1,80,0,0
47262,-181.818181818181,4,2,1,50,0,0
55723,-181.818181818181,4,2,1,60,0,0
55724,-181.818181818181,4,2,1,60,0,0
56031,-181.818181818181,4,2,1,72,0,0
57108,-117.647058823529,4,2,1,78,0,0
62031,-105.263157894737,4,2,1,80,0,0
63262,-100,4,2,1,80,0,0
64492,-166.666666666667,4,2,1,50,0,0
65416,-333.333333333334,4,2,1,46,0,0
66954,-142.857142857143,4,2,1,60,0,0
67262,-133.333333333333,4,2,1,64,0,0
67569,-125,4,2,1,72,0,0
67877,-125,4,2,1,76,0,0
68185,-105.263157894737,4,2,1,80,0,0
69262,-400.000000000003,4,2,1,80,0,0
70339,-666.666666666676,4,2,1,80,0,0
70646,-666.666666666676,4,2,10,60,0,0
71262,-117.64705882353,4,2,1,80,0,0
71877,-95.2380952380952,4,2,1,86,0,1
81723,-95.2380952380952,4,2,1,90,0,1
86646,-100,4,2,1,80,0,0
90339,-142.857142857143,4,2,1,80,0,0
90954,-90.9090909090909,4,2,1,80,0,0
91570,-83.3333333333333,4,2,1,80,0,0
91724,-83.3333333333333,4,2,1,40,0,0
100031,-142.857142857143,4,2,1,50,0,0
101416,-125,4,2,1,56,0,0
111262,-117.647058823529,4,2,1,60,0,0
116185,-111.111111111111,4,2,1,66,0,0
117416,-111.111111111111,4,2,1,68,0,0
118646,-142.857142857143,4,2,1,80,0,0
119031,-142.857142857143,4,2,1,5,0,0
119108,-142.857142857143,4,2,1,80,0,0
119492,-142.857142857143,4,2,1,5,0,0
119569,-142.857142857143,4,2,1,80,0,0
119877,-90.9090909090909,4,2,1,80,0,0
120492,-90.9090909090909,4,2,1,70,0,0
120595,-111.111111111111,4,2,1,70,0,0
120903,-142.857142857143,4,2,1,70,0,0
121108,-142.857142857143,4,2,1,60,0,0
128492,-142.857142857143,4,2,1,65,0,0
129313,-142.857142857143,4,2,1,70,0,0
130339,-100,4,2,1,68,0,0
130954,-100,4,2,1,74,0,0
139262,-90.9090909090909,4,2,1,76,0,0
140031,-90.9090909090909,4,2,1,72,0,0
140492,-90.9090909090909,4,2,1,76,0,0
140800,-95.2380952380952,4,2,1,86,0,1
150646,-95.2380952380952,4,2,1,90,0,1
155569,-100,4,2,1,80,0,0
159416,-100,4,2,1,76,0,0
160185,-100,4,2,1,80,0,0
160492,-90.9090909090909,4,2,1,80,0,0
160645,-90.9090909090909,4,2,2,80,0,0
178339,-90.9090909090909,4,2,2,80,0,0
178800,-83.3333333333333,4,2,2,80,0,0
178954,-83.3333333333333,4,2,2,80,0,0
181108,-90.9090909090909,4,2,2,86,0,0
181877,-166.666666666667,4,2,2,80,0,0
182954,-166.666666666667,4,2,2,5,0,0
183108,-166.666666666667,4,2,1,70,0,0
205416,-142.857142857143,4,2,1,70,0,0
206031,-111.111111111111,4,2,1,70,0,0
210339,-111.111111111111,4,2,1,70,0,0
210954,-111.111111111111,4,2,1,80,0,0
212031,-90.9090909090908,4,2,1,70,0,0
213416,-95.2380952380952,4,2,1,86,0,1
220800,-95.2380952380952,4,2,1,92,0,1
224492,-95.2380952380952,4,2,1,90,0,1
225108,-95.2380952380952,4,2,1,86,0,1
225723,-105.263157894737,4,2,1,84,0,0
226492,-95.2380952380952,4,2,1,86,0,0
226799,-105.263157894737,4,2,1,82,0,0
230646,-185.185185185185,4,2,1,80,0,0
233108,-100,4,2,1,84,0,0
234339,-166.666666666667,4,2,1,84,0,0
235108,-105.263157894737,4,2,2,76,0,0
235569,-90.9090909090909,4,2,1,80,0,0
235722,-90.9090909090909,4,2,2,80,0,0
245108,-111.111111111111,4,2,2,80,0,0
245416,-90.9090909090909,4,2,2,82,0,0
248954,-90.9090909090909,4,2,2,88,0,0
250185,-142.857142857143,4,2,2,70,0,0
250800,-142.857142857143,4,2,2,10,0,0

[Colours]
Combo1 : 255,179,179
Combo2 : 202,162,147
Combo3 : 252,198,143

[HitObjects]
256,192,10339,12,2,13877,0:0:0:0:
426,75,14031,6,0,P|423:117|420:166,1,72,2|2,0:0|0:0,0:0:0:0:
337,239,14339,2,0,P|334:203|332:167,1,72,2|2,0:0|0:0,0:0:0:0:
305,55,14646,1,2,1:3:0:0:
166,170,14800,1,10,0:0:0:0:
135,189,14877,1,8,0:0:0:0:
100,193,14954,1,8,0:0:0:0:
65,183,15031,1,8,0:0:0:0:
39,159,15108,1,8,0:0:0:0:
26,126,15185,1,8,0:0:0:0:
31,86,15262,6,0,B|84:62|84:62|61:201,1,180,4|10,1:0|0:0,0:0:0:0:
207,325,15723,1,2,0:0:0:0:
207,325,15800,1,8,0:0:0:0:
207,325,15877,2,0,P|197:267|191:218,1,90,2|2,1:2|1:2,0:0:0:0:
316,104,16185,1,10,0:0:0:0:
131,128,16339,1,2,0:0:0:0:
296,251,16492,6,0,P|347:255|387:232,1,90,2|2,1:2|1:2,0:0:0:0:
348,37,16800,2,0,B|311:72|311:72|321:164,1,135,10|8,0:0|0:0,0:0:0:0:
325,173,17108,1,2,1:2:0:0:
508,258,17262,1,2,1:2:0:0:
417,134,17416,1,10,0:0:0:0:
350,304,17569,1,2,0:0:0:0:
237,122,17723,6,0,B|194:107|194:107|149:122,1,90,2|2,1:2|1:2,0:0:0:0:
254,270,18031,1,10,0:0:0:0:
340,124,18185,1,2,0:0:0:0:
340,124,18262,1,8,0:0:0:0:
340,124,18339,1,2,1:2:0:0:
181,216,18492,1,2,1:2:0:0:
334,369,18646,2,0,P|341:290|343:270,1,90,10|2,0:0|1:2,0:0:0:0:
362,205,18877,1,0,1:0:0:0:
362,205,18954,5,14,0:0:0:0:
121,273,19108,1,0,1:0:0:0:
246,85,19262,1,10,0:0:0:0:
254,293,19416,1,0,1:0:0:0:
118,123,19569,2,0,P|66:110|23:134,1,90,10|0,0:0|1:2,0:0:0:0:
6,195,19800,1,0,1:0:0:0:
6,195,19877,2,0,L|11:247,1,45,10|8,0:0|0:0,0:0:0:0:
128,343,20031,2,0,L|132:299,1,45,8|8,0:0|0:0,0:0:0:0:
219,107,20185,6,0,P|226:180|227:213,1,90,6|0,1:2|1:0,0:0:0:0:
351,330,20492,1,10,0:0:0:0:
452,183,20646,1,2,0:0:0:0:
452,183,20723,1,8,0:0:0:0:
452,183,20800,2,0,P|390:132|295:200,1,180,2|10,1:2|0:0,0:0:0:0:
225,327,21262,1,2,0:0:0:0:
195,155,21416,5,2,1:2:0:0:
375,216,21569,1,2,1:2:0:0:
381,43,21723,2,0,P|304:37|280:35,1,90,10|0,0:0|0:0,0:0:0:0:
216,27,21954,1,8,0:0:0:0:
216,27,22031,1,2,1:2:0:0:
289,177,22185,1,2,1:2:0:0:
142,198,22339,1,10,0:0:0:0:
216,115,22492,1,2,1:2:0:0:
245,313,22646,5,10,0:0:0:0:
245,313,22723,1,8,0:0:0:0:
245,313,22800,2,0,L|183:304,3,45,8|8|0|0,0:0|0:0|1:0|1:0,0:0:0:0:
81,262,23108,1,0,1:0:0:0:
81,262,23185,1,0,1:0:0:0:
81,262,23262,2,0,L|143:254,3,45,8|8|8|8,1:3|1:3|1:3|1:3,0:0:0:0:
190,192,23569,5,12,0:0:0:0:
57,341,23723,1,0,1:0:0:0:
7,183,23877,1,10,0:0:0:0:
7,183,23954,1,8,0:0:0:0:
7,183,24031,2,0,L|56:185,1,45,8|8,0:0|0:0,0:0:0:0:
201,306,24185,1,10,0:0:0:0:
285,168,24339,1,2,1:2:0:0:
296,179,24646,2,0,B|263:125|293:59|293:59|265:87|224:93,1,180,6|0,1:2|1:0,0:0:0:0:
454,92,25108,6,0,P|407:118|363:114,1,90,14|0,0:0|1:0,0:0:0:0:
234,11,25416,1,0,1:0:0:0:
259,274,25569,2,0,P|351:263|364:261,1,85.4999977169037,12|0,1:3|1:0,0:0:0:0:
100,133,25877,2,0,P|57:138|15:142,1,85.4999977169037,8|0,0:0|1:0,0:0:0:0:
126,388,26185,6,0,B|214:299|152:201|152:201|51:222|59:308,1,360,12|0,0:0|0:0,0:0:0:0:
77,310,27569,6,0,B|137:304|137:304|155:288|155:288|226:284,1,144,4|0,1:2|0:0,0:0:0:0:
316,283,28031,1,2,1:3:0:0:
331,283,28339,1,2,0:0:0:0:
253,189,28492,2,0,P|243:146|255:116,1,72,2|2,0:0|0:0,0:0:0:0:
394,124,28800,2,0,P|404:167|392:197,1,72,2|2,0:0|0:0,0:0:0:0:
306,42,29108,6,0,B|237:33|237:33|202:50|202:50|122:45,1,180,2|0,0:0|0:0,0:0:0:0:
13,114,30031,2,0,P|21:171|24:189,1,72,2|2,0:0|0:0,0:0:0:0:
84,341,30492,2,0,P|89:305|97:262,1,72,2|2,0:0|0:0,0:0:0:0:
249,187,31108,6,0,B|203:154|203:154|225:254,1,153.000002918243,2|2,1:3|1:3,0:0:0:0:
240,350,31569,1,2,0:0:0:0:
496,68,32492,6,0,B|406:68|459:120|328:111,1,144,2|0,1:3|0:0,0:0:0:0:
269,50,32954,1,2,1:3:0:0:
254,45,33262,1,2,0:0:0:0:
205,126,33416,2,0,P|211:181|214:211,1,72,2|2,0:0|0:0,0:0:0:0:
139,265,33723,2,0,P|135:300|131:336,1,72,2|2,0:0|0:0,0:0:0:0:
235,357,34031,6,0,B|342:360|285:296|403:295,1,180,2|0,0:0|0:0,0:0:0:0:
269,170,34954,2,0,P|256:196|263:245,1,72,2|2,0:0|0:0,0:0:0:0:
406,146,35416,2,0,P|410:110|396:78,1,72,2|2,0:0|0:0,0:0:0:0:
206,36,36031,6,0,B|123:46|123:46|98:87|133:114,1,153.000002918243,2|2,1:3|1:3,0:0:0:0:
216,154,36492,1,2,0:0:0:0:
233,158,36800,2,0,L|228:205,1,32.4000007910156
157,257,37108,2,0,L|162:304,1,32.4000007910156
80,382,37416,5,6,1:2:0:0:
14,305,37569,2,0,P|51:283|84:285,1,72,2|0,0:0|1:0,0:0:0:0:
218,356,37877,2,0,P|260:374|347:338,1,144,2|2,0:2|0:0,0:0:0:0:
370,212,38339,2,0,L|356:135,1,72,2|0,1:2|0:0,0:0:0:0:
474,26,38646,1,2,1:2:0:0:
455,125,38800,1,2,0:0:0:0:
343,35,38954,2,0,B|286:33|286:33|261:53|261:53|196:53,2,144,2|0|0,1:2|1:0|1:0,0:0:0:0:
113,96,39723,6,0,B|95:64|95:64|108:29,1,72,10|0,0:2|0:0,0:0:0:0:
200,141,40954,6,0,P|190:220|181:306,1,153.000002918243,2|2,1:3|1:3,0:0:0:0:
266,358,41416,1,2,0:0:0:0:
82,261,41569,2,0,L|41:267,2,33.7500012874604,8|8|8,0:3|0:3|0:3,0:0:0:0:
167,207,41877,1,8,0:3:0:0:
195,115,42031,1,4,0:3:0:0:
135,43,42185,1,4,0:3:0:0:
44,46,42339,6,0,B|128:49|90:12|182:16,1,135.000005149842,6|2,1:2|0:0,0:0:0:0:
265,122,42800,2,0,P|255:192|247:267,1,135.000005149842,2|0,1:2|0:0,0:0:0:0:
454,334,43262,6,0,B|370:331|408:368|301:363,1,153.000002918243,2|2,1:2|0:2,0:0:0:0:
232,262,43723,2,0,P|241:191|250:106,1,153.000002918243,2|0,1:2|1:0,0:0:0:0:
372,22,44185,5,8,1:2:0:0:
387,32,44287,2,0,P|425:29|438:27,1,51.0000009727478,8|8,0:0|0:0,0:0:0:0:
392,228,44492,5,8,0:0:0:0:
377,218,44595,2,0,P|339:221|326:223,1,51.0000009727478,8|8,0:0|0:0,0:0:0:0:
382,125,44800,5,2,0:0:0:0:
0,262,45723,5,8,0:0:0:0:
49,147,45877,2,0,P|98:142|141:177,1,90,0|0,1:0|1:0,0:0:0:0:
146,241,46339,1,10,0:0:0:0:
102,346,46646,5,10,0:0:0:0:
123,357,46749,2,0,L|208:349,1,51.0000009727478,8|8,0:0|0:0,0:0:0:0:
256,262,46954,5,8,0:3:0:0:
277,251,47057,2,0,L|361:259,1,51.0000009727478,8|8,0:3|0:3,0:0:0:0:
451,275,47262,6,0,P|446:219|442:168,1,99.0000030212403,6|0,1:2|0:0,0:0:0:0:
411,75,47723,2,0,P|360:55|307:88,1,99.0000030212403,2|2,1:2|0:0,0:0:0:0:
245,146,48185,2,0,L|253:180,3,24.7500007553101
254,203,48492,6,0,B|200:203|200:203|166:219|166:219|109:217,1,148.50000453186,2|0,1:2|0:0,0:0:0:0:
22,177,49108,2,0,B|5:226|5:226|34:279,1,99.0000030212403,2|2,1:2|1:2,0:0:0:0:
223,362,49723,6,0,B|236:305|236:305|193:280,1,99.0000030212403,2|2,1:2|0:0,0:0:0:0:
131,187,50185,2,0,B|118:155|143:122|143:122|180:130,1,99.0000030212403,2|2,1:2|0:0,0:0:0:0:
264,78,50646,2,0,L|258:44,3,24.7500007553101
254,14,50954,6,0,B|346:10|311:56|416:42,1,148.50000453186,2|0,1:2|0:0,0:0:0:0:
480,163,51569,2,0,P|384:174|364:177,1,99.0000030212403,2|2,1:2|1:2,0:0:0:0:
295,299,52185,6,0,P|302:337|306:363,1,49.5000015106202,2|2,1:2|0:0,0:0:0:0:
384,264,52492,1,2,0:0:0:0:
274,196,52646,2,0,P|240:204|197:263,1,99.0000030212403,2|0,1:2|0:0,0:0:0:0:
180,353,53108,1,2,1:2:0:0:
24,256,53416,6,0,P|33:184|38:142,1,99.0000030212403,2|2,1:2|0:2,0:2:0:0:
39,65,53877,2,0,B|102:59|90:95|151:87,1,99.0000030212403,2|0,1:2|0:0,0:0:0:0:
219,34,54339,1,2,1:2:0:0:
265,191,54646,6,0,P|237:219|169:216,1,99.0000030212403,2|2,1:2|0:0,0:0:0:0:
39,298,55108,2,0,P|87:297|123:328,1,99.0000030212403,2|2,1:2|1:2,0:0:0:0:
129,354,55723,6,0,L|193:346,1,49.5000015106202,2|0,1:3|0:0,0:0:0:0:
346,329,56031,5,8,0:0:0:0:
264,207,56185,2,0,P|256:249|252:271,1,49.5000015106202,8|0,0:0|0:0,0:0:0:0:
427,112,56492,5,8,0:0:0:0:
410,125,56595,2,0,P|381:122|365:121,1,33.0000010070801,8|8,0:0|0:0,0:0:0:0:
284,54,56800,5,8,0:3:0:0:
267,41,56903,2,0,P|238:44|222:45,1,33.0000010070801,8|8,0:3|0:3,0:0:0:0:
112,52,57108,6,0,P|123:142|130:209,1,153.000002918243,6|2,1:2|1:2,0:0:0:0:
88,322,57569,2,0,P|49:337|10:332,1,76.5000014591217,2|0,0:0|1:0,0:0:0:0:
217,255,57877,2,0,P|256:240|295:245,1,76.5000014591217,2|0,0:0|1:0,0:0:0:0:
394,375,58185,6,0,B|396:318|396:318|415:295|415:295|418:219,1,153.000002918243,14|0,0:0|0:0,0:0:0:0:
308,139,58646,2,0,P|242:147|202:150,1,76.5000014591217,2|0,1:2|0:0,0:0:0:0:
437,44,58954,2,0,P|503:52|543:55,1,76.5000014591217,2|0,1:2|0:0,0:0:0:0:
401,132,59262,1,2,1:2:0:0:
303,22,59416,5,8,0:0:0:0:
303,22,59492,1,8,0:0:0:0:
303,22,59569,2,0,B|217:15|217:15|185:45|203:89,1,153.000002918243,6|0,1:2|1:0,0:0:0:0:
269,234,60031,2,0,B|282:197|282:197|272:157,1,76.5000014591217,2|0,0:0|1:0,0:0:0:0:
105,161,60339,2,0,B|92:198|92:198|102:238,1,76.5000014591217,2|0,0:0|1:0,0:0:0:0:
193,359,60646,1,12,0:0:0:0:
76,326,60800,6,0,P|26:318|-12:315,1,76.5000014591217,0|2,1:0|0:0,0:0:0:0:
187,198,61108,1,0,1:2:0:0:
289,318,61262,5,4,0:3:0:0:
289,318,61339,1,4,0:3:0:0:
289,318,61416,2,0,L|374:310,1,76.5000014591217,2|4,1:2|0:3,0:0:0:0:
305,170,61723,1,4,0:3:0:0:
173,279,61877,1,4,0:3:0:0:
305,170,62031,6,0,P|327:118|312:84,1,85.4999977169037,6|0,1:2|0:0,0:0:0:0:
194,40,62339,2,0,P|119:52|95:55,1,85.4999977169037,2|2,1:2|0:0,0:0:0:0:
294,192,62646,2,0,P|369:204|393:207,1,85.4999977169037,0|0,1:0|0:0,0:0:0:0:
473,34,62954,1,0,1:0:0:0:
336,80,63108,1,2,0:0:0:0:
466,258,63262,6,0,B|486:216|486:216|463:172,1,90,14|0,0:0|0:0,0:0:0:0:
268,279,63569,1,2,1:2:0:0:
334,104,63723,1,10,0:0:0:0:
381,330,63877,1,8,1:2:0:0:
156,243,64031,1,10,0:0:0:0:
312,199,64185,5,10,1:2:0:0:
229,357,64339,1,10,0:0:0:0:
100,173,64492,6,0,P|159:158|210:321,1,269.999991760254,4|0,1:0|0:0,0:0:0:0:
120,372,65416,2,0,L|55:363,1,53.9999983520508,2|0,0:0|0:0,0:0:0:0:
60,60,66492,5,2,0:3:0:0:
60,60,66569,1,2,0:3:0:0:
60,60,66646,2,0,L|111:52,1,40.4999987640381,2|0,0:3|0:0,0:0:0:0:
143,43,66954,6,0,P|138:82|131:121,1,62.9999980773926,6|0,1:2|0:0,0:0:0:0:
255,255,67262,2,0,P|259:215|267:174,1,67.5000025749208,2|0,1:2|0:0,0:0:0:0:
355,62,67569,2,0,P|387:48|427:59,1,72,2|0,1:2|0:0,0:0:0:0:
456,197,67877,1,2,1:2:0:0:
355,62,68031,1,8,0:0:0:0:
223,107,68185,6,0,B|218:170|218:170|240:198|240:198|232:282,1,170.999995433807,2|0,1:2|1:0,0:0:0:0:
90,384,68646,1,10,0:0:0:0:
90,384,68723,1,8,0:0:0:0:
90,384,68800,1,10,1:2:0:0:
142,244,68954,1,8,0:3:0:0:
175,343,69108,1,4,0:3:0:0:
52,290,69262,6,0,P|49:208|150:156,1,202.5,12|6,0:0|0:0,0:0:0:0:
382,344,71262,5,8,0:0:0:0:
410,319,71339,1,8,0:0:0:0:
421,283,71416,1,8,0:0:0:0:
412,246,71492,1,8,0:0:0:0:
383,222,71569,1,8,0:0:0:0:
354,197,71646,1,8,0:0:0:0:
343,161,71723,1,8,0:0:0:0:
352,124,71800,1,8,0:0:0:0:
386,96,71877,6,0,B|304:99|304:99|278:132|278:132|196:133,1,188.999994232178,4|10,1:1|0:0,0:0:0:0:
37,28,72339,1,2,0:0:0:0:
37,28,72416,1,8,0:0:0:0:
37,28,72492,2,0,P|47:108|52:142,1,94.499997116089,2|0,1:2|1:0,0:0:0:0:
138,288,72800,2,0,B|102:339|102:339|126:188,1,188.999994232178,10|0,0:0|1:0,0:0:0:0:
222,8,73262,5,2,1:2:0:0:
321,199,73416,1,10,0:0:0:0:
157,139,73569,1,2,1:2:0:0:
157,139,73646,1,8,0:0:0:0:
157,139,73723,1,2,1:2:0:0:
324,56,73877,1,2,1:2:0:0:
236,256,74031,2,0,P|160:245|124:241,1,94.499997116089,10|2,0:0|0:0,0:0:0:0:
324,56,74339,6,0,B|453:57|384:118|526:108,1,188.999994232178,6|10,1:2|0:0,0:0:0:0:
363,261,74800,1,2,0:0:0:0:
363,261,74877,1,8,0:0:0:0:
363,261,74954,2,0,P|341:200|356:155,1,94.499997116089,2|0,1:2|1:0,0:0:0:0:
218,29,75262,2,0,B|105:12|105:12|60:52|82:105,1,188.999994232178,10|0,0:0|1:0,0:0:0:0:
201,254,75723,5,2,1:2:0:0:
4,183,75877,1,10,0:0:0:0:
175,144,76031,1,2,1:2:0:0:
175,144,76108,1,8,0:0:0:0:
175,144,76185,1,2,1:2:0:0:
40,298,76339,1,2,1:2:0:0:
265,374,76492,2,0,L|276:267,1,94.499997116089,10|2,0:0|0:0,0:0:0:0:
250,21,76800,6,0,B|211:85|211:85|245:172,1,141.749995674133,6|0,1:2|0:0,0:0:0:0:
269,158,77108,2,0,B|314:153|314:153|328:160|328:160|372:155,1,94.499997116089,10|0,0:0|0:0,0:0:0:0:
512,257,77416,1,0,1:0:0:0:
450,84,77569,1,2,1:2:0:0:
364,280,77723,1,10,0:0:0:0:
290,49,77877,6,0,B|153:64|153:64|215:27,1,188.999994232178,6|0,0:0|1:0,0:0:0:0:
56,192,78339,2,0,P|138:200|173:205,1,94.499997116089,10|0,0:0|0:0,0:0:0:0:
195,213,78569,1,8,0:0:0:0:
195,213,78646,1,0,1:0:0:0:
86,384,78800,1,2,1:2:0:0:
296,355,78954,2,0,P|310:303|274:242,1,94.499997116089,10|0,0:0|0:0,0:0:0:0:
359,25,79262,5,2,1:2:0:0:
434,233,79416,1,0,1:0:0:0:
359,25,79569,2,0,P|433:43|473:53,1,94.499997116089,8|0,0:0|0:0,0:0:0:0:
493,58,79800,1,8,0:0:0:0:
493,58,79877,5,2,1:2:0:0:
417,222,80031,1,0,1:0:0:0:
250,69,80185,2,0,P|193:71|162:105,1,94.499997116089,10|0,0:0|1:0,0:0:0:0:
158,144,80416,1,0,1:0:0:0:
158,144,80492,5,14,0:0:0:0:
350,273,80646,1,0,1:0:0:0:
153,361,80800,2,0,P|85:355|35:349,1,94.499997116089,14|2,0:0|1:2,0:0:0:0:
249,211,81108,1,6,1:2:0:0:
60,132,81262,1,8,0:0:0:0:
60,132,81339,1,8,0:0:0:0:
60,132,81416,2,0,L|51:192,1,47.2499985580445,8|8,1:2|0:0,0:0:0:0:
140,261,81569,2,0,L|149:211,1,47.2499985580445,8|8,0:0|0:0,0:0:0:0:
191,25,81723,6,0,P|269:2|375:85,1,188.999994232178,4|10,1:0|0:0,0:0:0:0:
345,260,82185,1,2,0:0:0:0:
345,260,82262,1,8,0:0:0:0:
345,260,82339,2,0,P|276:244|225:233,1,94.499997116089,2|0,1:2|1:0,0:0:0:0:
510,172,82646,2,0,B|457:217|457:217|467:358,1,188.999994232178,10|0,0:0|1:0,0:0:0:0:
330,174,83108,5,2,1:2:0:0:
262,351,83262,1,10,0:2:0:0:
186,140,83416,1,2,1:2:0:0:
186,140,83492,1,8,0:0:0:0:
186,140,83569,1,2,1:2:0:0:
95,323,83723,1,2,1:2:0:0:
133,44,83877,2,0,P|198:33|239:53,1,94.499997116089,10|2,0:2|0:2,0:0:0:0:
255,246,84185,5,4,1:0:0:0:
51,169,84339,1,0,1:0:0:0:
255,246,84492,2,0,P|346:225|383:215,1,94.499997116089,10|0,0:0|0:0,0:0:0:0:
389,218,84723,1,8,0:0:0:0:
389,218,84800,1,2,1:2:0:0:
246,90,84954,1,0,1:0:0:0:
172,335,85108,6,0,P|100:379|-3:317,1,188.999994232178,10|0,0:0|1:0,0:0:0:0:
152,195,85569,1,0,1:0:0:0:
32,71,85723,2,0,P|27:150|24:194,1,94.499997116089,10|0,0:0|1:0,0:0:0:0:
279,275,86031,1,10,0:2:0:0:
280,248,86108,1,8,0:3:0:0:
283,221,86185,1,8,0:3:0:0:
285,194,86262,1,8,0:3:0:0:
287,167,86339,1,10,0:2:0:0:
469,41,86646,5,4,1:2:0:0:
290,91,86800,1,0,1:0:0:0:
437,246,86954,2,0,L|445:145,1,90,0|8,1:0|0:0,0:0:0:0:
446,131,87185,1,8,0:0:0:0:
446,131,87262,1,8,0:0:0:0:
333,341,87416,2,0,P|278:359|242:348,1,90,6|0,1:2|0:0,0:0:0:0:
161,162,87723,6,0,B|206:115|206:115|183:239,1,180,4|0,1:2|1:0,0:0:0:0:
125,372,88185,1,8,0:0:0:0:
283,270,88339,1,0,1:0:0:0:
67,195,88492,1,8,0:0:0:0:
67,195,88569,1,8,0:3:0:0:
67,195,88646,2,0,L|78:255,2,45,8|8|14,0:3|0:3|0:0,0:0:0:0:
217,99,88954,1,0,1:0:0:0:
41,42,89108,5,14,0:0:0:0:
178,212,89262,1,0,1:0:0:0:
290,19,89416,1,8,0:0:0:0:
61,158,89569,1,0,1:0:0:0:
285,222,89723,5,8,0:0:0:0:
201,17,89877,1,0,1:0:0:0:
73,265,90031,2,0,P|153:256|185:252,1,90,10|0,0:0|0:0,0:0:0:0:
377,165,90339,6,0,P|325:119|212:157,1,188.999994232178,6|2,1:2|0:0,0:0:0:0:
432,315,90954,5,8,0:0:0:0:
449,299,91057,2,0,L|445:233,1,66.0000020141602,8|8,0:0|0:0,0:0:0:0:
507,138,91262,5,8,0:3:0:0:
490,122,91364,2,0,L|493:50,1,66.0000020141602,8|8,0:3|0:3,0:0:0:0:
404,1,91569,5,4,1:3:0:0:
492,19,100031,5,0,3:0:0:0:
492,19,100108,1,0,3:0:0:0:
492,19,100185,2,0,P|450:13|414:9,1,62.9999980773926,2|0,3:0|1:0,0:0:0:0:
325,80,100492,2,0,P|317:114|327:144,1,62.9999980773926,8|8,0:0|0:3,0:0:0:0:
356,153,100723,1,8,0:3:0:0:
356,153,100800,1,4,0:3:0:0:
468,219,100954,1,4,1:3:0:0:
379,302,101108,2,0,P|328:295|274:291,1,94.499997116089,8|0,0:0|0:0,0:0:0:0:
250,293,101416,6,0,B|261:328|261:328|239:366,1,72,6|2,1:2|0:0,0:0:0:0:
122,384,101723,2,0,P|131:318|142:232,2,144,10|10|10,0:0|0:0|0:0,0:0:0:0:
14,288,102492,1,2,1:2:0:0:
97,157,102646,6,0,P|152:157|190:154,1,72,10|2,0:0|0:0,0:0:0:0:
312,79,102954,2,0,P|257:79|219:76,1,72,10|0,0:0|1:0,0:0:0:0:
208,70,103185,1,0,1:0:0:0:
208,70,103262,1,8,0:2:0:0:
341,201,103416,1,0,1:0:0:0:
238,290,103569,2,0,P|223:252|231:219,1,72,10|2,0:0|1:2,0:0:0:0:
449,166,103877,6,0,P|443:242|438:317,1,144,14|10,0:0|0:0,0:0:0:0:
340,379,104339,2,0,B|309:316|309:316|356:244,1,144,2|2,0:0|1:2,0:0:0:0:
352,145,104800,2,0,P|290:136|259:131,1,72,8|2,0:0|1:2,0:0:0:0:
147,126,105108,6,0,P|168:168|160:203,1,72,10|2,0:0|0:0,0:0:0:0:
12,309,105416,2,0,P|11:273|30:243,1,72,10|0,0:0|1:0,0:0:0:0:
72,233,105646,1,0,1:0:0:0:
72,233,105723,1,8,0:0:0:0:
176,363,105877,1,0,1:0:0:0:
289,262,106031,2,0,P|251:259|212:253,1,72,8|0,0:0|1:0,0:0:0:0:
129,99,106339,6,0,P|132:47|135:0,1,72,14|0,0:0|0:0,0:0:0:0:
318,88,106646,2,0,P|321:140|324:187,1,72,10|0,0:0|0:0,0:0:0:0:
226,46,106954,1,10,0:0:0:0:
226,46,107108,1,0,1:0:0:0:
389,0,107262,2,0,P|435:-1|469:18,1,72,10|2,0:0|1:2,0:0:0:0:
496,134,107569,6,0,P|486:247|482:289,2,144,10|10|8,0:0|0:0|0:0,0:0:0:0:
342,115,108339,1,0,1:0:0:0:
342,115,108416,1,0,1:0:0:0:
342,115,108492,2,0,P|273:131|242:136,1,72,10|2,0:0|1:2,0:0:0:0:
179,220,108800,6,0,P|214:251|207:350,1,144,12|10,0:0|0:0,0:0:0:0:
71,375,109262,2,0,P|36:344|43:245,1,144,2|2,0:0|1:2,0:0:0:0:
128,292,109723,1,8,0:0:0:0:
128,292,109877,1,2,1:2:0:0:
98,148,110031,6,0,P|53:142|18:137,1,72,10|2,0:0|1:2,0:0:0:0:
176,50,110339,2,0,B|262:49|228:97|314:89,1,144,12|0,0:0|1:0,0:0:0:0:
430,27,110800,1,8,0:0:0:0:
430,27,110877,1,8,0:0:0:0:
430,27,110954,2,0,L|424:94,1,36,8|8,0:0|0:0,0:0:0:0:
387,166,111108,1,8,0:0:0:0:
387,166,111185,1,8,0:0:0:0:
387,166,111262,6,0,P|392:209|401:255,1,76.5000014591217,6|0,1:2|0:0,0:0:0:0:
241,362,111569,2,0,P|247:324|252:286,1,76.5000014591217,10|2,0:2|0:0,0:0:0:0:
190,164,111877,2,0,P|136:146|65:208,1,153.000002918243,2|2,1:2|1:2,0:0:0:0:
155,282,112339,1,10,0:0:0:0:
286,200,112492,6,0,P|340:190|380:184,1,76.5000014591217,2|2,1:2|0:0,0:0:0:0:
215,65,112800,2,0,B|159:77|159:77|134:103|134:103|67:113,2,153.000002918243,10|0|2,0:2|1:0|1:2,0:0:0:0:
357,144,113569,1,10,0:0:0:0:
477,48,113723,6,0,B|472:160|471:222,1,153.000002918243,2|10,1:2|0:0,0:0:0:0:
375,326,114185,2,0,B|299:326|324:279|229:282,1,153.000002918243,2|2,0:0|0:0,0:0:0:0:
86,309,114646,2,0,P|94:352|101:393,1,76.5000014591217,2|10,1:2|0:0,0:0:0:0:
1,229,114954,5,2,1:2:0:0:
1,229,115108,1,2,0:0:0:0:
99,137,115262,2,0,P|137:152|177:146,1,76.5000014591217,10|0,1:2|0:0,0:0:0:0:
194,10,115569,2,0,P|156:-5|116:1,1,76.5000014591217,0|8,1:0|0:0,0:0:0:0:
284,93,115877,2,0,B|357:81|357:81|370:98|402:112,1,114.750002188683,14|0,0:0|0:0,0:0:0:0:
463,75,116185,6,0,L|472:-14,1,80.9999975280763,6|0,1:2|0:0,0:0:0:0:
337,180,116492,2,0,L|345:260,1,80.9999975280763,10|2,0:0|0:0,0:0:0:0:
197,125,116800,2,0,P|136:109|70:161,1,121.499996292114,2|0,1:2|0:0,0:0:0:0:
48,211,117108,6,0,B|90:225|90:225|132:197,1,80.9999975280763,2|10,1:2|0:0,0:0:0:0:
268,28,117416,2,0,B|226:14|226:14|184:42,1,80.9999975280763,2|2,1:2|1:2,0:0:0:0:
300,230,117723,2,0,P|307:172|313:129,1,80.9999975280763,10|0,0:0|1:0,0:0:0:0:
122,109,118031,1,0,1:0:0:0:
197,351,118185,2,0,P|190:293|184:250,1,80.9999975280763,10|2,0:0|1:2,0:0:0:0:
135,124,118492,1,2,1:2:0:0:
356,73,118646,5,14,0:0:0:0:
415,159,118800,2,0,P|404:204|389:263,1,94.499997116089,0|0,1:0|0:0,0:0:0:0:
387,277,119108,1,10,0:0:0:0:
233,117,119262,2,0,P|244:162|255:227,1,94.499997116089,0|0,1:0|0:0,0:0:0:0:
253,246,119569,1,10,0:0:0:0:
141,306,119723,1,0,1:0:0:0:
39,220,119877,6,0,P|50:166|63:88,1,132.00000402832,2|0,1:2|1:0,0:0:0:0:
142,14,120185,5,8,0:0:0:0:
166,30,120287,2,0,P|180:98|183:115,1,66.0000020141602,0|0,1:0|1:0,0:0:0:0:
246,224,120492,5,8,0:0:0:0:
270,208,120595,2,0,P|274:181|280:155,1,53.9999983520508,8|8,0:0|0:0,0:0:0:0:
341,4,120800,5,8,0:3:0:0:
365,19,120903,2,0,P|367:40|371:61,1,41.9999987182618,8|8,0:3|0:3,0:0:0:0:
474,133,121108,5,6,1:2:0:0:
236,356,128492,5,8,0:0:0:0:
162,152,128698,1,8,0:0:0:0:
367,189,128903,1,8,0:0:0:0:
104,295,129108,5,8,0:0:0:0:
265,75,129313,1,10,0:0:0:0:
376,319,129518,1,10,0:0:0:0:
250,218,129723,5,10,0:0:0:0:
453,36,130339,5,8,0:0:0:0:
450,58,130416,1,8,0:0:0:0:
447,80,130492,1,8,0:0:0:0:
444,102,130569,1,8,0:0:0:0:
442,125,130646,1,10,0:0:0:0:
375,342,130954,5,14,0:0:0:0:
228,232,131108,1,8,0:0:0:0:
321,197,131262,1,0,1:0:0:0:
326,214,131569,1,0,1:0:0:0:
153,144,131723,2,0,P|158:99|165:40,1,90,10|0,0:0|1:0,0:0:0:0:
347,4,132031,6,0,P|351:65|246:102,1,180,10|8,0:0|0:0,0:0:0:0:
161,19,132492,1,2,1:2:0:0:
55,130,132646,1,2,0:0:0:0:
55,130,132723,1,8,0:0:0:0:
55,130,132800,2,0,P|62:179|68:221,1,90,10|8,0:0|0:3,0:0:0:0:
189,270,133108,2,0,P|182:319|176:361,1,90,4|4,0:3|0:3,0:0:0:0:
275,213,133416,5,14,0:0:0:0:
78,305,133569,1,8,0:0:0:0:
156,192,133723,1,0,1:0:0:0:
146,173,134031,1,0,1:0:0:0:
303,309,134185,2,0,P|351:303|398:298,1,90,10|0,0:0|1:0,0:0:0:0:
358,117,134492,6,0,B|334:157|334:157|349:205,1,90,10|0,0:2|1:0,0:0:0:0:
482,214,134800,2,0,B|506:174|506:174|491:126,1,90,10|0,0:2|1:0,0:0:0:0:
442,28,135108,1,2,1:2:0:0:
336,129,135262,1,10,1:2:0:0:
306,145,135339,1,8,1:2:0:0:
273,145,135416,1,8,0:0:0:0:
244,129,135492,1,8,0:0:0:0:
225,99,135569,1,8,1:2:0:0:
211,72,135646,1,8,0:0:0:0:
182,56,135723,1,8,0:0:0:0:
149,56,135800,1,8,0:0:0:0:
120,73,135877,6,0,P|131:164|142:266,1,180,4|2,1:2|1:2,0:0:0:0:
314,360,136339,2,0,P|327:277|332:252,1,90,10|0,0:0|1:0,0:0:0:0:
240,160,136646,1,0,1:0:0:0:
189,333,136800,2,0,P|135:350|94:337,1,90,8|0,0:0|0:0,0:0:0:0:
228,144,137108,5,6,1:2:0:0:
328,271,137262,2,0,B|442:272|381:217|502:218,1,180,0|8,1:0|0:0,0:0:0:0:
356,67,137723,2,0,P|352:113|347:173,1,90,2|0,1:2|1:0,0:0:0:0:
351,179,137954,1,2,1:2:0:0:
351,179,138031,1,10,0:0:0:0:
237,30,138185,1,8,0:0:0:0:
237,30,138262,1,8,0:0:0:0:
237,30,138339,1,6,1:2:0:0:
22,230,138646,5,0,1:0:0:0:
111,154,138800,1,8,0:0:0:0:
111,154,138877,1,8,0:0:0:0:
111,154,138954,2,0,L|98:98,1,45,8|8,0:0|0:0,0:0:0:0:
196,236,139108,1,8,0:0:0:0:
196,236,139185,1,8,0:0:0:0:
196,236,139262,2,0,L|183:301,1,49.5000015106202,10|8,1:2|0:0,0:0:0:0:
280,159,139416,2,0,L|267:94,1,49.5000015106202,10|8,0:0|0:0,0:0:0:0:
327,23,139569,5,8,1:3:0:0:
358,4,139646,1,8,0:3:0:0:
395,0,139723,1,8,0:3:0:0:
429,13,139800,1,8,0:3:0:0:
454,40,139877,2,0,L|444:102,1,49.5000015106202,8|4,1:3|1:3,0:0:0:0:
489,221,140031,1,8,1:2:0:0:
458,240,140108,1,4,0:3:0:0:
421,244,140185,1,4,0:3:0:0:
387,231,140262,1,4,0:3:0:0:
362,204,140339,2,0,L|372:142,1,49.5000015106202,4|4,1:3|1:3,0:0:0:0:
253,84,140492,5,10,0:0:0:0:
204,91,140569,1,8,0:0:0:0:
155,98,140646,1,8,0:0:0:0:
106,105,140723,1,8,0:0:0:0:
51,112,140800,6,0,B|105:59|105:59|78:203,1,188.999994232178,4|10,1:0|0:0,0:0:0:0:
141,341,141262,1,2,0:0:0:0:
141,341,141339,1,8,0:0:0:0:
141,341,141416,2,0,P|199:356|238:338,1,94.499997116089,2|0,1:2|1:0,0:0:0:0:
379,188,141723,6,0,B|306:189|306:189|270:165|270:165|173:165,1,188.999994232178,10|0,0:0|1:0,0:0:0:0:
343,75,142185,1,2,1:2:0:0:
397,298,142339,1,10,0:0:0:0:
462,121,142492,1,2,1:2:0:0:
462,121,142569,1,8,0:0:0:0:
462,121,142646,1,2,1:2:0:0:
272,258,142800,1,2,1:2:0:0:
291,7,142954,2,0,B|337:-8|337:-8|400:3,1,94.499997116089,10|2,0:0|0:0,0:0:0:0:
146,162,143262,6,0,B|45:134|45:134|-10:161|8:227,1,188.999994232178,6|10,1:2|0:0,0:0:0:0:
196,347,143723,1,2,0:0:0:0:
196,347,143800,1,8,0:0:0:0:
196,347,143877,2,0,P|217:293|205:240,1,94.499997116089,2|0,1:2|1:0,0:0:0:0:
159,59,144185,6,0,B|279:38|228:114|367:92,1,188.999994232178,10|0,0:0|1:0,0:0:0:0:
493,16,144646,1,2,1:2:0:0:
401,189,144800,1,8,0:0:0:0:
312,12,144954,1,2,1:2:0:0:
312,12,145031,1,8,0:0:0:0:
312,12,145108,1,2,1:2:0:0:
505,110,145262,1,0,1:0:0:0:
363,289,145416,2,0,P|273:270|238:264,1,94.499997116089,10|2,0:0|0:0,0:0:0:0:
95,121,145723,5,6,1:2:0:0:
161,332,145877,1,0,1:0:0:0:
227,93,146031,2,0,P|272:58|396:112,1,188.999994232178,10|0,0:0|1:0,0:0:0:0:
360,313,146492,1,2,1:2:0:0:
313,147,146646,1,10,0:0:0:0:
473,278,146800,1,6,0:0:0:0:
250,377,146954,6,0,B|138:345|138:345|90:375|47:381,1,188.999994232178,0|10,1:0|0:0,0:0:0:0:
38,183,147416,1,2,0:0:0:0:
38,183,147492,1,8,0:0:0:0:
38,183,147569,2,0,P|88:158|141:172,1,94.499997116089,0|2,1:0|1:2,0:0:0:0:
291,280,147877,2,0,P|288:231|285:156,1,94.499997116089,10|0,0:0|0:0,0:0:0:0:
308,11,148185,5,6,1:2:0:0:
123,78,148339,1,0,1:0:0:0:
308,11,148492,2,0,P|372:5|416:36,1,94.499997116089,8|0,0:0|0:0,0:0:0:0:
427,57,148723,1,8,0:0:0:0:
427,57,148800,1,0,1:0:0:0:
281,194,148954,1,0,1:0:0:0:
198,15,149108,2,0,P|206:76|213:123,1,94.499997116089,10|0,0:0|1:0,0:0:0:0:
212,136,149339,1,0,1:0:0:0:
212,136,149416,5,14,0:0:0:0:
368,305,149569,1,0,1:0:0:0:
376,117,149723,1,14,0:0:0:0:
212,322,149877,1,2,1:2:0:0:
195,101,150031,1,6,1:2:0:0:
306,225,150185,1,8,0:0:0:0:
306,225,150262,1,8,0:0:0:0:
306,225,150339,2,0,L|238:236,1,47.2499985580445,8|8,0:0|0:0,0:0:0:0:
82,171,150492,2,0,L|150:182,1,47.2499985580445,8|8,0:0|0:0,0:0:0:0:
284,46,150646,6,0,P|323:26|375:39,1,94.499997116089,4|0,1:0|1:0,0:0:0:0:
453,194,150954,1,10,0:0:0:0:
345,120,151108,1,2,0:0:0:0:
345,120,151185,1,8,0:0:0:0:
345,120,151262,1,2,1:2:0:0:
507,74,151416,1,0,1:0:0:0:
481,286,151569,6,0,B|380:304|408:239|288:260,1,188.999994232178,10|0,0:0|1:0,0:0:0:0:
172,352,152031,1,2,1:2:0:0:
211,147,152185,1,10,0:0:0:0:
66,285,152339,1,2,1:2:0:0:
66,285,152416,1,8,0:0:0:0:
66,285,152492,1,2,1:2:0:0:
281,260,152646,1,2,1:2:0:0:
130,96,152800,2,0,P|111:138|121:190,1,94.499997116089,10|2,0:0|0:0,0:0:0:0:
308,43,153108,6,0,P|258:35|211:26,1,94.499997116089,4|0,1:0|1:0,0:0:0:0:
89,207,153416,1,10,0:0:0:0:
240,127,153569,1,2,0:0:0:0:
240,127,153646,1,8,0:0:0:0:
240,127,153723,1,2,1:2:0:0:
71,25,153877,1,0,1:0:0:0:
240,127,154031,6,0,B|225:199|225:199|245:234|245:234|230:327,1,188.999994232178,10|0,0:0|1:0,0:0:0:0:
379,200,154492,1,0,1:0:0:0:
435,331,154646,2,0,B|392:352|392:352|340:336,1,94.499997116089,10|0,0:0|1:0,0:0:0:0:
463,129,154954,1,10,0:0:0:0:
467,152,155031,1,8,0:3:0:0:
472,176,155108,1,8,0:3:0:0:
477,199,155185,1,8,0:3:0:0:
482,222,155262,1,10,0:0:0:0:
114,103,155569,5,6,1:2:0:0:
289,22,155723,1,2,0:0:0:0:
238,157,155877,1,8,1:3:0:0:
238,157,155954,1,4,0:3:0:0:
238,157,156031,2,0,L|221:101,1,45,4|4,0:3|0:3,0:0:0:0:
352,180,156185,1,4,0:3:0:0:
269,288,156339,2,0,P|221:295|180:280,1,90,6|0,1:2|0:0,0:0:0:0:
60,177,156646,6,0,P|71:275|81:364,1,180,4|0,1:2|1:0,0:0:0:0:
203,167,157108,2,0,P|195:218|188:266,1,90,8|0,0:0|1:0,0:0:0:0:
138,59,157416,1,8,0:0:0:0:
164,38,157492,1,8,0:3:0:0:
197,30,157569,1,8,0:3:0:0:
230,35,157646,1,8,0:3:0:0:
258,52,157723,1,14,0:0:0:0:
346,164,157877,1,0,1:0:0:0:
465,29,158031,5,14,0:0:0:0:
247,154,158185,1,0,1:0:0:0:
462,207,158339,1,8,0:0:0:0:
341,28,158492,1,0,1:0:0:0:
293,283,158646,5,8,0:0:0:0:
462,116,158800,1,0,1:0:0:0:
501,298,158954,2,0,P|452:289|402:280,1,90,14|0,0:0|0:0,0:0:0:0:
225,184,159262,1,6,1:2:0:0:
343,136,159416,1,8,0:0:0:0:
343,136,159492,1,8,0:0:0:0:
343,136,159569,2,0,L|347:196,1,45,10|8,1:2|0:0,0:0:0:0:
262,319,159723,1,8,0:0:0:0:
262,319,159800,1,8,0:0:0:0:
262,319,159877,2,0,L|258:259,1,45,8|8,1:2|0:0,0:0:0:0:
177,124,160031,6,0,L|171:184,1,45,8|8,0:0|0:0,0:0:0:0:
124,283,160185,1,8,1:2:0:0:
83,301,160262,1,8,1:2:0:0:
40,292,160339,1,8,1:2:0:0:
9,260,160416,1,8,1:2:0:0:
4,216,160492,6,0,P|13:167|21:113,1,99.0000030212403,4|0,1:0|1:2,1:2:0:0:
131,11,160800,1,10,0:0:0:0:
213,157,160954,1,2,0:0:0:0:
213,157,161031,1,8,0:0:0:0:
213,157,161108,2,0,P|159:181|116:170,1,99.0000030212403,2|2,1:2|1:2,0:0:0:0:
282,37,161416,2,0,P|330:30|373:53,1,99.0000030212403,10|2,0:0|0:0,0:0:0:0:
404,252,161723,5,2,1:2:0:0:
303,126,161877,1,2,1:2:0:0:
490,37,162031,2,0,L|480:142,1,99.0000030212403,10|2,0:0|0:0,0:0:0:0:
477,164,162262,1,8,0:0:0:0:
477,164,162339,1,2,1:2:0:0:
292,232,162492,1,2,1:2:0:0:
420,360,162646,2,0,B|471:372|471:372|521:345,1,99.0000030212403,10|2,0:0|0:0,0:0:0:0:
306,212,162954,5,2,1:2:0:0:
210,373,163108,1,2,1:2:0:0:
107,233,163262,2,0,L|127:127,1,99.0000030212403,10|2,0:0|0:0,0:0:0:0:
132,109,163492,1,8,0:0:0:0:
132,109,163569,1,2,1:2:0:0:
257,253,163723,1,0,1:0:0:0:
122,343,163877,2,0,B|73:352|73:352|26:322,1,99.0000030212403,10|2,0:0|0:0,0:0:0:0:
105,184,164185,5,2,1:2:0:0:
236,335,164339,1,2,1:2:0:0:
270,132,164492,1,10,0:0:0:0:
162,258,164646,1,2,0:0:0:0:
172,52,164800,1,2,1:2:0:0:
147,56,164877,1,2,1:2:0:0:
123,60,164954,1,2,1:2:0:0:
98,64,165031,1,2,1:2:0:0:
76,69,165108,2,0,P|53:121|67:163,1,99.0000030212403,10|0,0:0|0:0,0:0:0:0:
254,241,165416,6,0,B|333:231|333:231|368:250|368:250|452:242,1,198.000006042481,6|10,1:2|0:0,0:0:0:0:
402,43,165877,1,2,0:0:0:0:
402,43,165954,1,2,0:0:0:0:
402,43,166031,2,0,P|396:97|391:145,1,99.0000030212403,2|2,1:2|1:2,0:0:0:0:
273,262,166339,5,10,0:0:0:0:
248,240,166441,2,0,P|211:233|175:228,1,66.0000020141602,2|2,0:0|0:0,0:0:0:0:
69,123,166646,6,0,B|157:97|157:97|183:115|215:125,1,148.50000453186,6|2,1:2|0:0,0:0:0:0:
288,101,166954,2,0,L|300:-7,1,99.0000030212403,8|2,0:0|0:0,0:0:0:0:
455,189,167262,2,0,B|366:169|366:169|339:187|343:219,1,148.50000453186,2|2,1:2|0:0,0:0:0:0:
381,297,167569,2,0,P|433:286|488:276,1,99.0000030212403,8|2,0:0|1:2,0:0:0:0:
220,380,167877,5,14,1:2:0:0:
215,355,167954,1,8,0:3:0:0:
211,331,168031,1,8,0:3:0:0:
207,306,168108,1,8,0:3:0:0:
201,278,168185,2,0,L|134:298,1,49.5000015106202,8|8,0:3|0:3,0:0:0:0:
281,180,168339,5,14,0:0:0:0:
285,155,168416,1,8,0:3:0:0:
289,131,168492,1,4,0:3:0:0:
293,106,168569,1,4,0:3:0:0:
300,78,168646,2,0,L|367:98,1,49.5000015106202,4|4,0:3|0:3,0:0:0:0:
361,251,168800,1,14,0:0:0:0:
191,158,168954,1,4,1:3:0:0:
434,64,169108,6,0,B|445:116|445:116|406:156,1,99.0000030212403,10|0,0:0|1:0,0:0:0:0:
248,7,169416,2,0,B|171:20|171:20|139:54|139:54|60:65,1,198.000006042481,10|10,0:0|1:2,0:0:0:0:
4,203,169877,1,8,1:2:0:0:
34,240,169954,1,8,0:0:0:0:
82,252,170031,1,8,0:0:0:0:
126,233,170108,1,8,0:0:0:0:
152,189,170185,1,8,0:0:0:0:
189,158,170262,1,8,0:0:0:0:
238,160,170339,6,0,P|244:213|251:263,1,99.0000030212403,4|0,1:2|1:0,0:0:0:0:
70,365,170646,2,0,P|76:311|83:262,1,99.0000030212403,10|2,0:0|0:0,0:0:0:0:
89,234,170877,1,8,0:0:0:0:
89,234,170954,1,2,1:2:0:0:
215,349,171108,2,0,P|281:354|315:328,1,99.0000030212403,2|8,1:2|0:0,0:0:0:0:
355,174,171416,5,2,0:0:0:0:
444,356,171569,2,0,P|451:303|457:241,1,99.0000030212403,2|0,1:2|1:0,0:0:0:0:
329,89,171877,2,0,L|341:41,2,49.5000015106202,10|2|2,1:2|1:2|1:2,0:0:0:0:
241,225,172185,2,0,L|257:286,2,49.5000015106202,2|2|2,1:2|1:2|1:2,0:0:0:0:
210,82,172492,1,10,0:0:0:0:
170,53,172569,1,10,0:0:0:0:
121,49,172646,1,10,0:0:0:0:
78,72,172723,1,10,0:0:0:0:
52,115,172800,6,0,L|68:175,3,49.5000015106202,2|0|0|0,1:2|1:0|1:0|1:0,0:0:0:0:
10,99,173108,2,0,L|37:219,1,99.0000030212403,10|0,0:0|0:0,0:0:0:0:
144,347,173416,6,0,L|157:300,3,49.5000015106202,2|0|0|0,1:2|1:0|1:0|1:0,0:0:0:0:
177,380,173723,2,0,L|199:284,1,99.0000030212403,10|0,0:0|0:0,0:0:0:0:
228,121,174031,5,2,1:2:0:0:
245,103,174108,1,0,1:0:0:0:
267,92,174185,1,0,1:0:0:0:
291,88,174262,1,0,1:0:0:0:
314,91,174339,2,0,P|366:118|390:169,1,99.0000030212403,10|0,0:0|0:0,0:0:0:0:
359,314,174646,5,2,1:2:0:0:
342,332,174723,1,0,1:0:0:0:
320,343,174800,1,0,1:0:0:0:
296,347,174877,1,2,1:2:0:0:
271,344,174954,2,0,P|219:317|195:266,1,99.0000030212403,8|2,0:2|1:2,0:0:0:0:
117,113,175262,5,6,1:2:0:0:
41,273,175416,1,0,1:0:0:0:
117,113,175569,2,0,P|65:103|8:92,1,99.0000030212403,8|0,0:0|0:0,0:0:0:0:
184,262,175877,5,0,1:0:0:0:
338,129,176031,1,0,1:0:0:0:
220,72,176185,2,0,B|205:122|205:122|236:163,1,99.0000030212403,10|2,0:0|1:2,0:0:0:0:
441,176,176492,5,14,0:2:0:0:
332,26,176646,1,0,1:0:0:0:
288,222,176800,1,10,0:0:0:0:
424,85,176954,1,0,1:0:0:0:
510,254,177108,1,10,0:0:0:0:
482,277,177185,1,4,0:3:0:0:
446,286,177262,1,4,0:3:0:0:
410,279,177339,1,4,0:3:0:0:
381,256,177416,1,4,1:3:0:0:
352,233,177492,1,4,1:3:0:0:
316,226,177569,1,4,1:3:0:0:
280,235,177646,1,4,1:3:0:0:
253,259,177723,6,0,B|257:308|262:373,1,99.0000030212403,14|4,0:0|1:3,0:0:0:0:
141,191,178031,1,8,1:2:0:0:
145,166,178108,1,4,1:3:0:0:
150,142,178185,1,4,1:3:0:0:
155,118,178262,1,4,1:3:0:0:
160,93,178339,1,10,1:2:0:0:
77,269,178492,2,0,B|122:298|122:298|170:284,1,99.0000030212403,6|2,1:2|1:2,0:0:0:0:
284,127,178800,6,0,B|376:77|376:77|478:151,1,215.999993408203,6|2,1:2|1:2,0:0:0:0:
368,296,179262,2,0,P|369:250|370:175,1,107.999996704102,10|2,1:2|1:2,0:0:0:0:
207,26,179569,5,10,1:2:0:0:
207,26,179646,1,8,1:3:0:0:
207,26,179723,2,0,L|215:86,1,53.9999983520508,8|8,1:3|1:3,0:0:0:0:
107,214,179877,1,10,1:2:0:0:
107,214,179954,1,4,1:3:0:0:
107,214,180031,2,0,L|115:154,1,53.9999983520508,4|4,1:3|1:3,0:0:0:0:
252,309,180185,6,0,B|207:316|207:316|188:328|188:328|141:334,1,107.999996704102,14|0,0:0|1:0,0:0:0:0:
273,190,180492,1,8,0:0:0:0:
368,349,180646,1,10,0:0:0:0:
407,365,180723,1,8,0:0:0:0:
448,356,180800,1,8,0:0:0:0:
475,323,180877,1,8,0:0:0:0:
478,281,180954,1,8,0:0:0:0:
455,245,181031,1,8,0:0:0:0:
414,231,181108,5,10,0:0:0:0:
412,250,181185,1,8,0:0:0:0:
411,270,181262,1,8,0:0:0:0:
409,290,181339,1,8,0:0:0:0:
408,306,181416,5,14,0:0:0:0:
195,164,181646,1,14,0:0:0:0:
431,37,181877,2,0,B|314:100|295:-18|178:48|178:48|222:78|289:57,1,377.999988464356,14|0,0:0|0:0,0:0:0:0:
111,142,183108,5,0,1:0:0:0:
114,155,183185,1,0,1:0:0:0:
118,169,183262,1,8,1:2:0:0:
245,194,183416,1,0,1:0:0:0:
105,285,183569,1,0,1:0:0:0:
297,369,183723,1,10,0:0:0:0:
34,24,205416,5,12,0:0:0:0:
36,44,205492,1,4,1:3:0:0:
38,65,205569,1,4,1:3:0:0:
40,86,205646,1,4,1:3:0:0:
42,107,205723,1,8,0:0:0:0:
55,346,206031,6,0,P|106:303|211:328,1,161.999995056153,6|0,1:2|1:0,0:0:0:0:
346,213,206492,2,0,P|268:228|205:181,1,161.999995056153,8|0,0:0|1:0,0:0:0:0:
221,60,206954,1,8,0:0:0:0:
227,32,207262,5,0,1:0:0:0:
334,126,207416,2,0,P|410:119|498:111,1,161.999995056153,8|0,0:0|1:0,0:0:0:0:
495,111,207800,1,0,1:0:0:0:
495,111,207877,1,12,0:2:0:0:
388,231,208031,1,2,1:2:0:0:
501,314,208185,2,0,P|505:272|512:220,1,80.9999975280763,10|0,0:0|0:0,0:0:0:0:
330,363,208492,5,12,0:0:0:0:
330,363,208800,5,2,1:2:0:0:
200,284,208954,1,2,0:0:0:0:
347,193,209108,1,2,1:2:0:0:
159,124,209262,1,2,0:0:0:0:
344,45,209416,5,2,1:2:0:0:
213,258,209569,1,8,0:0:0:0:
477,337,210339,5,8,0:0:0:0:
480,306,210416,1,4,1:3:0:0:
483,276,210492,1,4,1:3:0:0:
486,246,210569,1,4,1:3:0:0:
490,216,210646,1,10,1:2:0:0:
355,28,210954,6,0,L|347:83,1,40.4999987640381,6|0,1:2|0:0,0:0:0:0:
290,188,211108,1,8,0:0:0:0:
290,188,211185,1,8,0:0:0:0:
290,188,211262,2,0,L|279:130,1,40.4999987640381,10|8,0:0|0:0,0:0:0:0:
228,14,211416,6,0,L|220:69,1,40.4999987640381,12|0,1:2|0:0,0:0:0:0:
170,217,211569,1,10,0:0:0:0:
170,217,211646,1,8,0:0:0:0:
170,217,211723,2,0,L|159:159,1,40.4999987640381,8|8,0:0|0:0,0:0:0:0:
100,0,211877,6,0,L|92:55,1,40.4999987640381,14|0,1:2|0:0,0:0:0:0:
33,248,212031,2,0,L|25:187,1,49.5000015106202,8|8,0:0|0:0,0:0:0:0:
155,140,212185,5,8,0:0:0:0:
203,136,212262,1,8,0:0:0:0:
245,161,212339,1,10,0:0:0:0:
264,206,212416,1,8,0:0:0:0:
254,252,212492,1,10,0:0:0:0:
230,294,212569,1,8,0:0:0:0:
185,313,212646,1,10,0:0:0:0:
139,300,212723,1,8,0:0:0:0:
113,250,212800,5,2,1:2:0:0:
131,245,212877,1,8,1:3:0:0:
149,241,212954,1,8,1:3:0:0:
167,236,213031,1,8,1:3:0:0:
185,232,213108,1,10,0:0:0:0:
295,349,213262,1,2,1:2:0:0:
426,197,213416,6,0,P|419:256|412:315,1,94.499997116089,4|0,1:0|1:0,0:0:0:0:
246,140,213723,2,0,P|240:91|233:41,1,94.499997116089,10|0,0:0|0:0,0:0:0:0:
411,94,214031,1,2,1:2:0:0:
271,237,214185,1,0,1:0:0:0:
223,21,214339,6,0,B|111:4|111:4|58:36|81:96,1,188.999994232178,10|0,0:0|1:0,0:0:0:0:
175,255,214800,1,2,1:2:0:0:
5,187,214954,1,10,0:0:0:0:
188,137,215108,1,2,1:2:0:0:
188,137,215185,1,8,0:0:0:0:
188,137,215262,1,2,1:2:0:0:
41,327,215416,1,2,1:2:0:0:
253,342,215569,2,0,P|275:295|263:225,1,94.499997116089,10|2,0:0|0:0,0:0:0:0:
105,86,215877,5,6,1:2:0:0:
182,272,216031,1,0,1:0:0:0:
295,91,216185,2,0,B|378:97|378:97|413:131|413:131|493:138,1,188.999994232178,10|0,0:0|1:0,0:0:0:0:
311,201,216646,1,2,1:2:0:0:
424,20,216800,1,10,0:0:0:0:
479,226,216954,1,6,1:2:0:0:
265,96,217108,6,0,B|247:49|247:49|269:0,1,94.499997116089,8|0,0:2|1:0,0:0:0:0:
498,222,217416,2,0,B|516:269|516:269|494:319,1,94.499997116089,10|0,0:0|1:0,0:0:0:0:
336,368,217723,1,8,0:0:0:0:
336,368,217800,1,4,0:3:0:0:
336,368,217877,2,0,L|327:310,2,47.2499985580445,4|4|8,0:3|0:3|1:3,0:0:0:0:
274,187,218185,1,8,1:3:0:0:
182,340,218339,5,12,0:0:0:0:
148,354,218416,1,8,1:3:0:0:
110,355,218492,1,8,1:3:0:0:
76,342,218569,1,8,1:3:0:0:
50,315,218646,2,0,L|60:256,1,47.2499985580445,8|8,1:3|1:3,0:0:0:0:
110,94,218800,5,12,0:0:0:0:
143,78,218877,1,8,1:3:0:0:
181,77,218954,1,8,1:3:0:0:
214,91,219031,1,8,1:3:0:0:
241,117,219108,2,0,L|230:176,1,47.2499985580445,8|8,1:3|1:3,0:0:0:0:
322,296,219262,5,10,1:2:0:0:
346,293,219339,1,0,1:0:0:0:
370,291,219416,1,0,1:0:0:0:
395,287,219492,1,0,1:0:0:0:
420,286,219569,5,14,1:2:0:0:
329,129,219723,1,0,1:0:0:0:
505,67,219877,2,0,L|491:176,1,94.499997116089,14|2,0:0|1:2,0:0:0:0:
361,18,220185,1,14,1:2:0:0:
314,0,220262,1,8,0:0:0:0:
266,10,220339,1,8,0:0:0:0:
231,45,220416,1,8,0:0:0:0:
202,88,220492,1,8,0:0:0:0:
155,105,220569,1,8,0:0:0:0:
107,95,220646,1,8,0:0:0:0:
72,60,220723,1,8,0:0:0:0:
58,10,220800,6,0,P|50:77|46:125,1,94.499997116089,4|0,1:0|1:0,0:0:0:0:
191,284,221108,2,0,P|185:234|180:185,1,94.499997116089,10|0,0:0|1:0,0:0:0:0:
80,377,221416,1,10,0:0:0:0:
309,234,221569,1,0,1:0:0:0:
68,189,221723,1,10,0:0:0:0:
257,384,221877,1,0,1:0:0:0:
382,163,222031,6,0,P|329:136|281:141,1,94.499997116089,12|2,0:0|1:2,0:0:0:0:
408,369,222339,2,0,P|457:369|500:345,1,94.499997116089,10|2,0:0|1:2,0:0:0:0:
478,76,222646,1,10,0:0:0:0:
380,273,222800,1,2,1:2:0:0:
318,38,222954,1,10,0:0:0:0:
249,268,223108,5,2,1:2:0:0:
249,268,223185,1,0,1:0:0:0:
249,268,223262,2,0,B|200:287|200:287|144:269,1,94.499997116089,4|0,1:0|1:0,0:0:0:0:
144,30,223569,2,0,B|193:11|193:11|249:29,1,94.499997116089,10|0,0:0|1:0,0:0:0:0:
71,199,223877,1,10,0:0:0:0:
0,25,224031,1,0,1:0:0:0:
191,136,224185,1,10,0:0:0:0:
0,304,224339,1,0,1:0:0:0:
165,370,224492,6,0,P|217:362|265:357,1,94.499997116089,12|0,0:0|1:0,0:0:0:0:
380,266,224800,2,0,P|389:203|348:159,1,94.499997116089,10|0,0:0|0:0,0:0:0:0:
191,136,225108,5,8,0:0:0:0:
170,157,225210,2,0,L|185:228,1,62.9999980773926,8|8,0:0|0:0,0:0:0:0:
348,95,225416,5,8,0:3:0:0:
369,74,225518,2,0,L|354:3,1,62.9999980773926,8|8,0:3|0:3,0:0:0:0:
221,4,225723,6,0,B|118:4|177:72|45:68,1,170.999995433807,6|0,1:2|1:0,0:0:0:0:
215,201,226185,2,0,P|218:153|225:100,1,85.4999977169037,8|0,0:0|0:0,0:0:0:0:
98,301,226492,1,4,1:2:0:0:
23,177,226646,2,0,P|70:150|122:164,1,94.499997116089,8|4,0:0|1:2,0:0:0:0:
233,321,226954,5,2,0:0:0:0:
309,140,227108,2,0,P|316:191|323:241,1,85.4999977169037,8|2,0:0|0:0,0:0:0:0:
432,326,227416,1,0,1:0:0:0:
498,174,227569,2,0,P|448:158|402:182,1,85.4999977169037,10|0,0:0|1:0,0:0:0:0:
238,263,227877,2,0,P|288:279|334:255,1,85.4999977169037,10|2,0:0|1:2,0:0:0:0:
132,146,228185,6,0,P|119:236|106:323,1,170.999995433807,14|0,0:0|1:0,0:0:0:0:
329,178,228646,2,0,P|341:87|355:1,1,170.999995433807,8|0,0:0|1:0,0:0:0:0:
213,44,229108,2,0,B|233:84|233:84|212:127,1,85.4999977169037,10|0,0:0|1:0,0:0:0:0:
104,180,229416,5,6,1:2:0:0:
205,289,229569,2,0,P|252:284|301:281,1,85.4999977169037,8|2,0:0|0:0,0:0:0:0:
105,161,229877,1,2,1:2:0:0:
82,354,230031,2,0,P|30:370|-6:357,1,85.4999977169037,8|2,0:0|1:2,0:0:0:0:
29,145,230339,2,0,P|81:129|117:142,1,85.4999977169037,10|0,0:2|1:0,0:0:0:0:
209,301,230646,6,0,P|269:317|216:196,1,291.600007119141,4|0,1:0|0:0,0:0:0:0:
463,133,231877,2,0,B|449:169|391:173|391:173|368:121|297:104|297:104|356:106|384:62,1,291.600007119141,2|0,0:0|0:0,0:0:0:0:
184,27,232954,5,0,1:0:0:0:
182,38,233031,1,0,1:0:0:0:
181,49,233108,1,12,0:2:0:0:
303,199,233262,1,0,1:0:0:0:
90,270,233416,1,8,0:0:0:0:
266,89,233569,1,0,1:0:0:0:
206,351,233723,5,8,0:0:0:0:
0,187,233877,1,0,1:0:0:0:
241,109,234031,2,0,P|231:154|224:205,1,90,10|0,0:0|0:0,0:0:0:0:
316,375,234339,2,0,B|440:379|385:313|522:313,1,215.999993408203,6|0,1:2|1:0,0:0:0:0:
383,219,235108,1,8,0:0:0:0:
355,187,235185,1,8,0:0:0:0:
352,145,235262,1,10,0:0:0:0:
374,109,235339,1,8,0:0:0:0:
413,93,235416,1,10,0:0:0:0:
454,103,235492,1,8,0:0:0:0:
478,133,235569,6,0,P|483:80|490:24,1,99.0000030212403,4|0,1:0|1:0,0:0:0:0:
334,208,235877,1,10,0:2:0:0:
262,28,236031,1,2,0:0:0:0:
262,28,236108,1,8,0:0:0:0:
262,28,236185,2,0,P|314:12|361:31,1,99.0000030212403,2|2,1:2|1:2,0:0:0:0:
228,201,236492,1,10,0:0:0:0:
114,48,236646,1,2,0:0:0:0:
228,201,236800,6,0,P|220:253|214:303,1,99.0000030212403,6|2,1:2|1:2,0:0:0:0:
41,162,237108,1,10,0:0:0:0:
231,109,237262,1,2,0:0:0:0:
231,109,237339,1,8,0:0:0:0:
231,109,237416,1,2,1:2:0:0:
118,241,237569,1,2,1:2:0:0:
35,59,237723,2,0,B|82:40|82:40|142:48,1,99.0000030212403,10|2,0:0|0:0,0:0:0:0:
245,213,238031,5,2,1:2:0:0:
341,97,238185,2,0,P|331:41|326:-6,1,99.0000030212403,2|10,1:2|0:0,0:0:0:0:
245,213,238492,1,2,0:0:0:0:
435,139,238646,1,2,1:2:0:0:
252,75,238800,1,2,1:2:0:0:
397,252,238954,2,0,P|453:259|501:226,1,99.0000030212403,10|2,0:0|0:0,0:0:0:0:
247,201,239262,5,2,1:2:0:0:
244,225,239339,1,0,1:0:0:0:
242,249,239416,1,0,1:0:0:0:
239,274,239492,1,0,1:0:0:0:
237,299,239569,2,0,B|180:282|180:282|154:295|143:323,1,99.0000030212403,10|0,0:0|0:0,0:0:0:0:
32,152,239877,5,2,1:2:0:0:
47,132,239954,1,0,1:0:0:0:
68,120,240031,1,0,1:0:0:0:
92,114,240108,1,0,1:0:0:0:
119,120,240185,2,0,P|180:146|224:137,1,99.0000030212403,10|0,0:0|0:0,0:0:0:0:
298,25,240492,5,6,1:2:0:0:
382,149,240646,2,0,P|372:205|366:257,1,99.0000030212403,0|10,1:2|0:0,0:0:0:0:
261,339,240954,1,2,0:0:0:0:
261,339,241031,1,8,0:0:0:0:
261,339,241108,1,2,1:2:0:0:
451,303,241262,1,0,1:2:0:0:
292,181,241416,2,0,P|240:163|192:178,1,99.0000030212403,10|2,0:0|0:0,0:0:0:0:
82,344,241723,6,0,P|76:290|70:232,1,99.0000030212403,2|2,1:2|1:2,0:0:0:0:
209,75,242031,2,0,P|203:125|198:173,1,99.0000030212403,10|0,0:2|0:0,0:0:0:0:
117,13,242339,1,2,1:2:0:0:
312,83,242492,1,2,1:2:0:0:
117,13,242646,2,0,P|66:9|20:43,1,99.0000030212403,10|0,0:0|1:0,0:0:0:0:
21,64,242877,1,0,1:0:0:0:
21,64,242954,5,14,1:2:0:0:
205,193,243108,1,0,1:0:0:0:
2,275,243262,1,10,0:0:0:0:
128,99,243416,1,0,1:0:0:0:
138,316,243569,1,10,0:0:0:0:
0,151,243723,1,0,1:0:0:0:
217,222,243877,2,0,B|276:216|276:216|307:234|307:234|400:224,1,148.50000453186,10|0,0:0|0:0,0:0:0:0:
403,221,244185,5,6,1:2:0:0:
508,127,244339,1,8,0:0:0:0:
508,127,244416,1,8,0:0:0:0:
508,127,244492,2,0,L|495:71,1,49.5000015106202,8|8,0:0|0:0,0:0:0:0:
380,9,244646,1,10,1:3:0:0:
357,0,244723,1,8,1:3:0:0:
332,0,244800,1,4,0:3:0:0:
309,10,244877,1,4,0:3:0:0:
292,27,244954,1,6,0:3:0:0:
285,48,245031,1,4,0:3:0:0:
288,68,245108,2,0,P|296:110|301:152,1,80.9999975280763,12|0,0:0|0:0,0:0:0:0:
169,261,245416,5,6,1:2:0:0:
99,135,245569,2,0,P|151:115|204:127,1,99.0000030212403,0|10,1:0|0:0,0:0:0:0:
52,356,245877,2,0,B|55:234|55:234|0:166,1,198.000006042481,2|2,1:3|1:3,0:0:0:0:
211,44,246339,1,10,0:2:0:0:
156,213,246492,1,2,1:3:0:0:
85,27,246646,5,14,0:0:0:0:
253,191,246800,1,0,1:0:0:0:
298,3,246954,1,10,0:0:0:0:
144,110,247108,1,0,1:0:0:0:
349,145,247262,1,10,0:0:0:0:
349,145,247339,1,8,0:3:0:0:
349,145,247416,2,0,L|358:90,1,49.5000015106202,8|8,0:3|0:3,0:0:0:0:
239,207,247569,2,0,L|246:255,1,49.5000015106202,10|0,0:0|0:0,0:0:0:0:
270,369,247723,6,0,P|337:380|385:341,1,99.0000030212403,6|0,1:2|0:0,0:0:0:0:
421,192,248031,1,14,0:0:0:0:
502,292,248185,1,4,1:3:0:0:
502,292,248262,1,4,1:3:0:0:
502,292,248339,2,0,L|446:289,1,49.5000015106202,4|4,1:3|1:3,0:0:0:0:
323,148,248492,5,12,0:0:0:0:
323,148,248569,1,0,0:0:0:0:
323,148,248646,2,0,L|336:91,1,49.5000015106202,8|8,0:3|0:3,0:0:0:0:
216,218,248800,1,8,0:3:0:0:
216,218,248877,1,8,0:3:0:0:
216,218,248954,2,0,L|229:275,1,49.5000015106202,8|8,0:0|0:0,0:0:0:0:
153,357,249108,5,10,0:0:0:0:
108,376,249185,1,8,0:0:0:0:
61,365,249262,1,8,0:0:0:0:
30,327,249339,1,8,0:0:0:0:
36,293,249416,5,8,0:3:0:0:
40,260,249492,1,8,0:3:0:0:
45,227,249569,1,8,0:3:0:0:
50,195,249646,1,8,0:3:0:0:
55,165,249723,2,0,L|-10:156,1,49.5000015106202,10|8,1:2|1:2,0:0:0:0:
159,21,249877,1,8,1:2:0:0:
162,45,249954,1,8,1:2:0:0:
165,70,250031,1,12,1:2:0:0:
168,94,250108,1,8,1:2:0:0:
171,119,250185,6,0,B|213:128|238:118|238:118|267:141|267:141|288:122|314:110|314:110|302:138|310:172|310:172|331:155|350:157,1,251.999992309571,6|0,1:2|0:0,0:0:0:0:
