osu file format v14

[General]
AudioFilename: audio.mp3
AudioLeadIn: 0
PreviewTime: 185867
Countdown: 0
SampleSet: Soft
StackLeniency: 0.4
Mode: 0
LetterboxInBreaks: 0
WidescreenStoryboard: 1

[Editor]
Bookmarks: 37441,39749,45902,47287,71902,91595,100056,101441,121133,130364,140826,186364,205441,213441,220791,225714,235560,250175,250791
DistanceSpacing: 0.3
BeatDivisor: 4
GridSize: 32
TimelineZoom: 1.7

[Metadata]
Title:Mukoku
TitleUnicode:無告
Artist:MY FIRST STORY
ArtistUnicode:MY FIRST STORY
Creator:AirinCat
Version:Insane
Source:
Tags:mfs Kowari single hiro moriuchi Katou Nobuaki Nishizawa Teruki hiroki nob teru kid'z japanese rock jrock j-rock 森内寛樹 加藤伸明 佐々木翔平 西澤照貴
BeatmapID:2201899
BeatmapSetID:1047546

[Difficulty]
HPDrainRate:5
CircleSize:3.8
OverallDifficulty:7.6
ApproachRate:9
SliderMultiplier:1.6
SliderTickRate:1

[Events]
//Background and Video events
0,0,"harucute.jpg",0,0
//Break Periods
2,94231,99431
2,186329,204816
//Storyboard Layer 0 (Background)
//Storyboard Layer 1 (Fail)
//Storyboard Layer 2 (Pass)
//Storyboard Layer 3 (Foreground)
//Storyboard Layer 4 (Overlay)
//Storyboard Sound Samples

[TimingPoints]
5416,307.692307692308,4,2,2,30,1,0
12800,-181.818181818181,4,2,2,30,0,0
13416,-166.666666666667,4,2,2,50,0,0
14031,-125,4,2,1,50,0,0
15262,-100,4,2,1,76,0,0
15416,-100,4,2,2,76,0,0
20185,-100,4,2,2,76,0,0
25569,-105.263157894737,4,2,2,76,0,0
26185,-153.846153846154,4,2,2,76,0,0
27416,-153.846153846154,4,2,2,5,0,0
27569,-125,4,2,1,60,0,0
28800,-142.857142857143,4,2,1,50,0,0
29108,-200,4,2,1,50,0,0
31108,-133.333333333333,4,2,1,60,0,0
31416,-277.777777777778,4,2,1,60,0,0
32492,-125,4,2,1,60,0,0
33723,-142.857142857143,4,2,1,50,0,0
34031,-200,4,2,1,50,0,0
36031,-133.333333333333,4,2,1,60,0,0
36339,-277.777777777778,4,2,1,60,0,0
37416,-125,4,2,1,66,0,0
40954,-133.333333333333,4,2,1,70,0,0
41262,-133.333333333333,4,2,1,75,0,0
43262,-133.333333333333,4,2,1,75,0,0
44185,-117.647058823529,4,2,1,82,0,0
44800,-200,4,2,2,60,0,0
45724,-200,4,2,1,80,0,0
46031,-117.647058823529,4,2,1,80,0,0
47262,-181.818181818181,4,2,1,50,0,0
55724,-181.818181818181,4,2,1,60,0,0
56031,-117.647058823529,4,2,1,72,0,0
57108,-117.647058823529,4,2,1,78,0,0
62031,-125,4,2,1,80,0,0
63262,-125,4,2,1,80,0,0
64492,-166.666666666667,4,2,1,50,0,0
65416,-333.333333333334,4,2,1,46,0,0
66954,-142.857142857143,4,2,1,60,0,0
67262,-133.333333333333,4,2,1,64,0,0
67569,-125,4,2,1,72,0,0
67877,-117.647058823529,4,2,1,76,0,0
68185,-125,4,2,1,80,0,0
69262,-285.714285714287,4,2,1,80,0,0
70339,-285.714285714287,4,2,1,80,0,0
70647,-666.666666666676,4,2,10,60,0,0
71262,-117.64705882353,4,2,1,80,0,0
71877,-95.2380952380954,4,2,1,86,0,1
81723,-95.2380952380954,4,2,1,90,0,1
86646,-125,4,2,1,80,0,0
87416,-142.857142857143,4,2,1,80,0,0
87723,-111.111111111111,4,2,1,80,0,0
89108,-100,4,2,1,80,0,0
90339,-142.857142857143,4,2,1,80,0,0
90954,-142.857142857143,4,2,1,80,0,0
91570,-83.3333333333333,4,2,1,80,0,0
91724,-83.3333333333333,4,2,1,40,0,0
100031,-142.857142857143,4,2,1,50,0,0
101416,-133.333333333333,4,2,1,56,0,0
111262,-125,4,2,1,60,0,0
116185,-125,4,2,1,66,0,0
117416,-117.647058823529,4,2,1,68,0,0
118646,-200,4,2,1,80,0,0
119569,-142.857142857143,4,2,1,80,0,0
119877,-111.111111111111,4,2,1,80,0,0
120492,-111.111111111111,4,2,1,70,0,0
121108,-153.846153846154,4,2,1,60,0,0
128493,-142.857142857143,4,2,1,65,0,0
129313,-142.857142857143,4,2,1,70,0,0
130339,-111.111111111111,4,2,1,68,0,0
130954,-125,4,2,1,74,0,0
139262,-111.111111111111,4,2,1,76,0,0
140031,-111.111111111111,4,2,1,72,0,0
140492,-111.111111111111,4,2,1,76,0,0
140800,-95.2380952380952,4,2,1,86,0,1
150646,-95.2380952380952,4,2,1,90,0,1
154646,-105.263157894737,4,2,1,90,0,1
155569,-125,4,2,1,80,0,0
156339,-142.857142857143,4,2,1,80,0,0
156646,-111.111111111111,4,2,1,80,0,0
158031,-100,4,2,1,80,0,0
159416,-125,4,2,1,76,0,0
160185,-111.111111111111,4,2,1,80,0,0
160492,-105.263157894737,4,2,1,80,0,0
160646,-105.263157894737,4,2,2,80,0,0
178339,-105.263157894737,4,2,2,80,0,0
178800,-111.111111111111,4,2,1,80,0,0
178954,-111.111111111111,4,2,2,80,0,0
181108,-111.111111111111,4,2,2,86,0,0
181877,-166.666666666667,4,2,2,80,0,0
183108,-166.666666666667,4,2,1,70,0,0
205416,-153.846153846153,4,2,1,70,0,0
206031,-142.857142857143,4,2,1,70,0,0
210339,-111.111111111111,4,2,1,70,0,0
210954,-111.111111111111,4,2,1,80,0,0
212031,-111.111111111111,4,2,1,70,0,0
213416,-90.9090909090909,4,2,1,86,0,1
220800,-86.9565217391304,4,2,1,92,0,1
224492,-100,4,2,1,90,0,1
225108,-105.263157894737,4,2,1,86,0,1
225723,-117.64705882353,4,2,1,84,0,0
226492,-117.647058823529,4,2,1,86,0,0
226800,-117.64705882353,4,2,1,82,0,0
230646,-185.185185185185,4,2,1,80,0,0
233108,-99.9999999999999,4,2,1,84,0,0
234339,-181.818181818181,4,2,1,84,0,0
235108,-105.263157894737,4,2,2,76,0,0
235569,-105.263157894737,4,2,1,80,0,0
235723,-105.263157894737,4,2,2,80,0,0
245108,-105.263157894737,4,2,2,80,0,0
245416,-117.647058823529,4,2,2,82,0,0
246646,-105.263157894737,4,2,2,82,0,0
248954,-117.647058823529,4,2,2,88,0,0
250185,-142.857142857143,4,2,2,70,0,0
250801,-142.857142857143,4,2,2,10,0,0

[Colours]
Combo1 : 255,179,179
Combo2 : 202,162,147
Combo3 : 252,198,143

[HitObjects]
18,348,12800,6,0,L|13:299,3,44.0000013427735,2|2|2|2,0:0|0:0|0:0|0:0,0:0:0:0:
103,302,13416,2,0,L|107:350,1,47.9999985351563,2|2,0:0|0:0,0:0:0:0:
197,384,13723,1,2,0:0:0:0:
197,384,13877,1,2,0:0:0:0:
328,332,14031,6,0,L|392:325,1,64,2|2,0:0|0:0,0:0:0:0:
381,246,14339,2,0,L|316:252,1,64,2|2,0:0|0:0,0:0:0:0:
215,264,14646,1,2,1:3:0:0:
205,123,14800,5,10,0:0:0:0:
212,101,14877,1,8,0:0:0:0:
226,83,14954,1,8,0:0:0:0:
246,72,15031,1,8,0:0:0:0:
268,68,15108,1,8,0:0:0:0:
290,70,15185,1,8,0:0:0:0:
309,80,15262,6,0,L|319:159,1,80,4|0,1:0|1:0,0:0:0:0:
456,328,15569,2,0,L|466:248,1,80,10|0,0:0|0:0,0:0:0:0:
459,231,15800,1,8,0:0:0:0:
459,231,15877,2,0,L|380:246,1,80,2|2,1:2|1:2,0:0:0:0:
222,304,16185,2,0,L|300:319,1,80,10|2,0:0|0:0,0:0:0:0:
191,170,16492,5,2,1:2:0:0:
96,248,16646,1,2,1:2:0:0:
32,132,16800,2,0,L|41:47,1,80,10|0,0:0|0:0,0:0:0:0:
44,36,17031,1,8,0:0:0:0:
44,36,17108,2,0,L|134:43,1,80,2|2,1:2|1:2,0:0:0:0:
252,56,17416,1,10,0:0:0:0:
252,56,17569,1,2,0:0:0:0:
191,170,17723,5,2,1:2:0:0:
298,194,17877,1,2,1:2:0:0:
362,102,18031,2,0,L|354:6,1,80,10|2,0:0|0:0,0:0:0:0:
495,71,18339,1,2,1:2:0:0:
510,170,18492,1,2,1:2:0:0:
431,235,18646,2,0,L|345:231,1,80,10|2,0:0|1:2,0:0:0:0:
333,222,18877,1,0,1:0:0:0:
316,212,18954,6,0,P|321:253|329:301,1,80,14|0,0:0|1:0,0:0:0:0:
186,179,19262,2,0,P|183:215|177:260,1,80,10|0,0:0|1:0,0:0:0:0:
58,161,19569,1,10,0:0:0:0:
89,338,19723,1,0,1:2:0:0:
89,338,19800,1,0,1:0:0:0:
89,338,19877,2,0,L|134:333,3,40,10|8|8|8,0:0|0:0|0:0|0:0,0:0:0:0:
9,311,20185,6,0,L|-1:228,1,80,6|0,1:2|1:0,0:0:0:0:
190,99,20492,2,0,L|185:181,1,80,10|0,0:0|0:0,0:0:0:0:
200,204,20723,1,8,0:0:0:0:
200,204,20800,2,0,L|285:194,1,80,2|0,1:2|1:0,0:0:0:0:
475,278,21108,2,0,L|390:268,1,80,10|2,0:0|0:0,0:0:0:0:
303,96,21416,5,2,1:2:0:0:
399,171,21569,1,2,1:2:0:0:
291,313,21723,2,0,P|288:254|278:191,1,120,10|8,0:0|0:0,0:0:0:0:
292,175,22031,1,2,1:2:0:0:
395,268,22185,1,2,1:2:0:0:
492,165,22339,2,0,P|492:120|495:81,1,80,10|2,0:0|1:2,0:0:0:0:
364,0,22646,5,10,0:0:0:0:
344,5,22723,1,8,0:0:0:0:
329,18,22800,1,8,0:0:0:0:
319,35,22877,1,8,0:0:0:0:
320,54,22954,2,0,L|364:59,3,40,0|0|0|0,1:0|1:0|1:0|1:0,0:0:0:0:
356,139,23262,2,0,L|396:145,3,40,8|8|8|8,1:3|1:3|1:3|1:3,0:0:0:0:
400,227,23569,2,0,L|485:241,1,80,12|0,0:0|1:0,0:0:0:0:
245,284,23877,6,0,L|254:245,3,40,10|8|8|8,0:0|0:0|0:0|0:0,0:0:0:0:
195,189,24185,1,10,0:0:0:0:
121,329,24339,1,2,1:2:0:0:
135,333,24646,6,0,P|88:273|19:301,1,160,6|0,1:2|1:0,0:0:0:0:
195,189,25108,1,14,0:0:0:0:
138,111,25262,1,0,1:0:0:0:
36,132,25416,1,0,1:0:0:0:
202,208,25569,5,12,1:3:0:0:
209,224,25877,1,8,0:0:0:0:
215,240,26185,6,0,B|255:232|255:232|291:247|291:247|329:238|329:238|375:275|393:304|424:324|478:250|416:195|367:218|360:246|339:354,1,415.999980957032,12|0,0:0|0:0,0:0:0:0:
325,362,27569,6,0,P|261:353|194:348,1,128,4|0,1:2|0:0,0:0:0:0:
113,341,28031,1,2,1:3:0:0:
113,341,28800,6,0,L|116:279,1,55.9999982910157,2|2,0:0|0:0,0:0:0:0:
77,211,29108,2,0,P|38:132|84:87,1,160,2|0,0:0|0:0,0:0:0:0:
80,88,30031,2,0,P|121:104|160:95,1,80,2|2,0:0|0:0,0:0:0:0:
232,74,30492,2,0,P|270:67|306:84,1,80,2|2,0:0|0:0,0:0:0:0:
306,84,31108,6,0,L|296:156,1,60.0000022888184,2|0,1:3|0:0,0:0:0:0:
321,313,31416,6,0,P|382:283|377:215,1,144.000003515625,2|0,1:3|0:0,0:0:0:0:
378,216,32492,6,0,P|431:252|494:229,1,128,2|0,1:3|0:0,0:0:0:0:
441,170,32954,1,2,1:3:0:0:
441,170,33723,6,0,L|429:109,1,55.9999982910157,2|2,0:0|0:0,0:0:0:0:
486,27,34031,2,0,P|427:39|320:56,1,160,2|0,0:0|0:0,0:0:0:0:
328,54,34954,2,0,P|288:43|247:55,1,80,2|2,0:0|0:0,0:0:0:0:
182,85,35416,2,0,P|143:94|105:83,1,80,2|2,0:0|0:0,0:0:0:0:
105,83,36031,6,0,L|98:142,1,60.0000022888184,2|0,1:3|0:0,0:0:0:0:
21,250,36339,6,0,P|17:191|-3:99,1,144.000003515625,2|0,1:3|0:0,0:0:0:0:
0,108,37416,6,0,P|47:66|112:89,1,128,6|0,1:2|1:0,0:0:0:0:
192,140,37877,2,0,L|262:127,1,64,2|0,0:2|1:0,0:0:0:0:
352,177,38185,1,2,0:0:0:0:
352,177,38339,2,0,L|364:244,1,64,2|0,1:2|0:0,0:0:0:0:
285,345,38646,5,2,1:2:0:0:
210,294,38800,1,2,0:0:0:0:
125,324,38954,2,0,B|53:306|72:356|0:328,1,128,2|0,1:2|1:0,0:0:0:0:
1,329,39569,1,0,1:0:0:0:
103,212,39723,5,10,0:2:0:0:
103,212,40954,6,0,L|93:144,1,60.0000022888184,2|0,1:3|0:0,0:0:0:0:
210,27,41262,2,0,L|197:161,1,120.000004577637,2|8,1:3|0:3,0:0:0:0:
206,161,41646,1,8,0:3:0:0:
217,175,41723,2,0,L|285:161,1,60.0000022888184,8|8,0:3|0:3,0:0:0:0:
371,184,42031,1,4,0:3:0:0:
371,184,42185,1,4,0:3:0:0:
448,82,42339,6,0,P|458:139|474:219,1,120.000004577637,6|2,1:2|0:0,0:0:0:0:
404,343,42800,1,2,1:2:0:0:
276,279,42954,2,0,L|348:268,1,60.0000022888184,2|0,0:2|0:0,0:0:0:0:
210,367,43262,6,0,L|135:379,1,60.0000022888184,2|2,1:2|0:0,0:0:0:0:
28,258,43569,2,0,L|36:317,1,60.0000022888184,2|2,0:2|1:2,0:0:0:0:
157,288,43877,2,0,L|147:228,1,60.0000022888184,2|0,0:2|1:0,0:0:0:0:
65,153,44185,6,0,L|109:145,2,45.3333341979981,8|8|8,1:2|0:0|0:0,0:0:0:0:
87,67,44492,2,0,L|36:78,2,45.3333341979981,8|8|8,0:0|0:0|0:0,0:0:0:0:
161,40,44800,6,0,B|195:19|195:19|233:31,1,80,2|0,0:0|0:0,0:0:0:0:
247,176,45262,2,0,B|213:197|213:197|175:184,1,80,2|0,0:0|0:0,0:0:0:0:
319,94,45723,5,8,0:0:0:0:
397,234,45877,1,0,1:0:0:0:
479,111,46031,2,0,L|399:124,1,68.0000012969971,2|0,0:0|1:0,0:0:0:0:
397,234,46339,2,0,L|469:252,1,68.0000012969971,10|0,0:0|0:0,0:0:0:0:
268,271,46646,2,0,L|270:225,2,45.3333341979981,10|8|8,0:0|0:0|0:0,0:0:0:0:
324,338,46954,2,0,L|365:357,2,45.3333341979981,8|8|8,0:3|0:3|0:3,0:0:0:0:
228,350,47262,6,0,P|176:361|131:290,1,132.00000402832,6|2,1:2|1:2,0:0:0:0:
130,306,48031,2,0,P|92:281|46:285,1,88.000002685547,2|0,0:0|0:0,0:0:0:0:
9,201,48492,6,0,P|14:154|21:105,1,88.000002685547,2|2,1:2|0:0,0:0:0:0:
29,91,49108,1,2,1:2:0:0:
36,74,49416,1,2,1:2:0:0:
157,149,49723,6,0,P|195:142|304:129,1,132.00000402832,2|2,1:2|1:2,0:0:0:0:
287,130,50492,2,0,L|273:227,1,88.000002685547,2|0,0:0|0:0,0:0:0:0:
353,277,50954,6,0,P|391:256|434:261,1,88.000002685547,2|0,1:2|0:0,0:0:0:0:
448,278,51569,1,2,1:2:0:0:
458,297,51877,1,2,1:2:0:0:
489,138,52185,5,2,1:2:0:0:
494,127,52339,1,2,0:0:0:0:
498,119,52492,1,2,0:0:0:0:
503,109,52646,2,0,L|405:110,1,88.000002685547,2|0,1:2|0:0,0:0:0:0:
313,102,53108,1,2,1:2:0:0:
296,112,53416,6,0,L|302:203,1,88.000002685547,2|2,1:2|0:2,0:0:0:0:
229,266,53877,2,0,P|186:278|140:259,1,88.000002685547,2|0,1:2|0:0,0:0:0:0:
57,222,54339,1,2,1:2:0:0:
39,224,54646,6,0,L|28:136,1,88.000002685547,2|2,1:2|0:0,0:0:0:0:
72,54,55108,2,0,P|125:38|165:54,1,88.000002685547,2|2,1:2|1:2,0:0:0:0:
205,138,55569,1,2,0:0:0:0:
205,138,55646,1,2,0:0:0:0:
205,138,55723,1,2,1:3:0:0:
205,138,56031,5,8,0:0:0:0:
335,249,56185,1,8,0:0:0:0:
335,249,56492,6,0,L|330:195,2,45.3333341979981,8|8|8,0:0|0:0|0:0,0:0:0:0:
413,311,56800,2,0,L|408:365,2,45.3333341979981,8|8|8,0:3|0:3|0:3,0:0:0:0:
495,246,57108,6,0,P|518:205|481:128,1,136.000002593994,6|2,1:2|1:2,0:0:0:0:
397,84,57569,2,0,L|327:97,1,68.0000012969971,2|0,0:0|1:0,0:0:0:0:
263,195,57877,2,0,L|338:204,1,68.0000012969971,2|0,0:0|1:0,0:0:0:0:
181,55,58185,6,0,L|162:207,1,136.000002593994,14|0,0:0|0:0,0:0:0:0:
82,241,58646,2,0,L|12:226,1,68.0000012969971,2|0,1:2|0:0,0:0:0:0:
95,341,58954,2,0,L|163:336,1,68.0000012969971,2|0,1:2|0:0,0:0:0:0:
255,259,59262,1,2,1:2:0:0:
361,353,59416,5,8,0:0:0:0:
361,353,59492,1,8,0:0:0:0:
361,353,59569,2,0,P|424:360|465:307,1,136.000002593994,6|0,1:2|1:0,0:0:0:0:
369,178,60031,2,0,L|384:250,1,68.0000012969971,2|0,0:0|1:0,0:0:0:0:
507,117,60339,2,0,L|493:190,1,68.0000012969971,2|0,0:0|1:0,0:0:0:0:
352,75,60646,6,0,B|304:78|304:78|281:100|281:100|209:105,1,136.000002593994,12|2,0:0|0:0,0:0:0:0:
119,61,61108,1,0,1:2:0:0:
31,178,61262,1,4,0:3:0:0:
31,178,61339,1,4,0:3:0:0:
31,178,61416,2,0,L|16:102,1,68.0000012969971,2|4,1:2|0:3,0:0:0:0:
136,211,61723,1,4,0:3:0:0:
63,280,61877,1,4,0:3:0:0:
179,353,62031,6,0,B|237:341|237:341|245:343|245:343|309:332,1,128,6|2,1:2|1:2,0:0:0:0:
406,187,62492,1,2,0:0:0:0:
406,187,62646,2,0,P|342:201|336:263,1,128,0|0,1:0|1:0,0:0:0:0:
431,282,63108,1,2,0:0:0:0:
512,185,63262,6,0,P|499:146|477:54,1,128,14|2,0:0|1:2,0:0:0:0:
362,138,63723,1,10,0:0:0:0:
284,50,63877,1,8,1:2:0:0:
389,35,64031,1,10,0:0:0:0:
251,140,64185,1,10,1:2:0:0:
399,55,64339,1,10,0:0:0:0:
186,72,64492,6,0,L|79:60,1,95.9999970703126,4|0,1:0|0:0,0:0:0:0:
35,128,64954,2,0,P|48:171|61:223,1,95.9999970703126,2|0,0:0|0:0,0:0:0:0:
21,324,65416,2,0,P|78:303|144:298,1,119.999996337891,2|0,0:0|0:0,0:0:0:0:
136,297,66646,6,0,L|133:324,1,23.9999992675781,2|0,0:3|0:0,0:0:0:0:
247,377,66954,6,0,P|274:370|301:364,1,55.9999982910157,6|0,1:2|0:0,0:0:0:0:
275,240,67262,2,0,P|301:255|327:272,1,60.0000022888184,2|0,1:2|0:0,0:0:0:0:
372,137,67569,2,0,P|380:169|387:202,1,64,2|0,1:2|0:0,0:0:0:0:
512,105,67877,1,2,1:2:0:0:
489,201,68031,1,8,0:0:0:0:
422,36,68185,6,0,P|361:45|288:62,1,128,2|0,1:2|1:0,0:0:0:0:
234,171,68646,1,10,0:0:0:0:
234,171,68723,1,8,0:0:0:0:
234,171,68800,2,0,L|313:154,1,64,10|8,1:2|0:3,0:0:0:0:
138,99,69108,1,4,0:3:0:0:
61,290,69262,6,0,P|116:280|134:183,1,167.999994873047,12|0,0:0|0:0,0:0:0:0:
61,290,70339,6,0,L|67:355,1,55.9999982910157,2|6,0:0|0:0,0:0:0:0:
66,345,71262,6,0,L|108:338,3,34.0000006484985,8|8|8|8,0:0|0:0|0:0|0:0,0:0:0:0:
181,368,71569,1,8,0:0:0:0:
204,365,71646,1,8,0:0:0:0:
227,360,71723,1,8,0:0:0:0:
250,354,71800,1,8,0:0:0:0:
271,349,71877,6,0,P|264:304|256:264,1,83.9999974365235,4|0,1:1|1:0,0:0:0:0:
393,117,72185,2,0,L|385:205,1,83.9999974365235,10|0,0:0|0:0,0:0:0:0:
379,226,72416,1,8,0:0:0:0:
379,226,72492,2,0,L|467:214,1,83.9999974365235,2|0,1:2|1:0,0:0:0:0:
301,55,72800,6,0,B|239:59|239:59|204:25|204:25|136:28,1,167.999994873047,10|0,0:0|1:0,0:0:0:0:
19,43,73262,1,2,1:2:0:0:
130,149,73416,1,10,0:0:0:0:
11,241,73569,1,2,1:2:0:0:
11,241,73646,1,8,0:0:0:0:
11,241,73723,2,0,L|1:149,1,83.9999974365235,2|2,1:2|1:2,0:0:0:0:
131,244,74031,1,10,0:0:0:0:
28,343,74185,1,2,0:0:0:0:
218,378,74339,6,0,B|234:339|234:339|223:299,1,83.9999974365235,6|0,1:2|1:0,0:0:0:0:
271,122,74646,2,0,B|254:161|254:161|266:201,1,83.9999974365235,10|0,0:0|0:0,0:0:0:0:
288,221,74877,1,8,0:0:0:0:
288,221,74954,2,0,L|378:217,1,83.9999974365235,2|0,1:2|1:0,0:0:0:0:
512,306,75262,6,0,B|474:284|474:284|443:210|509:168,1,167.999994873047,10|0,0:0|1:0,0:0:0:0:
460,38,75723,1,2,1:2:0:0:
350,131,75877,1,10,0:0:0:0:
239,15,76031,1,2,1:2:0:0:
239,15,76108,1,8,0:0:0:0:
239,15,76185,2,0,L|231:110,1,83.9999974365235,2|2,1:2|1:2,0:0:0:0:
97,262,76492,1,10,0:0:0:0:
68,95,76646,1,2,0:0:0:0:
205,183,76800,6,0,L|104:172,1,83.9999974365235,6|0,1:2|1:0,0:0:0:0:
5,301,77108,2,0,B|23:341|74:337|74:337|109:309|96:261,1,167.999994873047,10|0,0:0|1:0,0:0:0:0:
21,175,77569,1,2,1:2:0:0:
21,175,77723,1,10,0:0:0:0:
205,183,77877,6,0,L|197:275,1,83.9999974365235,6|0,0:0|1:0,0:0:0:0:
270,366,78185,1,0,1:0:0:0:
413,268,78339,2,0,L|313:256,1,83.9999974365235,10|0,0:0|0:0,0:0:0:0:
316,248,78569,1,8,0:0:0:0:
305,238,78646,1,0,1:0:0:0:
393,376,78800,1,2,1:2:0:0:
506,253,78954,2,0,L|498:343,1,83.9999974365235,10|0,0:0|0:0,0:0:0:0:
305,238,79262,6,0,B|237:243|237:243|214:276|214:276|136:281,1,167.999994873047,2|8,1:2|0:0,0:0:0:0:
56,269,79723,1,0,0:0:0:0:
155,166,79877,1,2,1:2:0:0:
56,269,80031,1,0,1:0:0:0:
155,166,80185,2,0,L|145:82,1,83.9999974365235,10|0,0:0|1:0,0:0:0:0:
151,61,80416,1,0,1:0:0:0:
160,46,80492,6,0,P|204:42|247:36,1,83.9999974365235,14|0,0:0|1:0,0:0:0:0:
465,121,80800,1,14,0:0:0:0:
275,135,80954,1,2,1:2:0:0:
364,25,81108,1,6,1:2:0:0:
380,218,81262,1,8,0:0:0:0:
380,218,81339,1,8,0:0:0:0:
380,218,81416,2,0,L|380:265,3,41.9999987182618,8|8|8|8,1:2|0:0|0:0|0:0,0:0:0:0:
428,338,81723,6,0,L|523:314,1,83.9999974365235,4|0,1:0|1:0,0:0:0:0:
261,343,82031,2,0,L|165:323,1,83.9999974365235,10|0,0:0|0:0,0:0:0:0:
152,333,82262,1,8,0:0:0:0:
152,333,82339,2,0,P|172:296|172:255,1,83.9999974365235,2|0,1:2|1:0,0:0:0:0:
20,114,82646,6,0,P|38:196|52:280,1,167.999994873047,10|0,0:0|1:0,0:0:0:0:
148,154,83108,1,2,1:2:0:0:
262,279,83262,1,10,0:2:0:0:
322,132,83416,1,2,1:2:0:0:
322,132,83492,1,8,0:0:0:0:
322,132,83569,2,0,L|232:141,1,83.9999974365235,2|2,1:2|1:2,0:0:0:0:
405,274,83877,1,10,0:2:0:0:
496,131,84031,1,2,0:2:0:0:
493,331,84185,6,0,P|498:291|505:248,1,83.9999974365235,4|0,1:0|1:0,0:0:0:0:
398,79,84492,2,0,L|413:173,1,83.9999974365235,10|0,0:0|0:0,0:0:0:0:
425,191,84723,1,8,0:0:0:0:
425,191,84800,2,0,L|333:198,1,83.9999974365235,2|0,1:2|1:0,0:0:0:0:
196,371,85108,6,0,P|269:339|259:260,1,167.999994873047,10|0,0:0|1:0,0:0:0:0:
179,180,85569,1,0,1:0:0:0:
63,311,85723,2,0,P|53:261|43:224,1,83.9999974365235,10|0,0:0|1:0,0:0:0:0:
188,99,86031,1,10,0:2:0:0:
185,119,86108,1,8,0:3:0:0:
183,139,86185,1,8,0:3:0:0:
180,159,86262,1,8,0:3:0:0:
179,180,86339,2,0,P|245:168|311:163,1,125.999996154785,10|0,1:2|0:0,0:0:0:0:
323,173,86646,5,4,1:2:0:0:
412,216,86800,1,0,1:0:0:0:
493,157,86954,2,0,L|484:77,1,64,0|8,1:0|0:0,0:0:0:0:
494,76,87185,1,8,0:0:0:0:
506,65,87262,1,8,0:0:0:0:
378,17,87416,6,0,L|294:23,1,83.9999974365235,6|0,1:2|0:0,0:0:0:0:
286,40,87723,6,0,P|325:96|303:162,1,143.999995605469,4|0,1:2|1:0,0:0:0:0:
142,118,88185,2,0,L|219:112,1,71.9999978027344,8|0,0:0|1:0,0:0:0:0:
96,224,88492,1,8,0:0:0:0:
81,224,88569,1,8,0:3:0:0:
66,225,88646,1,8,0:3:0:0:
51,223,88723,1,8,0:3:0:0:
38,223,88800,2,0,P|37:175|32:143,1,71.9999978027344,14|0,0:0|1:0,0:0:0:0:
133,375,89108,6,0,P|170:358|193:327,1,80,14|0,0:0|1:0,0:0:0:0:
372,277,89416,2,0,P|336:256|289:254,1,80,8|0,0:0|1:0,0:0:0:0:
172,106,89723,2,0,P|172:144|189:184,1,80,8|0,0:0|1:0,0:0:0:0:
389,50,90031,2,0,P|352:28|311:25,1,80,10|0,0:0|0:0,0:0:0:0:
298,253,90339,6,0,B|343:255|376:236|376:236|416:244|416:244|465:229,1,167.999994873047,6|2,1:2|0:0,0:0:0:0:
493,152,90954,2,0,L|481:109,2,37.3333321940105,8|8|8,0:0|0:0|0:0,0:0:0:0:
460,230,91262,2,0,L|470:265,2,37.3333321940105,8|8|8,0:3|0:3|0:3,0:0:0:0:
382,190,91569,5,4,1:3:0:0:
256,192,91723,12,0,94031,0:0:0:0:
8,237,100031,6,0,L|2:204,2,27.9999991455078,0|0|2,3:0|3:0|3:0,0:0:0:0:
78,293,100339,1,0,1:0:0:0:
155,247,100492,2,0,L|216:242,1,55.9999982910157,8|8,0:0|0:3,0:0:0:0:
226,244,100723,1,8,0:3:0:0:
237,247,100800,2,0,L|232:187,1,55.9999982910157,4|4,0:3|1:3,0:0:0:0:
330,284,101108,1,8,0:0:0:0:
330,284,101416,6,0,P|391:275|453:265,2,120.000004577637,6|10|10,1:2|0:0|0:0,0:0:0:0:
408,134,102339,1,10,0:0:0:0:
488,189,102492,1,2,1:2:0:0:
512,107,102646,2,0,L|499:40,1,60.0000022888184,10|2,0:0|0:0,0:0:0:0:
419,8,102954,2,0,L|346:16,1,60.0000022888184,10|0,0:0|1:0,0:0:0:0:
343,19,103185,1,0,1:0:0:0:
331,29,103262,2,0,L|339:98,1,60.0000022888184,8|0,0:2|1:0,0:0:0:0:
284,168,103569,1,10,0:0:0:0:
284,168,103723,1,2,1:2:0:0:
138,92,103877,6,0,P|187:60|243:87,2,120.000004577637,14|10|8,0:0|0:0|0:0,0:0:0:0:
70,147,104646,2,0,L|3:128,1,60.0000022888184,2|8,1:2|0:0,0:0:0:0:
21,220,104954,1,2,1:2:0:0:
112,224,105108,6,0,L|173:213,1,60.0000022888184,10|2,0:0|0:0,0:0:0:0:
241,261,105416,2,0,L|254:330,1,60.0000022888184,10|0,0:0|1:0,0:0:0:0:
244,336,105646,1,0,1:0:0:0:
232,347,105723,2,0,L|163:360,1,60.0000022888184,8|0,0:0|1:0,0:0:0:0:
333,353,106031,2,0,L|402:366,1,60.0000022888184,8|0,0:0|1:0,0:0:0:0:
493,220,106339,6,0,P|484:273|476:348,2,120.000004577637,14|10|10,0:0|0:0|0:0,0:0:0:0:
447,144,107108,1,0,1:0:0:0:
374,192,107262,2,0,L|313:184,1,60.0000022888184,10|2,0:0|1:2,0:0:0:0:
196,119,107569,6,0,P|204:57|210:-12,2,120.000004577637,10|10|8,0:0|0:0|0:0,0:0:0:0:
118,172,108339,1,0,1:0:0:0:
118,172,108416,1,0,1:0:0:0:
118,172,108492,2,0,L|51:158,1,60.0000022888184,10|2,0:0|1:2,0:0:0:0:
202,244,108800,6,0,P|241:214|313:233,2,120.000004577637,12|10|8,0:0|0:0|0:0,0:0:0:0:
162,325,109569,2,0,L|174:392,1,60.0000022888184,2|8,1:2|0:0,0:0:0:0:
264,299,109877,1,2,1:2:0:0:
336,363,110031,6,0,L|401:350,1,60.0000022888184,10|2,0:0|1:2,0:0:0:0:
498,382,110339,2,0,L|475:262,1,120.000004577637,12|0,0:0|1:0,0:0:0:0:
487,168,110800,1,8,0:0:0:0:
497,154,110877,1,8,0:0:0:0:
507,139,110954,2,0,L|498:103,3,30.0000011444092,8|8|8|8,0:0|0:0|0:0|0:0,0:0:0:0:
434,58,111262,6,0,B|353:54|398:106|308:99,1,128,6|10,1:2|0:2,0:0:0:0:
225,59,111723,1,2,0:0:0:0:
184,137,111877,2,0,L|196:215,1,64,2|0,1:2|0:0,0:0:0:0:
271,258,112185,1,2,1:2:0:0:
271,258,112339,1,10,0:0:0:0:
198,318,112492,6,0,P|167:321|135:326,1,64,2|2,1:2|0:0,0:0:0:0:
15,366,112800,2,0,P|52:317|31:259,1,128,10|0,0:2|1:0,0:0:0:0:
32,260,113416,1,2,1:2:0:0:
117,229,113569,1,10,0:0:0:0:
42,149,113723,6,0,P|22:92|62:46,1,128,2|10,1:2|0:0,0:0:0:0:
155,29,114185,2,0,P|214:38|283:40,1,128,2|2,0:0|0:0,0:0:0:0:
381,22,114646,1,2,1:2:0:0:
381,22,114800,1,10,0:0:0:0:
343,106,114954,6,0,L|355:182,1,64,2|2,1:2|0:0,0:0:0:0:
435,275,115262,2,0,P|376:260|325:307,1,128,10|0,1:2|1:0,0:0:0:0:
397,352,115723,1,8,0:0:0:0:
512,241,115877,1,14,0:0:0:0:
512,241,116185,6,0,L|502:174,1,64,6|0,1:2|0:0,0:0:0:0:
478,86,116492,1,10,0:0:0:0:
402,141,116646,1,2,0:0:0:0:
334,73,116800,2,0,P|271:79|197:92,1,128,2|2,1:2|1:2,0:0:0:0:
120,25,117262,5,10,0:0:0:0:
46,89,117416,1,2,1:2:0:0:
110,157,117569,1,2,1:2:0:0:
31,263,117723,2,0,L|20:195,2,68.0000012969971,10|0|0,0:0|1:0|1:0,0:0:0:0:
113,365,118185,1,10,0:0:0:0:
198,260,118339,2,0,L|124:269,1,68.0000012969971,2|2,1:2|1:2,0:0:0:0:
303,384,118646,6,0,P|301:344|322:311,1,80,14|2,0:0|0:0,0:0:0:0:
475,241,119108,2,0,P|441:262|402:260,1,80,10|2,0:0|0:0,0:0:0:0:
297,169,119569,2,0,L|324:232,1,55.9999982910157,10|0,0:0|1:0,0:0:0:0:
484,126,119877,6,0,P|444:98|395:104,1,95.9999970703126,2|0,1:2|1:0,0:0:0:0:
390,118,120185,2,0,P|412:77|399:29,1,95.9999970703126,8|0,0:0|1:0,0:0:0:0:
317,0,120492,2,0,L|259:5,2,47.9999985351563,8|8|8,0:0|0:0|0:0,0:0:0:0:
210,61,120800,2,0,L|153:47,2,47.9999985351563,8|8|8,0:3|0:3|0:3,0:0:0:0:
245,143,121108,6,0,P|239:194|233:246,1,103.999995239258,6|2,1:2|0:0,0:0:0:0:
309,359,121621,2,0,P|267:335|213:351,1,103.999995239258,2|0,0:0|0:0,0:0:0:0:
139,371,122031,2,0,L|129:298,1,69.3333301595054,2|0,0:0|0:0,0:0:0:0:
81,235,122339,6,0,P|49:248|15:244,1,69.3333301595054,2|0,0:0|0:0,0:0:0:0:
6,166,122646,2,0,P|37:152|71:156,1,69.3333301595054,2|0,0:0|0:0,0:0:0:0:
146,183,122954,2,0,L|233:174,1,69.3333301595054,2|2,0:0|3:2,0:0:0:0:
259,109,123262,1,2,3:2:0:0:
396,187,123467,1,0,1:0:0:0:
386,173,123569,6,0,P|336:177|305:222,2,103.999995239258,2|2|2,1:2|0:0|0:0,0:0:0:0:
452,269,124390,2,0,P|422:309|371:313,1,103.999995239258,2|2,0:0|0:0,0:0:0:0:
294,299,124800,2,0,P|258:305|186:322,1,103.999995239258,2|0,0:0|0:0,0:0:0:0:
97,384,125262,1,0,3:0:0:0:
97,384,125339,1,0,3:0:0:0:
97,384,125416,2,0,L|71:272,1,103.999995239258,2|2,3:2|0:0,0:0:0:0:
82,137,125928,1,0,1:0:0:0:
90,158,126031,6,0,P|49:188|0:179,1,103.999995239258,6|2,1:2|0:0,0:0:0:0:
50,52,126544,2,0,P|103:57|167:62,1,103.999995239258,2|2,3:2|0:0,0:0:0:0:
214,112,126954,2,0,L|210:193,1,69.3333301595054,2|0,0:0|0:0,0:0:0:0:
270,256,127262,6,0,P|314:228|363:240,1,103.999995239258,2|2,0:0|0:0,0:0:0:0:
468,323,127774,2,0,L|477:216,1,103.999995239258,10|0,0:0|0:0,0:0:0:0:
442,147,128185,2,0,L|371:140,1,69.3333301595054,2|0,0:0|0:0,0:0:0:0:
292,132,128492,5,8,0:0:0:0:
205,258,128698,1,8,0:0:0:0:
164,131,128903,1,8,0:0:0:0:
308,233,129108,1,8,0:0:0:0:
122,232,129313,1,10,0:0:0:0:
238,68,129518,1,10,0:0:0:0:
280,327,129723,1,10,0:0:0:0:
280,327,130339,6,0,L|237:322,3,35.9999989013672,8|8|8|8,0:0|0:0|0:0|0:0,0:0:0:0:
168,368,130646,2,0,L|76:357,1,71.9999978027344,10|0,0:0|0:0,0:0:0:0:
8,126,130954,5,14,0:0:0:0:
77,239,131108,2,0,L|84:168,1,64,8|0,0:0|1:0,0:0:0:0:
83,175,131569,1,0,1:0:0:0:
173,278,131723,2,0,L|180:207,1,64,10|0,0:0|1:0,0:0:0:0:
282,104,132031,6,0,L|275:184,1,64,10|0,0:0|1:0,0:0:0:0:
338,249,132339,1,8,0:0:0:0:
413,115,132492,2,0,L|406:195,1,64,2|2,1:2|0:0,0:0:0:0:
417,193,132723,1,8,0:0:0:0:
423,205,132800,2,0,L|506:190,1,64,10|8,0:0|0:3,0:0:0:0:
423,306,133108,1,4,0:3:0:0:
423,306,133262,1,4,0:3:0:0:
276,167,133416,5,14,0:0:0:0:
228,301,133569,2,0,L|218:233,1,64,8|0,0:0|1:0,0:0:0:0:
218,237,134031,1,0,1:0:0:0:
135,364,134185,2,0,L|125:296,1,64,10|0,0:0|1:0,0:0:0:0:
0,238,134492,6,0,L|68:228,1,64,10|0,0:2|1:0,0:0:0:0:
98,80,134800,2,0,L|108:148,1,64,10|0,0:2|1:0,0:0:0:0:
197,206,135108,1,2,1:2:0:0:
257,113,135262,2,0,L|302:105,3,32,10|8|8|8,1:2|1:2|0:0|0:0,0:0:0:0:
347,169,135569,2,0,L|392:161,3,32,8|8|8|8,1:2|0:0|0:0|0:0,0:0:0:0:
438,237,135877,6,0,P|388:274|398:335,1,128,4|2,1:2|1:2,0:0:0:0:
503,288,136339,2,0,B|484:236|484:236|497:214|497:214|483:169,1,128,10|0,0:0|1:0,0:0:0:0:
446,81,136800,1,8,0:0:0:0:
446,81,137108,5,6,1:2:0:0:
362,133,137262,2,0,P|293:125|280:66,1,128,0|8,1:0|0:0,0:0:0:0:
119,45,137723,2,0,L|198:28,1,64,2|0,1:2|1:0,0:0:0:0:
108,161,138031,1,10,0:0:0:0:
83,160,138108,1,8,0:0:0:0:
61,151,138185,1,8,0:0:0:0:
43,136,138262,1,8,0:0:0:0:
33,119,138339,6,0,P|40:185|44:258,1,128,6|0,1:2|1:0,0:0:0:0:
176,317,138800,1,8,0:0:0:0:
176,317,138877,1,8,0:0:0:0:
176,317,138954,2,0,L|214:312,3,32,8|8|8|8,0:0|0:0|0:0|0:0,0:0:0:0:
273,261,139262,2,0,L|318:256,1,35.9999989013672,10|8,1:2|0:0,0:0:0:0:
381,305,139416,2,0,L|417:300,1,35.9999989013672,10|8,0:0|0:0,0:0:0:0:
472,224,139569,5,8,1:3:0:0:
468,203,139646,1,8,0:3:0:0:
463,183,139723,1,8,0:3:0:0:
459,162,139800,1,8,0:3:0:0:
454,143,139877,2,0,L|496:138,1,35.9999989013672,8|4,1:3|1:3,0:0:0:0:
460,57,140031,2,0,L|414:64,5,35.9999989013672,8|4|4|4|4|4,1:2|0:3|0:3|0:3|1:3|1:3,0:0:0:0:
350,137,140492,5,10,0:0:0:0:
321,153,140569,1,8,0:0:0:0:
288,155,140646,1,8,0:0:0:0:
257,143,140723,1,8,0:0:0:0:
239,118,140800,6,0,L|227:29,1,83.9999974365235,4|0,1:0|1:0,0:0:0:0:
44,164,141108,2,0,L|58:252,1,83.9999974365235,10|0,0:0|0:0,0:0:0:0:
55,278,141339,1,8,0:0:0:0:
55,278,141416,2,0,P|99:269|146:260,1,83.9999974365235,2|0,1:2|1:0,0:0:0:0:
319,367,141723,6,0,P|256:347|275:258,1,167.999994873047,10|0,0:0|1:0,0:0:0:0:
400,188,142185,1,2,1:2:0:0:
282,94,142339,1,10,0:0:0:0:
422,8,142492,1,2,1:2:0:0:
422,8,142569,1,8,0:0:0:0:
422,8,142646,2,0,L|411:107,1,83.9999974365235,2|2,1:2|1:2,0:0:0:0:
471,272,142954,1,10,0:0:0:0:
512,137,143108,1,2,0:0:0:0:
299,181,143262,6,0,L|211:164,1,83.9999974365235,6|0,1:2|1:0,0:0:0:0:
74,339,143569,2,0,L|158:322,1,83.9999974365235,10|0,0:0|0:0,0:0:0:0:
182,328,143800,1,8,0:0:0:0:
182,328,143877,2,0,L|168:239,1,83.9999974365235,2|0,1:2|1:0,0:0:0:0:
23,108,144185,6,0,B|11:171|11:171|20:197|20:197|11:230|11:230|4:283,1,167.999994873047,10|0,0:0|1:0,0:0:0:0:
139,161,144646,2,0,B|177:146|177:146|225:169,1,83.9999974365235,2|8,1:2|0:0,0:0:0:0:
288,309,144954,1,2,1:2:0:0:
288,309,145031,1,8,0:0:0:0:
288,309,145108,2,0,L|298:218,1,83.9999974365235,2|0,1:2|1:0,0:0:0:0:
380,101,145416,1,10,0:0:0:0:
461,225,145569,1,2,0:0:0:0:
498,17,145723,6,0,L|509:106,1,83.9999974365235,6|0,1:2|1:0,0:0:0:0:
266,65,146031,2,0,B|353:34|353:34|388:57|378:106,1,167.999994873047,10|0,0:0|1:0,0:0:0:0:
271,183,146492,1,2,1:2:0:0:
271,183,146646,1,10,0:0:0:0:
112,17,146800,6,0,L|102:110,1,83.9999974365235,6|0,0:0|1:0,0:0:0:0:
178,197,147108,1,0,1:0:0:0:
301,66,147262,2,0,L|207:58,1,83.9999974365235,10|0,0:0|0:0,0:0:0:0:
206,70,147492,1,8,0:0:0:0:
196,81,147569,1,0,1:0:0:0:
271,183,147723,1,2,1:2:0:0:
405,57,147877,2,0,L|417:140,1,83.9999974365235,10|0,0:0|0:0,0:0:0:0:
474,291,148185,6,0,B|476:225|476:225|504:205|504:205|520:168|506:120,1,167.999994873047,6|8,1:2|0:0,0:0:0:0:
351,174,148646,1,2,0:0:0:0:
351,174,148723,1,8,0:0:0:0:
351,174,148800,2,0,L|366:268,1,83.9999974365235,0|0,1:0|1:0,0:0:0:0:
282,363,149108,2,0,L|198:347,1,83.9999974365235,10|0,0:0|1:0,0:0:0:0:
186,358,149339,1,0,1:0:0:0:
176,370,149416,5,14,1:2:0:0:
104,251,149569,1,2,1:2:0:0:
210,186,149723,1,14,0:0:0:0:
148,74,149877,1,2,1:2:0:0:
228,188,150031,1,6,1:2:0:0:
41,144,150185,1,8,0:0:0:0:
41,144,150262,1,8,0:0:0:0:
41,144,150339,2,0,L|-16:153,3,41.9999987182618,8|8|8|8,0:0|0:0|0:0|0:0,0:0:0:0:
0,228,150646,6,0,L|13:327,1,83.9999974365235,4|0,1:0|1:0,0:0:0:0:
158,158,150954,2,0,L|145:71,1,83.9999974365235,10|0,0:0|0:0,0:0:0:0:
134,62,151185,1,8,0:0:0:0:
134,62,151262,2,0,L|233:50,1,83.9999974365235,2|0,1:2|1:0,0:0:0:0:
383,188,151569,6,0,P|316:171|336:83,1,167.999994873047,10|0,0:0|1:0,0:0:0:0:
481,173,152031,1,2,1:2:0:0:
405,308,152185,1,10,0:0:0:0:
299,199,152339,1,2,1:2:0:0:
299,199,152416,1,8,0:0:0:0:
299,199,152492,2,0,L|399:185,1,83.9999974365235,2|2,1:2|1:2,0:0:0:0:
243,336,152800,1,10,0:0:0:0:
159,215,152954,1,2,0:0:0:0:
50,384,153108,6,0,L|26:281,1,83.9999974365235,4|0,1:0|1:0,0:0:0:0:
176,133,153416,2,0,L|155:236,1,83.9999974365235,10|0,0:0|0:0,0:0:0:0:
164,242,153646,1,8,0:0:0:0:
164,242,153723,2,0,L|78:225,1,83.9999974365235,2|0,1:2|1:0,0:0:0:0:
165,44,154031,6,0,B|265:39|211:103|326:87,1,167.999994873047,10|0,0:0|1:0,0:0:0:0:
389,9,154492,1,0,1:0:0:0:
333,162,154646,2,0,P|326:124|319:87,1,75.9999979705811,10|0,0:0|1:0,0:0:0:0:
457,79,154954,1,10,0:0:0:0:
452,101,155031,1,8,0:3:0:0:
448,123,155108,1,8,0:3:0:0:
443,145,155185,1,8,0:3:0:0:
438,167,155262,2,0,P|480:155|521:158,1,75.9999979705811,10|0,0:0|0:0,0:0:0:0:
375,272,155569,6,0,P|320:241|257:245,1,128,6|8,1:2|1:3,0:0:0:0:
172,292,156031,1,4,0:3:0:0:
172,292,156108,1,4,0:3:0:0:
172,292,156185,1,4,0:3:0:0:
112,183,156339,6,0,P|121:139|133:92,1,83.9999974365235,6|0,1:2|0:0,0:0:0:0:
129,78,156646,6,0,P|73:51|11:99,1,143.999995605469,4|0,1:2|1:0,0:0:0:0:
200,167,157108,2,0,P|230:157|269:149,1,71.9999978027344,8|0,0:0|1:0,0:0:0:0:
405,229,157416,1,8,0:0:0:0:
399,249,157492,1,8,0:3:0:0:
392,269,157569,1,8,0:3:0:0:
385,289,157646,1,8,0:3:0:0:
377,309,157723,2,0,P|335:298|301:297,1,71.9999978027344,14|0,0:0|1:0,0:0:0:0:
402,115,158031,6,0,P|436:96|458:62,1,80,14|0,0:0|1:0,0:0:0:0:
237,62,158339,2,0,P|202:43|180:9,1,80,8|0,0:0|1:0,0:0:0:0:
169,262,158646,2,0,P|208:263|243:244,1,80,8|0,0:0|1:0,0:0:0:0:
57,73,158954,2,0,P|36:106|34:146,1,80,14|0,0:0|0:0,0:0:0:0:
337,301,159262,6,0,B|375:292|375:292|386:293|386:293|431:285,1,80,6|0,1:2|1:0,0:0:0:0:
512,219,159569,1,10,1:2:0:0:
503,200,159646,1,8,0:0:0:0:
488,187,159723,1,8,0:0:0:0:
470,178,159800,1,8,0:0:0:0:
451,173,159877,2,0,L|454:117,3,32,8|8|8|8,1:2|0:0|0:0|0:0,0:0:0:0:
383,72,160185,2,0,L|386:16,3,35.9999989013672,8|8|8|8,1:2|1:2|1:2|1:2,0:0:0:0:
298,129,160492,6,0,P|261:122|222:113,1,75.9999979705811,4|0,1:0|1:2,0:0:0:0:
27,37,160800,2,0,P|64:30|103:21,1,75.9999979705811,10|2,0:0|0:0,0:0:0:0:
120,33,161031,1,8,0:0:0:0:
135,44,161108,1,2,1:2:0:0:
58,121,161262,1,2,1:2:0:0:
150,200,161416,1,10,0:0:0:0:
223,113,161569,1,2,0:0:0:0:
57,219,161723,6,0,L|62:294,1,75.9999979705811,2|2,1:2|1:2,0:0:0:0:
227,364,162031,2,0,L|221:288,1,75.9999979705811,10|2,0:0|0:0,0:0:0:0:
232,272,162262,1,8,0:0:0:0:
246,255,162339,1,2,1:2:0:0:
329,340,162492,1,2,1:2:0:0:
416,262,162646,1,10,0:0:0:0:
328,185,162800,1,2,0:0:0:0:
438,355,162954,6,0,L|518:337,1,75.9999979705811,2|2,1:2|1:2,0:0:0:0:
488,101,163262,2,0,P|434:112|416:167,1,113.999996955872,10|8,0:0|0:0,0:0:0:0:
432,184,163569,2,0,L|346:174,1,75.9999979705811,2|0,1:2|1:0,0:0:0:0:
256,242,163877,1,10,0:0:0:0:
256,242,164031,1,2,0:0:0:0:
186,44,164185,5,2,1:2:0:0:
262,117,164339,1,2,1:2:0:0:
178,183,164492,2,0,L|67:192,1,101.333330627441,10|2,0:0|0:0,0:0:0:0:
51,285,164800,1,2,1:2:0:0:
60,313,164877,1,2,1:2:0:0:
80,336,164954,1,2,1:2:0:0:
108,346,165031,1,2,1:2:0:0:
133,347,165108,2,0,L|126:270,1,75.9999979705811,10|0,0:0|0:0,0:0:0:0:
0,80,165416,6,0,B|-9:119|-9:119|15:160,1,75.9999979705811,6|2,1:2|1:2,0:0:0:0:
172,122,165723,2,0,B|179:85|179:85|153:47,1,75.9999979705811,10|0,0:0|0:0,0:0:0:0:
303,61,166031,1,2,1:2:0:0:
256,157,166185,1,2,1:2:0:0:
321,255,166339,2,0,L|380:238,2,50.6666653137207,10|2|2,0:0|0:0|0:0,0:0:0:0:
288,326,166646,6,0,P|287:266|233:238,1,113.999996955872,6|2,1:2|0:0,0:0:0:0:
217,231,166954,1,8,0:0:0:0:
115,274,167108,1,2,0:0:0:0:
39,196,167262,2,0,L|58:69,1,113.999996955872,2|2,1:2|0:0,0:0:0:0:
68,52,167569,1,8,0:0:0:0:
153,127,167723,1,2,1:2:0:0:
265,24,167877,6,0,L|189:14,1,75.9999979705811,14|8,1:2|0:3,0:0:0:0:
312,138,168185,1,8,0:3:0:0:
312,138,168262,1,8,0:3:0:0:
312,138,168339,2,0,L|302:216,1,75.9999979705811,14|4,0:0|0:3,0:0:0:0:
412,57,168646,1,4,0:3:0:0:
412,57,168723,1,4,0:3:0:0:
412,57,168800,2,0,L|501:69,1,75.9999979705811,14|4,0:0|1:3,0:0:0:0:
392,202,169108,5,10,0:0:0:0:
302,213,169262,1,0,1:0:0:0:
245,62,169416,1,10,0:0:0:0:
333,104,169569,1,0,1:0:0:0:
203,174,169723,1,10,1:2:0:0:
133,102,169877,1,8,1:2:0:0:
133,102,169954,1,8,0:0:0:0:
133,102,170031,2,0,L|81:105,3,37.9999989852906,8|8|8|8,0:0|0:0|0:0|0:0,0:0:0:0:
29,158,170339,6,0,P|36:196|42:243,1,75.9999979705811,4|0,1:2|1:0,0:0:0:0:
134,380,170646,2,0,P|175:344|168:289,1,113.999996955872,10|8,0:0|0:0,0:0:0:0:
161,263,170954,1,2,1:2:0:0:
284,329,171108,2,0,L|360:314,1,75.9999979705811,2|8,1:2|0:0,0:0:0:0:
299,217,171416,1,2,0:0:0:0:
462,366,171569,6,0,L|449:280,1,75.9999979705811,2|0,1:2|1:0,0:0:0:0:
507,155,171877,2,0,L|513:197,2,37.9999989852906,10|2|2,1:2|1:2|1:2,0:0:0:0:
356,119,172185,2,0,L|362:161,2,37.9999989852906,2|2|2,1:2|1:2|1:2,0:0:0:0:
472,10,172492,1,10,0:0:0:0:
476,20,172569,1,10,0:0:0:0:
480,30,172646,1,10,0:0:0:0:
484,40,172723,1,10,0:0:0:0:
487,50,172800,6,0,L|447:56,3,37.9999989852906,2|0|0|0,1:2|1:0|1:0|1:0,0:0:0:0:
371,14,173108,2,0,L|274:27,1,75.9999979705811,10|0,0:0|0:0,0:0:0:0:
235,135,173416,2,0,L|241:173,3,37.9999989852906,2|0|0|0,1:2|1:0|1:0|1:0,0:0:0:0:
161,85,173723,2,0,L|148:1,1,75.9999979705811,10|0,0:0|0:0,0:0:0:0:
37,181,174031,2,0,L|0:186,3,37.9999989852906,2|0|0|0,1:2|1:0|1:0|1:0,0:0:0:0:
87,243,174339,2,0,L|167:232,1,75.9999979705811,10|0,0:0|0:0,0:0:0:0:
306,369,174646,2,0,P|278:321|299:270,1,113.999996955872,2|2,1:2|1:2,0:0:0:0:
319,256,174954,1,8,0:2:0:0:
412,302,175108,1,2,1:2:0:0:
506,194,175262,6,0,L|496:116,1,75.9999979705811,6|0,1:2|1:0,0:0:0:0:
314,34,175569,2,0,P|332:91|409:76,1,151.999995941162,8|0,0:0|1:0,0:0:0:0:
303,15,176031,1,0,1:0:0:0:
239,116,176185,1,10,0:0:0:0:
327,187,176339,1,2,1:2:0:0:
241,322,176492,6,0,P|235:284|230:246,1,75.9999979705811,14|0,0:2|1:0,0:0:0:0:
79,40,176800,2,0,P|73:77|68:115,1,75.9999979705811,10|0,0:0|1:0,0:0:0:0:
32,274,177108,1,10,0:0:0:0:
57,290,177185,1,4,0:3:0:0:
86,296,177262,1,4,0:3:0:0:
114,285,177339,1,4,0:3:0:0:
136,264,177416,2,0,L|131:215,3,37.9999989852906,4|4|4|4,1:3|1:3|1:3|1:3,0:0:0:0:
220,145,177723,6,0,L|269:140,3,37.9999989852906,14|8|4|4,0:0|1:3|1:3|1:3,0:0:0:0:
332,189,178031,2,0,L|381:184,3,37.9999989852906,8|4|4|4,1:2|1:3|1:3|1:3,0:0:0:0:
432,129,178339,5,10,1:2:0:0:
429,113,178416,1,2,1:2:0:0:
425,98,178492,1,6,1:2:0:0:
422,82,178569,1,2,1:2:0:0:
418,67,178646,1,2,1:2:0:0:
414,52,178723,1,2,1:2:0:0:
411,37,178800,6,0,L|498:30,1,71.9999978027344,6|2,1:2|1:2,0:0:0:0:
304,90,179108,1,2,1:2:0:0:
304,90,179185,1,2,1:2:0:0:
304,90,179262,2,0,L|221:96,1,71.9999978027344,10|2,1:2|1:2,0:0:0:0:
44,46,179569,2,0,L|23:16,3,35.9999989013672,10|4|4|4,1:2|1:3|1:3|1:3,0:0:0:0:
138,42,179877,2,0,L|160:13,3,35.9999989013672,10|8|8|8,1:2|1:3|1:3|1:3,0:0:0:0:
93,119,180185,6,0,L|93:226,1,107.999996704102,14|0,0:0|0:0,0:0:0:0:
166,295,180492,2,0,L|213:290,3,35.9999989013672,8|8|10|8,0:0|0:0|0:0|0:0,0:0:0:0:
278,229,180800,2,0,L|325:224,3,35.9999989013672,8|8|8|8,0:0|0:0|0:0|0:0,0:0:0:0:
403,268,181108,1,10,0:0:0:0:
405,286,181185,1,8,0:0:0:0:
408,304,181262,1,8,0:0:0:0:
410,322,181339,1,8,0:0:0:0:
414,340,181416,1,14,0:0:0:0:
509,220,181646,5,14,0:0:0:0:
461,86,181877,5,14,0:0:0:0:
468,94,183108,1,0,1:0:0:0:
468,94,183185,1,0,1:0:0:0:
468,94,183262,1,8,1:2:0:0:
362,75,183416,1,0,1:0:0:0:
421,0,183569,1,0,1:0:0:0:
402,160,183723,5,10,0:0:0:0:
9,110,205416,6,0,L|47:103,3,25.9999988098145,12|4|4|4,0:0|1:3|1:3|1:3,0:0:0:0:
103,56,205723,2,0,L|116:145,1,77.9999964294435,8|0,0:0|0:0,0:0:0:0:
112,157,206031,6,0,P|154:122|214:132,1,111.999996582031,6|0,1:2|1:0,0:0:0:0:
208,319,206492,2,0,P|195:251|177:196,1,111.999996582031,8|0,0:0|1:0,0:0:0:0:
291,122,206954,1,8,0:0:0:0:
291,122,207262,5,0,1:0:0:0:
385,243,207416,2,0,L|408:133,1,111.999996582031,8|0,0:0|1:0,0:0:0:0:
409,120,207800,1,0,1:0:0:0:
408,109,207877,2,0,L|483:120,1,55.9999982910157,12|2,0:2|1:2,0:0:0:0:
355,16,208185,2,0,L|280:5,1,55.9999982910157,10|0,0:0|0:0,0:0:0:0:
226,137,208492,6,0,B|231:184|231:184|224:203|224:203|231:246,1,111.999996582031,12|2,0:0|1:2,0:0:0:0:
134,310,208954,1,2,0:0:0:0:
17,268,209108,1,2,1:2:0:0:
1,131,209262,1,2,0:0:0:0:
117,51,209416,1,2,1:2:0:0:
122,186,209569,5,8,0:0:0:0:
122,186,210339,5,8,0:0:0:0:
124,211,210416,1,4,1:3:0:0:
126,235,210492,1,4,1:3:0:0:
128,260,210569,1,4,1:3:0:0:
131,284,210646,2,0,P|187:296|209:343,1,107.999996704102,10|0,1:2|0:0,0:0:0:0:
200,361,210954,5,6,1:2:0:0:
304,272,211108,1,8,0:0:0:0:
304,272,211185,1,8,0:0:0:0:
304,272,211262,2,0,L|305:325,2,35.9999989013672,10|8|12,0:0|0:0|1:2,0:0:0:0:
413,335,211569,1,10,0:0:0:0:
413,335,211646,1,8,0:0:0:0:
413,335,211723,2,0,L|409:279,2,35.9999989013672,8|8|14,0:0|0:0|1:2,0:0:0:0:
504,250,212031,1,8,0:0:0:0:
504,250,212108,1,8,0:0:0:0:
504,250,212185,6,0,L|507:295,3,35.9999989013672,8|8|10|8,0:0|0:0|0:0|0:0,0:0:0:0:
404,209,212492,2,0,L|401:173,3,35.9999989013672,10|8|10|8,0:0|0:0|0:0|0:0,0:0:0:0:
490,117,212800,2,0,L|487:81,3,35.9999989013672,2|8|8|8,1:2|1:3|1:3|1:3,0:0:0:0:
392,10,213108,2,0,L|395:81,1,71.9999978027344,10|2,1:2|1:2,0:0:0:0:
167,140,213416,6,0,P|221:123|258:114,1,88.000002685547,4|0,1:0|1:0,0:0:0:0:
153,353,213723,2,0,P|99:336|61:327,1,88.000002685547,10|0,0:0|0:0,0:0:0:0:
298,245,214031,2,0,P|314:299|323:336,1,88.000002685547,2|0,1:2|1:0,0:0:0:0:
9,223,214339,6,0,P|30:163|48:50,1,176.000005371094,10|0,0:0|1:0,0:0:0:0:
178,152,214800,1,2,1:2:0:0:
66,48,214954,1,10,0:0:0:0:
231,2,215108,1,2,1:2:0:0:
231,2,215185,1,8,0:0:0:0:
231,2,215262,2,0,L|236:98,1,88.000002685547,2|2,1:2|1:2,0:0:0:0:
375,173,215569,1,10,0:0:0:0:
415,38,215723,1,2,0:0:0:0:
235,89,215877,6,0,L|331:78,1,88.000002685547,6|0,1:2|1:0,0:0:0:0:
410,255,216185,2,0,P|339:272|293:184,1,176.000005371094,10|0,0:0|1:0,0:0:0:0:
455,128,216646,1,2,1:2:0:0:
455,128,216800,1,10,0:0:0:0:
290,194,216954,6,0,P|253:187|189:180,1,88.000002685547,6|8,1:2|0:2,0:0:0:0:
88,111,217262,1,0,1:0:0:0:
230,0,217416,2,0,L|221:93,1,88.000002685547,10|0,0:0|1:0,0:0:0:0:
9,155,217723,2,0,L|3:107,3,44.0000013427735,8|4|4|4,0:0|0:3|0:3|0:3,0:0:0:0:
91,199,218031,2,0,L|97:246,3,44.0000013427735,10|8|8|8,1:3|1:3|1:3|1:3,0:0:0:0:
25,329,218339,6,0,L|12:239,1,88.000002685547,12|10,0:0|1:3,0:0:0:0:
197,353,218646,1,8,1:3:0:0:
197,353,218723,1,8,1:3:0:0:
197,353,218800,2,0,L|107:371,1,88.000002685547,12|10,0:0|1:3,0:0:0:0:
236,195,219108,1,8,1:3:0:0:
236,195,219185,1,8,1:3:0:0:
236,195,219262,2,0,L|254:288,1,88.000002685547,10|0,1:2|1:0,0:0:0:0:
265,298,219492,1,0,1:0:0:0:
275,310,219569,6,0,L|376:287,1,88.000002685547,14|0,1:2|1:0,0:0:0:0:
512,248,219877,1,14,0:0:0:0:
352,160,220031,1,2,1:2:0:0:
512,96,220185,1,14,1:2:0:0:
416,9,220339,1,8,0:0:0:0:
416,9,220416,1,8,0:0:0:0:
416,9,220492,2,0,L|416:53,3,44.0000013427735,8|8|8|8,0:0|0:0|0:0|0:0,0:0:0:0:
338,77,220800,6,0,P|292:69|248:55,1,92.0000017547608,4|0,1:0|1:0,0:0:0:0:
166,257,221108,2,0,P|211:247|255:234,1,92.0000017547608,10|0,0:0|1:0,0:0:0:0:
14,73,221416,1,10,0:0:0:0:
14,73,221569,1,0,1:0:0:0:
50,288,221723,2,0,L|64:192,1,92.0000017547608,10|0,0:0|1:0,0:0:0:0:
192,0,222031,6,0,L|200:103,1,92.0000017547608,12|2,0:0|1:2,0:0:0:0:
255,233,222339,1,10,0:0:0:0:
385,104,222492,1,2,1:2:0:0:
447,292,222646,2,0,L|460:200,1,92.0000017547608,10|2,0:0|1:2,0:0:0:0:
282,140,222954,1,10,0:0:0:0:
324,344,223108,5,2,1:2:0:0:
324,344,223185,1,0,1:0:0:0:
324,344,223262,2,0,B|272:332|272:332|244:352|244:352|184:345,1,138.000002632141,4|0,1:0|0:0,0:0:0:0:
121,324,223569,2,0,B|94:286|94:286|103:241,1,92.0000017547608,10|0,0:0|1:0,0:0:0:0:
282,140,223877,2,0,L|168:151,1,92.0000017547608,10|0,0:0|1:0,0:0:0:0:
88,0,224185,2,0,B|118:38|118:38|113:87,1,92.0000017547608,10|0,0:0|1:0,0:0:0:0:
0,251,224492,5,12,0:0:0:0:
28,117,224646,1,0,1:0:0:0:
183,230,224800,2,0,L|94:242,1,80,10|0,0:0|0:0,0:0:0:0:
271,98,225108,2,0,L|264:42,2,50.6666653137207,8|8|8,0:0|0:0|0:0,0:0:0:0:
369,129,225416,2,0,L|410:86,2,50.6666653137207,8|8|8,0:3|0:3|0:3,0:0:0:0:
391,230,225723,6,0,P|430:284|418:350,1,136.000002593994,6|0,1:2|1:0,0:0:0:0:
263,311,226185,1,8,0:0:0:0:
263,311,226492,2,0,L|330:308,1,68.0000012969971,4|8,1:2|0:0,0:0:0:0:
186,337,226800,6,0,L|324:331,1,136.000002593994,4|8,1:2|0:0,0:0:0:0:
187,153,227262,2,0,L|178:230,1,68.0000012969971,2|0,0:0|1:0,0:0:0:0:
16,363,227569,2,0,L|4:291,1,68.0000012969971,10|0,0:0|1:0,0:0:0:0:
86,186,227877,1,10,0:0:0:0:
186,337,228031,1,2,1:2:0:0:
305,194,228185,6,0,B|316:141|316:141|300:109|300:109|312:64,1,136.000002593994,14|0,0:0|1:0,0:0:0:0:
503,73,228646,2,0,P|464:123|405:99,1,136.000002593994,8|0,0:0|1:0,0:0:0:0:
429,1,229108,1,10,0:0:0:0:
429,1,229416,5,6,1:2:0:0:
312,64,229569,2,0,B|271:57|271:57|245:40|245:40|215:47|168:37,1,136.000002593994,8|2,0:0|1:2,0:0:0:0:
89,79,230031,1,8,0:0:0:0:
152,149,230185,1,2,1:2:0:0:
69,275,230339,1,10,0:2:0:0:
53,188,230492,1,0,1:0:0:0:
182,39,230646,5,4,1:0:0:0:
216,42,232954,1,0,1:0:0:0:
216,42,233031,1,0,1:0:0:0:
216,42,233108,2,0,L|209:121,1,80,12|0,0:2|1:0,0:0:0:0:
267,298,233416,2,0,L|260:218,1,80,8|0,0:0|1:0,0:0:0:0:
126,39,233723,2,0,L|119:118,1,80,8|0,0:0|1:0,0:0:0:0:
359,292,234031,2,0,L|352:212,1,80,10|0,0:0|0:0,0:0:0:0:
20,232,234339,6,0,B|77:212|77:212|118:236|118:236|161:233|194:208,1,176.000005371094,6|0,1:2|1:0,0:0:0:0:
263,298,235108,1,8,0:0:0:0:
263,298,235185,1,8,0:0:0:0:
263,298,235262,2,0,L|268:351,3,37.9999989852906,10|8|10|8,0:0|0:0|0:0|0:0,0:0:0:0:
332,384,235569,6,0,P|367:377|410:370,1,75.9999979705811,4|0,1:0|1:0,0:0:0:0:
512,214,235877,2,0,P|476:207|434:200,1,75.9999979705811,10|0,0:2|0:0,0:0:0:0:
417,200,236108,1,8,0:0:0:0:
417,200,236185,2,0,L|430:286,1,75.9999979705811,2|2,1:2|1:2,0:0:0:0:
263,208,236492,2,0,L|276:122,1,75.9999979705811,10|2,0:0|0:0,0:0:0:0:
453,11,236800,5,6,1:2:0:0:
369,101,236954,1,2,1:2:0:0:
278,5,237108,2,0,L|184:-2,1,75.9999979705811,10|0,0:0|0:0,0:0:0:0:
180,2,237339,1,8,0:0:0:0:
180,2,237416,2,0,L|187:89,1,75.9999979705811,2|2,1:2|1:2,0:0:0:0:
104,139,237723,1,10,0:0:0:0:
104,139,237877,1,2,0:0:0:0:
187,78,238031,5,2,1:2:0:0:
217,184,238185,1,2,1:2:0:0:
127,255,238339,2,0,P|90:247|43:241,1,75.9999979705811,10|2,0:0|0:0,0:0:0:0:
103,359,238646,1,2,1:2:0:0:
210,360,238800,1,2,1:2:0:0:
229,259,238954,2,0,P|223:221|217:181,1,75.9999979705811,10|2,0:0|0:0,0:0:0:0:
370,268,239262,6,0,L|423:259,3,37.9999989852906,2|0|0|0,1:2|1:0|1:0|1:0,0:0:0:0:
434,176,239569,2,0,L|512:158,1,75.9999979705811,10|0,0:0|0:0,0:0:0:0:
381,4,239877,2,0,L|394:56,3,37.9999989852906,2|0|0|0,1:2|1:0|1:0|1:0,0:0:0:0:
323,99,240185,2,0,L|338:177,1,75.9999979705811,10|0,0:0|0:0,0:0:0:0:
176,27,240492,6,0,P|138:33|100:38,1,75.9999979705811,6|0,1:2|1:0,0:0:0:0:
3,222,240800,2,0,P|40:228|78:233,1,75.9999979705811,10|2,0:0|0:0,0:0:0:0:
195,116,241108,1,2,1:2:0:0:
76,133,241262,1,0,1:0:0:0:
166,284,241416,2,0,B|182:246|182:246|171:199,1,75.9999979705811,10|2,0:0|0:0,0:0:0:0:
17,37,241723,5,2,1:2:0:0:
17,37,241877,1,2,1:2:0:0:
152,128,242031,2,0,L|70:134,1,75.9999979705811,10|0,0:2|0:0,0:0:0:0:
212,28,242339,1,2,1:2:0:0:
212,28,242492,1,2,1:2:0:0:
320,149,242646,2,0,L|314:67,1,75.9999979705811,10|0,0:0|1:0,0:0:0:0:
319,60,242877,1,0,1:0:0:0:
325,52,242954,6,0,P|359:37|396:42,1,75.9999979705811,14|0,1:2|1:0,0:0:0:0:
283,250,243262,2,0,P|253:227|239:192,1,75.9999979705811,10|0,0:0|1:0,0:0:0:0:
508,185,243569,2,0,P|503:222|479:251,1,75.9999979705811,10|0,0:0|1:0,0:0:0:0:
320,149,243877,1,10,0:0:0:0:
320,149,244185,5,6,1:2:0:0:
375,264,244339,1,8,0:0:0:0:
375,264,244416,1,8,0:0:0:0:
375,264,244492,2,0,L|370:325,4,37.9999989852906,8|8|10|8|4,0:0|0:0|1:3|1:3|0:3,0:0:0:0:
204,365,244954,1,6,0:3:0:0:
204,365,245031,1,4,0:3:0:0:
204,365,245108,2,0,L|284:376,1,75.9999979705811,12|0,0:0|0:0,0:0:0:0:
121,231,245416,6,0,B|115:275|115:275|87:302|87:302|79:354,1,136.000002593994,6|10,1:2|0:0,0:0:0:0:
28,165,245877,1,2,1:3:0:0:
28,165,246185,1,2,1:3:0:0:
131,109,246339,1,10,0:2:0:0:
240,172,246492,1,2,1:3:0:0:
240,172,246569,1,0,1:3:0:0:
240,172,246646,6,0,B|275:155|275:155|311:161,1,75.9999979705811,14|0,0:0|1:0,0:0:0:0:
329,314,246954,2,0,B|294:331|294:331|257:324,1,75.9999979705811,10|0,0:0|1:0,0:0:0:0:
406,227,247262,2,0,L|452:221,3,37.9999989852906,10|8|8|8,0:0|0:3|0:3|0:3,0:0:0:0:
512,257,247569,1,10,0:0:0:0:
512,104,247723,6,0,B|449:111|449:111|421:94|421:94|365:103,1,151.999995941162,6|14,1:2|0:0,0:0:0:0:
229,212,248185,1,4,1:3:0:0:
244,222,248262,1,4,1:3:0:0:
262,228,248339,1,4,1:3:0:0:
280,224,248416,1,4,1:3:0:0:
293,215,248492,2,0,L|280:130,1,75.9999979705811,12|8,0:0|0:3,0:0:0:0:
190,67,248800,2,0,L|144:75,3,37.9999989852906,8|8|8|8,0:3|0:3|0:0|0:0,0:0:0:0:
90,144,249108,6,0,L|98:190,3,34.0000006484985,10|8|8|8,0:0|0:0|0:0|0:0,0:0:0:0:
37,238,249416,2,0,L|45:284,3,34.0000006484985,8|8|8|8,0:3|0:3|0:3|0:3,0:0:0:0:
118,322,249723,1,10,1:2:0:0:
134,317,249800,1,8,1:2:0:0:
150,312,249877,1,8,1:2:0:0:
166,306,249954,1,8,1:2:0:0:
181,299,250031,2,0,L|194:339,1,34.0000006484985,12|8,1:2|1:2,0:0:0:0:
304,358,250185,6,0,B|322:306|297:267|265:280|313:192|313:192|330:223|330:223|302:239,1,223.999993164063,6|0,1:2|0:0,0:0:0:0:
