osu file format v14

[General]
AudioFilename: audio.mp3
AudioLeadIn: 0
PreviewTime: 185867
Countdown: 0
SampleSet: Soft
StackLeniency: 0.5
Mode: 0
LetterboxInBreaks: 0
WidescreenStoryboard: 0

[Editor]
Bookmarks: 37441,39749,45902,47287,71902,91595,100056,101441,121133,130364,140826,186364,205441,213441,220791,225714,235560,250175,250791
DistanceSpacing: 0.7
BeatDivisor: 4
GridSize: 16
TimelineZoom: 1.8

[Metadata]
Title:Mukoku
TitleUnicode:無告
Artist:MY FIRST STORY
ArtistUnicode:MY FIRST STORY
Creator:AirinCat
Version:Extra
Source:
Tags:mfs Kowari single hiro moriuchi Katou Nobuaki Nishizawa Teruki hiroki nob teru kid'z japanese rock jrock j-rock 森内寛樹 加藤伸明 佐々木翔平 西澤照貴
BeatmapID:2189653
BeatmapSetID:1047546

[Difficulty]
HPDrainRate:6
CircleSize:4
OverallDifficulty:9
ApproachRate:9.4
SliderMultiplier:1.6
SliderTickRate:1

[Events]
//Background and Video events
0,0,"harucute.jpg",0,0
//Break Periods
2,94231,99451
2,186329,204791
//Storyboard Layer 0 (Background)
//Storyboard Layer 1 (Fail)
//Storyboard Layer 2 (Pass)
//Storyboard Layer 3 (Foreground)
//Storyboard Layer 4 (Overlay)
//Storyboard Sound Samples

[TimingPoints]
5416,307.692307692308,4,2,2,30,1,0
13416,-100,4,2,2,50,0,0
14031,-125,4,2,1,50,0,0
15262,-86.9565217391303,4,2,1,76,0,0
15416,-86.9565217391303,4,2,2,76,0,0
20185,-86.9565217391304,4,2,2,76,0,0
25569,-105.263157894737,4,2,2,76,0,0
26185,-166.666666666667,4,2,2,76,0,0
27416,-166.666666666667,4,2,2,5,0,0
27569,-125,4,2,1,60,0,0
28801,-250,4,2,1,50,0,0
31108,-117.647058823529,4,2,1,60,0,0
31416,-277.777777777778,4,2,1,60,0,0
32492,-125,4,2,1,60,0,0
33724,-250,4,2,1,50,0,0
36031,-117.647058823529,4,2,1,60,0,0
36339,-277.777777777778,4,2,1,60,0,0
37416,-125,4,2,1,66,0,0
40954,-117.647058823529,4,2,1,70,0,0
41262,-133.333333333333,4,2,1,75,0,0
43262,-117.647058823529,4,2,1,75,0,0
44185,-117.647058823529,4,2,1,82,0,0
44800,-200,4,2,2,60,0,0
45723,-200,4,2,1,70,0,0
46031,-117.647058823529,4,2,1,80,0,0
47262,-181.818181818181,4,2,1,50,0,0
55724,-181.818181818181,4,2,1,60,0,0
56031,-181.818181818181,4,2,1,72,0,0
57108,-117.647058823529,4,2,1,78,0,0
62031,-105.263157894737,4,2,1,80,0,0
63262,-100,4,2,1,80,0,0
64492,-166.666666666667,4,2,1,50,0,0
65416,-333.333333333334,4,2,1,46,0,0
66646,-166.666666666667,4,2,1,46,0,0
66954,-142.857142857143,4,2,1,60,0,0
67262,-133.333333333333,4,2,1,64,0,0
67569,-125,4,2,1,72,0,0
67877,-117.647058823529,4,2,1,76,0,0
68185,-105.263157894737,4,2,1,80,0,0
69262,-400.000000000003,4,2,1,80,0,0
70339,-666.666666666676,4,2,1,80,0,0
70647,-666.666666666676,4,2,10,60,0,0
71262,-117.64705882353,4,2,1,80,0,0
71877,-86.9565217391303,4,2,1,86,0,1
81723,-86.9565217391303,4,2,1,90,0,1
86646,-100,4,2,1,80,0,0
90339,-142.857142857143,4,2,1,80,0,0
90954,-90.9090909090909,4,2,1,80,0,0
91570,-83.3333333333333,4,2,1,80,0,0
91724,-83.3333333333333,4,2,1,40,0,0
100031,-142.857142857143,4,2,1,50,0,0
101416,-125,4,2,1,56,0,0
111262,-117.647058823529,4,2,1,60,0,0
116185,-111.111111111111,4,2,1,66,0,0
117416,-111.111111111111,4,2,1,68,0,0
118646,-200,4,2,1,80,0,0
119569,-142.857142857143,4,2,1,80,0,0
119877,-90.9090909090909,4,2,1,80,0,0
120492,-90.9090909090909,4,2,1,70,0,0
121108,-142.857142857143,4,2,1,60,0,0
128493,-142.857142857143,4,2,1,65,0,0
129313,-142.857142857143,4,2,1,70,0,0
130339,-100,4,2,1,68,0,0
130954,-100,4,2,1,74,0,0
139262,-90.9090909090909,4,2,1,76,0,0
140031,-90.9090909090909,4,2,1,72,0,0
140492,-90.9090909090909,4,2,1,76,0,0
140800,-86.9565217391303,4,2,1,86,0,1
150646,-86.9565217391303,4,2,1,90,0,1
155569,-100,4,2,1,80,0,0
159416,-100,4,2,1,76,0,0
160185,-100,4,2,1,80,0,0
160492,-90.9090909090909,4,2,1,80,0,0
160646,-90.9090909090909,4,2,2,80,0,0
178339,-90.9090909090909,4,2,2,80,0,0
178800,-83.3333333333333,4,2,2,80,0,0
178954,-83.3333333333333,4,2,2,80,0,0
181108,-90.9090909090909,4,2,2,86,0,0
181877,-166.666666666667,4,2,2,80,0,0
183108,-166.666666666667,4,2,1,70,0,0
205416,-142.857142857143,4,2,1,70,0,0
206031,-111.111111111111,4,2,1,70,0,0
210339,-111.111111111111,4,2,1,70,0,0
210954,-111.111111111111,4,2,1,80,0,0
212031,-90.9090909090908,4,2,1,70,0,0
213416,-86.9565217391303,4,2,1,86,0,1
220800,-83.3333333333333,4,2,1,92,0,1
224492,-86.9565217391303,4,2,1,90,0,1
225108,-86.9565217391303,4,2,1,86,0,1
225723,-105.263157894737,4,2,1,84,0,0
226492,-95.2380952380952,4,2,1,86,0,0
226800,-105.263157894737,4,2,1,82,0,0
230646,-185.185185185185,4,2,1,80,0,0
233108,-100,4,2,1,84,0,0
234339,-166.666666666667,4,2,1,84,0,0
235108,-105.263157894737,4,2,2,76,0,0
235569,-90.9090909090909,4,2,1,80,0,0
235723,-90.9090909090909,4,2,2,80,0,0
245108,-111.111111111111,4,2,2,80,0,0
245416,-90.9090909090909,4,2,2,82,0,0
248954,-90.9090909090909,4,2,2,88,0,0
250185,-142.857142857143,4,2,2,70,0,0
250801,-142.857142857143,4,2,2,10,0,0

[Colours]
Combo1 : 255,179,179
Combo2 : 202,162,147
Combo3 : 252,198,143

[HitObjects]
0,118,12800,5,2,0:0:0:0:
25,103,12954,1,2,0:0:0:0:
73,110,13108,1,2,0:0:0:0:
95,158,13262,1,2,0:0:0:0:
59,244,13416,1,2,0:0:0:0:
146,281,13569,1,2,0:0:0:0:
225,235,13723,1,2,0:0:0:0:
303,278,13877,1,2,0:0:0:0:
146,281,14031,6,0,L|133:357,1,64,2|2,0:0|0:0,0:0:0:0:
123,341,14339,2,0,L|134:271,1,64,2|2,0:0|0:0,0:0:0:0:
161,142,14646,1,2,1:3:0:0:
426,198,14800,5,10,0:0:0:0:
456,194,14877,1,8,0:0:0:0:
481,177,14954,1,8,0:0:0:0:
495,150,15031,1,8,0:0:0:0:
498,118,15108,1,8,0:0:0:0:
486,90,15185,1,8,0:0:0:0:
466,69,15262,6,0,P|418:65|373:58,1,92.0000017547608,4|0,1:0|1:0,0:0:0:0:
146,281,15569,2,0,P|194:274|250:270,1,92.0000017547608,10|0,0:0|0:0,0:0:0:0:
328,276,15800,1,8,0:0:0:0:
328,276,15877,1,2,1:2:0:0:
183,139,16031,1,2,1:2:0:0:
61,342,16185,1,10,0:0:0:0:
0,241,16339,1,2,0:0:0:0:
277,183,16492,5,2,1:2:0:0:
172,360,16646,1,2,1:2:0:0:
81,180,16800,2,0,L|92:73,1,92.0000017547608,10|0,0:0|0:0,0:0:0:0:
106,12,17031,1,8,0:0:0:0:
106,12,17108,1,2,1:2:0:0:
277,183,17262,1,2,1:2:0:0:
368,43,17416,1,10,0:0:0:0:
247,65,17569,1,2,0:0:0:0:
221,259,17723,5,2,1:2:0:0:
341,341,17877,1,2,1:2:0:0:
475,300,18031,2,0,L|482:207,1,92.0000017547608,10|2,0:0|0:0,0:0:0:0:
487,128,18262,1,8,0:0:0:0:
487,128,18339,1,2,1:2:0:0:
368,43,18492,1,2,1:2:0:0:
239,113,18646,1,10,0:0:0:0:
288,259,18800,1,2,1:2:0:0:
288,259,18877,1,0,1:0:0:0:
287,258,18954,6,0,P|329:237|377:241,1,92.0000017547608,14|0,0:0|1:0,0:0:0:0:
102,17,19262,2,0,P|123:59|127:105,1,92.0000017547608,10|0,0:0|1:0,0:0:0:0:
68,345,19569,1,10,0:0:0:0:
0,229,19723,1,0,1:2:0:0:
22,210,19800,1,0,1:0:0:0:
48,199,19877,1,10,0:0:0:0:
76,199,19954,1,8,0:0:0:0:
103,206,20031,1,8,0:0:0:0:
122,221,20108,1,8,0:0:0:0:
135,237,20185,6,0,L|226:219,1,92.0000017547608,6|0,1:2|1:0,0:0:0:0:
420,63,20492,2,0,P|370:56|323:45,1,92.0000017547608,10|0,0:0|0:0,0:0:0:0:
250,36,20723,1,8,0:0:0:0:
250,36,20800,1,2,1:2:0:0:
333,224,20954,1,0,1:0:0:0:
502,141,21108,1,10,0:0:0:0:
449,333,21262,1,2,0:0:0:0:
292,129,21416,5,2,1:2:0:0:
438,235,21569,1,2,1:2:0:0:
257,361,21723,2,0,L|240:269,1,92.0000017547608,10|0,0:0|0:0,0:0:0:0:
216,194,21954,1,8,0:0:0:0:
216,194,22031,1,2,1:2:0:0:
110,338,22185,1,2,1:2:0:0:
5,185,22339,2,0,L|119:173,1,92.0000017547608,10|2,0:0|1:2,0:0:0:0:
408,76,22646,5,10,0:0:0:0:
394,32,22723,1,8,0:0:0:0:
356,4,22800,1,8,0:0:0:0:
310,0,22877,1,8,0:0:0:0:
288,6,22954,1,0,1:0:0:0:
269,19,23031,1,0,1:0:0:0:
261,40,23108,1,0,1:0:0:0:
267,62,23185,1,0,1:0:0:0:
281,79,23262,6,0,L|351:74,1,46.0000008773804,8|8,1:3|1:3,0:0:0:0:
222,164,23416,2,0,L|292:159,1,46.0000008773804,8|8,1:3|1:3,0:0:0:0:
86,93,23569,2,0,L|188:85,1,92.0000017547608,12|0,0:0|1:0,0:0:0:0:
187,289,23877,5,10,0:0:0:0:
149,287,23954,1,8,0:0:0:0:
116,269,24031,1,8,0:0:0:0:
99,236,24108,1,8,0:0:0:0:
98,198,24185,5,10,0:0:0:0:
285,262,24339,1,2,1:2:0:0:
296,273,24646,6,0,P|356:252|408:308,1,138.000002632141,6|0,1:2|0:0,0:0:0:0:
411,318,24954,1,0,1:0:0:0:
464,25,25108,6,0,P|468:70|474:119,1,92.0000017547608,14|0,0:0|1:0,0:0:0:0:
483,239,25416,1,0,1:0:0:0:
277,122,25569,2,0,P|322:115|367:104,1,75.9999979705811,12|0,1:3|1:0,0:0:0:0:
188,268,25877,2,0,P|233:274|278:286,1,75.9999979705811,8|0,0:0|1:0,0:0:0:0:
39,64,26185,6,0,B|83:51|106:72|133:113|111:161|72:171|71:147|14:138|2:214|16:256|51:245|56:268|62:305|62:305|69:270|96:255,1,383.99998828125,12|0,0:0|0:0,0:0:0:0:
195,340,27569,6,0,P|253:326|328:320,1,128,4|0,1:2|0:0,0:0:0:0:
473,331,28031,2,0,P|453:326|405:321,1,64,2|0,1:3|0:0,0:0:0:0:
409,321,28800,5,2,0:0:0:0:
369,256,28954,1,2,0:0:0:0:
402,185,29108,2,0,P|408:132|405:79,1,96,2|0,0:0|0:0,0:0:0:0:
406,89,30031,2,0,P|369:92|339:81,1,64,2|2,0:0|0:0,0:0:0:0:
273,54,30492,2,0,P|240:50|210:61,1,64,2|2,0:0|0:0,0:0:0:0:
211,60,31108,6,0,L|219:127,1,68.0000012969971,2|0,1:3|0:0,0:0:0:0:
70,259,31416,6,0,P|87:191|153:187,1,144.000003515625,2|0,1:3|0:0,0:0:0:0:
151,186,32492,6,0,P|169:286|172:336,1,128,2|0,1:3|0:0,0:0:0:0:
263,384,32954,2,0,P|268:345|274:317,1,64,2|0,1:3|0:0,0:0:0:0:
273,320,33723,5,2,0:0:0:0:
337,276,33877,1,2,0:0:0:0:
398,325,34031,2,0,P|441:324|501:312,1,96,2|0,0:0|0:0,0:0:0:0:
492,314,34954,2,0,P|485:284|492:253,1,64,2|2,0:0|0:0,0:0:0:0:
512,179,35416,2,0,P|519:148|512:117,1,64,2|2,0:0|0:0,0:0:0:0:
512,117,36031,6,0,L|434:128,1,68.0000012969971,2|0,1:3|0:0,0:0:0:0:
227,41,36339,6,0,P|295:44|374:52,1,144.000003515625,2|0,1:3|0:0,0:0:0:0:
371,52,37416,6,0,P|317:81|320:141,1,128,6|0,1:2|1:0,0:0:0:0:
364,270,37877,2,0,L|377:208,1,64,2|0,0:2|1:0,0:0:0:0:
246,219,38185,1,2,0:0:0:0:
246,219,38339,2,0,L|258:281,1,64,2|0,1:2|0:0,0:0:0:0:
198,360,38646,5,2,1:2:0:0:
86,361,38800,1,2,0:0:0:0:
24,279,38954,2,0,P|37:215|43:145,1,128,2|0,1:2|1:0,0:0:0:0:
42,152,39569,1,0,1:0:0:0:
162,284,39723,5,10,0:2:0:0:
162,284,40954,6,0,L|236:277,1,68.0000012969971,2|0,1:3|0:0,0:0:0:0:
385,134,41262,2,0,P|329:149|321:226,1,120.000004577637,2|8,1:3|0:3,0:0:0:0:
319,222,41646,1,8,0:3:0:0:
327,235,41723,1,8,0:3:0:0:
394,305,41877,1,8,0:3:0:0:
492,270,42031,1,4,0:3:0:0:
490,175,42185,1,4,0:3:0:0:
299,76,42339,6,0,P|354:64|432:51,1,120.000004577637,6|2,1:2|0:0,0:0:0:0:
311,203,42800,1,2,1:2:0:0:
206,150,42954,1,2,3:2:0:0:
206,150,43031,1,0,3:0:0:0:
206,150,43108,1,0,3:0:0:0:
206,150,43185,1,0,3:0:0:0:
206,150,43262,2,0,L|198:223,1,68.0000012969971,2|2,1:2|0:0,0:0:0:0:
74,319,43569,6,0,L|63:233,1,68.0000012969971,2|2,0:2|1:2,0:0:0:0:
0,102,43877,1,2,3:2:0:0:
0,102,43954,1,0,3:0:0:0:
0,102,44031,1,0,3:0:0:0:
0,102,44108,1,8,3:2:0:0:
21,128,44185,5,8,1:2:0:0:
64,140,44287,1,8,0:0:0:0:
107,129,44390,1,8,0:0:0:0:
138,96,44492,1,8,0:0:0:0:
182,87,44595,1,8,0:0:0:0:
223,105,44698,1,8,0:0:0:0:
251,140,44800,6,0,L|341:120,1,80,2|0,0:0|0:0,0:0:0:0:
445,219,45262,2,0,L|355:197,1,80,2|0,0:0|0:0,0:0:0:0:
496,67,45723,5,8,0:0:0:0:
399,298,45877,1,0,1:0:0:0:
269,229,46031,2,0,P|304:222|353:210,1,68.0000012969971,2|0,0:0|1:0,0:0:0:0:
252,344,46339,2,0,P|219:333|169:322,1,68.0000012969971,10|0,0:0|0:0,0:0:0:0:
42,266,46646,5,10,0:0:0:0:
0,230,46749,1,8,0:0:0:0:
0,175,46851,1,8,0:0:0:0:
36,140,46954,1,8,0:3:0:0:
81,135,47057,1,8,0:3:0:0:
112,152,47159,1,8,0:3:0:0:
127,180,47262,6,0,P|170:170|229:162,1,88.000002685547,6|0,1:2|0:0,0:0:0:0:
330,82,47723,2,0,P|282:77|232:70,1,88.000002685547,2|2,1:2|0:0,0:0:0:0:
405,154,48185,2,0,L|415:149,6,11.0000003356934
395,160,48492,6,0,L|408:260,1,88.000002685547,2|2,1:2|0:0,0:0:0:0:
396,272,49108,1,2,1:2:0:0:
376,291,49416,1,2,1:2:0:0:
173,263,49723,6,0,P|204:237|262:239,1,88.000002685547,2|2,1:2|0:0,0:0:0:0:
133,351,50185,2,0,P|89:337|41:326,1,88.000002685547,2|2,1:2|0:0,0:0:0:0:
10,190,50646,2,0,L|13:179,6,11.0000003356934
19,168,50954,6,0,L|12:74,1,88.000002685547,2|0,1:2|0:0,0:0:0:0:
20,64,51569,1,2,1:2:0:0:
30,50,51877,1,2,1:2:0:0:
245,229,52185,5,2,1:2:0:0:
157,246,52339,1,2,0:0:0:0:
119,168,52492,1,2,0:0:0:0:
178,106,52646,2,0,P|225:112|274:118,1,88.000002685547,2|0,1:2|0:0,0:0:0:0:
437,75,53108,2,0,L|422:75,6,11.0000003356934,2|0|0|0|0|0|0,1:2|0:0|0:0|0:0|0:0|0:0|0:0,0:0:0:0:
412,75,53416,6,0,P|379:108|375:152,1,88.000002685547,2|2,1:2|0:2,0:2:0:0:
478,284,53877,2,0,P|460:238|420:218,1,88.000002685547,2|0,1:2|0:0,0:0:0:0:
348,225,54339,1,2,1:2:0:0:
348,239,54646,6,0,P|312:260|264:252,1,88.000002685547,2|2,1:2|0:0,0:0:0:0:
144,164,55108,2,0,L|197:154,1,44.0000013427735,2|0,1:2|0:0,0:0:0:0:
119,280,55416,2,0,L|75:270,1,44.0000013427735,2|2,1:2|0:0,0:0:0:0:
0,249,55646,1,2,0:0:0:0:
0,249,55723,1,2,1:3:0:0:
0,249,56031,5,8,0:0:0:0:
109,47,56185,1,8,0:0:0:0:
98,69,56492,5,8,0:0:0:0:
124,115,56595,1,8,0:0:0:0:
176,135,56698,1,8,0:0:0:0:
228,119,56800,1,8,0:3:0:0:
248,73,56903,1,8,0:3:0:0:
232,35,57005,1,8,0:3:0:0:
213,24,57108,6,0,L|212:174,1,136.000002593994,6|2,1:2|1:2,0:0:0:0:
103,265,57569,2,0,P|129:246|165:241,1,68.0000012969971,2|0,0:0|1:0,0:0:0:0:
330,261,57877,2,0,P|293:259|264:241,1,68.0000012969971,2|0,0:0|1:0,0:0:0:0:
382,0,58185,6,0,L|378:84,1,68.0000012969971,14|0,0:0|1:0,0:0:0:0:
512,170,58492,1,0,0:0:0:0:
512,170,58646,2,0,L|504:88,1,68.0000012969971,2|0,1:2|0:0,0:0:0:0:
356,234,58954,2,0,L|436:250,1,68.0000012969971,2|0,1:2|0:0,0:0:0:0:
292,128,59262,2,0,L|212:144,1,68.0000012969971,2|8,1:2|0:0,0:0:0:0:
149,165,59492,1,8,0:0:0:0:
121,170,59569,6,0,P|82:132|114:55,1,136.000002593994,6|0,1:2|1:0,0:0:0:0:
232,219,60031,2,0,L|224:294,1,68.0000012969971,2|0,0:0|1:0,0:0:0:0:
361,351,60339,2,0,L|353:276,1,68.0000012969971,2|0,0:0|1:0,0:0:0:0:
66,376,60646,6,0,L|-9:360,1,68.0000012969971,12|0,0:0|1:0,0:0:0:0:
96,252,60954,1,2,0:0:0:0:
188,334,61108,1,0,1:2:0:0:
264,189,61262,1,4,0:3:0:0:
264,189,61339,1,4,0:3:0:0:
264,189,61416,2,0,P|266:222|271:265,1,68.0000012969971,2|4,1:2|0:3,0:0:0:0:
361,351,61723,1,4,0:3:0:0:
493,324,61877,1,4,0:3:0:0:
432,110,62031,6,0,P|421:184|411:273,1,151.999995941162,6|2,1:2|1:2,0:0:0:0:
242,120,62492,1,2,0:0:0:0:
242,120,62646,2,0,L|320:103,1,75.9999979705811,0|0,1:0|0:0,0:0:0:0:
150,262,62954,2,0,P|191:269|240:284,1,75.9999979705811,0|2,1:0|0:0,0:0:0:0:
132,42,63262,6,0,P|57:47|44:143,1,160,14|2,0:0|1:2,0:0:0:0:
219,334,63723,1,10,0:0:0:0:
242,120,63877,1,8,1:2:0:0:
85,212,64031,1,10,0:0:0:0:
378,225,64185,1,10,1:2:0:0:
89,239,64339,1,10,0:0:0:0:
335,0,64492,6,0,P|328:45|324:113,1,95.9999970703126,4|0,1:0|0:0,0:0:0:0:
401,142,64954,2,0,P|448:126|491:155,1,95.9999970703126,2|0,0:0|0:0,0:0:0:0:
512,224,65416,2,0,P|505:265|497:345,1,119.999996337891,2|0,0:0|0:0,0:0:0:0:
508,354,66492,5,2,0:3:0:0:
508,354,66569,1,2,0:3:0:0:
508,354,66646,2,0,L|457:343,1,47.9999985351563,2|0,0:3|0:0,0:0:0:0:
186,333,66954,6,0,P|215:340|239:345,1,55.9999982910157,6|0,1:2|0:0,0:0:0:0:
276,171,67262,2,0,P|292:199|307:222,1,60.0000022888184,2|0,1:2|0:0,0:0:0:0:
466,122,67569,2,0,P|456:161|450:186,1,64,2|0,1:2|0:0,0:0:0:0:
319,58,67877,1,2,1:2:0:0:
460,0,68031,1,8,0:0:0:0:
291,54,68185,6,0,P|254:49|128:37,1,151.999995941162,2|0,1:2|1:0,0:0:0:0:
94,275,68646,1,10,0:0:0:0:
94,275,68723,1,8,0:0:0:0:
94,275,68800,1,10,1:2:0:0:
221,189,68954,1,8,0:3:0:0:
98,146,69108,1,4,0:3:0:0:
236,309,69262,6,0,L|361:286,1,120,12|0,0:0|0:0,0:0:0:0:
441,253,70339,6,0,L|436:229,1,23.9999992675781,2|6,0:0|0:0,0:0:0:0:
437,230,71262,5,8,0:0:0:0:
402,248,71339,1,8,0:0:0:0:
362,250,71416,1,8,0:0:0:0:
323,232,71492,1,8,0:0:0:0:
294,190,71569,1,8,0:0:0:0:
301,134,71646,1,8,0:0:0:0:
343,97,71723,1,8,0:0:0:0:
398,94,71800,1,8,0:0:0:0:
443,115,71877,6,0,L|453:15,1,92.0000017547608,4|0,1:1|1:0,0:0:0:0:
196,193,72185,2,0,L|210:287,1,92.0000017547608,10|0,0:0|0:0,0:0:0:0:
230,363,72416,1,8,0:0:0:0:
230,363,72492,1,2,1:2:0:0:
375,229,72646,1,0,1:0:0:0:
230,95,72800,6,0,B|156:86|156:86|114:117|114:117|46:108,1,184.000003509522,10|0,0:0|1:0,0:0:0:0:
97,1,73262,1,2,1:2:0:0:
196,193,73416,1,10,0:0:0:0:
24,217,73569,1,2,1:2:0:0:
24,217,73646,1,8,0:0:0:0:
24,217,73723,1,2,1:2:0:0:
174,317,73877,1,2,1:2:0:0:
230,95,74031,1,10,0:0:0:0:
57,109,74185,1,2,0:0:0:0:
253,278,74339,6,0,L|361:262,1,92.0000017547608,6|0,1:2|1:0,0:0:0:0:
424,79,74646,2,0,B|399:117|399:117|410:171,1,92.0000017547608,10|0,0:0|0:0,0:0:0:0:
442,242,74877,1,8,0:0:0:0:
442,242,74954,1,2,1:2:0:0:
512,41,75108,1,0,1:0:0:0:
251,136,75262,6,0,P|168:98|194:25,1,184.000003509522,10|0,0:0|1:0,0:0:0:0:
327,44,75723,1,2,1:2:0:0:
218,236,75877,1,10,0:0:0:0:
386,329,76031,1,2,1:2:0:0:
386,329,76108,1,8,0:0:0:0:
386,329,76185,1,2,1:2:0:0:
342,125,76339,1,2,1:2:0:0:
98,176,76492,1,10,0:0:0:0:
344,221,76646,1,2,0:0:0:0:
174,0,76800,6,0,P|169:44|161:100,1,92.0000017547608,6|0,1:2|1:0,0:0:0:0:
219,331,77108,2,0,B|261:268|211:218|211:218|169:221|153:249,1,184.000003509522,10|0,0:0|1:0,0:0:0:0:
22,327,77569,1,2,1:2:0:0:
4,157,77723,1,10,0:0:0:0:
225,348,77877,6,0,L|323:332,1,92.0000017547608,6|0,0:0|1:0,0:0:0:0:
495,299,78185,1,0,1:0:0:0:
391,94,78339,2,0,P|364:138|366:188,1,92.0000017547608,10|0,0:0|0:0,0:0:0:0:
393,260,78569,1,8,0:0:0:0:
393,260,78646,1,0,1:0:0:0:
512,178,78800,1,2,1:2:0:0:
276,122,78954,2,0,P|228:132|184:143,1,92.0000017547608,10|0,0:0|0:0,0:0:0:0:
16,0,79262,5,2,1:2:0:0:
173,49,79416,1,0,1:0:0:0:
40,242,79569,2,0,L|24:140,1,92.0000017547608,8|0,0:0|0:0,0:0:0:0:
276,122,79877,1,2,1:2:0:0:
175,252,80031,1,0,1:0:0:0:
345,356,80185,2,0,L|354:257,1,92.0000017547608,10|0,0:0|1:0,0:0:0:0:
415,192,80416,1,0,1:0:0:0:
418,212,80492,6,0,B|460:233|460:233|516:211,1,92.0000017547608,14|0,0:0|1:0,0:0:0:0:
427,10,80800,1,14,0:0:0:0:
236,132,80954,1,2,1:2:0:0:
38,10,81108,1,6,1:2:0:0:
157,37,81262,5,8,0:0:0:0:
154,69,81339,1,8,0:0:0:0:
138,99,81416,1,8,1:2:0:0:
111,121,81492,1,8,0:0:0:0:
79,134,81569,1,8,0:0:0:0:
45,129,81646,1,8,0:0:0:0:
18,117,81723,6,0,P|23:164|28:223,1,92.0000017547608,4|0,1:0|1:0,0:0:0:0:
300,219,82031,2,0,B|253:204|253:204|214:222,1,92.0000017547608,10|0,0:0|0:0,0:0:0:0:
142,269,82262,1,8,0:0:0:0:
142,269,82339,1,2,1:2:0:0:
254,384,82492,1,0,1:0:0:0:
436,207,82646,6,0,P|426:140|411:7,1,184.000003509522,10|0,0:0|1:0,0:0:0:0:
510,67,83108,1,2,1:2:0:0:
261,96,83262,1,10,0:2:0:0:
350,237,83416,1,2,1:2:0:0:
350,237,83492,1,8,0:0:0:0:
350,237,83569,1,2,1:2:0:0:
314,0,83723,1,2,1:2:0:0:
158,126,83877,1,10,0:2:0:0:
391,147,84031,1,2,0:2:0:0:
118,302,84185,6,0,P|70:296|18:292,1,92.0000017547608,4|0,1:0|1:0,0:0:0:0:
114,53,84492,2,0,B|150:79|150:79|157:126,1,92.0000017547608,10|0,0:0|0:0,0:0:0:0:
159,208,84723,1,8,0:0:0:0:
159,208,84800,1,2,1:2:0:0:
8,153,84954,1,0,1:0:0:0:
249,60,85108,6,0,B|283:37|334:52|334:52|358:103|418:103,1,184.000003509522,10|0,0:0|1:0,0:0:0:0:
419,7,85569,1,0,1:0:0:0:
288,237,85723,2,0,L|277:134,1,92.0000017547608,10|0,0:0|1:0,0:0:0:0:
472,248,86031,1,10,0:2:0:0:
460,274,86108,1,8,0:3:0:0:
452,301,86185,1,8,0:3:0:0:
456,329,86262,1,8,0:3:0:0:
469,354,86339,2,0,P|404:349|331:361,1,138.000002632141,10|0,0:2|0:0,0:0:0:0:
256,384,86646,5,4,1:2:0:0:
195,248,86800,1,0,1:0:0:0:
261,99,86954,2,0,L|253:9,1,80,0|8,1:0|0:0,0:0:0:0:
244,9,87185,1,8,0:0:0:0:
235,0,87262,1,8,0:0:0:0:
45,131,87416,6,0,P|99:110|103:48,1,120,6|0,1:2|0:0,0:0:0:0:
22,50,87723,2,0,P|28:108|38:212,1,160,4|0,1:2|1:0,0:0:0:0:
145,384,88185,1,8,0:0:0:0:
0,312,88339,1,0,1:0:0:0:
162,200,88492,1,8,0:0:0:0:
167,223,88569,1,8,0:3:0:0:
171,246,88646,1,8,0:3:0:0:
176,269,88723,1,8,0:3:0:0:
182,292,88800,2,0,L|93:308,1,80,14|0,0:0|1:0,0:0:0:0:
236,129,89108,5,14,0:0:0:0:
371,268,89262,1,0,1:0:0:0:
512,55,89416,1,8,0:0:0:0:
361,154,89569,1,0,1:0:0:0:
185,26,89723,1,8,0:0:0:0:
358,44,89877,1,0,1:0:0:0:
179,290,90031,2,0,L|164:198,1,80,10|0,0:0|0:0,0:0:0:0:
0,5,90339,6,0,P|14:68|113:67,1,167.999994873047,6|2,1:2|0:0,0:0:0:0:
185,26,90954,5,8,0:0:0:0:
245,8,91057,1,8,0:0:0:0:
301,24,91159,1,8,0:0:0:0:
316,74,91262,1,8,0:3:0:0:
298,111,91364,1,8,0:3:0:0:
269,121,91467,1,8,0:3:0:0:
251,114,91569,5,4,1:3:0:0:
256,192,91723,12,0,94031,0:0:0:0:
30,339,100031,5,0,3:0:0:0:
30,339,100108,1,0,3:0:0:0:
30,339,100185,2,0,L|104:329,1,55.9999982910157,2|0,3:0|1:0,0:0:0:0:
195,261,100492,2,0,L|136:248,1,55.9999982910157,8|8,0:0|0:3,0:0:0:0:
126,238,100723,1,8,0:3:0:0:
120,224,100800,1,4,0:3:0:0:
187,125,100954,1,4,1:3:0:0:
273,177,101108,2,0,P|306:170|333:166,1,55.9999982910157,8|0,0:0|0:0,0:0:0:0:
461,63,101416,6,0,P|418:101|443:180,2,128,6|10|10,1:2|0:0|0:0,0:0:0:0:
461,63,102339,1,10,0:0:0:0:
377,12,102492,1,2,1:2:0:0:
284,135,102646,6,0,L|291:59,1,64,10|2,0:0|0:0,0:0:0:0:
172,0,102954,2,0,L|181:64,1,64,10|0,0:0|1:0,0:0:0:0:
171,83,103185,1,0,1:0:0:0:
162,97,103262,1,8,0:2:0:0:
51,91,103416,1,0,1:0:0:0:
104,192,103569,1,10,0:0:0:0:
45,113,103723,1,2,1:2:0:0:
195,189,103877,6,0,B|250:173|250:173|271:181|271:181|331:164,2,128,14|10|8,0:0|0:0|0:0,0:0:0:0:
142,274,104646,2,0,L|163:335,1,64,2|8,1:2|0:0,0:0:0:0:
84,368,104954,1,2,1:2:0:0:
242,290,105108,6,0,P|276:288|305:298,1,64,10|2,0:0|0:0,0:0:0:0:
394,359,105416,2,0,L|457:350,1,64,10|0,0:0|1:0,0:0:0:0:
476,336,105646,1,0,1:0:0:0:
484,322,105723,1,8,0:0:0:0:
412,235,105877,1,0,1:0:0:0:
501,178,106031,1,8,0:0:0:0:
394,233,106185,1,0,1:0:0:0:
323,83,106339,6,0,P|384:88|413:144,2,128,14|10|10,0:0|0:0|0:0,0:0:0:0:
225,134,107108,1,0,1:0:0:0:
170,17,107262,1,10,0:0:0:0:
250,51,107416,1,2,1:2:0:0:
105,126,107569,6,0,P|97:57|87:-4,2,128,10|10|8,0:0|0:0|0:0,0:0:0:0:
8,239,108339,1,0,1:0:0:0:
8,239,108416,1,0,1:0:0:0:
8,239,108492,2,0,P|43:231|79:227,1,64,10|2,0:0|1:2,0:0:0:0:
218,307,108800,6,0,P|171:282|171:210,2,128,12|10|8,0:0|0:0|0:0,0:0:0:0:
323,324,109569,2,0,L|396:315,1,64,2|8,1:2|0:0,0:0:0:0:
484,299,109877,1,2,1:2:0:0:
362,146,110031,6,0,L|375:224,1,64,10|2,0:0|1:2,0:0:0:0:
510,66,110339,2,0,P|463:88|394:49,1,128,12|0,0:0|1:0,0:0:0:0:
292,3,110800,1,8,0:0:0:0:
260,0,110877,1,8,0:0:0:0:
229,10,110954,1,8,0:0:0:0:
206,33,111031,1,8,0:0:0:0:
194,62,111108,1,8,0:0:0:0:
198,93,111185,1,8,0:0:0:0:
215,125,111262,6,0,P|199:186|188:259,1,136.000002593994,6|10,1:2|0:2,0:0:0:0:
162,357,111723,1,2,0:0:0:0:
16,314,111877,2,0,L|95:302,1,68.0000012969971,2|0,1:2|0:0,0:0:0:0:
114,203,112185,1,2,1:2:0:0:
28,146,112339,1,10,0:0:0:0:
132,60,112492,6,0,L|53:49,1,68.0000012969971,2|2,1:2|0:0,0:0:0:0:
215,125,112800,2,0,B|262:108|262:108|296:117|296:117|353:98,1,136.000002593994,10|0,0:2|1:0,0:0:0:0:
465,57,113262,1,0,0:0:0:0:
422,159,113416,1,2,1:2:0:0:
375,21,113569,1,10,0:0:0:0:
429,184,113723,6,0,P|421:251|413:341,1,136.000002593994,2|10,1:2|0:0,0:0:0:0:
246,351,114185,2,0,P|285:355|325:363,1,68.0000012969971,2|0,0:0|1:0,0:0:0:0:
273,249,114492,1,2,0:0:0:0:
162,348,114646,1,2,1:2:0:0:
78,290,114800,1,10,0:0:0:0:
175,187,114954,6,0,L|164:264,1,68.0000012969971,2|2,1:2|0:0,0:0:0:0:
15,182,115262,2,0,P|69:144|60:58,1,136.000002593994,10|0,1:2|1:0,0:0:0:0:
0,0,115723,1,8,0:0:0:0:
85,64,115877,2,0,L|192:48,1,102.000001945496,14|0,0:0|0:0,0:0:0:0:
240,108,116185,6,0,L|223:188,1,71.9999978027344,6|0,1:2|0:0,0:0:0:0:
342,334,116492,1,10,0:0:0:0:
430,294,116646,1,2,0:0:0:0:
348,229,116800,2,0,B|266:221|300:279|216:270,1,143.999995605469,2|2,1:2|1:2,0:0:0:0:
142,203,117262,1,10,0:0:0:0:
315,127,117416,5,2,1:2:0:0:
435,177,117569,1,2,1:2:0:0:
424,20,117723,2,0,L|398:108,1,71.9999978027344,10|0,0:0|1:0,0:0:0:0:
507,97,118031,1,0,1:0:0:0:
323,19,118185,1,10,0:0:0:0:
196,101,118339,1,2,1:2:0:0:
154,0,118492,1,2,1:2:0:0:
276,126,118646,6,0,P|267:168|260:217,1,80,14|2,0:0|0:0,0:0:0:0:
471,363,119108,2,0,P|456:319|443:273,1,80,10|2,0:0|0:0,0:0:0:0:
127,354,119569,2,0,P|158:363|188:378,1,55.9999982910157,10|0,0:0|1:0,0:0:0:0:
191,84,119877,6,0,P|150:98|136:175,1,117.333336914063,2|0,1:2|1:0,0:0:0:0:
173,257,120185,2,0,P|180:214|121:163,1,117.333336914063,8|0,0:0|1:0,0:0:0:0:
4,176,120492,5,8,0:0:0:0:
17,200,120595,1,8,0:0:0:0:
42,214,120698,1,8,0:0:0:0:
71,219,120800,1,8,0:3:0:0:
98,211,120903,1,8,0:3:0:0:
120,189,121005,1,8,0:3:0:0:
132,165,121108,6,0,P|123:103|115:37,1,111.999996582031,6|2,1:2|0:0,0:0:0:0:
318,2,121621,2,0,P|270:13|255:72,1,111.999996582031,2|0,0:0|0:0,0:0:0:0:
311,130,122031,2,0,P|347:125|388:119,1,74.6666643880209,2|0,0:0|0:0,0:0:0:0:
439,202,122339,6,0,P|420:229|418:281,1,74.6666643880209,2|0,0:0|0:0,0:0:0:0:
305,282,122646,2,0,P|295:246|270:218,1,74.6666643880209,2|0,0:0|0:0,0:0:0:0:
192,165,122954,1,2,0:0:0:0:
63,243,123159,1,0,3:2:0:0:
69,270,123262,1,2,3:2:0:0:
225,357,123467,1,0,1:0:0:0:
228,331,123569,6,0,L|101:341,1,111.999996582031,2|2,1:2|0:0,0:0:0:0:
22,160,124082,2,0,L|107:154,1,74.6666643880209,2|0,0:0|0:0,0:0:0:0:
175,121,124390,2,0,P|189:87|186:49,1,74.6666643880209,2|0,0:0|0:0,0:0:0:0:
262,5,124698,1,2,0:0:0:0:
271,26,124800,6,0,B|336:13|313:48|383:39,1,111.999996582031,2|0,0:0|0:0,0:0:0:0:
469,131,125262,1,0,3:0:0:0:
469,131,125339,1,0,3:0:0:0:
469,131,125416,2,0,P|410:152|411:213,1,111.999996582031,2|2,3:2|0:0,0:0:0:0:
428,267,125826,1,0,3:0:0:0:
365,316,125928,1,0,1:0:0:0:
308,270,126031,6,0,L|191:279,1,111.999996582031,6|2,1:2|0:0,0:0:0:0:
14,317,126544,1,2,3:2:0:0:
0,293,126646,1,0,3:0:0:0:
54,127,126851,1,2,0:0:0:0:
82,136,126954,2,0,L|90:215,1,74.6666643880209,2|0,0:0|0:0,0:0:0:0:
196,278,127262,6,0,P|249:256|257:192,1,111.999996582031,2|2,0:0|0:0,0:0:0:0:
205,44,127774,1,10,0:0:0:0:
182,60,127877,2,0,P|189:101|193:141,1,74.6666643880209,0|0,1:0|0:0,0:0:0:0:
261,206,128185,2,0,P|299:200|345:194,1,74.6666643880209,2|0,0:0|0:0,0:0:0:0:
451,183,128492,5,8,0:0:0:0:
323,348,128698,1,8,0:0:0:0:
157,240,128903,1,8,0:0:0:0:
289,84,129108,1,8,0:0:0:0:
192,361,129313,1,10,0:0:0:0:
34,112,129518,1,10,0:0:0:0:
402,39,129723,1,10,0:0:0:0:
402,39,130339,5,8,0:0:0:0:
424,67,130416,1,8,0:0:0:0:
425,103,130492,1,8,0:0:0:0:
412,136,130569,1,8,0:0:0:0:
378,152,130646,2,0,P|331:143|246:135,1,120,10|0,0:0|0:0,0:0:0:0:
179,128,130954,5,14,0:0:0:0:
258,360,131108,1,8,0:0:0:0:
320,267,131262,1,0,1:0:0:0:
341,285,131569,1,0,1:0:0:0:
176,223,131723,2,0,P|171:261|166:302,1,80,10|0,0:0|1:0,0:0:0:0:
27,106,132031,6,0,P|32:145|38:191,1,80,10|0,0:0|1:0,0:0:0:0:
281,88,132339,1,8,0:0:0:0:
185,22,132492,2,0,P|179:64|171:122,1,80,2|2,1:2|0:0,0:0:0:0:
183,120,132723,1,8,0:0:0:0:
193,139,132800,1,10,0:0:0:0:
289,200,132954,1,8,0:3:0:0:
385,140,133108,1,4,0:3:0:0:
360,29,133262,1,4,0:3:0:0:
363,309,133416,5,14,0:0:0:0:
281,88,133569,1,8,0:0:0:0:
402,120,133723,1,0,1:0:0:0:
416,101,134031,1,0,1:0:0:0:
486,238,134185,2,0,L|398:221,1,80,10|0,0:0|1:0,0:0:0:0:
214,332,134492,6,0,L|307:314,1,80,10|0,0:2|1:0,0:0:0:0:
107,154,134800,2,0,L|127:256,1,80,10|0,0:2|1:0,0:0:0:0:
0,198,135108,1,2,1:2:0:0:
50,52,135262,5,10,1:2:0:0:
79,40,135339,1,8,1:2:0:0:
111,36,135416,1,8,0:0:0:0:
141,44,135492,1,8,0:0:0:0:
169,60,135569,1,8,1:2:0:0:
201,66,135646,1,8,0:0:0:0:
231,57,135723,1,8,0:0:0:0:
251,36,135800,1,8,0:0:0:0:
254,9,135877,6,0,L|244:179,1,160,4|2,1:2|1:2,0:0:0:0:
396,259,136339,2,0,P|364:234|325:231,1,80,10|0,0:0|1:0,0:0:0:0:
164,247,136646,1,0,1:0:0:0:
252,380,136800,2,0,L|257:288,1,80,8|0,0:0|0:0,0:0:0:0:
392,27,137108,5,6,1:2:0:0:
416,137,137262,2,0,B|329:153|329:153|289:128|317:86,1,160,0|8,1:0|0:0,0:0:0:0:
132,21,137723,2,0,L|221:15,1,80,2|0,1:2|1:0,0:0:0:0:
58,190,138031,1,10,0:0:0:0:
22,182,138108,1,8,0:0:0:0:
0,153,138185,1,8,0:0:0:0:
11,118,138262,1,8,0:0:0:0:
44,103,138339,6,0,L|56:278,1,160,6|0,1:2|1:0,0:0:0:0:
187,377,138800,1,8,0:0:0:0:
211,364,138877,1,8,0:0:0:0:
227,343,138954,1,8,0:0:0:0:
230,314,139031,1,8,0:0:0:0:
221,286,139108,1,8,0:0:0:0:
204,263,139185,1,8,0:0:0:0:
178,251,139262,6,0,L|123:257,1,44.0000013427735,10|8,1:2|0:0,0:0:0:0:
236,158,139416,2,0,L|181:164,1,44.0000013427735,10|8,0:0|0:0,0:0:0:0:
292,239,139569,1,8,1:3:0:0:
335,231,139646,1,8,0:3:0:0:
378,224,139723,1,8,0:3:0:0:
421,219,139800,1,8,0:3:0:0:
463,210,139877,6,0,L|456:141,1,44.0000013427735,8|4,1:3|1:3,0:0:0:0:
505,49,140031,2,0,L|509:92,3,44.0000013427735,8|4|4|4,1:2|0:3|0:3|0:3,0:0:0:0:
417,43,140339,2,0,L|411:-11,1,44.0000013427735,4|4,1:3|1:3,0:0:0:0:
331,100,140492,5,10,0:0:0:0:
283,111,140569,1,8,0:0:0:0:
236,98,140646,1,8,0:0:0:0:
204,61,140723,1,8,0:0:0:0:
201,10,140800,6,0,L|194:123,1,92.0000017547608,4|0,1:0|1:0,0:0:0:0:
55,384,141108,2,0,L|42:293,1,92.0000017547608,10|0,0:0|0:0,0:0:0:0:
24,215,141339,1,8,0:0:0:0:
24,215,141416,1,2,1:2:0:0:
205,356,141569,1,0,1:0:0:0:
372,189,141723,6,0,B|307:179|307:179|266:211|266:211|199:203,1,184.000003509522,10|0,0:0|1:0,0:0:0:0:
105,146,142185,1,2,1:2:0:0:
282,64,142339,1,10,0:0:0:0:
337,276,142492,1,2,1:2:0:0:
337,276,142569,1,8,0:0:0:0:
337,276,142646,1,2,1:2:0:0:
200,203,142800,1,2,1:2:0:0:
389,85,142954,1,10,0:0:0:0:
174,6,143108,1,2,0:0:0:0:
416,183,143262,6,0,P|469:172|505:164,1,92.0000017547608,6|0,1:2|1:0,0:0:0:0:
181,303,143569,2,0,P|129:289|88:281,1,92.0000017547608,10|0,0:0|0:0,0:0:0:0:
15,258,143800,1,8,0:0:0:0:
15,258,143877,1,2,1:2:0:0:
136,103,144031,1,0,1:0:0:0:
322,260,144185,6,0,P|390:275|396:166,1,184.000003509522,10|0,0:0|1:0,0:0:0:0:
289,61,144646,1,2,1:2:0:0:
188,215,144800,1,8,0:0:0:0:
284,384,144954,1,2,1:2:0:0:
284,384,145031,1,8,0:0:0:0:
284,384,145108,2,0,P|332:374|382:364,1,92.0000017547608,2|0,1:2|1:0,0:0:0:0:
237,130,145416,1,10,0:0:0:0:
94,309,145569,1,2,0:0:0:0:
48,6,145723,6,0,L|65:107,1,92.0000017547608,6|0,1:2|1:0,0:0:0:0:
8,336,146031,2,0,B|-10:289|-10:289|13:207|97:224,1,184.000003509522,10|0,0:0|1:0,0:0:0:0:
276,267,146492,1,2,1:2:0:0:
175,384,146646,1,10,0:0:0:0:
187,65,146800,6,0,L|176:160,1,92.0000017547608,6|0,0:0|1:0,0:0:0:0:
282,358,147108,1,0,1:0:0:0:
448,170,147262,2,0,B|406:148|406:148|361:159,1,92.0000017547608,10|0,0:0|0:0,0:0:0:0:
284,179,147492,1,8,0:0:0:0:
284,179,147569,1,0,1:0:0:0:
404,313,147723,1,2,1:2:0:0:
512,91,147877,2,0,L|501:-2,1,92.0000017547608,10|0,0:0|0:0,0:0:0:0:
269,273,148185,5,6,1:2:0:0:
141,127,148339,1,0,1:0:0:0:
310,0,148492,2,0,L|298:101,1,92.0000017547608,8|0,0:0|0:0,0:0:0:0:
291,179,148723,1,8,0:0:0:0:
291,179,148800,1,0,1:0:0:0:
123,31,148954,1,0,1:0:0:0:
2,208,149108,2,0,B|44:231|44:231|87:218,1,92.0000017547608,10|0,0:0|1:0,0:0:0:0:
164,199,149339,1,0,1:0:0:0:
171,183,149416,5,14,0:0:0:0:
119,362,149569,1,2,1:2:0:0:
390,348,149723,1,14,0:0:0:0:
291,179,149877,1,2,1:2:0:0:
415,19,150031,1,6,1:2:0:0:
467,114,150185,5,8,0:0:0:0:
442,127,150262,1,8,0:0:0:0:
414,131,150339,1,8,0:0:0:0:
386,126,150416,1,8,0:0:0:0:
362,112,150492,1,8,0:0:0:0:
342,91,150569,1,8,0:0:0:0:
330,65,150646,6,0,P|279:63|224:57,1,92.0000017547608,4|0,1:0|1:0,0:0:0:0:
149,273,150954,2,0,P|170:233|167:188,1,92.0000017547608,10|0,0:0|0:0,0:0:0:0:
143,111,151185,1,8,0:0:0:0:
143,111,151262,1,2,1:2:0:0:
0,204,151416,1,0,1:0:0:0:
206,347,151569,6,0,B|255:346|255:346|294:325|294:325|335:343|393:334,1,184.000003509522,10|0,0:0|1:0,0:0:0:0:
494,301,152031,1,2,1:2:0:0:
439,116,152185,1,10,0:0:0:0:
300,229,152339,1,2,1:2:0:0:
300,229,152416,1,8,0:0:0:0:
300,229,152492,1,2,1:2:0:0:
395,42,152646,1,2,1:2:0:0:
508,191,152800,1,10,0:0:0:0:
385,309,152954,1,2,0:0:0:0:
202,38,153108,6,0,P|252:27|310:15,1,92.0000017547608,4|0,1:0|1:0,0:0:0:0:
169,278,153416,2,0,P|119:267|61:255,1,92.0000017547608,10|0,0:0|0:0,0:0:0:0:
6,225,153646,1,8,0:0:0:0:
6,225,153723,1,2,1:2:0:0:
121,95,153877,1,0,1:0:0:0:
266,319,154031,6,0,B|279:259|279:259|242:215|242:215|261:147,1,184.000003509522,10|0,0:0|1:0,0:0:0:0:
291,18,154492,1,0,1:0:0:0:
410,176,154646,2,0,P|462:171|509:165,1,92.0000017547608,10|0,0:0|1:0,0:0:0:0:
375,329,154954,1,10,0:0:0:0:
349,312,155031,1,8,0:3:0:0:
321,306,155108,1,8,0:3:0:0:
291,307,155185,1,8,0:3:0:0:
266,319,155262,2,0,P|264:253|254:173,1,138.000002632141,10|0,0:0|0:0,0:0:0:0:
195,117,155569,6,0,B|91:101|149:166|47:153,1,160,6|8,1:2|1:3,0:0:0:0:
24,137,155954,1,4,0:3:0:0:
16,109,156031,1,4,0:3:0:0:
34,88,156108,1,4,0:3:0:0:
61,91,156185,1,4,0:3:0:0:
127,281,156339,6,0,P|75:324|24:309,1,120,6|0,1:2|0:0,0:0:0:0:
59,244,156646,2,0,P|119:250|235:262,1,160,4|0,1:2|1:0,0:0:0:0:
395,219,157108,1,8,0:0:0:0:
238,148,157262,1,0,1:0:0:0:
207,346,157416,1,8,0:0:0:0:
230,349,157492,1,8,0:3:0:0:
253,352,157569,1,8,0:3:0:0:
277,353,157646,1,8,0:3:0:0:
303,355,157723,2,0,L|309:269,1,80,14|0,0:0|1:0,0:0:0:0:
42,68,158031,5,14,0:0:0:0:
147,188,158185,1,0,1:0:0:0:
354,45,158339,1,8,0:0:0:0:
449,154,158492,1,0,1:0:0:0:
178,303,158646,1,8,0:0:0:0:
263,128,158800,1,0,1:0:0:0:
417,337,158954,2,0,L|426:232,1,80,14|0,0:0|0:0,0:0:0:0:
140,25,159262,5,6,1:2:0:0:
90,221,159416,1,8,0:0:0:0:
82,244,159492,1,8,0:0:0:0:
47,251,159569,1,10,1:2:0:0:
14,235,159646,1,8,0:0:0:0:
0,201,159723,1,8,0:0:0:0:
10,166,159800,1,8,0:0:0:0:
40,146,159877,1,8,1:2:0:0:
75,141,159954,1,8,0:0:0:0:
112,146,160031,1,8,0:0:0:0:
146,162,160108,1,8,0:0:0:0:
185,163,160185,5,8,1:2:0:0:
229,144,160262,1,8,1:2:0:0:
258,106,160339,1,8,1:2:0:0:
261,60,160416,1,8,1:2:0:0:
248,18,160492,6,0,L|260:123,1,88.000002685547,4|0,1:0|1:2,1:2:0:0:
410,333,160800,2,0,L|424:238,1,88.000002685547,10|2,0:0|0:0,0:0:0:0:
439,169,161031,1,8,0:0:0:0:
439,169,161108,1,2,1:2:0:0:
236,296,161262,1,2,1:2:0:0:
154,85,161416,1,10,0:0:0:0:
280,158,161569,1,2,0:0:0:0:
56,323,161723,5,2,1:2:0:0:
177,193,161877,1,2,1:2:0:0:
0,63,162031,2,0,L|8:150,1,88.000002685547,10|2,0:0|0:0,0:0:0:0:
22,232,162262,1,8,0:0:0:0:
22,232,162339,1,2,1:2:0:0:
222,80,162492,1,2,1:2:0:0:
326,282,162646,1,10,0:0:0:0:
175,296,162800,1,2,0:0:0:0:
405,72,162954,5,2,1:2:0:0:
271,192,163108,1,2,1:2:0:0:
488,283,163262,2,0,L|473:188,1,88.000002685547,10|2,0:0|0:0,0:0:0:0:
512,111,163492,1,8,0:0:0:0:
512,111,163569,2,0,B|522:66|522:66|493:18,1,88.000002685547,2|0,1:2|1:0,0:0:0:0:
358,302,163877,1,10,0:0:0:0:
358,302,163954,1,2,0:0:0:0:
358,302,164031,1,2,0:0:0:0:
273,51,164185,5,2,1:2:0:0:
395,161,164339,1,2,1:2:0:0:
253,292,164492,2,0,L|126:272,1,117.333336914063,10|2,0:0|0:0,0:0:0:0:
0,178,164800,1,2,1:2:0:0:
28,131,164877,1,2,1:2:0:0:
81,116,164954,1,2,1:2:0:0:
130,139,165031,1,2,1:2:0:0:
148,186,165108,2,0,L|136:278,1,88.000002685547,10|0,0:0|0:0,0:0:0:0:
346,384,165416,5,6,1:2:0:0:
512,274,165569,1,2,1:2:0:0:
328,165,165723,2,0,L|345:260,1,88.000002685547,10|0,0:0|0:0,0:0:0:0:
424,24,166031,1,2,1:2:0:0:
512,181,166185,1,2,1:2:0:0:
233,201,166339,21,10,0:0:0:0:
175,148,166441,1,2,0:0:0:0:
185,73,166544,1,2,0:0:0:0:
247,20,166646,6,0,L|347:20,1,88.000002685547,6|0,1:2|1:0,0:0:0:0:
424,24,166877,1,2,0:0:0:0:
424,24,166954,1,8,0:0:0:0:
326,236,167108,1,2,0:0:0:0:
153,61,167262,2,0,P|149:103|143:154,1,88.000002685547,2|0,1:2|1:0,0:0:0:0:
136,239,167492,1,2,0:0:0:0:
136,239,167569,1,8,0:0:0:0:
0,114,167723,1,2,1:2:0:0:
96,371,167877,6,0,L|166:353,1,44.0000013427735,14|0,1:2|0:3,0:0:0:0:
272,323,168031,1,8,0:3:0:0:
302,319,168108,1,8,0:3:0:0:
332,324,168185,1,8,0:3:0:0:
357,341,168262,1,8,0:3:0:0:
374,366,168339,2,0,L|378:303,1,44.0000013427735,14|0,0:0|0:3,0:0:0:0:
402,187,168492,1,4,0:3:0:0:
428,171,168569,1,4,0:3:0:0:
458,169,168646,1,4,0:3:0:0:
487,177,168723,1,4,0:3:0:0:
510,196,168800,2,0,P|511:144|513:105,1,88.000002685547,14|4,0:0|1:3,0:0:0:0:
331,17,169108,5,10,0:0:0:0:
231,157,169262,1,0,1:0:0:0:
9,31,169416,1,10,0:0:0:0:
172,86,169569,1,0,1:0:0:0:
59,297,169723,1,10,1:2:0:0:
77,176,169877,1,8,1:2:0:0:
113,183,169954,1,8,0:0:0:0:
143,200,170031,1,8,0:0:0:0:
162,229,170108,1,8,0:0:0:0:
173,262,170185,1,8,0:0:0:0:
169,297,170262,1,8,0:0:0:0:
150,326,170339,6,0,P|200:322|245:320,1,88.000002685547,4|0,1:2|1:0,0:0:0:0:
499,280,170646,1,10,0:0:0:0:
332,167,170800,1,2,0:0:0:0:
332,167,170877,1,8,0:0:0:0:
332,167,170954,1,2,1:2:0:0:
490,67,171108,2,0,L|484:158,1,88.000002685547,2|8,1:2|0:0,0:0:0:0:
387,291,171416,1,2,0:0:0:0:
179,62,171569,6,0,P|224:54|273:46,1,88.000002685547,2|0,1:2|1:0,0:0:0:0:
69,321,171877,1,10,1:2:0:0:
47,291,171954,1,2,1:2:0:0:
27,260,172031,1,2,1:2:0:0:
254,169,172185,1,2,1:2:0:0:
259,203,172262,1,2,1:2:0:0:
262,240,172339,1,2,1:2:0:0:
12,107,172492,5,10,0:0:0:0:
54,84,172569,1,10,0:0:0:0:
97,61,172646,1,10,0:0:0:0:
139,39,172723,5,10,0:0:0:0:
165,54,172800,1,2,1:2:0:0:
193,67,172877,1,0,1:0:0:0:
227,68,172954,1,0,1:0:0:0:
260,56,173031,1,0,1:0:0:0:
282,31,173108,2,0,P|272:70|265:119,1,88.000002685547,10|0,0:0|0:0,0:0:0:0:
365,337,173416,5,2,1:2:0:0:
396,311,173492,1,0,1:0:0:0:
435,302,173569,1,0,1:0:0:0:
472,314,173646,1,0,1:0:0:0:
499,337,173723,2,0,P|488:287|482:234,1,88.000002685547,10|0,0:0|0:0,0:0:0:0:
163,223,174031,5,2,1:2:0:0:
121,237,174108,1,0,1:0:0:0:
93,271,174185,1,0,1:0:0:0:
89,314,174262,1,0,1:0:0:0:
104,355,174339,2,0,P|62:340|18:335,1,88.000002685547,10|0,0:0|0:0,0:0:0:0:
6,102,174646,5,2,1:2:0:0:
29,91,174723,2,0,L|13:45,1,44.0000013427735,0|0,1:0|1:0,0:0:0:0:
128,79,174877,1,2,1:2:0:0:
148,91,174954,2,0,L|167:43,1,44.0000013427735,8|0,0:2|1:0,0:0:0:0:
217,161,175108,2,0,L|276:149,1,44.0000013427735,2|0,1:2|1:0,0:0:0:0:
378,233,175262,6,0,L|288:251,1,88.000002685547,6|0,1:2|1:0,0:0:0:0:
426,84,175569,2,0,L|521:100,1,88.000002685547,8|0,0:0|0:0,0:0:0:0:
464,281,175877,1,0,1:0:0:0:
348,136,176031,1,0,1:0:0:0:
235,335,176185,1,10,0:0:0:0:
235,335,176262,1,2,0:0:0:0:
235,335,176339,1,2,1:2:0:0:
166,38,176492,6,0,L|176:137,1,88.000002685547,14|0,0:2|1:0,0:0:0:0:
0,288,176800,1,10,0:0:0:0:
6,66,176954,1,0,1:0:0:0:
147,231,177108,1,10,0:0:0:0:
190,234,177185,1,4,0:3:0:0:
231,220,177262,1,4,0:3:0:0:
259,186,177339,1,4,0:3:0:0:
270,143,177416,1,4,1:3:0:0:
299,110,177492,1,4,1:3:0:0:
339,92,177569,1,4,1:3:0:0:
382,94,177646,1,4,1:3:0:0:
416,123,177723,6,0,L|418:179,1,44.0000013427735,14|8,0:0|1:3,0:0:0:0:
408,351,177877,1,4,1:3:0:0:
369,358,177954,1,4,1:3:0:0:
337,343,178031,1,8,1:2:0:0:
321,309,178108,1,4,1:3:0:0:
329,272,178185,1,4,1:3:0:0:
361,250,178262,1,4,1:3:0:0:
404,262,178339,5,10,1:2:0:0:
451,256,178416,1,2,1:2:0:0:
492,232,178492,1,6,1:2:0:0:
512,186,178569,1,2,1:2:0:0:
511,137,178646,1,2,1:2:0:0:
481,98,178723,1,2,1:2:0:0:
434,84,178800,6,0,P|384:87|334:92,1,95.9999970703126,6|2,1:2|1:2,0:0:0:0:
112,264,179108,1,2,1:2:0:0:
157,260,179185,1,2,1:2:0:0:
203,257,179262,2,0,L|195:194,1,47.9999985351563,10|2,1:2|1:2,0:0:0:0:
240,124,179416,2,0,L|231:62,1,47.9999985351563,2|2,1:2|1:2,0:0:0:0:
145,19,179569,5,10,1:2:0:0:
106,15,179646,1,8,1:3:0:0:
69,28,179723,1,8,1:3:0:0:
43,57,179800,1,8,1:3:0:0:
38,94,179877,1,10,1:2:0:0:
54,128,179954,1,4,1:3:0:0:
84,151,180031,2,0,L|158:145,1,47.9999985351563,4|4,1:3|1:3,0:0:0:0:
338,223,180185,6,0,B|450:209|450:209|430:249,1,143.999995605469,14|0,0:0|0:0,0:0:0:0:
398,327,180492,1,8,0:0:0:0:
356,340,180569,1,8,0:0:0:0:
313,335,180646,1,10,0:0:0:0:
275,313,180723,1,8,0:0:0:0:
244,282,180800,1,8,0:0:0:0:
229,241,180877,1,8,0:0:0:0:
236,198,180954,1,8,0:0:0:0:
258,161,181031,1,8,0:0:0:0:
300,129,181108,5,10,0:0:0:0:
308,190,181185,1,8,0:0:0:0:
314,251,181262,1,8,0:0:0:0:
319,312,181339,1,8,0:0:0:0:
326,373,181416,1,14,0:0:0:0:
101,228,181646,5,14,0:0:0:0:
286,32,181877,5,14,0:0:0:0:
293,38,183108,1,0,1:0:0:0:
293,38,183185,1,0,1:0:0:0:
293,38,183262,1,8,1:2:0:0:
358,96,183416,1,0,1:0:0:0:
437,41,183569,1,0,1:0:0:0:
154,80,183723,5,10,0:0:0:0:
16,131,205416,5,12,0:0:0:0:
39,148,205492,1,4,1:3:0:0:
55,171,205569,1,4,1:3:0:0:
63,198,205646,1,4,1:3:0:0:
63,226,205723,2,0,P|105:215|165:215,1,83.9999974365235,8|0,0:0|0:0,0:0:0:0:
218,248,206031,6,0,P|182:220|214:116,1,143.999995605469,6|0,1:2|1:0,0:0:0:0:
408,2,206492,2,0,B|402:59|402:59|383:85|383:85|379:150,1,143.999995605469,8|0,0:0|1:0,0:0:0:0:
472,332,206954,1,8,0:0:0:0:
493,324,207262,5,0,1:0:0:0:
351,287,207416,2,0,L|263:302,1,71.9999978027344,8|0,0:0|0:0,0:0:0:0:
113,330,207723,1,0,1:0:0:0:
113,330,207800,1,0,1:0:0:0:
113,330,207877,1,12,0:2:0:0:
189,176,208031,1,2,1:2:0:0:
277,372,208185,2,0,L|281:286,1,71.9999978027344,10|0,0:0|0:0,0:0:0:0:
106,0,208492,6,0,L|115:91,1,71.9999978027344,12|0,0:0|0:0,0:0:0:0:
97,232,208800,1,2,1:2:0:0:
280,300,208954,1,2,0:0:0:0:
424,143,209108,1,2,1:2:0:0:
286,7,209262,1,2,0:0:0:0:
287,274,209416,1,2,1:2:0:0:
6,126,209569,5,8,0:0:0:0:
6,126,210339,5,8,0:0:0:0:
23,148,210416,1,4,1:3:0:0:
33,174,210492,1,4,1:3:0:0:
32,202,210569,1,4,1:3:0:0:
22,229,210646,2,0,P|72:209|120:230,1,107.999996704102,10|0,1:2|0:0,0:0:0:0:
187,276,210954,5,6,1:2:0:0:
369,140,211108,1,8,0:0:0:0:
337,122,211185,1,8,0:0:0:0:
301,118,211262,1,8,0:0:0:0:
266,128,211339,1,8,0:0:0:0:
241,154,211416,1,12,1:2:0:0:
446,221,211569,5,10,0:0:0:0:
471,195,211646,1,8,0:0:0:0:
481,160,211723,1,8,0:0:0:0:
479,123,211800,1,8,0:0:0:0:
464,89,211877,1,14,1:2:0:0:
367,279,212031,5,8,0:0:0:0:
318,277,212108,1,8,0:0:0:0:
269,277,212185,1,8,0:0:0:0:
220,277,212262,1,8,0:0:0:0:
171,275,212339,2,0,L|171:231,1,44.0000013427735,10|8,0:0|0:0,0:0:0:0:
94,311,212492,2,0,L|94:267,1,44.0000013427735,10|8,0:0|0:0,0:0:0:0:
16,342,212646,2,0,L|16:298,1,44.0000013427735,10|8,0:0|0:0,0:0:0:0:
0,106,212800,5,2,1:2:0:0:
35,104,212877,1,8,1:3:0:0:
68,115,212954,1,8,1:3:0:0:
93,139,213031,1,8,1:3:0:0:
108,170,213108,1,10,0:0:0:0:
11,214,213262,1,2,1:2:0:0:
283,0,213416,6,0,P|276:43|265:109,1,92.0000017547608,4|0,1:0|1:0,0:0:0:0:
481,322,213723,2,0,P|471:274|464:231,1,92.0000017547608,10|0,0:0|0:0,0:0:0:0:
233,188,214031,1,2,1:2:0:0:
338,351,214185,1,0,1:0:0:0:
500,150,214339,6,0,B|446:142|446:142|399:181|399:181|331:172,1,184.000003509522,10|0,0:0|1:0,0:0:0:0:
161,111,214800,1,2,1:2:0:0:
377,48,214954,1,10,0:0:0:0:
328,270,215108,1,2,1:2:0:0:
328,270,215185,1,8,0:0:0:0:
328,270,215262,1,2,1:2:0:0:
174,127,215416,1,2,1:2:0:0:
34,257,215569,1,10,0:0:0:0:
163,384,215723,1,2,0:0:0:0:
67,11,215877,6,0,L|72:113,1,92.0000017547608,6|0,1:2|1:0,0:0:0:0:
234,330,216185,2,0,B|275:257|206:219|206:219|157:255,1,184.000003509522,10|0,0:0|1:0,0:0:0:0:
13,369,216646,1,2,1:2:0:0:
37,175,216800,1,10,0:0:0:0:
356,325,216954,5,6,1:2:0:0:
278,96,217108,1,8,0:2:0:0:
131,246,217262,1,0,1:0:0:0:
30,15,217416,2,0,L|144:12,1,92.0000017547608,10|0,0:0|1:0,0:0:0:0:
253,122,217723,1,8,0:0:0:0:
232,146,217800,1,4,0:3:0:0:
210,169,217877,2,0,L|142:171,1,46.0000008773804,4|4,0:3|0:3,0:0:0:0:
313,20,218031,5,10,1:3:0:0:
341,34,218108,1,8,1:3:0:0:
361,59,218185,1,8,1:3:0:0:
369,89,218262,1,8,1:3:0:0:
367,121,218339,2,0,L|437:118,1,46.0000008773804,12|0,0:0|0:0,0:0:0:0:
512,172,218492,5,10,1:3:0:0:
495,199,218569,1,8,1:3:0:0:
475,224,218646,1,8,1:3:0:0:
455,249,218723,1,8,1:3:0:0:
434,273,218800,2,0,L|441:325,1,46.0000008773804,12|0,0:0|0:0,0:0:0:0:
326,365,218954,5,10,1:3:0:0:
294,357,219031,1,8,1:3:0:0:
262,349,219108,1,8,1:3:0:0:
230,342,219185,1,8,1:3:0:0:
199,336,219262,2,0,L|100:349,1,92.0000017547608,10|0,1:2|1:0,0:0:0:0:
36,309,219492,1,0,1:0:0:0:
24,291,219569,6,0,B|45:247|45:247|30:206,1,92.0000017547608,14|0,1:2|1:0,0:0:0:0:
54,5,219877,1,14,0:0:0:0:
247,148,220031,1,2,1:2:0:0:
429,9,220185,1,14,1:2:0:0:
343,71,220339,5,8,0:0:0:0:
364,100,220416,1,8,0:0:0:0:
392,124,220492,1,8,0:0:0:0:
429,131,220569,1,8,0:0:0:0:
466,123,220646,1,8,0:0:0:0:
496,101,220723,1,8,0:0:0:0:
512,72,220800,6,0,P|502:120|498:178,1,95.9999970703126,4|0,1:0|1:0,0:0:0:0:
149,268,221108,1,10,0:0:0:0:
108,58,221262,1,0,1:0:0:0:
407,226,221416,1,10,0:0:0:0:
249,372,221569,1,0,1:0:0:0:
23,195,221723,2,0,P|81:182|132:168,1,95.9999970703126,10|0,0:0|1:0,0:0:0:0:
443,326,222031,6,0,P|396:319|342:308,1,95.9999970703126,12|2,0:0|1:2,0:0:0:0:
175,23,222339,1,10,0:0:0:0:
351,153,222492,1,2,1:2:0:0:
230,353,222646,1,10,0:0:0:0:
371,151,222800,1,2,1:2:0:0:
173,0,222954,1,10,0:0:0:0:
0,256,223108,5,2,1:2:0:0:
0,256,223185,1,0,1:0:0:0:
0,256,223262,2,0,B|45:240|45:240|84:252|84:252|158:230,1,143.999995605469,4|0,1:0|0:0,0:0:0:0:
213,178,223569,2,0,B|181:140|181:140|189:82,1,95.9999970703126,10|0,0:0|1:0,0:0:0:0:
463,12,223877,1,10,0:0:0:0:
333,156,224031,1,0,1:0:0:0:
489,322,224185,2,0,B|521:283|521:283|513:226,1,95.9999970703126,10|0,0:0|1:0,0:0:0:0:
269,23,224492,5,12,0:0:0:0:
137,236,224646,1,0,1:0:0:0:
0,15,224800,2,0,L|114:-1,1,92.0000017547608,10|0,0:0|0:0,0:0:0:0:
426,178,225108,5,8,0:0:0:0:
372,237,225210,1,8,0:0:0:0:
298,228,225313,1,8,0:0:0:0:
258,176,225416,1,8,0:3:0:0:
260,124,225518,1,8,0:3:0:0:
286,96,225621,1,8,0:3:0:0:
318,86,225723,6,0,P|245:97|160:109,1,151.999995941162,6|0,1:2|1:0,0:0:0:0:
85,268,226185,2,0,P|113:242|125:206,1,75.9999979705811,8|0,0:0|0:0,0:0:0:0:
0,116,226492,6,0,P|3:155|34:188,1,83.9999974365235,4|8,1:2|0:0,0:0:0:0:
166,24,226800,2,0,P|97:49|83:120,1,151.999995941162,4|8,1:2|0:0,0:0:0:0:
198,225,227262,6,0,P|154:214|117:205,1,75.9999979705811,2|0,0:0|1:0,0:0:0:0:
256,56,227569,1,10,0:0:0:0:
375,240,227723,1,0,1:0:0:0:
502,21,227877,1,10,0:0:0:0:
360,112,228031,1,2,1:2:0:0:
485,324,228185,6,0,B|474:264|474:264|493:241|493:241|479:163,1,151.999995941162,14|0,0:0|1:0,0:0:0:0:
197,175,228646,2,0,P|222:247|305:244,1,151.999995941162,8|0,0:0|1:0,0:0:0:0:
343,2,229108,2,0,L|248:19,1,75.9999979705811,10|0,0:0|1:0,0:0:0:0:
0,183,229416,5,6,1:2:0:0:
52,16,229569,2,0,B|66:49|88:69|88:69|90:111|90:111|107:160,1,151.999995941162,8|2,0:0|1:2,0:0:0:0:
153,380,230031,1,8,0:0:0:0:
0,281,230185,1,2,1:2:0:0:
219,139,230339,2,0,L|208:219,1,75.9999979705811,10|0,0:2|1:0,0:0:0:0:
438,329,230646,6,0,B|421:250|511:201|511:201|470:192|406:171|357:136|341:89|362:38|436:9|499:39|523:95|474:156|445:174|406:203|384:228|348:221|319:195,1,648.000015820313,4|0,1:0|1:0,0:0:0:0:
310,189,233031,5,0,1:0:0:0:
303,173,233108,2,0,L|292:270,1,80,12|0,0:2|1:0,0:0:0:0:
13,352,233416,2,0,L|3:272,1,80,8|0,0:0|1:0,0:0:0:0:
249,94,233723,1,8,0:0:0:0:
148,283,233877,1,0,1:0:0:0:
20,70,234031,2,0,L|116:53,1,80,10|0,0:0|0:0,0:0:0:0:
475,174,234339,6,0,P|392:158|427:82,1,191.999994140625,6|0,1:2|1:0,0:0:0:0:
511,275,235108,1,8,0:0:0:0:
482,293,235185,1,8,0:0:0:0:
441,303,235262,1,10,0:0:0:0:
395,300,235339,1,8,0:0:0:0:
350,279,235416,1,10,0:0:0:0:
320,239,235492,1,8,0:0:0:0:
297,191,235569,6,0,L|287:289,1,88.000002685547,4|0,1:0|1:0,0:0:0:0:
71,168,235877,2,0,L|65:68,1,88.000002685547,10|0,0:2|0:0,0:0:0:0:
61,0,236108,1,8,0:0:0:0:
61,0,236185,1,2,1:2:0:0:
212,131,236339,1,2,1:2:0:0:
0,227,236492,1,10,0:0:0:0:
132,279,236646,1,2,0:0:0:0:
138,44,236800,5,6,1:2:0:0:
245,211,236954,1,2,1:2:0:0:
346,43,237108,2,0,L|456:56,1,88.000002685547,10|0,0:0|0:0,0:0:0:0:
512,65,237339,1,8,0:0:0:0:
512,65,237416,1,2,1:2:0:0:
374,218,237569,1,2,1:2:0:0:
251,60,237723,1,10,0:0:0:0:
183,143,237877,1,2,0:0:0:0:
240,317,238031,5,2,1:2:0:0:
388,354,238185,1,2,1:2:0:0:
497,255,238339,2,0,L|481:156,1,88.000002685547,10|2,0:0|0:0,0:0:0:0:
298,72,238646,1,2,1:2:0:0:
208,184,238800,1,2,1:2:0:0:
275,318,238954,2,0,L|366:308,1,88.000002685547,10|2,0:0|0:0,0:0:0:0:
157,75,239262,5,2,1:2:0:0:
121,93,239339,1,0,1:0:0:0:
99,126,239416,1,0,1:0:0:0:
91,165,239492,1,0,1:0:0:0:
93,204,239569,2,0,P|49:185|-6:182,1,88.000002685547,10|0,0:0|0:0,0:0:0:0:
180,361,239877,5,2,1:2:0:0:
218,349,239954,1,0,1:0:0:0:
246,321,240031,1,0,1:0:0:0:
258,283,240108,1,0,1:0:0:0:
251,243,240185,2,0,P|308:241|348:221,1,88.000002685547,10|0,0:0|0:0,0:0:0:0:
382,0,240492,6,0,L|395:98,1,88.000002685547,6|0,1:2|1:0,0:0:0:0:
503,290,240800,2,0,P|507:233|516:187,1,88.000002685547,10|2,0:0|0:0,0:0:0:0:
359,12,241108,1,2,1:2:0:0:
282,163,241262,1,0,1:2:0:0:
83,94,241416,1,10,0:0:0:0:
252,34,241569,1,2,0:0:0:0:
21,183,241723,5,2,1:2:0:0:
47,0,241877,1,2,1:2:0:0:
191,107,242031,2,0,L|175:206,1,88.000002685547,10|0,0:2|0:0,0:0:0:0:
287,360,242339,1,2,1:2:0:0:
416,184,242492,1,2,1:2:0:0:
267,217,242646,1,10,0:0:0:0:
429,354,242800,1,0,1:0:0:0:
429,354,242877,1,0,1:0:0:0:
429,354,242954,6,0,P|471:332|525:328,1,88.000002685547,14|0,1:2|1:0,0:0:0:0:
316,60,243262,2,0,P|354:80|397:87,1,88.000002685547,10|0,0:0|1:0,0:0:0:0:
265,249,243569,1,10,0:0:0:0:
412,212,243723,1,0,1:0:0:0:
179,70,243877,2,0,L|167:170,1,88.000002685547,10|0,0:0|1:0,0:0:0:0:
67,384,244185,5,6,1:2:0:0:
0,267,244339,1,8,0:0:0:0:
34,246,244416,1,8,0:0:0:0:
73,242,244492,1,8,0:0:0:0:
111,251,244569,1,8,0:0:0:0:
139,277,244646,2,0,L|145:224,1,44.0000013427735,10|8,1:3|1:3,0:0:0:0:
217,302,244800,2,0,L|223:249,1,44.0000013427735,4|4,0:3|0:3,0:0:0:0:
293,330,244954,2,0,L|299:277,1,44.0000013427735,6|4,0:3|0:3,0:0:0:0:
375,351,245108,6,0,L|385:222,1,107.999996704102,12|0,0:0|0:0,0:0:0:0:
429,176,245416,6,0,P|483:182|518:163,1,88.000002685547,6|0,1:2|1:0,0:0:0:0:
459,0,245723,1,10,0:0:0:0:
254,92,245877,2,0,L|236:-13,1,88.000002685547,2|0,1:3|0:0,0:0:0:0:
401,75,246185,1,2,1:3:0:0:
289,215,246339,1,10,0:2:0:0:
75,137,246492,1,2,1:3:0:0:
75,137,246569,1,0,1:3:0:0:
75,137,246646,6,0,B|114:116|114:116|157:123,1,88.000002685547,14|0,0:0|1:0,0:0:0:0:
187,327,246954,2,0,B|147:347|147:347|104:339,1,88.000002685547,10|0,0:0|1:0,0:0:0:0:
289,215,247262,1,10,0:0:0:0:
317,231,247339,1,8,0:3:0:0:
337,257,247416,1,8,0:3:0:0:
348,288,247492,1,8,0:3:0:0:
351,321,247569,1,10,0:0:0:0:
470,187,247723,6,0,L|478:82,1,88.000002685547,6|0,1:2|0:0,0:0:0:0:
275,0,248031,1,14,0:0:0:0:
183,110,248185,1,4,1:3:0:0:
204,138,248262,1,4,1:3:0:0:
234,156,248339,1,4,1:3:0:0:
269,157,248416,1,4,1:3:0:0:
302,145,248492,2,0,L|298:197,1,44.0000013427735,12|0,0:0|0:0,0:0:0:0:
230,299,248646,5,8,0:3:0:0:
198,294,248723,1,8,0:3:0:0:
167,289,248800,1,8,0:3:0:0:
136,285,248877,1,8,0:3:0:0:
99,311,248954,5,8,0:0:0:0:
50,309,249031,1,8,0:0:0:0:
10,281,249108,1,10,0:0:0:0:
0,233,249185,1,8,0:0:0:0:
29,194,249262,1,8,0:0:0:0:
76,185,249339,1,8,0:0:0:0:
123,191,249416,2,0,L|126:142,1,44.0000013427735,8|8,0:3|0:3,0:0:0:0:
71,87,249569,2,0,L|74:38,1,44.0000013427735,8|8,0:3|0:3,0:0:0:0:
182,27,249723,5,10,1:2:0:0:
229,30,249800,1,8,1:2:0:0:
276,34,249877,1,8,1:2:0:0:
324,35,249954,1,8,1:2:0:0:
372,36,250031,2,0,L|366:86,1,44.0000013427735,12|8,1:2|1:2,0:0:0:0:
330,281,250185,6,0,B|272:219|264:173|306:123|361:143|381:170|361:203,1,223.999993164063,6|0,1:2|0:0,0:0:0:0:
