osu file format v14

[General]
AudioFilename: audio.mp3
AudioLeadIn: 0
PreviewTime: 185867
Countdown: 0
SampleSet: Soft
StackLeniency: 0.4
Mode: 0
LetterboxInBreaks: 0
WidescreenStoryboard: 1

[Editor]
Bookmarks: 37441,39749,45902,47287,71902,91595,100056,101441,121133,130364,140826,186364,205441,213441,220791,225714,235560,250175,250791
DistanceSpacing: 1.1
BeatDivisor: 4
GridSize: 16
TimelineZoom: 1.7

[Metadata]
Title:Mukoku
TitleUnicode:無告
Artist:MY FIRST STORY
ArtistUnicode:MY FIRST STORY
Creator:AirinCat
Version:Easy
Source:
Tags:mfs Kowari single hiro moriuchi Katou Nobuaki Nishizawa Teruki hiroki nob teru kid'z japanese rock jrock j-rock 森内寛樹 加藤伸明 佐々木翔平 西澤照貴
BeatmapID:2257480
BeatmapSetID:1047546

[Difficulty]
HPDrainRate:2
CircleSize:3
OverallDifficulty:2
ApproachRate:3.4
SliderMultiplier:1
SliderTickRate:1

[Events]
//Background and Video events
0,0,"harucute.jpg",0,0
//Break Periods
2,28231,29717
2,33153,34640
2,94231,98794
2,186339,203976
//Storyboard Layer 0 (Background)
//Storyboard Layer 1 (Fail)
//Storyboard Layer 2 (Pass)
//Storyboard Layer 3 (Foreground)
//Storyboard Layer 4 (Overlay)
//Storyboard Sound Samples

[TimingPoints]
5416,307.692307692308,4,2,2,30,1,0
12800,-133.333333333333,4,2,2,30,0,0
13416,-133.333333333333,4,2,2,50,0,0
14031,-133.333333333333,4,2,1,50,0,0
15262,-133.333333333333,4,2,1,76,0,0
15416,-133.333333333333,4,2,2,76,0,0
20185,-133.333333333333,4,2,2,76,0,0
25569,-133.333333333333,4,2,2,76,0,0
26185,-133.333333333333,4,2,2,76,0,0
27569,-133.333333333333,4,2,1,60,0,0
28801,-133.333333333333,4,2,1,50,0,0
31108,-133.333333333333,4,2,1,60,0,0
31416,-133.333333333333,4,2,1,60,0,0
32492,-133.333333333333,4,2,1,60,0,0
33724,-133.333333333333,4,2,1,50,0,0
36031,-133.333333333333,4,2,1,60,0,0
36339,-133.333333333333,4,2,1,60,0,0
37416,-133.333333333333,4,2,1,66,0,0
40954,-133.333333333333,4,2,1,70,0,0
41262,-133.333333333333,4,2,1,75,0,0
43262,-133.333333333333,4,2,1,75,0,0
44185,-133.333333333333,4,2,1,82,0,0
44800,-133.333333333333,4,2,2,60,0,0
45723,-133.333333333333,4,2,1,70,0,0
46031,-133.333333333333,4,2,1,80,0,0
47262,-133.333333333333,4,2,1,50,0,0
55724,-133.333333333333,4,2,1,60,0,0
56031,-133.333333333333,4,2,1,72,0,0
57108,-133.333333333333,4,2,1,78,0,0
62031,-133.333333333333,4,2,1,80,0,0
63262,-133.333333333333,4,2,1,80,0,0
64492,-133.333333333333,4,2,1,50,0,0
65416,-133.333333333333,4,2,1,46,0,0
66954,-133.333333333333,4,2,1,60,0,0
67262,-133.333333333333,4,2,1,64,0,0
67569,-133.333333333333,4,2,1,72,0,0
67877,-133.333333333333,4,2,1,76,0,0
68185,-133.333333333333,4,2,1,80,0,0
69262,-133.333333333333,4,2,1,80,0,0
70339,-133.333333333333,4,2,1,80,0,0
70647,-133.333333333333,4,2,10,60,0,0
71262,-133.333333333333,4,2,1,80,0,0
71877,-133.333333333333,4,2,1,86,0,1
81723,-133.333333333333,4,2,1,90,0,1
86646,-133.333333333333,4,2,1,80,0,0
90339,-133.333333333333,4,2,1,80,0,0
90954,-133.333333333333,4,2,1,80,0,0
91570,-133.333333333333,4,2,1,80,0,0
91724,-133.333333333333,4,2,1,40,0,0
100031,-133.333333333333,4,2,1,50,0,0
101416,-133.333333333333,4,2,1,56,0,0
111262,-133.333333333333,4,2,1,60,0,0
116185,-133.333333333333,4,2,1,66,0,0
117416,-133.333333333333,4,2,1,68,0,0
118646,-133.333333333333,4,2,1,80,0,0
119569,-133.333333333333,4,2,1,80,0,0
119877,-133.333333333333,4,2,1,80,0,0
120492,-133.333333333333,4,2,1,70,0,0
121108,-133.333333333333,4,2,1,60,0,0
128493,-133.333333333333,4,2,1,65,0,0
129313,-133.333333333333,4,2,1,70,0,0
130339,-133.333333333333,4,2,1,68,0,0
130954,-133.333333333333,4,2,1,74,0,0
139262,-133.333333333333,4,2,1,76,0,0
140031,-133.333333333333,4,2,1,72,0,0
140492,-133.333333333333,4,2,1,76,0,0
140800,-133.333333333333,4,2,1,86,0,1
150646,-133.333333333333,4,2,1,90,0,1
155569,-133.333333333333,4,2,1,80,0,0
159416,-133.333333333333,4,2,1,76,0,0
160185,-133.333333333333,4,2,1,80,0,0
160492,-133.333333333333,4,2,1,80,0,0
160646,-133.333333333333,4,2,2,80,0,0
178339,-133.333333333333,4,2,2,80,0,0
178800,-133.333333333333,4,2,1,80,0,0
178954,-133.333333333333,4,2,2,80,0,0
181108,-133.333333333333,4,2,2,86,0,0
181877,-133.333333333333,4,2,2,80,0,0
183108,-133.333333333333,4,2,1,70,0,0
205416,-133.333333333333,4,2,1,70,0,0
206031,-133.333333333333,4,2,1,70,0,0
210339,-133.333333333333,4,2,1,70,0,0
210954,-133.333333333333,4,2,1,80,0,0
212031,-133.333333333333,4,2,1,70,0,0
213416,-133.333333333333,4,2,1,86,0,1
220800,-133.333333333333,4,2,1,92,0,1
224492,-133.333333333333,4,2,1,90,0,1
225108,-133.333333333333,4,2,1,86,0,1
225723,-133.333333333333,4,2,1,84,0,0
226492,-133.333333333333,4,2,1,86,0,0
226800,-133.333333333333,4,2,1,82,0,0
230646,-133.333333333333,4,2,1,80,0,0
233108,-133.333333333333,4,2,1,84,0,0
234339,-133.333333333333,4,2,1,84,0,0
235108,-133.333333333333,4,2,2,76,0,0
235569,-133.333333333333,4,2,1,80,0,0
235723,-133.333333333333,4,2,2,80,0,0
245108,-133.333333333333,4,2,2,80,0,0
245416,-133.333333333333,4,2,2,82,0,0
248954,-133.333333333333,4,2,2,88,0,0
250185,-133.333333333333,4,2,2,70,0,0
250801,-133.333333333333,4,2,2,10,0,0

[Colours]
Combo1 : 255,179,179
Combo2 : 202,162,147
Combo3 : 252,198,143

[HitObjects]
56,313,12800,6,0,L|138:302,1,75.0000028610231,2|2,0:0|0:0,0:0:0:0:
198,349,13416,1,2,0:0:0:0:
280,346,13723,1,2,0:0:0:0:
337,284,14031,2,0,B|326:218|326:218|332:208|332:208|321:131,1,150.000005722046,2|2,0:0|1:3,0:0:0:0:
472,68,15262,6,0,L|463:154,1,75.0000028610231,4|10,1:0|0:0,0:0:0:0:
511,210,15877,2,0,L|502:296,1,75.0000028610231,2|10,1:2|0:0,0:0:0:0:
430,324,16492,1,2,1:2:0:0:
351,298,16800,2,0,B|316:285|316:285|274:305,1,75.0000028610231,10|2,0:0|1:2,0:0:0:0:
216,352,17416,1,10,0:0:0:0:
133,348,17723,5,2,1:2:0:0:
108,269,18031,1,10,0:0:0:0:
168,213,18339,2,0,L|161:131,1,75.0000028610231,2|10,1:2|0:0,0:0:0:0:
108,74,18954,2,0,L|32:81,2,75.0000028610231,14|10|10,0:0|0:0|0:0,0:0:0:0:
162,12,19877,1,10,0:0:0:0:
225,64,20185,6,0,P|292:95|355:57,1,150.000005722046,6|2,1:2|1:2,0:0:0:0:
415,5,21108,1,10,0:0:0:0:
487,44,21416,2,0,L|495:127,1,75.0000028610231,2|10,1:2|0:0,0:0:0:0:
438,179,22031,2,0,B|403:168|403:168|371:190,1,75.0000028610231,2|10,1:2|0:0,0:0:0:0:
345,268,22646,6,0,P|371:318|350:370,2,112.500004291535,10|0|12,0:0|1:0|0:0,0:0:0:0:
267,239,23877,2,0,L|146:256,1,112.500004291535,10|2,0:0|1:2,0:0:0:0:
74,268,24646,1,6,1:2:0:0:
18,157,25108,2,0,L|129:141,1,112.500004291535,14|12,0:0|1:3,0:0:0:0:
210,124,25877,1,8,0:0:0:0:
291,112,26185,6,0,B|341:102|386:166|361:225|300:179|313:276|345:318|368:318|417:333|456:304|458:273,1,337.500012874604,12|4,0:0|1:2,0:0:0:0:
512,174,28031,1,2,1:3:0:0:
510,151,31108,5,2,1:3:0:0:
430,130,31416,2,0,B|319:123|379:211|258:206,1,187.500007152558,2|0,1:3|0:0,0:0:0:0:
188,215,32492,6,0,L|200:337,1,112.500004291535,2|2,1:3|1:3,0:0:0:0:
185,314,36031,5,2,1:3:0:0:
251,264,36339,2,0,L|374:281,1,112.500004291535,2|0,1:3|0:0,0:0:0:0:
444,291,37108,1,2,0:0:0:0:
494,225,37416,6,0,P|512:172|489:121,2,112.500004291535,6|2|2,1:2|0:2|1:2,0:0:0:0:
444,291,38646,2,0,L|447:373,2,75.0000028610231,2|2|0,1:2|1:2|1:0,0:0:0:0:
347,212,39723,1,10,0:2:0:0:
108,368,40954,5,2,1:3:0:0:
38,323,41262,2,0,L|49:234,1,75.0000028610231,2|8,1:3|0:3,0:0:0:0:
18,128,42031,1,4,0:3:0:0:
83,77,42339,6,0,P|134:83|202:90,1,112.500004291535,6|2,1:2|1:2,0:0:0:0:
263,192,43262,2,0,P|225:215|218:294,1,112.500004291535,2|2,1:2|1:2,0:0:0:0:
296,367,44185,2,0,L|383:356,1,75.0000028610231,8|8,1:2|0:0,0:0:0:0:
452,346,44800,5,2,0:0:0:0:
440,222,45262,1,2,0:0:0:0:
427,99,45723,2,0,L|424:52,1,37.5000014305115,8|0,0:0|1:0,0:0:0:0:
303,32,46339,1,10,0:0:0:0:
242,87,46646,2,0,L|155:88,1,75.0000028610231,10|8,0:0|0:3,0:0:0:0:
91,122,47262,6,0,P|62:169|75:227,1,112.500004291535,6|2,1:2|1:2,0:0:0:0:
124,287,48031,1,2,0:0:0:0:
243,253,48492,2,0,L|235:173,2,75.0000028610231,2|2|2,1:2|0:0|1:2,0:0:0:0:
319,284,49416,1,2,1:2:0:0:
386,236,49723,6,0,L|376:119,1,112.500004291535,2|2,1:2|1:2,0:0:0:0:
365,42,50492,1,2,0:0:0:0:
249,87,50954,2,0,P|189:45|119:65,1,150.000005722046,2|2,1:2|1:2,0:0:0:0:
55,118,51877,1,2,1:2:0:0:
85,194,52185,6,0,P|77:259|67:322,1,112.500004291535,2|2,1:2|1:2,0:0:0:0:
183,354,53108,1,2,1:2:0:0:
240,294,53416,2,0,B|323:282|290:335|384:320,1,150.000005722046,2|2,1:2|1:2,0:0:0:0:
459,290,54339,1,2,1:2:0:0:
430,212,54646,6,0,L|435:99,1,112.500004291535,2|2,1:2|1:2,0:0:0:0:
287,24,55723,2,0,L|282:108,1,75.0000028610231,2|8,1:3|0:0,0:0:0:0:
170,151,56492,1,10,0:0:0:0:
89,131,56800,1,8,0:3:0:0:
25,183,57108,6,0,L|38:311,1,112.500004291535,6|2,1:2|0:0,0:0:0:0:
96,351,57877,1,2,0:0:0:0:
161,300,58185,2,0,B|205:297|205:297|220:309|220:309|269:303,1,112.500004291535,14|2,0:0|1:2,0:0:0:0:
342,266,58954,1,2,1:2:0:0:
324,185,59262,1,2,1:2:0:0:
243,169,59569,6,0,P|223:108|251:58,1,112.500004291535,6|2,1:2|0:0,0:0:0:0:
314,26,60339,1,2,0:0:0:0:
378,77,60646,2,0,L|493:63,1,112.500004291535,12|0,0:0|1:2,0:0:0:0:
510,143,61416,2,0,L|427:154,1,75.0000028610231,2|4,1:2|0:3,0:0:0:0:
399,227,62031,6,0,P|437:261|441:328,2,112.500004291535,6|2|0,1:2|0:0|1:0,0:0:0:0:
321,199,63262,2,0,L|208:219,2,112.500004291535,14|10|10,0:0|0:0|1:2,0:0:0:0:
356,124,64492,1,4,1:0:0:0:
113,78,66954,6,0,B|75:70|75:70|49:95,1,75.0000028610231,6|2,1:2|1:2,0:0:0:0:
27,175,67569,2,0,B|39:210|39:210|75:220,1,75.0000028610231,2|2,1:2|1:2,0:0:0:0:
156,206,68185,2,0,B|181:176|181:176|172:140,1,75.0000028610231,2|0,1:2|1:0,0:0:0:0:
205,65,68800,6,0,P|247:57|303:108,1,112.500004291535,10|12,1:2|0:0,0:0:0:0:
53,370,70646,1,6,0:0:0:0:
217,357,71262,2,0,P|212:318|207:280,1,75.0000028610231,8|8,0:0|0:0,0:0:0:0:
259,219,71877,6,0,L|350:213,1,75.0000028610231,4|10,1:1|0:0,0:0:0:0:
414,232,72492,1,2,1:2:0:0:
469,170,72800,2,0,B|478:132|478:132|460:90,1,75.0000028610231,10|0,0:0|1:0,0:0:0:0:
419,28,73416,1,10,0:0:0:0:
339,49,73723,2,0,L|262:55,1,75.0000028610231,2|10,1:2|0:0,0:0:0:0:
200,108,74339,6,0,L|206:185,1,75.0000028610231,6|10,1:2|0:0,0:0:0:0:
247,253,74954,1,2,1:2:0:0:
193,315,75262,2,0,B|158:330|158:330|121:323,1,75.0000028610231,10|0,0:0|1:0,0:0:0:0:
48,286,75877,1,10,0:0:0:0:
41,203,76185,1,2,1:2:0:0:
33,120,76492,1,10,0:0:0:0:
89,60,76800,6,0,P|127:61|174:64,1,75.0000028610231,6|10,1:2|0:0,0:0:0:0:
281,25,77569,1,2,1:2:0:0:
334,87,77877,2,0,B|334:133|334:133|325:150|325:150|324:207,1,112.500004291535,6|10,0:0|0:0,0:0:0:0:
275,263,78646,1,0,1:0:0:0:
312,336,78954,1,10,0:0:0:0:
394,336,79262,6,0,P|446:332|471:244,1,150.000005722046,2|2,1:2|1:2,0:0:0:0:
435,175,80185,1,10,0:0:0:0:
360,210,80492,2,0,L|282:199,1,75.0000028610231,14|14,0:0|0:0,0:0:0:0:
204,184,81108,1,6,1:2:0:0:
40,166,81723,6,0,L|34:252,1,75.0000028610231,4|10,1:0|0:0,0:0:0:0:
70,315,82339,1,2,1:2:0:0:
148,289,82646,2,0,P|185:284|220:298,1,75.0000028610231,10|0,0:0|1:0,0:0:0:0:
288,343,83262,1,10,0:2:0:0:
365,314,83569,2,0,L|370:239,1,75.0000028610231,2|10,1:2|0:2,0:0:0:0:
318,174,84185,6,0,L|234:167,1,75.0000028610231,4|10,1:0|0:0,0:0:0:0:
170,206,84800,1,2,1:2:0:0:
96,169,85108,2,0,P|86:135|97:95,1,75.0000028610231,10|0,0:0|1:0,0:0:0:0:
153,36,85723,1,10,0:0:0:0:
235,42,86031,1,10,0:2:0:0:
317,51,86339,1,10,0:2:0:0:
364,118,86646,6,0,P|353:187|348:278,1,150.000005722046,4|8,1:2|0:0,0:0:0:0:
252,345,87723,2,0,P|198:354|154:321,1,112.500004291535,4|8,1:2|0:0,0:0:0:0:
111,250,88492,2,0,L|122:174,1,75.0000028610231,8|14,0:0|0:0,0:0:0:0:
80,103,89108,2,0,L|-1:88,2,75.0000028610231,14|8|8,0:0|0:0|0:0,0:0:0:0:
151,62,90031,1,10,0:0:0:0:
207,122,90339,6,0,P|230:107|334:155,1,150.000005722046,6|8,1:2|0:0,0:0:0:0:
343,230,91262,1,8,0:3:0:0:
278,281,91569,5,4,1:3:0:0:
256,192,91877,12,0,94031,0:0:0:0:
271,356,100185,5,2,3:0:0:0:
203,309,100492,1,8,0:0:0:0:
135,356,100800,2,0,L|52:349,1,75.0000028610231,4|8,0:3|0:0,0:0:0:0:
20,276,101416,6,0,P|40:245|42:209,1,75.0000028610231,6|10,1:2|0:0,0:0:0:0:
80,134,102031,2,0,P|59:103|57:67,1,75.0000028610231,10|10,0:0|0:0,0:0:0:0:
139,73,102646,1,10,0:0:0:0:
188,138,102954,2,0,L|277:122,1,75.0000028610231,10|8,0:0|0:2,0:0:0:0:
325,177,103569,1,10,0:0:0:0:
285,249,103877,6,0,L|173:267,2,112.500004291535,14|2|8,0:0|0:0|0:0,0:0:0:0:
338,312,105108,1,10,0:0:0:0:
390,375,105416,2,0,L|473:358,1,75.0000028610231,10|8,0:0|0:0,0:0:0:0:
510,201,106339,6,0,P|494:167|497:130,1,75.0000028610231,14|10,0:0|0:0,0:0:0:0:
428,84,106954,2,0,P|443:50|441:13,1,75.0000028610231,10|10,0:0|0:0,0:0:0:0:
360,31,107569,1,10,0:0:0:0:
317,101,107877,2,0,L|229:83,1,75.0000028610231,10|8,0:0|0:0,0:0:0:0:
199,155,108492,1,10,0:0:0:0:
195,237,108800,6,0,L|312:263,2,112.500004291535,12|2|8,0:0|0:0|0:0,0:0:0:0:
148,305,110031,1,10,0:0:0:0:
96,369,110339,2,0,L|20:353,1,75.0000028610231,12|0,0:0|1:0,0:0:0:0:
16,188,111262,6,0,P|51:125|123:123,1,150.000005722046,6|2,1:2|1:2,0:0:0:0:
203,140,112185,1,2,1:2:0:0:
274,99,112492,2,0,L|360:107,1,75.0000028610231,2|10,1:2|0:2,0:0:0:0:
479,206,113416,1,2,1:2:0:0:
448,282,113723,6,0,P|396:300|350:271,1,112.500004291535,2|2,1:2|0:0,0:0:0:0:
265,182,114646,1,2,1:2:0:0:
193,223,114954,2,0,L|201:298,1,75.0000028610231,2|10,1:2|1:2,0:0:0:0:
44,350,115877,1,14,0:0:0:0:
30,268,116185,6,0,L|24:181,1,75.0000028610231,6|10,1:2|0:0,0:0:0:0:
24,110,116800,2,0,P|59:98|95:105,1,75.0000028610231,2|2,1:2|1:2,0:0:0:0:
172,137,117416,1,2,1:2:0:0:
234,82,117723,2,0,P|279:60|341:85,1,112.500004291535,10|10,0:0|0:0,0:0:0:0:
458,90,118646,6,0,L|445:213,1,112.500004291535,14|10,0:0|0:0,0:0:0:0:
362,293,119569,2,0,P|337:265|327:229,2,75.0000028610231,10|2|8,0:0|1:2|0:0,0:0:0:0:
305,352,120492,2,0,P|270:337|233:337,1,75.0000028610231,8|8,0:0|0:3,0:0:0:0:
182,272,121108,6,0,P|226:216|193:153,1,150.000005722046,6|2,1:2|0:0,0:0:0:0:
31,120,122339,2,0,L|17:198,1,75.0000028610231,2|2,0:0|0:0,0:0:0:0:
65,261,122954,2,0,L|52:342,1,75.0000028610231,2|2,0:0|3:2,0:0:0:0:
128,368,123569,6,0,P|206:352|280:344,1,150.000005722046,2|2,1:2|0:0,0:0:0:0:
440,326,124800,2,0,P|466:278|455:224,2,112.500004291535,2|0|2,0:0|3:0|0:0,0:0:0:0:
385,265,126031,6,0,L|300:255,1,75.0000028610231,6|2,1:2|0:0,0:0:0:0:
248,310,126646,1,0,3:0:0:0:
90,259,127262,2,0,L|98:178,1,75.0000028610231,2|2,0:0|0:0,0:0:0:0:
44,121,127877,1,0,1:0:0:0:
194,53,128492,6,0,B|248:48|248:48|267:64|267:64|353:56,2,150.000005722046,8|8|10,0:0|0:0|0:0,0:0:0:0:
297,182,130339,2,0,L|380:174,1,75.0000028610231,8|10,0:0|0:0,0:0:0:0:
442,217,130954,6,0,L|446:260,1,37.5000014305115,14|8,0:0|0:0,0:0:0:0:
305,342,131723,1,10,0:0:0:0:
229,308,132031,2,0,L|116:320,1,112.500004291535,10|2,0:0|1:2,0:0:0:0:
44,279,132800,1,10,0:0:0:0:
79,204,133108,1,4,0:3:0:0:
19,146,133416,6,0,L|16:103,1,37.5000014305115,14|8,0:0|0:0,0:0:0:0:
147,8,134185,1,10,0:0:0:0:
216,52,134492,2,0,L|294:52,1,75.0000028610231,10|10,0:2|0:2,0:0:0:0:
388,128,135262,2,0,L|382:206,1,75.0000028610231,10|8,1:2|1:2,0:0:0:0:
310,243,135877,6,0,P|262:215|211:233,2,112.500004291535,4|10|8,1:2|0:0|0:0,0:0:0:0:
357,310,137108,2,0,L|351:354,1,37.5000014305115,6|0,1:2|1:0,0:0:0:0:
473,325,137723,2,0,L|480:237,1,75.0000028610231,2|10,1:2|0:0,0:0:0:0:
481,168,138339,6,0,P|426:162|405:70,1,150.000005722046,6|8,1:2|0:0,0:0:0:0:
241,33,139569,2,0,B|168:46|168:46|156:42|156:42|88:56,1,150.000005722046,10|8,0:0|1:2,0:0:0:0:
13,73,140492,1,10,0:0:0:0:
33,153,140800,6,0,L|49:228,1,75.0000028610231,4|10,1:0|0:0,0:0:0:0:
120,267,141416,1,2,1:2:0:0:
196,237,141723,2,0,B|229:220|229:220|264:231,1,75.0000028610231,10|0,0:0|1:0,0:0:0:0:
345,250,142339,1,10,0:0:0:0:
412,202,142646,2,0,L|401:123,1,75.0000028610231,2|10,1:2|0:0,0:0:0:0:
338,74,143262,6,0,L|257:85,1,75.0000028610231,6|10,1:2|0:0,0:0:0:0:
202,29,143877,1,2,1:2:0:0:
126,62,144185,2,0,B|92:108|92:108|115:158,1,112.500004291535,10|2,0:0|1:2,0:0:0:0:
208,240,145108,2,0,L|290:232,1,75.0000028610231,2|10,1:2|0:0,0:0:0:0:
349,184,145723,5,6,1:2:0:0:
391,254,146031,2,0,P|376:311|371:375,1,112.500004291535,10|2,0:0|1:2,0:0:0:0:
288,369,146800,2,0,P|242:339|181:361,1,112.500004291535,6|10,0:0|0:0,0:0:0:0:
109,374,147569,1,0,1:0:0:0:
53,313,147877,1,10,0:0:0:0:
93,240,148185,6,0,P|84:195|81:87,1,150.000005722046,6|0,1:2|1:0,0:0:0:0:
146,41,149108,1,10,0:0:0:0:
218,81,149416,2,0,L|305:72,1,75.0000028610231,14|14,0:0|0:0,0:0:0:0:
374,63,150031,1,6,1:2:0:0:
482,187,150646,6,0,L|471:272,1,75.0000028610231,4|10,1:0|0:0,0:0:0:0:
455,342,151262,1,2,1:2:0:0:
382,303,151569,2,0,P|347:290|311:297,1,75.0000028610231,10|0,0:0|1:0,0:0:0:0:
236,332,152185,1,10,0:0:0:0:
191,262,152492,2,0,L|198:187,1,75.0000028610231,2|10,1:2|0:0,0:0:0:0:
148,120,153108,6,0,L|67:113,1,75.0000028610231,4|10,1:0|0:0,0:0:0:0:
3,158,153723,1,2,1:2:0:0:
45,228,154031,2,0,P|42:270|39:308,1,75.0000028610231,10|0,0:0|1:0,0:0:0:0:
108,347,154646,1,10,0:0:0:0:
190,354,154954,1,10,0:0:0:0:
272,354,155262,1,10,0:0:0:0:
329,294,155569,6,0,P|310:242|387:197,1,150.000005722046,6|4,1:2|0:3,0:0:0:0:
409,74,156646,2,0,P|353:66|298:53,1,112.500004291535,4|8,1:2|0:0,0:0:0:0:
237,109,157416,2,0,L|246:192,1,75.0000028610231,8|14,0:0|0:0,0:0:0:0:
196,250,158031,6,0,L|107:260,2,75.0000028610231,14|8|8,0:0|0:0|0:0,0:0:0:0:
260,301,158954,1,14,0:0:0:0:
317,241,159262,2,0,B|361:267|361:267|424:263|436:214,1,150.000005722046,6|8,1:2|1:2,0:0:0:0:
473,141,160185,1,8,1:2:0:0:
422,76,160492,6,0,B|333:71|381:129|287:123,1,150.000005722046,4|2,1:0|1:2,0:0:0:0:
221,73,161416,1,10,0:0:0:0:
175,141,161723,2,0,B|189:201|189:201|189:210|189:210|208:297,1,150.000005722046,2|2,1:2|1:2,0:0:0:0:
146,344,162646,1,10,0:0:0:0:
65,325,162954,6,0,L|45:248,1,75.0000028610231,2|10,1:2|0:0,0:0:0:0:
23,173,163569,1,2,1:2:0:0:
66,102,163877,1,10,0:0:0:0:
142,133,164185,2,0,L|229:112,1,75.0000028610231,2|10,1:2|0:0,0:0:0:0:
295,96,164800,1,2,1:2:0:0:
265,258,165416,6,0,B|314:286|366:254|366:254|402:296,1,150.000005722046,6|2,1:2|1:2,0:0:0:0:
453,343,166339,1,10,0:0:0:0:
507,281,166646,2,0,L|506:205,1,75.0000028610231,6|8,1:2|0:0,0:0:0:0:
433,165,167262,2,0,L|431:87,1,75.0000028610231,2|8,1:2|0:0,0:0:0:0:
384,21,167877,5,14,1:2:0:0:
260,29,168339,1,14,0:0:0:0:
136,35,168800,1,14,0:0:0:0:
81,96,169108,2,0,L|83:181,1,75.0000028610231,10|10,0:0|0:0,0:0:0:0:
145,224,169723,2,0,L|225:221,1,75.0000028610231,10|8,1:2|0:0,0:0:0:0:
288,172,170339,5,4,1:2:0:0:
364,201,170646,1,10,0:0:0:0:
344,281,170954,2,0,L|345:328,1,37.5000014305115,2|2,1:2|1:2,0:0:0:0:
230,366,171569,1,2,1:2:0:0:
160,320,171877,2,0,L|71:327,2,75.0000028610231,10|2|10,1:2|1:2|0:0,0:0:0:0:
222,266,172800,6,0,P|224:228|210:194,1,75.0000028610231,2|10,1:2|0:0,0:0:0:0:
256,125,173416,2,0,P|293:127|327:113,1,75.0000028610231,2|10,1:2|0:0,0:0:0:0:
398,155,174031,2,0,P|395:192|409:226,1,75.0000028610231,2|10,1:2|0:0,0:0:0:0:
371,299,174646,2,0,P|333:296|299:310,1,75.0000028610231,2|8,1:2|0:2,0:0:0:0:
224,344,175262,6,0,P|179:284|108:295,1,150.000005722046,6|0,1:2|1:0,0:0:0:0:
42,339,176185,1,10,0:0:0:0:
2,266,176492,2,0,L|8:188,1,75.0000028610231,14|10,0:2|0:0,0:0:0:0:
15,108,177108,1,10,0:0:0:0:
163,180,177723,6,0,B|207:182|230:146|230:146|270:135|296:163,1,150.000005722046,14|10,0:0|1:2,0:0:0:0:
402,223,178800,2,0,P|412:182|428:98,1,112.500004291535,6|10,1:2|1:2,0:0:0:0:
380,43,179569,1,10,1:2:0:0:
298,56,179877,1,10,1:2:0:0:
217,32,180185,6,0,P|117:61|118:166,1,225.000008583069,14|10,0:0|0:0,0:0:0:0:
173,227,181416,2,0,L|162:286,2,56.2500021457673,14|14|14,0:0|0:0|0:0,0:0:0:0:
454,37,183262,2,0,L|478:152,1,112.500004291535,8|10,1:2|0:0,0:0:0:0:
160,31,205416,5,12,0:0:0:0:
188,108,205723,1,8,0:0:0:0:
127,164,206031,6,0,P|73:153|29:185,1,112.500004291535,6|8,1:2|0:0,0:0:0:0:
59,305,206954,2,0,P|112:315|156:283,1,112.500004291535,8|8,0:0|0:0,0:0:0:0:
243,195,207877,1,12,0:2:0:0:
319,224,208185,1,10,0:0:0:0:
397,250,208492,6,0,P|413:203|460:107,1,150.000005722046,12|2,0:0|1:2,0:0:0:0:
364,29,209569,1,8,0:0:0:0:
240,194,210339,6,0,P|251:233|260:266,1,75.0000028610231,8|10,0:0|1:2,0:0:0:0:
196,318,210954,2,0,P|149:289|96:302,1,112.500004291535,6|12,1:2|1:2,0:0:0:0:
23,202,211877,2,0,P|74:151|69:78,1,150.000005722046,14|10,1:2|0:0,0:0:0:0:
135,28,212800,1,2,1:2:0:0:
216,42,213108,1,10,0:0:0:0:
297,57,213416,6,0,L|297:133,1,75.0000028610231,4|10,1:0|0:0,0:0:0:0:
269,209,214031,1,2,1:2:0:0:
330,264,214339,2,0,B|364:275|364:275|401:262,1,75.0000028610231,10|0,0:0|1:0,0:0:0:0:
471,220,214954,1,10,0:0:0:0:
465,137,215262,1,2,1:2:0:0:
451,55,215569,1,10,0:0:0:0:
372,28,215877,6,0,L|297:37,1,75.0000028610231,6|10,1:2|0:0,0:0:0:0:
218,132,216646,1,2,1:2:0:0:
157,187,216954,2,0,B|122:141|122:141|145:90,1,112.500004291535,6|10,1:2|0:0,0:0:0:0:
97,23,217723,1,8,0:0:0:0:
17,35,218031,1,10,1:3:0:0:
4,116,218339,6,0,P|7:172|11:228,1,112.500004291535,12|12,0:0|0:0,0:0:0:0:
113,298,219262,1,10,1:2:0:0:
169,237,219569,2,0,L|255:234,1,75.0000028610231,14|14,1:2|0:0,0:0:0:0:
326,231,220185,1,14,1:2:0:0:
490,223,220800,6,0,L|487:147,1,75.0000028610231,4|10,1:0|0:0,0:0:0:0:
440,79,221416,1,10,0:0:0:0:
366,115,221723,2,0,L|287:117,1,75.0000028610231,10|12,0:0|0:0,0:0:0:0:
211,95,222339,1,10,0:0:0:0:
151,37,222646,1,10,0:0:0:0:
71,58,222954,1,10,0:0:0:0:
14,118,223262,6,0,B|11:166|11:166|29:205|29:205|26:265,1,150.000005722046,4|10,1:0|0:0,0:0:0:0:
88,318,224185,2,0,B|121:303|121:303|164:317,1,75.0000028610231,10|12,0:0|0:0,0:0:0:0:
232,349,224800,1,10,0:0:0:0:
300,303,225108,2,0,L|291:219,1,75.0000028610231,8|8,0:0|0:3,0:0:0:0:
287,145,225723,6,0,P|312:98|370:86,1,112.500004291535,6|8,1:2|0:0,0:0:0:0:
448,98,226492,1,4,1:2:0:0:
474,176,226800,2,0,P|461:211|443:299,1,112.500004291535,4|2,1:2|0:0,0:0:0:0:
407,358,227569,1,10,0:0:0:0:
335,317,227877,1,10,0:0:0:0:
256,343,228185,6,0,P|203:337|145:332,1,112.500004291535,14|8,0:0|0:0,0:0:0:0:
52,247,229108,1,10,0:0:0:0:
112,190,229416,2,0,B|104:146|122:117|122:117|101:81|117:37,1,150.000005722046,6|8,1:2|0:0,0:0:0:0:
192,70,230339,1,10,0:2:0:0:
263,29,230646,1,4,1:0:0:0:
263,29,233108,6,0,L|258:107,1,75.0000028610231,12|8,0:2|0:0,0:0:0:0:
320,158,233723,2,0,L|315:236,1,75.0000028610231,8|10,0:0|0:0,0:0:0:0:
334,313,234339,2,0,B|284:328|246:285|246:285|173:267|136:328,1,225.000008583069,6|10,1:2|0:0,0:0:0:0:
64,288,235569,6,0,P|70:251|61:215,1,75.0000028610231,4|10,1:0|0:2,0:0:0:0:
20,142,236185,2,0,L|26:64,1,75.0000028610231,2|10,1:2|0:0,0:0:0:0:
92,19,236800,1,6,1:2:0:0:
167,54,237108,2,0,L|243:49,1,75.0000028610231,10|2,0:0|1:2,0:0:0:0:
323,39,237723,1,10,0:0:0:0:
391,84,238031,5,2,1:2:0:0:
347,154,238339,1,10,0:0:0:0:
264,157,238646,2,0,L|183:163,1,75.0000028610231,2|10,1:2|0:0,0:0:0:0:
129,219,239262,2,0,B|151:249|151:249|145:286,1,75.0000028610231,2|10,1:2|0:0,0:0:0:0:
63,300,239877,2,0,B|41:270|41:270|46:232,1,75.0000028610231,2|10,1:2|0:0,0:0:0:0:
73,154,240492,6,0,P|62:96|135:39,1,150.000005722046,6|2,1:2|1:2,0:0:0:0:
208,41,241416,1,10,0:0:0:0:
263,101,241723,2,0,L|352:90,1,75.0000028610231,2|10,1:2|0:2,0:0:0:0:
412,126,242339,2,0,L|422:201,1,75.0000028610231,2|10,1:2|0:0,0:0:0:0:
398,279,242954,6,0,B|433:290|433:290|469:271,2,75.0000028610231,14|10|10,1:2|0:0|0:0,0:0:0:0:
317,262,243877,1,10,0:0:0:0:
238,288,244185,2,0,P|235:242|228:172,1,112.500004291535,6|10,1:2|1:3,0:0:0:0:
107,148,245108,1,12,0:0:0:0:
48,92,245416,2,0,B|15:137|15:137|34:190,1,112.500004291535,6|2,1:2|1:3,0:0:0:0:
107,290,246339,1,10,0:2:0:0:
178,249,246646,2,0,L|264:262,1,75.0000028610231,14|10,0:0|0:0,0:0:0:0:
333,278,247262,1,10,0:0:0:0:
417,187,247723,6,0,L|404:108,1,75.0000028610231,6|14,1:2|0:0,0:0:0:0:
296,52,248492,2,0,L|283:131,1,75.0000028610231,12|8,0:0|0:3,0:0:0:0:
212,168,249108,2,0,L|134:148,1,75.0000028610231,10|8,0:0|0:3,0:0:0:0:
63,116,249723,1,10,1:2:0:0:
26,234,250185,6,0,B|46:277|46:277|32:325|32:325|46:352|46:352|43:374,1,150.000005722046,6|0,1:2|0:0,0:0:0:0:
