osu file format v14

[General]
AudioFilename: audio.mp3
AudioLeadIn: 0
PreviewTime: 151357
Countdown: 0
SampleSet: Soft
StackLeniency: 0.7
Mode: 0
LetterboxInBreaks: 0
WidescreenStoryboard: 1

[Editor]
Bookmarks: 30962,41068,121910,132015,212699,222173
DistanceSpacing: 1
BeatDivisor: 4
GridSize: 32
TimelineZoom: 0.8999999

[Metadata]
Title:Missing You
TitleUnicode:Missing You
Artist:MY FIRST STORY
ArtistUnicode:MY FIRST STORY
Creator:Akitoshi
Version:Easy
Source:
Tags:-Laura- Corinn Antithese jrock j-rock
BeatmapID:2065860
BeatmapSetID:917645

[Difficulty]
HPDrainRate:2
CircleSize:2.8
OverallDifficulty:2
ApproachRate:3
SliderMultiplier:0.849999999999999
SliderTickRate:1

[Events]
//Background and Video events
0,0,"hellowhatsgoingonmyfriend.jpg",0,0
//Break Periods
2,31162,39628
2,71583,74996
2,122109,130575
2,212899,220891
//Storyboard Layer 0 (Background)
//Storyboard Layer 1 (Fail)
//Storyboard Layer 2 (Pass)
//Storyboard Layer 3 (Foreground)
//Storyboard Sound Samples

[TimingPoints]
647,315.789473684211,4,2,5,30,1,0
5068,-100,4,2,5,30,0,0
5620,-100,4,2,5,5,0,0
5699,-100,4,2,5,70,0,0
10120,-100,4,2,5,75,0,0
10278,-100,4,2,5,75,0,0
10515,-100,4,2,5,5,0,0
10594,-100,4,2,5,75,0,0
20383,-100,4,2,5,75,0,0
20620,-100,4,2,5,5,0,0
20699,-100,4,2,5,75,0,0
28436,-100,4,2,5,60,0,0
41068,-100,4,2,5,50,0,0
51173,-100,4,2,5,70,0,0
71304,-100,4,2,5,5,0,0
71383,-100,4,2,5,50,0,0
76120,-100,4,2,5,50,0,0
76436,-100,4,2,5,70,0,0
80857,-100,4,2,5,75,0,0
81015,-100,4,2,5,75,0,0
81252,-100,4,2,5,5,0,0
81331,-100,4,2,5,85,0,1
81804,-100,4,2,5,85,0,1
83857,-100,4,2,5,85,0,1
84331,-100,4,2,5,85,0,1
86383,-100,4,2,5,85,0,1
86857,-100,4,2,5,85,0,1
91436,-100,4,2,5,85,0,1
91910,-100,4,2,5,85,0,1
93962,-100,4,2,5,85,0,1
94436,-100,4,2,5,85,0,1
96489,-100,4,2,5,85,0,1
96962,-100,4,2,5,85,0,1
101699,-100,4,2,5,60,0,0
111804,-100,4,2,5,70,0,0
119383,-100,4,2,5,75,0,0
121278,-100,4,2,5,80,0,0
121910,-100,4,2,5,30,0,0
132015,-100,4,2,5,40,0,0
142041,-100,4,2,5,5,0,0
142120,-100,4,2,5,60,0,0
146541,-100,4,2,5,60,0,0
147173,-100,4,2,5,70,0,0
152068,-100,4,2,5,85,0,1
152541,-100,4,2,5,85,0,1
154594,-100,4,2,5,85,0,1
155068,-100,4,2,5,85,0,1
157120,-100,4,2,5,85,0,1
157594,-100,4,2,5,85,0,1
162173,-100,4,2,5,85,0,1
162647,-100,4,2,5,85,0,1
164699,-100,4,2,5,85,0,1
165173,-100,4,2,5,85,0,1
167225,-100,4,2,5,85,0,1
167699,-100,4,2,5,85,0,1
172436,-100,4,2,5,70,0,0
182541,-100,4,2,5,75,0,0
192489,-100,4,2,5,75,0,0
210252,-100,4,2,5,5,0,0
210331,-100,4,2,5,75,0,0
210489,-100,4,2,5,40,0,0
222331,-100,4,2,5,75,0,0
222804,-100,4,2,5,75,0,0
232910,-100,4,2,5,75,0,0
235436,-100,4,2,5,75,0,0
235594,-100,4,2,5,20,0,0
237489,-100,4,2,5,60,0,0
237883,-100,4,2,5,5,0,0
237962,-100,4,2,5,85,0,1
238436,-100,4,2,5,85,0,1
240489,-100,4,2,5,85,0,1
240962,-100,4,2,5,85,0,1
243015,-100,4,2,5,85,0,1
243489,-100,4,2,5,85,0,1
248068,-100,4,2,5,85,0,1
248541,-100,4,2,5,85,0,1
250594,-100,4,2,5,85,0,1
251068,-100,4,2,5,85,0,1
253120,-100,4,2,5,85,0,1
253594,-100,4,2,5,85,0,1
257068,-100,4,2,5,85,0,0

[Colours]
Combo1 : 233,238,17
Combo2 : 255,128,64
Combo3 : 255,128,255
Combo4 : 192,192,192

[HitObjects]
157,166,5699,6,0,L|243:154,1,84.9999999999999,6|0,0:2|0:0,0:0:0:0:
321,184,6331,2,0,B|294:294|294:294|312:306|330:348,2,170,8|0|8,0:0|1:0|0:0,0:0:0:0:
344,102,7910,1,0,0:0:0:0:
296,31,8225,6,0,P|247:21|205:30,1,84.9999999999999,6|8,0:2|0:0,0:0:0:0:
139,69,8857,2,0,P|129:118|138:160,1,84.9999999999999,8|8,0:0|0:0,0:0:0:0:
168,230,9489,1,8,3:0:0:0:
249,253,9804,1,4,3:0:0:0:
322,210,10120,2,0,L|379:215,1,42.5,4|4,3:0|3:0,0:0:0:0:
449,219,10594,6,0,B|466:256|466:256|442:347,1,127.5,6|8,0:0|0:0,0:0:0:0:
368,377,11383,1,0,1:0:0:0:
282,377,11699,1,8,0:0:0:0:
223,315,12015,2,0,P|183:326|135:319,1,84.9999999999999,0|8,1:0|0:0,0:0:0:0:
60,291,12647,1,0,1:0:0:0:
82,165,13120,6,0,B|164:182|164:182|202:159,1,127.5,6|8,0:0|0:0,0:0:0:0:
259,97,13910,1,0,1:0:0:0:
343,97,14225,1,8,0:0:0:0:
403,157,14541,2,0,P|412:198|404:239,1,84.9999999999999,0|8,1:0|0:0,0:0:0:0:
362,313,15173,1,0,1:0:0:0:
247,256,15647,6,0,B|204:234|204:234|117:252,1,127.5,6|8,0:0|0:0,0:0:0:0:
43,266,16436,1,0,1:0:0:0:
7,188,16752,1,8,0:0:0:0:
38,108,17068,2,0,P|90:93|128:100,1,84.9999999999999,0|8,1:0|0:0,0:0:0:0:
201,120,17699,1,0,1:0:0:0:
311,184,18173,6,0,B|354:206|354:206|441:188,1,127.5,6|8,0:0|0:0,0:0:0:0:
503,235,18962,2,0,L|494:328,1,84.9999999999999,8|8,0:0|0:0,0:0:0:0:
424,367,19594,1,0,1:0:0:0:
338,365,19910,1,8,0:0:0:0:
276,306,20225,2,0,L|226:311,1,42.5,4|4,3:0|3:0,0:0:0:0:
148,316,20699,6,0,B|126:273|126:273|144:186,1,127.5,6|8,0:0|0:0,0:0:0:0:
161,112,21489,1,0,1:0:0:0:
88,67,21804,1,8,0:0:0:0:
15,111,22120,2,0,P|1:155|6:200,1,84.9999999999999,0|8,1:0|0:0,0:0:0:0:
26,275,22752,1,0,1:0:0:0:
148,316,23225,6,0,P|214:310|292:303,1,127.5,6|8,0:0|0:0,0:0:0:0:
359,292,24015,1,0,1:0:0:0:
433,251,24331,1,8,0:0:0:0:
467,173,24647,2,0,P|470:128|447:78,1,84.9999999999999,0|8,1:0|0:0,0:0:0:0:
392,34,25278,1,0,1:0:0:0:
285,104,25752,6,0,P|217:99|144:92,1,127.5,6|8,0:0|0:0,0:0:0:0:
73,88,26541,1,0,1:0:0:0:
22,156,26857,1,8,0:0:0:0:
68,227,27173,2,0,P|104:242|150:237,1,84.9999999999999,0|8,1:0|0:0,0:0:0:0:
228,206,27804,2,0,P|264:191|310:196,1,84.9999999999999,8|4,0:0|3:0,0:0:0:0:
378,244,28436,5,6,0:0:0:0:
256,192,28594,12,0,30962,0:0:0:0:
168,169,41068,6,0,B|239:215|239:215|369:171,1,212.5,0|8,1:0|0:0,0:0:0:0:
439,143,42173,2,0,P|470:197|460:275,2,127.5,0|8|8,1:0|0:0|0:0,0:0:0:0:
337,65,43594,6,0,B|300:36|259:34|259:34|209:97|134:82,1,212.5,0|8,1:2|0:0,0:0:0:0:
63,76,44699,2,0,B|39:124|39:124|60:206,2,127.5,0|8|8,1:0|0:0|0:0,0:0:0:0:
144,174,46120,6,0,B|190:189|209:226|209:226|259:173|336:185,1,212.5,0|8,1:0|0:0,0:0:0:0:
403,213,47225,2,0,B|379:261|379:261|400:343,2,127.5,0|8|8,1:0|0:0|0:0,0:0:0:0:
477,109,48647,6,0,L|468:18,1,84.9999999999999,0|8,1:0|0:0,0:0:0:0:
386,46,49278,2,0,P|343:60|291:55,1,84.9999999999999,0|0,0:0|0:0,0:0:0:0:
219,43,49910,1,8,0:0:0:0:
173,114,50225,1,8,3:0:0:0:
223,182,50541,2,0,P|237:225|232:277,1,84.9999999999999,2|4,0:0|3:0,0:0:0:0:
182,331,51173,6,0,P|228:303|347:324,1,170,6|0,0:0|1:0,0:0:0:0:
406,368,52120,1,8,0:0:0:0:
481,328,52436,2,0,P|474:285|470:243,1,84.9999999999999,0|8,1:0|0:0,0:0:0:0:
401,192,53068,2,0,P|408:149|412:107,1,84.9999999999999,0|8,1:0|0:0,0:0:0:0:
371,32,53699,6,0,B|280:20|298:68|204:57,1,170,6|0,0:0|1:0,0:0:0:0:
124,30,54647,1,8,0:0:0:0:
52,74,54962,2,0,P|40:120|54:167,1,84.9999999999999,0|8,1:0|0:0,0:0:0:0:
118,203,55594,2,0,P|130:249|116:296,1,84.9999999999999,0|8,1:0|0:0,0:0:0:0:
52,333,56225,6,0,B|116:325|116:325|162:345|162:345|233:332,1,170,6|0,0:0|1:0,0:0:0:0:
300,320,57173,1,8,0:0:0:0:
369,271,57489,2,0,P|444:269|497:300,2,127.5,0|0|8,1:0|0:0|0:0,0:0:0:0:
300,320,58752,6,0,B|248:350|248:350|131:330,1,170,6|0,0:0|1:0,0:0:0:0:
55,318,59699,1,8,0:0:0:0:
26,238,60015,2,0,P|19:185|33:146,1,84.9999999999999,8|8,0:0|0:0,0:0:0:0:
76,85,60647,1,8,0:0:0:0:
157,61,60962,1,8,0:0:0:0:
237,89,61278,6,0,B|250:153|250:153|235:191|235:191|250:268,1,170,6|0,0:0|1:0,0:0:0:0:
263,337,62225,1,8,0:0:0:0:
337,375,62541,2,0,P|380:377|421:367,1,84.9999999999999,0|8,1:0|0:0,0:0:0:0:
483,308,63173,2,0,P|484:265|474:224,1,84.9999999999999,0|8,1:0|0:0,0:0:0:0:
438,147,63804,6,0,B|345:141|368:192|272:175,1,170,6|0,0:0|1:0,0:0:0:0:
195,142,64752,1,8,0:0:0:0:
150,69,65068,2,0,P|113:54|62:57,1,84.9999999999999,0|8,1:0|0:0,0:0:0:0:
10,117,65699,2,0,P|5:156|21:205,1,84.9999999999999,0|8,1:0|0:0,0:0:0:0:
72,264,66331,6,0,B|135:258|135:258|172:279|172:279|242:270,1,170,6|0,0:0|1:0,0:0:0:0:
319,254,67278,1,8,0:0:0:0:
373,188,67594,2,0,P|356:126|374:66,2,127.5,0|0|8,1:0|0:0|0:0,0:0:0:0:
444,234,68857,6,0,P|430:300|423:362,1,127.5,6|8,0:0|0:0,0:0:0:0:
295,359,69804,2,0,P|287:295|274:233,1,127.5,8|8,0:0|0:0,0:0:0:0:
202,127,70752,2,0,P|156:133|109:139,2,84.9999999999999,8|8|2,0:0|0:0|0:0,0:0:0:0:
273,120,76436,6,0,P|215:98|118:154,1,170,6|4,0:0|3:0,0:0:0:0:
84,219,77383,1,4,3:0:0:0:
130,290,77699,2,0,L|265:297,1,127.5,4|4,3:0|3:0,0:0:0:0:
342,298,78489,1,4,3:0:0:0:
399,236,78804,5,6,0:0:0:0:
347,168,79120,2,0,P|330:104|362:43,1,127.5,8|8,0:0|0:0,0:0:0:0:
436,27,79910,1,0,1:0:0:0:
503,78,80225,2,0,P|500:121|497:180,1,84.9999999999999,0|4,1:0|3:0,0:0:0:0:
433,218,80857,2,0,P|434:239|437:274,1,42.5,4|4,3:0|3:0,0:0:0:0:
435,345,81331,6,0,B|351:362|351:362|314:340,1,127.5,6|8,0:0|0:0,0:0:0:0:
247,289,82120,2,0,P|185:315|119:305,2,127.5,0|0|8,1:0|1:0|0:0,0:0:0:0:
303,225,83383,1,0,1:0:0:0:
236,116,83857,6,0,B|152:132|152:132|98:108,1,127.5,6|8,0:0|0:0,0:0:0:0:
32,87,84647,2,0,P|8:144|25:214,2,127.5,0|4|8,1:0|1:0|0:0,0:0:0:0:
96,31,85910,1,0,1:0:0:0:
176,129,86383,6,0,B|157:174|157:174|181:259,1,127.5,6|8,0:0|0:0,0:0:0:0:
196,332,87173,2,0,P|145:353|75:342,2,127.5,0|0|8,1:0|1:0|0:0,0:0:0:0:
261,277,88436,1,0,1:0:0:0:
288,152,88910,6,0,P|350:159|432:168,1,127.5,6|8,0:0|0:0,0:0:0:0:
498,180,89699,1,8,0:0:0:0:
510,264,90015,1,8,0:0:0:0:
465,336,90331,2,0,P|395:355|330:327,1,127.5,8|0,0:0|0:0,0:0:0:0:
271,295,91120,1,8,0:0:0:0:
221,225,91436,6,0,B|173:248|173:248|86:232,1,127.5,6|8,0:0|0:0,0:0:0:0:
16,217,92225,2,0,P|19:164|27:86,2,127.5,0|0|8,1:0|1:0|0:0,0:0:0:0:
6,301,93489,1,0,1:0:0:0:
121,354,93962,6,0,B|194:369|194:369|212:353|255:338,1,127.5,6|8,0:0|0:0,0:0:0:0:
312,297,94752,2,0,P|368:324|437:312,1,127.5,0|0,1:0|1:0,0:0:0:0:
493,257,95541,1,0,1:0:0:0:
458,179,95857,2,0,P|413:173|365:169,1,84.9999999999999,0|0,1:0|1:0,0:0:0:0:
297,131,96489,6,0,B|253:139|253:139|226:159|226:159|166:169,1,127.5,6|8,0:0|0:0,0:0:0:0:
94,185,97278,2,0,P|77:142|94:61,2,127.5,0|0|8,1:0|1:0|0:0,0:0:0:0:
149,249,98541,1,0,1:0:0:0:
269,289,99015,6,0,P|319:283|398:272,1,127.5,6|8,0:0|0:0,0:0:0:0:
478,252,99804,1,8,0:0:0:0:
503,170,100120,1,8,0:0:0:0:
456,99,100436,2,0,P|412:91|360:106,1,84.9999999999999,8|0,0:0|1:0,0:0:0:0:
295,133,101068,2,0,P|251:141|199:126,1,84.9999999999999,0|0,0:0|1:0,0:0:0:0:
132,103,101699,5,6,0:2:0:0:
75,166,102015,1,8,0:0:0:0:
106,244,102331,2,0,P|168:248|239:256,2,127.5,0|8|8,1:0|0:0|0:0,0:0:0:0:
21,234,103594,2,0,P|10:277|21:327,1,84.9999999999999,0|8,1:0|0:0,0:0:0:0:
76,376,104225,5,6,0:0:0:0:
161,376,104541,1,8,0:0:0:0:
238,340,104857,2,0,P|294:363|369:338,2,127.5,0|8|8,1:0|0:0|0:0,0:0:0:0:
179,278,106120,2,0,P|183:235|188:186,1,84.9999999999999,0|8,1:0|0:0,0:0:0:0:
203,109,106752,5,4,0:0:0:0:
275,64,107068,1,8,0:0:0:0:
357,83,107383,2,0,P|420:58|488:66,2,127.5,0|8|8,1:0|0:0|0:0,0:0:0:0:
311,154,108647,2,0,P|317:200|325:249,1,84.9999999999999,0|8,1:0|0:0,0:0:0:0:
391,288,109278,6,0,P|385:334|377:383,1,84.9999999999999,4|8,1:2|0:0,0:0:0:0:
297,348,109910,2,0,P|237:325|162:352,2,127.5,0|8|8,1:0|0:0|0:0,0:0:0:0:
378,372,111173,1,0,1:0:0:0:
454,333,111489,1,8,0:0:0:0:
435,250,111804,6,0,P|390:245|346:242,1,84.9999999999999,0|8,1:0|0:0,0:0:0:0:
275,200,112436,2,0,P|280:155|283:111,1,84.9999999999999,0|8,1:0|0:0,0:0:0:0:
217,60,113068,2,0,P|171:74|127:73,2,84.9999999999999,0|8|0,1:0|0:0|1:0,0:0:0:0:
290,16,114015,1,8,0:0:0:0:
373,34,114331,6,0,P|379:77|384:126,1,84.9999999999999,0|8,1:0|0:0,0:0:0:0:
447,174,114962,2,0,P|441:217|436:266,1,84.9999999999999,0|8,1:0|0:0,0:0:0:0:
360,297,115594,2,0,P|377:338|381:380,2,84.9999999999999,0|8|0,1:0|0:0|1:0,0:0:0:0:
309,230,116541,1,8,0:0:0:0:
229,260,116857,6,0,P|184:258|137:255,1,84.9999999999999,4|8,1:2|0:2,0:0:0:0:
59,248,117489,2,0,P|61:203|64:156,1,84.9999999999999,0|8,1:0|0:0,0:0:0:0:
128,108,118120,2,0,P|126:63|123:16,2,84.9999999999999,0|8|0,1:0|0:0|1:0,0:0:0:0:
196,159,119068,1,8,0:0:0:0:
265,110,119383,6,0,B|313:104|350:97|350:97|392:118,1,127.5,12|12,0:0|0:0,0:0:0:0:
387,243,120331,2,0,B|349:261|349:261|312:254|264:248,1,127.5,12|8,0:0|0:0,0:0:0:0:
138,230,121278,6,0,B|85:242|37:210|37:210|30:247|5:276,1,170,4|2,3:0|0:0,0:0:0:0:
99,151,132015,6,0,P|137:135|184:137,1,84.9999999999999,0|0,1:0|0:0,0:0:0:0:
256,174,132647,2,0,B|236:214|236:214|254:302,2,127.5,8|0|0,0:0|1:0|1:0,0:0:0:0:
294,98,133910,1,8,0:0:0:0:
462,119,134541,6,0,P|476:178|467:214,1,84.9999999999999,0|0,1:0|0:0,0:0:0:0:
403,252,135173,2,0,B|423:292|423:292|405:380,1,127.5,8|0,0:0|1:0,0:0:0:0:
323,355,135962,2,0,P|280:340|234:344,1,84.9999999999999,0|0,1:0|0:0,0:0:0:0:
36,282,137068,6,0,P|38:240|42:184,1,84.9999999999999,0|0,1:0|0:0,0:0:0:0:
41,112,137699,2,0,B|124:94|124:94|137:107|159:116,1,127.5,8|0,0:0|1:0,0:0:0:0:
243,131,138489,2,0,P|255:90|248:39,1,84.9999999999999,0|8,1:0|0:0,0:0:0:0:
460,10,139594,6,0,P|455:51|448:102,1,84.9999999999999,0|0,1:0|0:0,0:0:0:0:
428,176,140225,2,0,P|358:174|299:205,1,127.5,8|0,0:0|1:0,0:0:0:0:
242,253,141015,1,0,1:0:0:0:
290,323,141331,2,0,B|411:308|375:384|507:363,1,212.5,8|4,0:0|1:2,0:0:0:0:
511,282,142436,5,0,1:0:0:0:
453,219,142752,2,0,P|412:199|362:197,1,84.9999999999999,0|0,1:0|1:0,0:0:0:0:
288,193,143383,2,0,P|292:149|297:104,2,84.9999999999999,0|0|0,1:2|1:0|1:0,0:0:0:0:
218,242,144331,1,0,1:0:0:0:
140,206,144647,6,0,P|94:222|47:217,2,84.9999999999999,0|0|0,1:2|1:0|1:0,0:0:0:0:
205,151,145594,1,0,1:0:0:0:
256,83,145910,2,0,P|298:78|355:73,1,84.9999999999999,0|2,1:2|0:0,0:0:0:0:
416,113,146541,2,0,B|431:155|431:155|420:199,1,84.9999999999999,8|4,0:0|3:0,0:0:0:0:
354,247,147173,6,0,P|292:234|218:262,2,127.5,4|12|12,1:2|0:0|0:0,0:0:0:0:
359,331,148436,2,0,P|298:349|236:336,1,127.5,0|0,1:0|1:0,0:0:0:0:
161,297,149225,1,0,1:0:0:0:
232,252,149541,6,0,B|251:171|251:171|222:125,1,127.5,4|8,1:0|1:2,0:0:0:0:
159,81,150331,2,0,P|110:76|74:91,1,84.9999999999999,8|8,1:2|1:2,0:0:0:0:
28,158,150962,2,0,P|23:207|38:243,1,84.9999999999999,8|8,1:2|1:2,0:0:0:0:
95,300,151594,2,0,L|146:294,1,42.5,8|8,3:0|3:0,0:0:0:0:
206,245,152068,6,0,B|286:267|286:267|301:260|323:237,1,127.5,6|8,0:0|0:0,0:0:0:0:
372,172,152857,2,0,P|428:195|506:186,2,127.5,0|0|8,1:0|1:0|0:0,0:0:0:0:
323,102,154120,1,0,1:0:0:0:
200,130,154594,6,0,B|178:210|178:210|185:225|208:247,1,127.5,6|8,0:0|0:0,0:0:0:0:
271,297,155383,2,0,P|328:268|393:276,2,127.5,0|4|8,1:0|1:0|0:0,0:0:0:0:
217,362,156647,1,0,1:0:0:0:
91,341,157120,6,0,B|69:261|69:261|76:246|99:224,1,127.5,6|8,0:0|0:0,0:0:0:0:
164,174,157910,2,0,P|157:109|149:37,2,127.5,0|0|8,1:0|1:0|0:0,0:0:0:0:
178,257,159173,1,0,1:0:0:0:
286,324,159647,6,0,P|339:344|410:321,1,127.5,6|8,0:0|0:0,0:0:0:0:
464,264,160436,1,8,0:0:0:0:
464,178,160752,1,8,0:0:0:0:
403,117,161068,2,0,P|339:110|270:102,1,127.5,8|0,0:0|0:0,0:0:0:0:
192,90,161857,1,8,0:0:0:0:
125,143,162173,6,0,B|103:223|103:223|110:238|133:260,1,127.5,6|8,0:0|0:0,0:0:0:0:
199,306,162962,2,0,P|245:283|319:297,1,127.5,0|0,1:0|1:0,0:0:0:0:
393,334,163752,1,0,1:0:0:0:
463,286,164068,2,0,P|458:245|452:190,1,84.9999999999999,0|0,0:0|1:0,0:0:0:0:
434,118,164699,6,0,B|354:140|354:140|339:133|317:110,1,127.5,6|8,0:0|0:0,0:0:0:0:
264,46,165489,2,0,P|200:52|137:60,1,127.5,0|0,1:0|1:0,0:0:0:0:
52,61,166278,1,0,1:0:0:0:
18,139,166594,2,0,P|12:183|26:228,1,84.9999999999999,0|0,1:0|1:0,0:0:0:0:
76,287,167225,6,0,B|156:309|156:309|171:302|193:279,1,127.5,6|8,0:0|0:0,0:0:0:0:
236,209,168015,2,0,P|300:216|369:224,1,127.5,0|0,1:0|1:0,0:0:0:0:
443,196,168804,1,0,1:0:0:0:
491,126,169120,2,0,P|501:82|490:36,1,84.9999999999999,0|0,0:0|1:0,0:0:0:0:
410,23,169752,6,0,B|366:49|366:49|271:34,1,127.5,6|8,0:0|0:0,0:0:0:0:
206,24,170541,1,8,0:0:0:0:
147,85,170857,1,8,0:0:0:0:
160,168,171173,2,0,P|214:195|285:187,2,127.5,8|8|8,0:0|0:0|3:0,0:0:0:0:
79,139,172436,6,0,P|72:220|64:311,1,170,4|8,1:2|0:0,0:0:0:0:
228,352,173699,2,0,P|300:314|394:326,1,170,8|8,0:0|0:0,0:0:0:0:
437,159,174962,6,0,P|365:197|271:185,1,170,8|8,0:0|0:0,0:0:0:0:
160,67,176225,2,0,P|241:60|332:52,1,170,8|8,0:0|0:0,0:0:0:0:
414,43,177173,1,8,0:0:0:0:
487,86,177489,6,0,P|456:145|471:246,1,170,12|8,0:0|0:0,0:0:0:0:
344,358,178752,2,0,P|361:276|327:199,1,170,8|8,0:0|0:0,0:0:0:0:
250,161,179699,1,0,1:0:0:0:
179,207,180015,6,0,P|95:199|-9:188,1,170,8|8,0:0|0:0,0:0:0:0:
108,51,181278,2,0,P|192:43|296:32,1,170,8|8,0:0|0:0,0:0:0:0:
351,76,182225,1,4,3:0:0:0:
382,155,182541,6,0,P|444:166|504:138,2,127.5,4|8|8,1:2|0:0|0:0,0:0:0:0:
297,142,183804,2,0,P|254:146|206:150,1,84.9999999999999,0|8,1:0|0:0,0:0:0:0:
127,160,184436,1,0,1:0:0:0:
84,280,184910,6,0,P|132:312|209:303,1,127.5,4|8,1:2|0:0,0:0:0:0:
267,257,185699,2,0,P|328:262|396:267,1,127.5,0|0,1:0|0:0,0:0:0:0:
465,220,186489,1,0,1:0:0:0:
435,140,186804,2,0,P|388:126|344:131,1,84.9999999999999,0|8,1:0|0:0,0:0:0:0:
270,151,187436,6,0,B|218:144|218:144|200:130|200:130|139:120,1,127.5,4|8,1:2|0:0,0:0:0:0:
63,116,188225,1,0,1:0:0:0:
16,186,188541,1,8,0:0:0:0:
34,269,188857,2,0,P|80:288|124:281,1,84.9999999999999,0|8,1:0|0:0,0:0:0:0:
194,255,189489,1,8,0:0:0:0:
270,151,189962,6,0,L|406:164,1,127.5,4|4,1:2|3:0,0:0:0:0:
481,171,190752,1,8,3:2:0:0:
501,253,191068,1,8,0:0:0:0:
439,311,191383,2,0,P|392:321|341:309,1,84.9999999999999,8|8,0:0|0:0,0:0:0:0:
280,275,192015,1,8,0:0:0:0:
332,158,192489,6,0,P|326:93|319:26,1,127.5,6|8,0:2|0:0,0:0:0:0:
234,26,193278,2,0,P|177:36|144:29,1,84.9999999999999,0|8,1:0|0:0,0:0:0:0:
66,18,193910,2,0,P|56:75|63:108,1,84.9999999999999,0|8,1:0|0:0,0:0:0:0:
91,180,194541,1,0,1:0:0:0:
188,261,195015,6,0,P|245:253|320:243,1,127.5,6|8,0:0|0:0,0:0:0:0:
398,235,195804,2,0,P|418:273|419:326,1,84.9999999999999,0|8,1:0|0:0,0:0:0:0:
351,364,196436,2,0,P|309:353|256:362,1,84.9999999999999,0|8,1:0|0:0,0:0:0:0:
185,380,197068,1,0,1:0:0:0:
73,318,197541,6,0,P|67:251|62:184,1,127.5,6|8,0:0|0:0,0:0:0:0:
52,106,198331,2,0,P|94:93|140:99,1,84.9999999999999,0|8,1:0|0:0,0:0:0:0:
214,123,198962,2,0,P|256:136|302:130,1,84.9999999999999,0|8,1:0|0:0,0:0:0:0:
376,103,199594,1,0,1:0:0:0:
478,178,200068,6,0,P|471:241|464:319,1,127.5,6|8,0:0|0:0,0:0:0:0:
396,354,200857,2,0,P|344:361|307:346,1,84.9999999999999,0|8,1:0|0:0,0:0:0:0:
240,307,201489,1,0,1:0:0:0:
198,232,201804,2,0,P|189:190|201:150,1,84.9999999999999,8|8,1:2|1:2,0:0:0:0:
252,32,202594,6,0,P|184:38|116:44,1,127.5,6|8,0:0|0:0,0:0:0:0:
40,50,203383,2,0,P|29:93|34:134,1,84.9999999999999,0|8,1:0|0:0,0:0:0:0:
83,202,204015,2,0,P|94:245|89:286,1,84.9999999999999,0|8,1:0|0:0,0:0:0:0:
52,362,204647,1,0,1:0:0:0:
178,380,205120,6,0,P|243:370|310:361,1,127.5,6|8,0:0|0:0,0:0:0:0:
389,354,205910,2,0,P|403:313|399:269,1,84.9999999999999,0|8,1:0|0:0,0:0:0:0:
360,196,206541,2,0,P|346:155|350:111,1,84.9999999999999,0|8,1:0|0:0,0:0:0:0:
375,32,207173,1,0,1:0:0:0:
247,23,207647,6,0,P|181:31|113:40,1,127.5,6|8,0:0|0:0,0:0:0:0:
36,50,208436,2,0,P|28:106|41:145,1,84.9999999999999,0|8,1:0|0:0,0:0:0:0:
83,203,209068,2,0,P|139:195|178:208,1,84.9999999999999,0|8,1:0|0:0,0:0:0:0:
236,249,209699,2,0,B|281:251|318:229|318:229|345:262|399:273,1,170,8|6,0:0|0:0,0:0:0:0:
256,192,210489,12,0,212699,0:0:0:0:
86,135,222331,6,0,L|132:127,1,42.5,8|8,0:0|0:0,0:0:0:0:
211,113,222804,6,0,B|236:152|236:152|221:246,1,127.5,4|0,1:2|1:0,0:0:0:0:
265,306,223594,2,0,P|327:326|392:306,1,127.5,8|0,0:0|1:0,0:0:0:0:
452,258,224383,2,0,P|442:194|432:120,1,127.5,0|8,1:0|0:0,0:0:0:0:
365,23,225331,6,0,B|326:48|326:48|232:33,1,127.5,4|0,1:2|1:0,0:0:0:0:
161,24,226120,2,0,P|154:81|147:159,1,127.5,8|0,0:0|1:0,0:0:0:0:
138,235,226910,2,0,P|69:237|18:278,1,127.5,0|8,1:0|0:0,0:0:0:0:
133,335,227857,6,0,B|172:360|172:360|266:345,1,127.5,4|0,1:2|1:0,0:0:0:0:
335,329,228647,1,8,0:0:0:0:
260,225,229120,2,0,B|235:186|235:186|250:92,1,127.5,4|0,1:2|1:0,0:0:0:0:
263,21,229910,1,8,0:0:0:0:
390,24,230383,6,0,B|415:63|415:63|400:157,1,127.5,4|0,1:2|1:0,0:0:0:0:
346,207,231173,2,0,P|350:248|356:295,1,84.9999999999999,8|0,0:0|0:0,0:0:0:0:
292,348,231804,2,0,P|202:362|128:317,1,170,0|8,1:0|0:0,0:0:0:0:
86,207,232910,6,0,P|95:146|107:80,1,127.5,4|0,1:2|1:0,0:0:0:0:
175,31,233699,2,0,P|213:44|269:34,1,84.9999999999999,8|0,0:0|0:0,0:0:0:0:
337,67,234331,2,0,B|308:177|308:177|333:228,1,170,0|8,1:0|0:0,0:0:0:0:
377,299,235278,2,0,L|428:304,1,42.5,8|8,0:0|0:0,0:0:0:0:
299,183,237962,6,0,B|216:169|216:169|204:186|174:199,1,127.5,6|8,0:0|0:0,0:0:0:0:
99,217,238752,2,0,P|82:150|107:82,2,127.5,0|0|8,1:0|1:0|0:0,0:0:0:0:
156,279,240015,1,0,1:0:0:0:
271,224,240489,6,0,B|354:210|354:210|366:227|387:236,1,127.5,6|8,0:0|0:0,0:0:0:0:
470,254,241278,2,0,P|494:202|477:125,2,127.5,0|4|8,1:0|1:0|0:0,0:0:0:0:
412,316,242541,1,0,1:0:0:0:
288,347,243015,6,0,B|205:333|205:333|193:350|163:363,1,127.5,6|8,0:0|0:0,0:0:0:0:
126,286,243804,2,0,P|83:296|6:264,2,127.5,0|0|8,1:0|1:0|0:0,0:0:0:0:
195,236,245068,1,0,1:0:0:0:
244,118,245541,6,0,B|295:111|295:111|313:95|313:95|369:88,1,127.5,6|8,0:0|0:0,0:0:0:0:
449,80,246331,1,8,0:0:0:0:
500,147,246647,1,8,0:0:0:0:
474,227,246962,2,0,P|415:260|339:255,1,127.5,8|8,0:0|0:2,0:0:0:0:
274,237,247752,1,8,0:0:0:0:
200,193,248068,6,0,B|117:207|117:207|105:190|75:177,1,127.5,6|8,0:0|0:0,0:0:0:0:
34,110,248857,2,0,P|28:171|18:256,2,127.5,0|0|8,1:0|1:0|0:0,0:0:0:0:
45,25,250120,1,0,1:0:0:0:
165,67,250594,6,0,B|248:81|248:81|260:64|290:51,1,127.5,6|8,0:0|0:0,0:0:0:0:
361,23,251383,2,0,P|388:85|372:153,1,127.5,0|0,1:0|1:0,0:0:0:0:
318,203,252173,1,0,1:0:0:0:
233,209,252489,2,0,P|189:194|140:199,1,84.9999999999999,0|8,0:0|0:0,0:0:0:0:
69,219,253120,6,0,B|55:302|55:302|72:314|81:335,1,127.5,6|8,0:0|0:0,0:0:0:0:
160,367,253910,2,0,P|225:368|285:327,2,127.5,0|0|8,1:0|1:0|0:0,0:0:0:0:
81,335,255173,1,0,1:0:0:0:
168,242,255647,6,0,P|231:236|304:229,1,127.5,6|8,0:0|0:0,0:0:0:0:
378,216,256436,1,8,3:0:0:0:
439,157,256752,1,0,1:0:0:0:
435,71,257068,1,2,0:0:0:0:
