osu file format v14

[General]
AudioFilename: audio.mp3
AudioLeadIn: 0
PreviewTime: 151357
Countdown: 0
SampleSet: Soft
StackLeniency: 0.7
Mode: 0
LetterboxInBreaks: 0
WidescreenStoryboard: 0

[Editor]
Bookmarks: 30962,41068,121910,132015,212699,222173
DistanceSpacing: 2.9
BeatDivisor: 4
GridSize: 32
TimelineZoom: 1.4

[Metadata]
Title:Missing You
TitleUnicode:Missing You
Artist:MY FIRST STORY
ArtistUnicode:MY FIRST STORY
Creator:Akitoshi
Version:Disappearance
Source:
Tags:-Laura- Corinn Antithese jrock j-rock
BeatmapID:1916293
BeatmapSetID:917645

[Difficulty]
HPDrainRate:6
CircleSize:4
OverallDifficulty:9
ApproachRate:9.5
SliderMultiplier:1.75
SliderTickRate:1

[Events]
//Background and Video events
0,0,"hellowhatsgoingonmyfriend.jpg",0,0
//Break Periods
2,31162,40543
2,122109,131490
2,212899,221648
//Storyboard Layer 0 (Background)
//Storyboard Layer 1 (Fail)
//Storyboard Layer 2 (Pass)
//Storyboard Layer 3 (Foreground)
//Storyboard Sound Samples

[TimingPoints]
647,315.789473684211,4,2,5,30,1,0
5068,-125,4,2,5,30,0,0
5620,-125,4,2,5,5,0,0
5699,-100,4,2,5,70,0,0
10120,-66.6666666666667,4,2,5,75,0,0
10278,-133.333333333333,4,2,5,75,0,0
10515,-133.333333333333,4,2,5,5,0,0
10594,-100,4,2,5,75,0,0
20383,-133.333333333333,4,2,5,75,0,0
20620,-133.333333333333,4,2,5,5,0,0
20699,-100,4,2,5,75,0,0
28436,-125,4,2,5,60,0,0
41068,-142.857142857143,4,2,5,50,0,0
51173,-111.111111111111,4,2,5,70,0,0
71304,-111.111111111111,4,2,5,5,0,0
71383,-200,4,2,5,50,0,0
76120,-133.333333333333,4,2,5,50,0,0
76436,-100,4,2,5,70,0,0
80857,-66.6666666666667,4,2,5,75,0,0
81015,-133.333333333333,4,2,5,75,0,0
81252,-133.333333333333,4,2,5,5,0,0
81331,-76.9230769230769,4,2,5,85,0,1
81804,-90.9090909090909,4,2,5,85,0,1
83857,-76.9230769230769,4,2,5,85,0,1
84331,-90.9090909090909,4,2,5,85,0,1
86383,-76.9230769230769,4,2,5,85,0,1
86857,-90.9090909090909,4,2,5,85,0,1
91436,-76.9230769230769,4,2,5,85,0,1
91910,-90.9090909090909,4,2,5,85,0,1
93962,-76.9230769230769,4,2,5,85,0,1
94436,-90.9090909090909,4,2,5,85,0,1
96489,-76.9230769230769,4,2,5,85,0,1
96962,-90.9090909090909,4,2,5,85,0,1
101699,-125,4,2,5,60,0,0
111804,-117.647058823529,4,2,5,70,0,0
119383,-111.111111111111,4,2,5,75,0,0
121278,-83.3333333333333,4,2,5,80,0,0
121910,-200,4,2,5,30,0,0
132015,-200,4,2,5,40,0,0
142041,-200,4,2,5,5,0,0
142120,-133.333333333333,4,2,5,60,0,0
146541,-125,4,2,5,60,0,0
147173,-100,4,2,5,70,0,0
152068,-76.9230769230769,4,2,5,85,0,1
152541,-90.9090909090909,4,2,5,85,0,1
154594,-76.9230769230769,4,2,5,85,0,1
155068,-90.9090909090909,4,2,5,85,0,1
157120,-76.9230769230769,4,2,5,85,0,1
157594,-90.9090909090909,4,2,5,85,0,1
162173,-76.9230769230769,4,2,5,85,0,1
162647,-90.9090909090909,4,2,5,85,0,1
164699,-76.9230769230769,4,2,5,85,0,1
165173,-90.9090909090909,4,2,5,85,0,1
167225,-76.9230769230769,4,2,5,85,0,1
167699,-90.9090909090909,4,2,5,85,0,1
172436,-111.111111111111,4,2,5,70,0,0
182541,-100,4,2,5,75,0,0
192489,-90.9090909090909,4,2,5,75,0,0
210252,-90.9090909090909,4,2,5,5,0,0
210331,-250,4,2,5,75,0,0
210489,-250,4,2,5,40,0,0
222331,-90.9090909090909,4,2,5,75,0,0
222804,-125,4,2,5,75,0,0
232910,-142.857142857143,4,2,5,75,0,0
235436,-333.333333333334,4,2,5,75,0,0
235594,-333.333333333334,4,2,5,20,0,0
237489,-333.333333333334,4,2,5,60,0,0
237883,-333.333333333334,4,2,5,5,0,0
237962,-76.9230769230769,4,2,5,85,0,1
238436,-90.9090909090909,4,2,5,85,0,1
240489,-76.9230769230769,4,2,5,85,0,1
240962,-90.9090909090909,4,2,5,85,0,1
243015,-76.9230769230769,4,2,5,85,0,1
243489,-90.9090909090909,4,2,5,85,0,1
248068,-76.9230769230769,4,2,5,85,0,1
248541,-90.9090909090909,4,2,5,85,0,1
250594,-76.9230769230769,4,2,5,85,0,1
251068,-90.9090909090909,4,2,5,85,0,1
253120,-76.9230769230769,4,2,5,85,0,1
253594,-90.9090909090909,4,2,5,85,0,1
257068,-200,4,2,5,85,0,0

[Colours]
Combo1 : 233,238,17
Combo2 : 255,128,64
Combo3 : 255,128,255
Combo4 : 192,192,192

[HitObjects]
162,242,5068,6,0,B|166:200|190:178|190:178|197:127|163:87|163:87|135:123|153:165,1,245,2|0,3:0|0:0,0:0:0:0:
162,242,5699,6,0,B|223:235|223:235|259:211|259:211|329:201,1,175,6|0,0:2|0:0,0:0:0:0:
188,373,6173,1,0,1:0:0:0:
19,278,6331,2,0,P|27:197|38:90,1,175,8|0,0:0|0:0,0:0:0:0:
187,24,6804,1,0,3:0:0:0:
187,24,6883,1,0,3:0:0:0:
187,24,6962,5,0,1:0:0:0:
322,161,7120,2,0,P|359:155|423:146,1,87.5,8|0,0:0|0:0,0:0:0:0:
372,329,7436,1,0,1:0:0:0:
192,289,7594,2,0,B|175:175|175:175|185:146|211:126,1,175,8|0,0:0|0:0,0:0:0:0:
399,60,8068,1,0,3:0:0:0:
399,60,8147,1,0,3:0:0:0:
399,60,8225,2,0,L|410:164,1,87.5,6|0,0:2|0:0,0:0:0:0:
435,329,8541,5,8,0:0:0:0:
236,283,8699,1,0,1:0:0:0:
236,283,8778,1,0,1:0:0:0:
236,283,8857,2,0,L|174:292,1,43.75,8|0,0:0|1:0,0:0:0:0:
116,342,9015,2,0,L|54:333,1,43.75,0|0,1:0|1:0,0:0:0:0:
15,262,9173,1,8,0:0:0:0:
5,232,9251,1,8,0:0:0:0:
2,202,9330,1,8,0:0:0:0:
6,172,9409,1,8,0:0:0:0:
16,142,9489,5,8,3:0:0:0:
53,158,9567,1,8,3:0:0:0:
97,166,9646,1,8,3:0:0:0:
140,161,9725,1,8,3:0:0:0:
181,146,9804,1,4,3:0:0:0:
216,121,9883,1,4,3:0:0:0:
243,86,9962,1,4,3:0:0:0:
262,47,10041,1,4,3:0:0:0:
266,1,10120,6,0,L|335:5,1,65.6250025033952,4|0,3:0|0:0,0:0:0:0:
452,129,10278,2,0,P|411:113|343:119,1,98.4375037550928,4|0,3:0|0:0,0:0:0:0:
326,130,10594,6,0,B|338:182|338:182|314:240|314:240|328:305,1,175,6|0,0:0|1:0,0:0:0:0:
501,249,11068,2,0,P|453:244|397:233,1,87.5,8|0,0:0|0:0,0:0:0:0:
235,194,11383,1,0,1:0:0:0:
421,97,11541,1,0,1:0:0:0:
326,297,11699,2,0,P|281:300|224:312,1,87.5,8|0,0:0|0:0,0:0:0:0:
64,333,12015,6,0,P|52:292|60:236,1,87.5,0|0,1:0|0:0,0:0:0:0:
214,107,12331,2,0,P|217:150|205:192,1,87.5,8|0,0:0|0:0,0:0:0:0:
120,28,12647,1,0,1:0:0:0:
310,50,12804,1,0,1:0:0:0:
107,140,12962,1,8,0:0:0:0:
301,219,13120,6,0,B|365:208|365:208|406:229|406:229|485:214,1,175,6|0,0:0|1:0,0:0:0:0:
357,37,13594,2,0,P|336:80|334:135,1,87.5,8|0,0:0|0:0,0:0:0:0:
353,302,13910,1,0,1:0:0:0:
428,124,14068,1,0,1:0:0:0:
268,227,14225,2,0,P|223:221|179:216,1,87.5,8|0,0:0|0:0,0:0:0:0:
29,109,14541,6,0,P|22:61|39:22,1,87.5,0|0,1:0|0:0,0:0:0:0:
151,211,14857,2,0,P|158:259|141:298,1,87.5,8|0,0:0|0:0,0:0:0:0:
45,137,15173,1,0,1:0:0:0:
252,102,15331,1,8,0:0:0:0:
252,102,15410,1,8,0:0:0:0:
252,102,15489,1,8,0:0:0:0:
144,294,15647,6,0,B|178:282|214:289|214:289|238:311|238:311|274:318|320:306,1,175,6|0,0:0|1:0,0:0:0:0:
461,190,16120,2,0,P|413:178|369:171,1,87.5,8|0,0:0|0:0,0:0:0:0:
181,178,16436,1,0,1:0:0:0:
336,297,16594,1,0,1:0:0:0:
282,111,16752,2,0,P|287:66|293:15,1,87.5,8|0,0:0|0:0,0:0:0:0:
187,207,17068,6,0,P|144:217|100:216,1,87.5,0|0,1:0|0:0,0:0:0:0:
262,321,17383,2,0,P|305:320|348:329,1,87.5,8|0,0:0|0:0,0:0:0:0:
492,200,17699,1,0,1:0:0:0:
299,187,17857,1,0,1:0:0:0:
450,306,18015,1,8,0:0:0:0:
367,122,18173,6,0,B|327:86|327:86|194:115,1,175,6|0,0:0|1:0,0:0:0:0:
29,240,18647,1,8,0:0:0:0:
210,259,18804,1,0,1:0:0:0:
98,70,18962,1,8,0:0:0:0:
114,290,19120,1,0,1:0:0:0:
288,95,19278,2,0,P|297:52|288:9,1,87.5,8|0,0:0|0:0,0:0:0:0:
110,164,19594,5,0,1:0:0:0:
333,205,19752,1,8,0:0:0:0:
333,205,19831,1,8,0:0:0:0:
333,205,19910,1,8,0:0:0:0:
193,45,20068,1,0,1:0:0:0:
229,290,20225,1,4,3:0:0:0:
407,77,20383,2,0,L|520:64,1,98.4375037550928,4|0,3:0|0:0,0:0:0:0:
392,54,20699,6,0,B|333:43|333:43|291:68|291:68|225:51,1,175,6|0,0:0|1:0,0:0:0:0:
28,8,21173,2,0,P|13:49|14:98,1,87.5,8|0,0:0|0:0,0:0:0:0:
125,227,21489,1,0,1:0:0:0:
200,40,21647,1,0,1:0:0:0:
312,226,21804,2,0,P|306:270|300:328,1,87.5,8|0,0:0|0:0,0:0:0:0:
134,194,22120,6,0,P|177:184|227:191,1,87.5,0|0,1:0|0:0,0:0:0:0:
387,318,22436,2,0,P|343:322|301:312,1,87.5,8|0,0:0|0:0,0:0:0:0:
367,158,22752,1,0,1:0:0:0:
497,299,22910,1,0,1:0:0:0:
274,299,23068,1,8,0:0:0:0:
390,136,23225,6,0,B|403:14|403:14|339:61,1,175,6|0,0:0|1:0,0:0:0:0:
195,176,23699,2,0,P|146:169|96:162,1,87.5,8|0,0:0|0:0,0:0:0:0:
252,62,24015,1,0,1:0:0:0:
327,239,24173,1,0,1:0:0:0:
490,136,24331,2,0,P|504:92|497:41,1,87.5,8|0,0:0|0:0,0:0:0:0:
297,244,24647,6,0,P|301:287|306:331,1,87.5,0|0,1:0|0:0,0:0:0:0:
99,251,24962,2,0,P|103:207|108:163,1,87.5,8|0,0:0|0:0,0:0:0:0:
171,337,25278,1,0,1:0:0:0:
0,274,25436,1,0,1:0:0:0:
208,213,25594,1,8,0:0:0:0:
5,130,25752,6,0,B|10:97|20:72|20:72|6:3|6:3|57:31,1,175,6|0,0:0|1:0,0:0:0:0:
239,104,26225,2,0,P|282:96|334:87,1,87.5,8|0,0:0|0:0,0:0:0:0:
208,213,26541,1,0,1:0:0:0:
143,31,26699,1,0,1:0:0:0:
17,225,26857,2,0,P|22:272|29:327,1,87.5,8|0,0:0|0:0,0:0:0:0:
192,188,27173,5,0,1:0:0:0:
5,130,27331,1,0,1:0:0:0:
130,309,27489,1,8,0:0:0:0:
318,199,27647,1,8,0:0:0:0:
318,199,27725,1,8,0:0:0:0:
318,199,27804,5,8,0:0:0:0:
118,226,27962,1,8,3:0:0:0:
295,322,28120,1,4,3:0:0:0:
255,124,28278,1,4,3:0:0:0:
295,348,28436,6,0,B|374:337|354:386|437:372,1,140,6|0,0:0|0:0,0:0:0:0:
429,373,28910,1,0,1:0:0:0:
505,230,29068,2,0,B|368:209|368:209|323:215|292:244,1,210,8|0,0:0|0:0,0:0:0:0:
202,314,29699,5,0,1:0:0:0:
333,335,29857,1,8,0:0:0:0:
202,314,30015,2,0,L|197:244,1,70,0|0,1:0|0:0,0:0:0:0:
151,118,30331,6,0,L|161:51,2,46.6666666666667,8|8|8,0:0|3:0|3:0,0:0:0:0:
73,178,30647,5,8,3:0:0:0:
78,219,30752,5,8,3:0:0:0:
84,260,30857,5,4,3:0:0:0:
93,300,30962,5,4,1:2:0:0:
138,235,41068,5,0,1:0:0:0:
138,235,41225,1,0,1:0:0:0:
213,286,41383,2,0,L|361:261,1,122.499996261597,8|0,0:0|0:0,0:0:0:0:
412,216,41857,2,0,P|417:183|412:145,1,61.2499981307984,8|0,0:0|0:0,0:0:0:0:
329,117,42173,1,0,1:0:0:0:
329,117,42331,6,0,P|326:147|331:177,1,61.2499981307984,0|0,1:0|0:0,0:0:0:0:
412,69,42647,1,8,0:0:0:0:
333,22,42804,2,0,L|263:27,1,61.2499981307984,0|0,1:0|0:0,0:0:0:0:
192,74,43120,2,0,P|146:43|56:50,1,122.499996261597,8|0,0:0|0:0,0:0:0:0:
4,90,43594,5,0,1:2:0:0:
4,90,43752,1,0,1:2:0:0:
68,155,43910,2,0,P|59:228|54:286,1,122.499996261597,8|0,0:0|0:0,0:0:0:0:
111,349,44383,2,0,P|157:322|229:322,1,122.499996261597,8|0,0:0|1:0,0:0:0:0:
316,335,44857,6,0,P|322:301|315:266,1,61.2499981307984,0|0,1:0|0:0,0:0:0:0:
271,194,45173,1,8,0:0:0:0:
362,194,45331,2,0,P|402:185|433:181,1,61.2499981307984,0|0,1:0|0:0,0:0:0:0:
377,102,45647,2,0,P|321:92|250:85,1,122.499996261597,8|0,0:0|0:0,0:0:0:0:
163,89,46120,5,0,1:0:0:0:
163,89,46278,1,0,1:0:0:0:
98,154,46436,2,0,P|79:212|101:286,1,122.499996261597,8|0,0:0|0:0,0:0:0:0:
168,321,46910,2,0,P|181:289|183:257,1,61.2499981307984,8|0,0:0|0:0,0:0:0:0:
192,171,47225,1,0,1:0:0:0:
192,171,47383,6,0,P|234:162|259:160,1,61.2499981307984,0|0,1:0|0:0,0:0:0:0:
333,115,47699,1,8,0:0:0:0:
381,36,47857,2,0,P|423:45|448:47,1,61.2499981307984,0|0,1:0|0:0,0:0:0:0:
504,114,48173,2,0,P|463:162|486:235,1,122.499996261597,8|0,0:0|0:0,0:0:0:0:
508,301,48647,5,0,1:0:0:0:
508,301,48804,1,0,1:0:0:0:
416,310,48962,2,0,P|338:297|281:293,1,122.499996261597,8|0,0:0|0:0,0:0:0:0:
202,292,49436,2,0,P|197:251|203:222,1,61.2499981307984,8|0,0:0|0:0,0:0:0:0:
247,152,49752,1,0,3:0:0:0:
247,152,49831,1,0,3:0:0:0:
247,152,49910,5,8,0:0:0:0:
320,207,50068,1,8,3:0:0:0:
332,116,50225,1,8,3:0:0:0:
229,238,50383,1,4,0:0:0:0:
349,215,50541,1,2,0:0:0:0:
256,63,50699,1,8,0:0:0:0:
151,148,50857,1,4,3:0:0:0:
217,265,51015,1,4,3:0:0:0:
332,116,51173,6,0,B|380:106|380:106|432:123|432:123|495:111,1,157.499995193482,6|8,0:0|0:0,0:0:0:0:
256,63,51647,2,0,P|241:107|246:147,1,78.7499975967408,0|0,0:0|1:0,0:0:0:0:
131,196,51962,2,0,P|132:156|118:120,1,78.7499975967408,0|8,1:0|0:0,0:0:0:0:
23,237,52278,6,0,P|26:275|32:322,2,78.7499975967408,0|0|0,0:0|1:0|0:0,0:0:0:0:
159,301,52752,2,0,P|155:340|151:379,1,78.7499975967408,8|0,0:0|0:0,0:0:0:0:
275,280,53068,1,0,1:0:0:0:
163,206,53225,1,0,1:0:0:0:
272,128,53383,2,0,P|310:119|357:127,1,78.7499975967408,8|0,0:0|0:0,0:0:0:0:
427,284,53699,6,0,B|319:262|319:262|254:288,1,157.499995193482,6|8,0:0|0:0,0:0:0:0:
154,339,54173,2,0,P|99:332|64:328,1,78.7499975967408,0|0,0:0|1:0,0:0:0:0:
5,214,54489,2,0,P|60:207|95:203,1,78.7499975967408,0|8,1:0|0:0,0:0:0:0:
172,104,54804,6,0,P|165:49|161:14,2,78.7499975967408,0|0|0,0:0|1:0|0:0,0:0:0:0:
294,159,55278,2,0,P|305:118|303:79,1,78.7499975967408,8|0,0:0|0:0,0:0:0:0:
181,195,55594,1,0,1:0:0:0:
302,268,55752,1,0,1:0:0:0:
180,340,55910,2,0,P|123:334|86:330,1,78.7499975967408,8|0,0:0|0:0,0:0:0:0:
56,143,56225,6,0,B|96:114|96:114|76:237,1,157.499995193482,6|8,0:0|0:0,0:0:0:0:
57,42,56699,2,0,P|99:31|146:44,1,78.7499975967408,0|0,0:0|1:0,0:0:0:0:
254,140,57015,2,0,P|215:146|177:135,1,78.7499975967408,0|8,1:0|0:0,0:0:0:0:
307,43,57331,6,0,L|404:53,2,78.7499975967408,0|0|0,0:0|1:0|0:0,0:0:0:0:
165,113,57804,1,8,0:0:0:0:
225,232,57962,2,0,P|234:269|229:314,1,78.7499975967408,0|0,0:0|1:0,0:0:0:0:
117,236,58278,1,0,1:0:0:0:
285,146,58436,2,0,L|382:156,1,78.7499975967408,8|0,0:0|0:0,0:0:0:0:
474,308,58752,6,0,B|420:313|420:313|377:337|377:337|314:342,2,157.499995193482,6|8|0,0:0|0:0|1:0,0:0:0:0:
349,240,59541,1,0,1:0:0:0:
223,298,59699,2,0,P|214:335|221:380,1,78.7499975967408,8|0,0:0|0:0,0:0:0:0:
346,212,60015,5,8,0:0:0:0:
220,145,60173,1,0,1:0:0:0:
220,145,60252,1,0,1:0:0:0:
220,145,60331,2,0,L|138:155,1,78.7499975967408,8|0,0:0|0:0,0:0:0:0:
284,53,60647,1,8,0:0:0:0:
349,240,60804,1,0,0:0:0:0:
349,240,60883,1,0,0:0:0:0:
349,240,60962,2,0,L|427:249,1,78.7499975967408,8|0,0:0|0:0,0:0:0:0:
464,75,61278,6,0,B|423:50|363:44|363:44|308:66,1,157.499995193482,6|8,0:0|0:0,0:0:0:0:
173,93,61752,2,0,P|166:48|162:16,1,78.7499975967408,0|0,0:0|1:0,0:0:0:0:
35,123,62068,2,0,P|30:162|23:200,1,78.7499975967408,0|8,1:0|0:0,0:0:0:0:
5,365,62383,6,0,P|46:373|92:365,2,78.7499975967408,0|0|0,0:0|1:0|0:0,0:0:0:0:
125,239,62857,2,0,P|166:231|212:239,1,78.7499975967408,8|0,0:0|0:0,0:0:0:0:
325,291,63173,1,0,1:0:0:0:
198,333,63331,1,0,1:0:0:0:
292,187,63489,2,0,P|287:147|283:108,1,78.7499975967408,8|0,0:0|0:0,0:0:0:0:
37,131,63804,6,0,B|99:122|99:122|128:137|128:137|200:125,1,157.499995193482,6|8,0:0|0:0,0:0:0:0:
321,25,64278,2,0,P|277:22|238:19,1,78.7499975967408,0|0,0:0|1:0,0:0:0:0:
388,114,64594,2,0,P|427:111|466:108,1,78.7499975967408,0|8,1:0|0:0,0:0:0:0:
333,220,64910,6,0,P|285:226|251:217,2,78.7499975967408,0|0|0,0:0|1:0|0:0,0:0:0:0:
472,197,65383,2,0,P|464:255|459:291,1,78.7499975967408,8|0,0:0|0:0,0:0:0:0:
359,133,65699,1,0,1:0:0:0:
486,91,65857,1,0,1:0:0:0:
300,55,66015,1,8,0:0:0:0:
357,235,66173,1,2,3:0:0:0:
183,159,66331,6,0,B|144:155|122:163|122:163|92:186|92:186|64:172|8:168,1,157.499995193482,6|8,0:0|0:0,0:0:0:0:
104,28,66804,2,0,P|154:17|183:14,1,78.7499975967408,0|0,0:0|1:0,0:0:0:0:
274,152,67120,2,0,P|234:147|196:138,1,78.7499975967408,0|8,1:0|0:0,0:0:0:0:
377,112,67436,6,0,P|383:160|375:196,2,78.7499975967408,0|0|0,0:0|1:0|0:0,0:0:0:0:
272,3,67910,1,8,0:0:0:0:
178,119,68068,2,0,P|134:123|94:129,1,78.7499975967408,0|0,0:0|1:0,0:0:0:0:
186,249,68383,1,0,1:0:0:0:
283,125,68541,1,8,0:0:0:0:
351,301,68699,1,0,1:0:0:0:
351,301,68778,1,0,1:0:0:0:
351,301,68857,6,0,P|347:352|345:388,1,78.7499975967408,6|0,0:0|0:0,0:0:0:0:
184,278,69173,1,0,1:0:0:0:
356,200,69331,6,0,P|398:212|439:252,1,78.7499975967408,8|0,0:0|0:0,0:0:0:0:
250,343,69647,1,0,1:0:0:0:
279,133,69804,6,0,P|308:109|352:99,1,78.7499975967408,8|0,0:0|0:0,0:0:0:0:
351,301,70120,1,0,1:0:0:0:
173,184,70278,6,0,P|170:144|167:105,1,78.7499975967408,8|0,0:0|0:0,0:0:0:0:
101,283,70594,1,0,1:0:0:0:
274,228,70752,5,8,0:0:0:0:
75,176,70910,1,0,1:0:0:0:
211,23,71068,2,0,P|269:9|332:26,1,118.124996395111,8|0,0:0|0:0,0:0:0:0:
350,45,71383,6,0,P|346:88|341:137,1,87.5,2|0,0:0|0:0,0:0:0:0:
331,219,71857,1,2,0:0:0:0:
331,219,73910,6,0,P|279:198|199:224,2,131.25,2|2|2,0:0|0:0|0:0,0:0:0:0:
461,270,75173,6,0,P|462:226|466:182,1,87.5,2|0,0:0|0:0,0:0:0:0:
405,119,75647,2,0,P|403:75|399:31,1,87.5,2|0,0:0|0:0,0:0:0:0:
315,16,76120,2,0,P|274:35|212:22,1,98.4375037550928,2|0,3:0|0:0,0:0:0:0:
193,18,76436,6,0,P|177:57|179:108,1,87.5,6|0,0:0|0:0,0:0:0:0:
226,261,76752,1,4,3:0:0:0:
284,105,76910,1,4,3:0:0:0:
115,197,77068,1,4,3:0:0:0:
230,350,77225,1,4,3:0:0:0:
193,134,77383,1,4,3:0:0:0:
37,262,77541,1,4,3:0:0:0:
259,341,77699,5,4,3:0:0:0:
284,105,77857,1,4,3:0:0:0:
453,270,78015,1,4,3:0:0:0:
217,239,78173,1,4,3:0:0:0:
217,239,78252,1,4,3:0:0:0:
217,239,78331,1,4,3:0:0:0:
421,120,78489,1,4,3:0:0:0:
287,334,78647,1,4,3:0:0:0:
153,96,78804,6,0,P|108:91|55:84,1,87.5,6|0,0:0|0:0,0:0:0:0:
365,38,79120,2,0,B|403:89|403:89|379:208,1,175,8|0,0:0|1:0,0:0:0:0:
252,371,79594,2,0,P|246:327|241:284,1,87.5,8|0,0:0|1:0,0:0:0:0:
213,32,79910,5,0,1:0:0:0:
176,19,79988,1,0,1:0:0:0:
136,16,80067,1,0,1:0:0:0:
98,24,80146,1,0,1:0:0:0:
63,42,80225,2,0,L|68:103,1,43.75,0|0,1:0|1:0,1:0:0:0:
170,197,80383,2,0,L|173:153,1,43.75,0|0,1:0|1:0,1:0:0:0:
213,32,80541,5,4,3:0:0:0:
250,19,80619,1,4,3:0:0:0:
290,16,80698,1,4,3:0:0:0:
328,24,80777,1,4,3:0:0:0:
363,42,80857,2,0,P|372:79|361:122,1,65.6250025033952,4|0,3:0|0:0,0:0:0:0:
273,209,81015,2,0,P|317:204|384:234,1,98.4375037550928,4|0,3:0|0:0,0:0:0:0:
397,237,81331,6,0,B|340:262|340:262|358:157|358:157|353:154|353:154|359:151|359:151|370:94,1,227.499989585877,6|0,0:0|1:0,0:0:0:0:
204,277,81804,2,0,L|218:382,1,96.250002937317,8|0,0:0|0:0,0:0:0:0:
421,261,82120,1,0,1:0:0:0:
236,139,82278,1,0,1:0:0:0:
329,360,82436,1,8,0:0:0:0:
474,192,82594,6,0,P|480:139|469:96,1,96.250002937317,0|0,1:0|0:0,0:0:0:0:
318,11,82910,1,0,1:0:0:0:
210,159,83068,2,0,L|97:145,1,96.250002937317,8|0,0:0|0:0,0:0:0:0:
285,22,83383,1,0,1:0:0:0:
309,230,83541,1,0,1:0:0:0:
451,73,83699,1,8,0:0:0:0:
210,159,83857,6,0,B|189:218|189:218|208:269|208:269|213:274|213:274|206:277|206:277|179:333|179:333|157:275,1,227.499989585877,6|0,0:0|1:0,0:0:0:0:
106,58,84331,2,0,P|55:64|11:70,1,96.250002937317,8|0,0:0|0:0,0:0:0:0:
65,256,84647,1,0,1:0:0:0:
219,130,84804,2,0,P|269:134|327:140,1,96.250002937317,8|0,0:0|0:0,0:0:0:0:
451,275,85120,6,0,P|367:276|306:370,1,192.500005874634,4|0,1:0|1:0,0:0:0:0:
477,287,85594,2,0,P|472:235|467:167,1,96.250002937317,8|0,0:0|0:0,0:0:0:0:
312,46,85910,1,0,1:0:0:0:
133,160,86068,1,8,0:0:0:0:
133,160,86147,1,8,0:0:0:0:
133,160,86225,2,0,L|127:218,1,48.1250014686585,8|0,0:0|0:0,0:0:0:0:
111,351,86383,6,0,B|165:375|165:375|204:362|204:362|212:366|212:366|215:358|215:358|273:339|273:339|201:309,1,227.499989585877,6|0,0:0|1:0,0:0:0:0:
39,158,86857,2,0,P|31:110|48:61,1,96.250002937317,8|0,0:0|0:0,0:0:0:0:
243,142,87173,1,0,1:0:0:0:
55,260,87331,1,0,1:0:0:0:
156,31,87489,1,8,0:0:0:0:
356,125,87647,6,0,P|406:116|459:109,1,96.250002937317,0|0,1:0|0:0,0:0:0:0:
286,9,87962,1,0,1:0:0:0:
152,173,88120,2,0,P|141:218|151:275,1,96.250002937317,8|0,0:0|0:0,0:0:0:0:
338,151,88436,1,0,1:0:0:0:
166,43,88594,1,0,1:0:0:0:
281,265,88752,1,8,0:0:0:0:
392,19,88910,6,0,P|440:11|495:18,1,96.250002937317,6|0,0:0|0:0,0:0:0:0:
152,136,89225,1,0,1:0:0:0:
152,136,89304,1,0,1:0:0:0:
152,136,89383,1,8,0:0:0:0:
298,290,89541,1,0,1:0:0:0:
371,30,89699,1,8,0:0:0:0:
298,290,89857,1,0,1:0:0:0:
142,29,90015,1,8,0:0:0:0:
142,29,90093,1,0,1:0:0:0:
142,29,90172,1,0,1:0:0:0:
142,29,90251,1,0,1:0:0:0:
142,29,90331,6,0,L|136:98,1,48.1250014686585,8|0,0:0|0:0,0:0:0:0:
24,162,90489,2,0,B|9:115|9:115|24:68,1,96.250002937317,0|8,1:0|0:0,0:0:0:0:
203,246,90804,2,0,P|197:304|192:346,1,96.250002937317,0|0,0:0|1:0,0:0:0:0:
411,212,91120,1,8,0:0:0:0:
411,212,91199,1,8,0:0:0:0:
411,212,91278,2,0,L|405:150,1,48.1250014686585,8|0,0:0|0:0,0:0:0:0:
395,20,91436,6,0,B|319:11|319:11|314:4|314:4|308:10|308:10|238:4|238:4|290:67,1,227.499989585877,6|0,0:0|1:0,0:0:0:0:
416,247,91910,2,0,P|485:240|518:237,1,96.250002937317,8|0,0:0|0:0,0:0:0:0:
270,170,92225,1,0,1:0:0:0:
383,349,92383,1,0,1:0:0:0:
486,131,92541,1,8,0:0:0:0:
256,203,92699,6,0,P|191:202|157:189,1,96.250002937317,0|0,1:0|0:0,0:0:0:0:
26,52,93015,1,0,1:0:0:0:
98,281,93173,1,8,0:0:0:0:
226,77,93331,2,0,P|290:65|328:60,1,96.250002937317,0|0,0:0|1:0,0:0:0:0:
243,237,93647,1,0,1:0:0:0:
126,61,93804,1,8,0:0:0:0:
356,159,93962,6,0,B|404:170|404:170|410:178|410:178|418:171|418:171|456:154|456:154|512:163|512:163|459:115,1,227.499989585877,6|0,0:0|1:0,0:0:0:0:
226,77,94436,2,0,P|179:83|127:91,1,96.250002937317,8|0,0:0|0:0,0:0:0:0:
277,231,94752,1,0,1:0:0:0:
335,37,94910,1,0,1:0:0:0:
402,268,95068,1,8,0:0:0:0:
178,181,95225,6,0,P|117:187|73:208,1,96.250002937317,0|0,1:0|1:0,0:0:0:0:
310,289,95541,1,0,1:0:0:0:
256,88,95699,1,8,0:0:0:0:
150,282,95857,2,0,P|156:331|162:384,1,96.250002937317,0|0,1:0|0:0,0:0:0:0:
317,262,96173,2,0,P|322:214|328:166,1,96.250002937317,0|8,1:0|0:0,0:0:0:0:
511,360,96489,6,0,B|449:354|449:354|437:361|437:361|432:352|432:352|353:346|353:346|386:332|403:296,1,227.499989585877,6|0,0:0|1:0,0:0:0:0:
476,80,96962,2,0,P|407:71|356:66,1,96.250002937317,8|0,0:0|0:0,0:0:0:0:
231,206,97278,1,0,1:0:0:0:
432,187,97436,1,0,1:0:0:0:
268,9,97594,1,8,0:0:0:0:
202,220,97752,6,0,P|207:269|213:337,1,96.250002937317,0|0,1:0|0:0,0:0:0:0:
322,122,98068,1,0,1:0:0:0:
103,94,98225,1,8,0:0:0:0:
302,17,98383,2,0,P|350:6|398:19,1,96.250002937317,0|0,0:0|1:0,0:0:0:0:
336,245,98699,1,0,1:0:0:0:
163,29,98857,1,8,0:0:0:0:
29,251,99015,6,0,P|34:300|40:368,1,96.250002937317,6|0,0:0|0:0,0:0:0:0:
255,186,99331,1,0,1:0:0:0:
48,31,99489,1,8,0:0:0:0:
174,279,99647,1,0,1:0:0:0:
261,15,99804,1,8,0:0:0:0:
174,279,99962,1,0,1:0:0:0:
423,154,100120,1,8,0:0:0:0:
174,279,100278,1,0,1:0:0:0:
281,31,100436,5,8,0:0:0:0:
311,298,100594,1,8,0:0:0:0:
90,143,100752,1,0,1:0:0:0:
359,126,100910,1,8,0:0:0:0:
359,126,100989,1,8,0:0:0:0:
359,126,101068,6,8,L|415:129,1,48.1250014686585
483,239,101225,2,8,L|434:241,1,48.1250014686585
311,298,101383,1,0,1:0:0:0:
267,293,101461,1,0,1:0:0:0:
224,288,101540,1,0,1:0:0:0:
181,283,101619,1,0,1:0:0:0:
138,278,101699,6,0,P|133:238|137:197,1,70,6|0,0:2|0:0,0:0:0:0:
280,155,102015,2,0,P|250:173|218:187,1,70,8|0,0:0|0:0,0:0:0:0:
99,87,102331,1,0,1:0:0:0:
99,87,102489,2,0,P|130:102|157:124,1,70,0|0,1:0|0:0,0:0:0:0:
260,266,102804,6,0,P|328:258|401:251,1,140,8|0,0:0|1:0,0:0:0:0:
482,155,103278,2,0,P|433:140|408:136,1,70,8|0,0:0|0:0,0:0:0:0:
287,132,103594,1,0,1:0:0:0:
287,132,103752,1,0,1:0:0:0:
183,204,103910,2,0,P|134:219|75:221,1,105,8|0,0:0|0:0,0:0:0:0:
53,215,104225,6,0,P|58:177|63:137,1,70,6|0,0:0|0:0,0:0:0:0:
148,52,104541,2,0,P|152:86|156:121,1,70,8|0,0:0|0:0,0:0:0:0:
275,165,104857,1,0,1:0:0:0:
275,165,105015,2,0,P|309:158|355:164,1,70,0|0,1:0|0:0,0:0:0:0:
414,266,105331,6,0,B|338:262|362:313|269:305,1,140,8|0,0:0|1:0,0:0:0:0:
159,284,105804,2,0,P|164:232|168:199,1,70,8|0,0:0|0:0,0:0:0:0:
185,88,106120,1,0,1:0:0:0:
185,88,106278,1,0,1:0:0:0:
79,157,106436,2,0,P|63:206|70:242,1,70,8|0,0:0|3:0,0:0:0:0:
75,257,106673,1,0,3:0:0:0:
75,257,106752,6,0,L|-3:268,1,70,4|0,0:0|0:0,0:0:0:0:
115,369,107068,2,0,L|193:380,1,70,8|0,0:0|0:0,0:0:0:0:
300,329,107383,1,0,1:0:0:0:
300,329,107541,2,0,P|307:278|296:242,1,70,0|0,1:0|0:0,0:0:0:0:
224,160,107857,6,0,P|290:149|375:136,1,140,8|0,0:0|1:0,0:0:0:0:
487,115,108331,2,0,P|488:62|481:36,1,70,8|0,0:0|0:0,0:0:0:0:
363,7,108647,1,0,1:0:0:0:
363,7,108804,1,0,1:0:0:0:
247,56,108962,2,0,P|211:53|160:47,1,70,8|0,0:0|0:0,0:0:0:0:
62,153,109278,6,0,P|105:153|160:204,1,105,4|0,1:2|0:0,0:0:0:0:
171,219,109594,2,0,P|168:255|166:293,1,70,8|0,0:0|0:0,0:0:0:0:
36,373,109910,2,0,L|27:324,3,35,0|0|0|0,1:0|0:0|1:0|0:0,0:0:0:0:
11,308,110225,2,0,L|14:252,1,35,2|0,0:0|0:0,0:0:0:0:
19,181,110383,6,0,B|102:166|102:166|137:174|165:199,1,140,8|0,0:0|1:0,0:0:0:0:
263,250,110857,2,0,P|277:206|276:177,1,70,8|0,0:0|0:0,0:0:0:0:
259,56,111173,1,0,1:0:0:0:
152,188,111331,5,8,0:0:0:0:
153,208,111409,1,8,0:0:0:0:
155,229,111488,1,8,0:0:0:0:
157,250,111567,1,8,0:0:0:0:
159,271,111646,1,8,0:0:0:0:
161,292,111725,1,8,0:0:0:0:
163,313,111804,6,0,P|121:309|81:305,1,74.3750014185906,0|0,1:0|0:0,0:0:0:0:
277,379,112120,2,0,P|313:375|350:371,1,74.3750014185906,8|0,0:0|0:0,0:0:0:0:
431,263,112436,1,0,1:0:0:0:
431,263,112594,2,0,P|392:249|355:247,1,74.3750014185906,0|8,0:0|0:0,0:0:0:0:
276,140,112910,6,0,P|312:136|347:123,1,74.3750014185906,0|0,0:0|1:0,0:0:0:0:
241,42,113225,1,0,0:0:0:0:
146,137,113383,1,8,0:0:0:0:
28,73,113541,2,0,P|20:33|29:-4,1,74.3750014185906,0|0,0:0|1:0,0:0:0:0:
146,137,113857,2,0,P|152:173|144:209,1,74.3750014185906,0|8,0:0|0:0,0:0:0:0:
95,334,114173,1,0,0:0:0:0:
95,334,114252,1,0,0:0:0:0:
95,334,114331,6,0,B|182:321|158:369|248:355,1,148.750002837181,0|8,1:0|0:0,0:0:0:0:
303,238,114804,2,0,P|262:246|225:260,1,74.3750014185906,0|0,0:0|1:0,0:0:0:0:
339,361,115120,2,0,P|374:373|410:380,1,74.3750014185906,0|8,0:0|0:0,0:0:0:0:
412,207,115436,6,0,P|408:243|401:283,1,74.3750014185906,0|0,0:0|1:0,0:0:0:0:
298,142,115752,1,0,0:0:0:0:
298,142,115831,1,0,0:0:0:0:
298,142,115910,2,0,P|291:105|287:68,1,74.3750014185906,8|0,0:0|0:0,0:0:0:0:
185,166,116225,1,0,1:0:0:0:
303,238,116383,1,0,0:0:0:0:
385,122,116541,2,0,P|424:104|506:116,1,111.562502127886,8|0,0:0|0:0,0:0:0:0:
512,139,116857,6,0,P|506:200|504:222,1,74.3750014185906,4|0,1:2|0:0,0:0:0:0:
399,309,117173,2,0,P|395:271|391:234,1,74.3750014185906,8|0,0:2|0:0,0:0:0:0:
298,142,117489,1,0,1:0:0:0:
213,246,117647,2,0,P|177:253|126:244,1,74.3750014185906,0|8,0:0|0:0,0:0:0:0:
17,148,117962,6,0,P|70:139|104:134,1,74.3750014185906,0|0,0:0|1:0,0:0:0:0:
206,67,118278,1,0,0:0:0:0:
79,23,118436,1,8,0:0:0:0:
189,163,118594,1,0,0:0:0:0:
189,163,118673,1,0,0:0:0:0:
189,163,118752,1,0,1:0:0:0:
298,51,118910,1,0,1:0:0:0:
105,30,119068,1,8,0:0:0:0:
294,145,119225,1,0,0:0:0:0:
294,145,119304,1,0,0:0:0:0:
294,145,119383,6,0,P|288:200|285:230,1,78.7499975967408,12|0,0:0|1:0,0:0:0:0:
390,9,119699,1,0,1:0:0:0:
164,81,119857,6,0,P|170:136|173:166,1,78.7499975967408,12|0,0:0|1:0,0:0:0:0:
50,34,120173,1,0,1:0:0:0:
21,228,120331,6,0,P|55:237|108:231,1,78.7499975967408,12|0,0:0|1:0,0:0:0:0:
254,206,120647,1,0,1:0:0:0:
336,72,120804,5,8,0:0:0:0:
370,52,120882,1,8,0:0:0:0:
409,46,120961,1,8,0:0:0:0:
447,53,121040,1,8,0:0:0:0:
481,72,121120,2,0,L|475:130,1,39.3749987983704,8|0,3:0|0:0,0:0:0:0:
458,275,121278,6,0,B|402:286|402:286|333:253,1,104.999996795654,4|0,3:0|0:0,0:0:0:0:
295,154,121515,6,0,B|332:196|332:196|338:273,1,104.999996795654,4|0,3:0|0:0,0:0:0:0:
269,353,121752,6,0,B|287:299|287:299|327:271,1,104.999996795654,4|2,3:0|0:0,0:0:0:0:
98,96,132015,5,0,1:0:0:0:
98,96,132173,2,0,P|175:82|200:77,1,87.5,0|0,1:0|1:0,0:0:0:0:
261,64,132647,2,0,P|282:105|278:157,1,87.5,8|0,0:0|1:0,0:0:0:0:
333,204,133120,6,0,P|374:183|426:187,1,87.5,0|0,1:0|1:0,0:0:0:0:
482,224,133594,2,0,L|478:277,1,43.75,0|0,1:0|0:0,0:0:0:0:
469,346,133910,1,8,0:0:0:0:
280,94,134541,5,0,1:0:0:0:
280,94,134699,2,0,P|255:101|186:88,1,87.5,0|0,1:0|1:0,0:0:0:0:
119,69,135173,2,0,P|111:124|109:163,1,87.5,8|0,0:0|1:0,0:0:0:0:
158,218,135647,6,0,P|200:208|243:216,1,87.5,0|0,1:0|1:0,0:0:0:0:
311,256,136120,2,0,L|305:315,1,43.75,0|0,1:0|0:0,0:0:0:0:
295,378,136436,1,8,0:0:0:0:
486,127,137068,5,0,1:0:0:0:
486,127,137225,2,0,P|479:78|473:34,1,87.5,0|0,1:0|1:0,0:0:0:0:
396,23,137699,2,0,P|357:42|300:39,1,87.5,8|0,0:0|1:0,0:0:0:0:
235,28,138173,6,0,P|226:81|223:135,1,87.5,0|0,1:0|1:0,0:0:0:0:
229,197,138647,1,0,1:0:0:0:
229,197,138804,1,8,0:0:0:0:
229,197,139594,5,0,1:0:0:0:
229,197,139752,2,0,P|174:182|130:186,1,87.5,0|0,1:0|1:0,0:0:0:0:
81,231,140225,2,0,L|85:289,1,43.75,8|0,0:0|0:0,0:0:0:0:
145,335,140541,5,0,1:0:0:0:
145,335,140699,2,0,P|200:320|244:324,1,87.5,0|0,1:0|1:0,0:0:0:0:
310,345,141173,1,0,1:0:0:0:
310,345,141331,2,0,B|349:284|301:210|301:210|273:229|287:273,1,196.875,8|0,0:0|0:0,0:0:0:0:
283,256,142120,5,4,1:2:0:0:
190,163,142436,1,0,1:0:0:0:
282,70,142752,1,0,1:0:0:0:
374,162,143068,1,0,1:0:0:0:
99,257,143383,5,0,1:2:0:0:
6,164,143699,1,0,1:0:0:0:
98,71,144015,1,0,1:0:0:0:
190,163,144331,2,0,P|193:128|199:91,1,65.6250025033952,0|2,1:0|0:0,0:0:0:0:
285,172,144647,5,0,1:2:0:0:
284,358,144963,1,0,1:0:0:0:
376,266,145279,1,0,1:0:0:0:
192,265,145595,1,0,1:0:0:0:
378,79,145910,5,0,1:2:0:0:
378,79,146068,2,0,P|381:43|375:9,1,65.6250025033952,8|2,0:0|0:0,0:0:0:0:
246,113,146383,1,0,3:0:0:0:
369,193,146541,5,8,0:0:0:0:
366,217,146619,1,8,0:0:0:0:
364,241,146698,1,8,0:0:0:0:
361,266,146777,1,8,0:0:0:0:
359,290,146857,2,0,L|366:340,3,35,4|4|4|4,3:0|3:0|3:0|3:0,0:0:0:0:
366,351,147173,6,0,P|316:359|277:351,1,87.5,4|0,1:2|1:0,0:0:0:0:
152,230,147489,1,0,1:0:0:0:
369,193,147647,1,12,0:0:0:0:
260,343,147804,1,0,1:0:0:0:
252,159,147962,1,0,1:0:0:0:
456,277,148120,1,12,0:0:0:0:
238,253,148278,6,0,L|152:264,1,87.5,0|0,1:0|1:0,0:0:0:0:
337,89,148594,1,12,0:0:0:0:
426,279,148752,1,0,1:0:0:0:
508,114,148910,1,0,1:0:0:0:
277,166,149068,2,0,P|217:158|186:142,1,87.5,12|0,0:0|1:0,0:0:0:0:
433,39,149383,1,12,0:2:0:0:
318,294,149541,6,0,B|258:284|258:284|209:305|209:305|141:292,1,175,4|0,1:0|0:0,0:0:0:0:
27,89,150015,1,8,1:2:0:0:
27,89,150094,1,8,0:0:0:0:
27,89,150173,2,0,L|33:37,1,43.75,8|8,0:0|0:0,0:0:0:0:
160,12,150331,1,8,1:2:0:0:
160,12,150410,1,8,0:0:0:0:
160,12,150489,2,0,L|166:64,1,43.75,8|8,0:0|0:0,0:0:0:0:
293,89,150647,1,8,1:2:0:0:
293,89,150726,1,8,0:0:0:0:
293,89,150805,2,0,L|299:37,1,43.75,8|8,0:0|0:0,0:0:0:0:
425,12,150962,6,0,P|431:57|440:128,1,87.5,8|8,1:2|0:0,0:0:0:0:
453,181,151199,1,8,0:0:0:0:
453,181,151278,2,0,L|508:183,1,43.75,8|8,1:2|0:0,0:0:0:0:
447,281,151436,2,0,L|403:282,1,43.75,8|8,0:0|0:0,0:0:0:0:
292,284,151594,6,0,L|285:229,1,43.75,8|0,3:0|3:0,3:0:0:0:
268,131,151752,1,8,3:0:0:0:
267,127,151830,1,8,3:0:0:0:
266,122,151909,1,8,3:0:0:0:
265,118,151988,1,8,3:0:0:0:
264,114,152068,6,0,B|214:103|214:103|160:122|160:122|168:132|168:132|118:158|118:158|48:143,1,227.499989585877,6|0,0:0|1:0,0:0:0:0:
286,240,152541,2,0,P|334:229|387:220,1,96.250002937317,8|0,0:0|0:0,0:0:0:0:
239,368,152857,1,0,1:0:0:0:
152,185,153015,1,0,1:0:0:0:
402,198,153173,1,8,0:0:0:0:
188,286,153331,6,0,P|135:291|79:264,1,96.250002937317,0|0,1:0|0:0,0:0:0:0:
209,73,153647,1,0,1:0:0:0:
381,221,153804,2,0,L|373:316,1,96.250002937317,8|0,0:0|0:0,0:0:0:0:
177,173,154120,1,0,1:0:0:0:
389,110,154278,1,0,1:0:0:0:
260,347,154436,1,8,0:0:0:0:
200,56,154594,6,0,B|148:46|104:81|104:81|97:65|97:65|61:117|-2:106,1,227.499989585877,6|0,0:0|1:0,0:0:0:0:
194,262,155068,2,0,P|252:267|299:252,1,96.250002937317,8|0,0:0|0:0,0:0:0:0:
457,165,155383,1,0,1:0:0:0:
302,49,155541,2,0,P|287:107|296:150,1,96.250002937317,8|0,0:0|0:0,0:0:0:0:
412,255,155857,6,0,P|332:267|260:363,1,192.500005874634,4|0,1:0|1:0,0:0:0:0:
447,375,156331,2,0,P|440:329|433:278,1,96.250002937317,8|0,0:0|0:0,0:0:0:0:
286,125,156647,1,0,1:0:0:0:
133,270,156804,1,8,0:0:0:0:
133,270,156883,1,8,0:0:0:0:
133,270,156962,2,0,L|74:263,1,48.1250014686585,8|0,0:0|0:0,0:0:0:0:
58,117,157120,6,0,B|106:88|166:109|166:109|161:120|161:120|206:152|264:131,1,227.499989585877,6|0,0:0|1:0,0:0:0:0:
485,79,157594,2,0,P|479:131|473:184,1,96.250002937317,8|0,0:0|0:0,0:0:0:0:
278,260,157910,1,0,1:0:0:0:
362,65,158068,1,0,1:0:0:0:
401,301,158225,1,8,0:0:0:0:
170,231,158383,6,0,P|104:239|69:244,1,96.250002937317,0|0,1:0|0:0,0:0:0:0:
261,363,158699,1,0,1:0:0:0:
365,158,158857,2,0,P|372:111|361:64,1,96.250002937317,8|0,0:0|0:0,0:0:0:0:
172,140,159173,1,0,1:0:0:0:
330,265,159331,1,0,1:0:0:0:
256,27,159489,1,8,0:0:0:0:
168,271,159647,6,0,P|172:322|177:366,1,96.250002937317,6|0,0:0|0:0,0:0:0:0:
276,139,159962,1,0,1:0:0:0:
44,206,160120,1,8,0:0:0:0:
44,206,160199,1,0,1:0:0:0:
44,206,160278,1,0,1:0:0:0:
303,132,160436,1,8,0:0:0:0:
177,366,160594,1,0,1:0:0:0:
132,90,160752,1,8,0:0:0:0:
132,90,160831,1,0,1:0:0:0:
132,90,160910,1,0,1:0:0:0:
132,90,160989,1,0,1:0:0:0:
132,90,161068,5,8,0:0:0:0:
297,275,161225,2,0,P|345:284|396:270,1,96.250002937317,0|8,1:0|0:0,0:0:0:0:
444,83,161541,2,0,B|402:69|402:69|348:80,1,96.250002937317,0|0,0:0|1:0,0:0:0:0:
124,190,161857,1,8,0:0:0:0:
124,190,161936,1,8,0:0:0:0:
124,190,162015,2,0,L|64:183,1,48.1250014686585,8|0,0:0|0:0,0:0:0:0:
0,22,162173,6,0,B|54:7|54:7|106:27|106:27|96:37|96:37|142:60|142:60|204:41,1,227.499989585877,6|0,0:0|1:0,0:0:0:0:
448,1,162647,2,0,P|439:48|431:95,1,96.250002937317,8|0,0:0|0:0,0:0:0:0:
393,314,162962,1,0,1:0:0:0:
276,160,163120,1,0,1:0:0:0:
511,209,163278,1,8,0:0:0:0:
278,271,163436,6,0,P|219:277|179:260,1,96.250002937317,0|0,1:0|0:0,0:0:0:0:
341,100,163752,1,0,1:0:0:0:
372,338,163910,1,8,0:0:0:0:
167,245,164068,2,0,P|115:250|68:256,1,96.250002937317,0|0,0:0|1:0,0:0:0:0:
254,148,164383,1,0,1:0:0:0:
161,370,164541,1,8,0:0:0:0:
41,136,164699,6,0,B|90:101|142:126|142:126|143:112|143:112|196:149|247:122,1,227.499989585877,6|0,0:0|1:0,0:0:0:0:
429,264,165173,2,0,P|381:259|333:251,1,96.250002937317,8|0,0:0|0:0,0:0:0:0:
512,183,165489,1,0,1:0:0:0:
401,363,165647,1,0,1:0:0:0:
254,148,165804,1,8,0:0:0:0:
144,317,165962,6,0,P|88:329|45:317,1,96.250002937317,0|0,1:0|1:0,0:0:0:0:
141,126,166278,1,0,1:0:0:0:
261,334,166436,1,8,0:0:0:0:
399,200,166594,2,0,P|446:204|494:208,1,96.250002937317,0|0,1:0|1:0,0:0:0:0:
369,35,166910,2,0,P|321:39|273:43,1,96.250002937317,0|8,1:0|0:0,0:0:0:0:
47,152,167225,6,0,B|21:212|55:257|55:257|67:250|67:250|95:296|72:357,1,227.499989585877,6|0,0:0|1:0,0:0:0:0:
3,69,167699,2,0,P|48:57|106:79,1,96.250002937317,8|0,0:0|0:0,0:0:0:0:
271,189,168015,1,0,1:0:0:0:
67,250,168173,1,0,1:0:0:0:
227,44,168331,1,8,0:0:0:0:
384,171,168489,6,0,P|435:164|500:156,1,96.250002937317,0|0,1:0|0:0,0:0:0:0:
344,35,168804,1,0,1:0:0:0:
334,265,168962,1,8,0:0:0:0:
165,137,169120,2,0,P|119:130|67:146,1,96.250002937317,0|0,0:0|1:0,0:0:0:0:
234,281,169436,1,0,1:0:0:0:
340,64,169594,1,8,0:0:0:0:
483,257,169752,6,0,P|472:328|468:366,1,96.250002937317,6|0,0:0|0:0,0:0:0:0:
262,269,170068,1,0,1:0:0:0:
434,51,170225,1,8,0:0:0:0:
359,320,170383,1,0,1:0:0:0:
261,58,170541,1,8,0:0:0:0:
359,320,170699,1,0,1:0:0:0:
133,154,170857,1,8,0:0:0:0:
359,320,171015,1,0,1:0:0:0:
434,51,171173,5,8,0:0:0:0:
252,263,171331,1,8,0:0:0:0:
252,263,171410,1,8,0:0:0:0:
252,263,171489,1,8,0:0:0:0:
136,8,171647,1,8,0:0:0:0:
58,244,171804,5,0,1:0:0:0:
238,115,171962,1,8,3:0:0:0:
16,127,172120,1,8,3:0:0:0:
243,265,172278,1,0,0:0:0:0:
243,265,172357,1,0,0:0:0:0:
243,265,172436,5,4,1:2:0:0:
351,186,172594,2,0,P|343:117|331:22,1,157.499995193482,0|0,1:0|1:0,0:0:0:0:
485,154,173068,1,8,0:0:0:0:
415,265,173225,2,0,P|342:288|274:253,1,157.499995193482,0|0,1:0|1:0,0:0:0:0:
194,106,173699,5,8,0:0:0:0:
107,208,173857,2,0,P|119:286|134:377,1,157.499995193482,0|0,1:0|1:0,0:0:0:0:
254,224,174331,1,8,0:0:0:0:
126,182,174489,1,0,1:0:0:0:
218,84,174647,1,0,1:0:0:0:
278,202,174804,1,0,1:0:0:0:
390,92,174962,5,8,0:0:0:0:
475,195,175120,2,0,P|507:270|480:350,1,157.499995193482,0|0,1:0|1:0,0:0:0:0:
334,381,175594,1,8,0:0:0:0:
234,292,175752,2,0,P|312:284|391:276,1,157.499995193482,0|0,1:0|1:0,0:0:0:0:
244,156,176225,5,8,0:0:0:0:
125,217,176383,2,0,L|33:205,1,78.7499975967408,0|0,1:0|0:0,0:0:0:0:
188,68,176699,1,0,1:0:0:0:
188,68,176778,1,0,1:0:0:0:
188,68,176857,1,8,0:0:0:0:
254,184,177015,1,0,1:0:0:0:
317,31,177173,1,8,0:0:0:0:
383,147,177331,1,0,1:0:0:0:
213,63,177489,5,12,0:0:0:0:
124,162,177647,2,0,P|135:240|147:318,1,157.499995193482,0|0,1:0|1:0,0:0:0:0:
284,188,178120,1,8,0:0:0:0:
194,88,178278,2,0,P|153:118|39:98,1,157.499995193482,0|0,1:0|1:0,0:0:0:0:
297,0,178752,5,8,0:0:0:0:
389,96,178910,2,0,P|384:174|380:254,1,157.499995193482,0|0,1:0|1:0,0:0:0:0:
270,330,179383,1,8,0:0:0:0:
278,196,179541,1,0,1:0:0:0:
377,285,179699,1,0,1:0:0:0:
486,207,179857,1,0,1:0:0:0:
373,317,180015,5,8,0:0:0:0:
276,222,180173,2,0,P|205:256|128:238,1,157.499995193482,0|0,1:0|1:0,0:0:0:0:
229,95,180647,1,8,0:0:0:0:
353,142,180804,2,0,P|431:132|509:122,1,157.499995193482,0|0,1:0|1:0,0:0:0:0:
319,23,181278,5,8,0:0:0:0:
267,196,181436,1,0,1:0:0:0:
76,84,181594,1,8,0:0:0:0:
156,289,181752,1,8,0:0:0:0:
156,289,181831,1,8,0:0:0:0:
156,289,181910,1,8,0:0:0:0:
262,95,182068,1,8,3:0:0:0:
103,179,182225,1,4,3:0:0:0:
298,297,182383,1,0,1:0:0:0:
298,297,182462,1,0,1:0:0:0:
298,297,182541,6,0,L|403:282,1,87.5,4|0,1:2|1:0,0:0:0:0:
499,188,182857,1,0,1:0:0:0:
306,138,183015,2,0,B|269:185|269:185|301:309,1,175,8|0,0:0|1:0,0:0:0:0:
478,170,183489,2,0,P|480:122|485:69,1,87.5,8|0,0:0|0:0,0:0:0:0:
351,13,183804,5,0,1:0:0:0:
329,160,183962,1,0,1:0:0:0:
165,96,184120,2,0,P|119:101|67:108,1,87.5,8|0,0:0|0:0,0:0:0:0:
196,236,184436,1,0,1:0:0:0:
306,135,184594,1,0,1:0:0:0:
346,314,184752,1,8,0:0:0:0:
175,224,184910,6,0,P|128:222|79:243,1,87.5,4|0,1:2|0:0,0:0:0:0:
237,359,185225,1,0,1:0:0:0:
298,167,185383,1,8,0:0:0:0:
424,246,185541,2,0,L|510:234,1,87.5,0|0,0:0|1:0,0:0:0:0:
352,345,185857,1,0,1:0:0:0:
394,139,186015,1,8,0:0:0:0:
192,198,186173,6,0,P|145:211|91:200,1,87.5,0|0,0:0|1:0,0:0:0:0:
260,60,186489,1,0,1:0:0:0:
334,256,186647,1,8,0:0:0:0:
423,138,186804,1,0,1:0:0:0:
216,177,186962,1,8,0:0:0:0:
382,9,187120,1,8,0:0:0:0:
382,9,187199,1,8,0:0:0:0:
382,9,187278,1,8,0:0:0:0:
497,215,187436,6,0,B|482:342|482:342|442:284,1,175,4|0,1:2|1:0,0:0:0:0:
305,142,187910,2,0,P|257:138|212:152,1,87.5,8|0,0:0|0:0,0:0:0:0:
78,195,188225,1,0,1:0:0:0:
152,66,188383,1,0,1:0:0:0:
184,255,188541,2,0,L|179:349,1,87.5,8|0,0:0|0:0,0:0:0:0:
69,171,188857,5,0,1:0:0:0:
220,149,189015,1,0,1:0:0:0:
69,282,189173,1,8,0:0:0:0:
198,164,189331,1,0,1:0:0:0:
275,359,189489,1,8,0:0:0:0:
370,212,189647,1,0,1:0:0:0:
164,250,189804,1,8,0:0:0:0:
385,354,189962,6,0,B|428:310|428:310|386:172,1,175,4|0,1:2|3:0,0:0:0:0:
238,34,190436,1,4,3:0:0:0:
184,255,190594,1,4,3:0:0:0:
394,44,190752,1,8,3:2:0:0:
101,99,190910,1,8,3:2:0:0:
255,353,191068,1,8,0:0:0:0:
322,118,191225,1,0,1:0:0:0:
33,219,191383,5,8,0:0:0:0:
333,288,191541,1,0,1:0:0:0:
333,288,191620,1,0,1:0:0:0:
333,288,191699,2,0,L|325:222,1,43.75,8|8,0:0|0:0,0:0:0:0:
154,331,191857,2,0,L|148:375,1,43.75,8|8,0:0|0:0,0:0:0:0:
33,219,192015,5,8,0:0:0:0:
10,181,192093,1,8,0:0:0:0:
4,138,192172,1,8,0:0:0:0:
17,97,192251,1,8,0:0:0:0:
46,64,192331,2,0,L|110:58,1,43.75,0|0,1:0|0:0,0:0:0:0:
313,46,192489,6,0,B|332:82|321:119|321:119|350:148|350:148|336:185|336:237,1,192.500005874634,6|0,0:2|1:0,0:0:0:0:
123,181,192962,2,0,P|172:185|237:162,1,96.250002937317,8|0,0:0|0:0,0:0:0:0:
2,107,193278,1,0,1:0:0:0:
96,288,193436,1,0,1:0:0:0:
149,53,193594,2,0,P|200:45|251:58,1,96.250002937317,8|0,0:0|0:0,0:0:0:0:
375,239,193910,5,0,1:0:0:0:
192,169,194068,1,0,1:0:0:0:
415,96,194225,2,0,P|412:49|407:-1,1,96.250002937317,8|0,0:0|0:0,0:0:0:0:
280,204,194541,1,0,1:0:0:0:
440,114,194699,1,0,1:0:0:0:
243,54,194857,1,8,0:0:0:0:
188,291,195015,6,0,B|123:278|123:278|70:306|70:306|3:287,1,192.500005874634,6|0,0:0|1:0,0:0:0:0:
284,373,195489,2,0,P|340:365|384:358,1,96.250002937317,8|0,0:0|0:0,0:0:0:0:
316,156,195804,1,0,1:0:0:0:
185,322,195962,1,0,1:0:0:0:
414,249,196120,2,0,P|470:257|514:264,1,96.250002937317,8|0,0:0|0:0,0:0:0:0:
371,63,196436,5,0,1:0:0:0:
287,257,196594,1,0,1:0:0:0:
111,138,196752,2,0,P|100:87|117:37,1,96.250002937317,8|0,0:0|0:0,0:0:0:0:
316,156,197068,1,0,1:0:0:0:
65,250,197225,1,8,0:0:0:0:
65,250,197304,1,8,0:0:0:0:
65,250,197383,1,8,0:0:0:0:
306,369,197541,6,0,B|450:353|450:353|388:322,1,192.500005874634,6|0,0:0|1:0,0:0:0:0:
187,208,198015,2,0,P|175:256|191:306,1,96.250002937317,8|0,0:0|0:0,0:0:0:0:
313,127,198331,1,0,1:0:0:0:
104,88,198489,1,0,1:0:0:0:
272,251,198647,2,0,P|320:243|381:235,1,96.250002937317,8|0,0:0|0:0,0:0:0:0:
298,36,198962,6,0,P|280:94|295:142,1,96.250002937317,0|0,1:0|0:0,0:0:0:0:
159,333,199278,2,0,P|165:285|148:241,1,96.250002937317,8|0,0:0|0:0,0:0:0:0:
11,65,199594,1,0,1:0:0:0:
59,281,199752,1,0,1:0:0:0:
189,78,199910,1,8,0:0:0:0:
305,288,200068,6,0,B|430:265|430:265|465:274|486:296,1,192.500005874634,6|0,0:0|1:0,0:0:0:0:
223,339,200541,2,0,P|209:297|221:241,1,96.250002937317,8|0,0:0|0:0,0:0:0:0:
310,54,200857,1,0,1:0:0:0:
403,243,201015,1,0,1:0:0:0:
187,136,201173,2,0,P|118:144|83:148,1,96.250002937317,8|0,0:0|0:0,0:0:0:0:
223,339,201489,5,0,1:0:0:0:
403,243,201647,1,8,0:0:0:0:
436,208,201725,1,8,0:0:0:0:
455,164,201804,1,8,1:2:0:0:
456,116,201883,1,8,0:0:0:0:
440,71,201962,1,8,0:0:0:0:
409,35,202041,1,8,0:0:0:0:
367,12,202120,5,8,1:2:0:0:
330,43,202198,1,8,0:0:0:0:
284,58,202277,1,8,0:0:0:0:
235,55,202356,1,8,0:0:0:0:
193,29,202436,2,0,L|128:34,1,48.1250014686585,8|0,0:0|0:0,0:0:0:0:
55,178,202594,6,0,B|177:201|177:201|205:194|237:169,1,192.500005874634,6|0,0:0|1:0,0:0:0:0:
443,41,203068,2,0,P|437:88|432:136,1,96.250002937317,8|0,0:0|0:0,0:0:0:0:
269,271,203383,1,0,1:0:0:0:
166,85,203541,1,0,1:0:0:0:
377,219,203699,2,0,P|421:235|478:225,1,96.250002937317,8|0,0:0|0:0,0:0:0:0:
284,57,204015,6,0,P|236:60|188:65,1,96.250002937317,0|0,1:0|0:0,0:0:0:0:
18,238,204331,2,0,P|65:241|113:246,1,96.250002937317,8|0,0:0|0:0,0:0:0:0:
308,159,204647,1,0,1:0:0:0:
101,120,204804,1,0,1:0:0:0:
222,327,204962,1,8,0:0:0:0:
429,205,205120,6,0,B|448:63|448:63|384:101,1,192.500005874634,6|0,0:0|1:0,0:0:0:0:
317,314,205594,2,0,P|362:306|422:298,1,96.250002937317,8|0,0:0|0:0,0:0:0:0:
280,131,205910,1,0,1:0:0:0:
192,323,206068,1,0,1:0:0:0:
78,145,206225,2,0,P|69:94|81:47,1,96.250002937317,8|0,0:0|0:0,0:0:0:0:
263,158,206541,5,0,1:0:0:0:
73,253,206699,1,0,1:0:0:0:
294,347,206857,2,0,P|340:341|413:332,1,96.250002937317,8|0,0:0|0:0,0:0:0:0:
176,218,207173,1,0,1:0:0:0:
397,124,207331,1,8,0:0:0:0:
397,124,207410,1,8,0:0:0:0:
397,124,207489,1,8,0:0:0:0:
156,25,207647,6,0,B|72:-1|6:44|6:44|39:73,1,192.500005874634,6|0,0:0|1:0,0:0:0:0:
269,174,208120,2,0,P|281:113|272:65,1,96.250002937317,8|0,0:0|0:0,0:0:0:0:
183,271,208436,1,0,1:0:0:0:
381,196,208594,1,0,1:0:0:0:
143,155,208752,2,0,P|95:161|47:167,1,96.250002937317,8|0,0:0|0:0,0:0:0:0:
289,268,209068,5,0,1:0:0:0:
377,77,209225,1,0,1:0:0:0:
473,297,209383,1,8,0:0:0:0:
264,259,209541,1,0,1:0:0:0:
483,118,209699,1,8,0:0:0:0:
355,344,209857,1,4,3:0:0:0:
158,173,210015,2,0,P|136:119|171:33,1,144.375004405975,4|0,3:0|0:0,0:0:0:0:
162,40,210331,6,0,B|225:83|289:29|289:29|271:85|294:168|380:191|476:138|441:37|441:37|407:41|404:87,1,525,6|2,0:0|0:0,0:0:0:0:
128,120,222173,5,0,1:0:0:0:
128,120,222252,1,0,1:0:0:0:
128,120,222331,1,8,0:0:0:0:
36,255,222489,1,8,0:0:0:0:
30,273,222804,6,0,P|107:258|174:246,1,140,4|0,1:2|0:0,0:0:0:0:
270,224,223278,2,0,P|276:188|268:146,1,70,0|0,1:0|0:0,0:0:0:0:
238,316,223594,2,0,P|308:336|380:304,1,140,8|0,0:0|0:0,0:0:0:0:
441,236,224068,6,0,L|515:242,1,70,0|0,1:0|0:0,0:0:0:0:
462,132,224383,2,0,L|392:137,1,70,0|0,1:0|0:0,0:0:0:0:
287,150,224699,1,0,1:0:0:0:
216,227,224857,2,0,P|161:260|81:236,1,140,8|0,0:0|0:0,0:0:0:0:
130,79,225331,6,0,B|165:63|165:63|144:163,1,140,4|0,1:2|0:0,0:0:0:0:
259,78,225804,2,0,P|255:42|250:0,1,70,0|0,1:0|0:0,0:0:0:0:
358,96,226120,2,0,P|349:165|342:235,1,140,8|0,0:0|0:0,0:0:0:0:
331,340,226594,6,0,P|366:350|417:348,1,70,0|0,1:0|0:0,0:0:0:0:
262,277,226910,2,0,P|235:302|212:347,1,70,0|0,1:0|0:0,0:0:0:0:
117,359,227225,1,0,0:0:0:0:
30,299,227383,2,0,P|1:236|28:170,1,140,8|0,0:0|0:0,0:0:0:0:
201,210,227857,6,0,B|92:232|92:232|125:192,1,140,4|0,1:2|0:0,0:0:0:0:
169,122,228331,2,0,P|177:82|168:44,1,70,0|0,1:0|0:0,0:0:0:0:
271,17,228647,2,0,P|308:46|403:28,1,140,8|0,0:0|0:0,0:0:0:0:
467,137,229120,6,0,B|426:161|426:161|325:148,1,140,4|0,1:2|0:0,0:0:0:0:
229,133,229594,2,0,P|220:174|224:209,1,70,0|0,1:0|0:0,0:0:0:0:
158,285,229910,2,0,P|117:250|34:255,1,140,8|0,0:0|0:0,0:0:0:0:
240,358,230383,6,0,B|270:352|293:353|293:353|329:336|329:336|389:346,1,140,4|8,1:2|0:0,0:0:0:0:
469,294,230857,2,0,P|472:260|462:223,1,70,0|0,1:0|0:0,0:0:0:0:
373,169,231173,2,0,P|323:185|239:130,1,140,8|0,0:0|0:0,0:0:0:0:
205,50,231647,1,0,1:0:0:0:
205,50,231804,1,0,1:0:0:0:
118,108,231962,6,0,L|110:190,1,70,8|0,0:0|0:0,0:0:0:0:
104,283,232278,1,0,3:0:0:0:
104,283,232357,1,0,1:0:0:0:
104,283,232436,1,8,0:0:0:0:
16,225,232594,1,0,1:0:0:0:
10,329,232752,1,0,1:0:0:0:
111,177,232910,6,0,P|176:162|241:150,1,122.499996261597,4|0,1:2|1:0,0:0:0:0:
319,127,233383,2,0,P|323:92|308:48,1,61.2499981307984,0|0,1:0|0:0,0:0:0:0:
240,14,233699,2,0,B|132:15|187:78|52:76,1,183.749994392395,8|0,0:0|0:0,0:0:0:0:
17,150,234331,5,0,1:0:0:0:
89,215,234489,1,8,0:0:0:0:
89,215,234647,2,0,L|197:196,1,91.8749971961976,0|0,1:0|0:0,0:0:0:0:
179,199,234962,1,8,0:0:0:0:
234,125,235120,1,8,0:0:0:0:
293,195,235278,1,8,0:0:0:0:
239,269,235436,6,0,B|298:308|356:264|356:264|392:297|392:297|440:264|492:292|492:292|456:289|425:306,1,341.249989585877,8|2,0:0|0:0,0:0:0:0:
411,201,237647,2,0,L|417:151,1,39.3749987983704
414,160,237962,6,0,B|367:137|340:147|340:147|331:142|331:142|328:153|328:153|296:184|296:184|252:158|207:171,1,227.499989585877,6|0,0:0|1:0,0:0:0:0:
2,279,238436,2,0,P|9:327|15:375,1,96.250002937317,8|0,0:0|0:0,0:0:0:0:
239,269,238752,1,0,1:0:0:0:
75,134,238910,1,0,1:0:0:0:
149,373,239068,1,8,0:0:0:0:
296,184,239225,6,0,L|402:173,1,96.250002937317,0|0,1:0|0:0,0:0:0:0:
205,34,239541,1,0,1:0:0:0:
223,283,239699,2,0,P|272:307|329:302,1,96.250002937317,8|0,0:0|0:0,0:0:0:0:
326,84,240015,1,0,1:0:0:0:
121,170,240173,1,0,1:0:0:0:
345,300,240331,1,8,0:0:0:0:
176,43,240489,6,0,B|139:22|102:31|102:31|95:24|95:24|89:30|89:30|51:46|0:34|0:34|28:66,1,227.499989585877,6|0,0:0|1:0,0:0:0:0:
204,255,240962,2,0,P|214:200|205:155,1,96.250002937317,8|0,0:0|0:0,0:0:0:0:
96,343,241278,1,0,1:0:0:0:
330,287,241436,2,0,P|381:291|442:296,1,96.250002937317,8|0,0:0|0:0,0:0:0:0:
289,131,241752,6,0,P|234:162|121:87,1,192.500005874634,4|0,1:0|1:0,0:0:0:0:
308,110,242225,2,0,P|354:113|415:118,1,96.250002937317,8|0,0:0|0:0,0:0:0:0:
305,303,242541,1,0,1:0:0:0:
220,67,242699,1,8,0:0:0:0:
220,67,242778,1,8,0:0:0:0:
220,67,242857,2,0,L|230:-3,1,48.1250014686585,8|0,0:0|0:0,0:0:0:0:
430,122,243015,6,0,B|459:180|459:180|441:212|441:212|444:220|444:220|438:220|438:220|412:269|412:269|371:198,1,227.499989585877,6|0,0:0|1:0,0:0:0:0:
141,150,243489,2,0,P|130:196|139:243,1,96.250002937317,8|0,0:0|0:0,0:0:0:0:
308,110,243804,1,0,1:0:0:0:
111,30,243962,1,0,1:0:0:0:
152,273,244120,1,8,0:0:0:0:
314,137,244278,6,0,P|363:133|424:130,1,96.250002937317,0|0,1:0|0:0,0:0:0:0:
260,333,244594,1,0,1:0:0:0:
38,213,244752,2,0,P|30:165|48:106,1,96.250002937317,8|0,0:0|0:0,0:0:0:0:
240,218,245068,1,0,1:0:0:0:
62,347,245225,1,0,1:0:0:0:
171,100,245383,1,8,0:0:0:0:
352,299,245541,6,0,L|458:284,1,96.250002937317,6|0,0:0|0:0,0:0:0:0:
272,77,245857,1,0,1:0:0:0:
181,351,246015,1,8,0:0:0:0:
46,95,246173,1,0,1:0:0:0:
337,197,246331,1,8,0:0:0:0:
37,258,246489,1,0,1:0:0:0:
337,197,246647,1,8,0:0:0:0:
37,258,246805,1,0,1:0:0:0:
157,12,246962,5,8,0:0:0:0:
304,305,247120,1,8,0:0:0:0:
304,305,247199,1,8,0:0:0:0:
304,305,247278,2,0,L|365:297,1,48.1250014686585,8|8,1:2|0:0,0:0:0:0:
484,207,247436,2,0,L|423:199,1,48.1250014686585,8|8,0:2|0:0,0:0:0:0:
260,190,247594,5,8,1:2:0:0:
213,199,247672,1,8,0:0:0:0:
165,208,247751,1,8,0:0:0:0:
117,214,247830,1,8,0:0:0:0:
69,223,247910,2,0,L|61:162,1,48.1250014686585
46,18,248068,6,0,B|93:32|134:11|134:11|174:37|174:37|178:48|178:48|190:44|190:44|224:48|269:25,1,227.499989585877,6|0,0:0|1:0,0:0:0:0:
466,164,248541,2,0,P|480:220|467:274,1,96.250002937317,8|0,0:0|0:0,0:0:0:0:
260,190,248857,1,0,1:0:0:0:
408,25,249015,1,0,1:0:0:0:
349,278,249173,1,8,0:0:0:0:
158,166,249331,6,0,P|110:171|63:175,1,96.250002937317,0|0,1:0|0:0,0:0:0:0:
253,32,249647,1,0,1:0:0:0:
173,278,249804,1,8,0:0:0:0:
18,91,249962,2,0,P|68:66|130:73,1,96.250002937317,0|0,0:0|1:0,0:0:0:0:
315,145,250278,1,0,1:0:0:0:
61,204,250436,1,8,0:0:0:0:
307,321,250594,6,0,B|363:314|363:314|388:326|388:326|394:323|394:323|395:330|395:330|416:342|416:342|479:336|479:336|512:302,1,227.499989585877,6|0,0:0|1:0,0:0:0:0:
325,118,251068,2,0,P|272:114|216:110,1,96.250002937317,8|0,0:0|0:0,0:0:0:0:
430,44,251383,1,0,1:0:0:0:
318,224,251541,1,0,1:0:0:0:
214,6,251699,1,8,0:0:0:0:
76,166,251857,6,0,P|69:222|86:273,1,96.250002937317,0|0,1:0|0:0,0:0:0:0:
258,374,252173,1,0,1:0:0:0:
205,129,252331,1,8,0:0:0:0:
97,288,252489,2,0,P|49:284|1:279,1,96.250002937317,0|0,0:0|1:0,0:0:0:0:
144,40,252804,1,8,0:0:0:0:
144,40,252883,1,8,0:0:0:0:
144,40,252962,2,0,P|167:38|191:35,1,48.1250014686585,8|0,0:0|0:0,0:0:0:0:
358,18,253120,6,0,B|363:60|385:83|385:83|381:116|364:147|364:147|359:150|359:150|365:152|365:152|397:181|396:238,1,227.499989585877,6|0,0:0|1:0,0:0:0:0:
165,323,253594,2,0,P|117:318|69:314,1,96.250002937317,8|0,0:0|0:0,0:0:0:0:
43,102,253910,1,0,1:0:0:0:
242,173,254068,1,0,1:0:0:0:
0,232,254225,1,8,0:0:0:0:
176,348,254383,6,0,P|223:362|289:345,1,96.250002937317,0|0,1:0|0:0,0:0:0:0:
414,199,254699,1,0,1:0:0:0:
155,231,254857,1,8,0:0:0:0:
398,322,255015,2,0,L|495:311,1,96.250002937317,0|0,0:0|1:0,0:0:0:0:
348,117,255331,1,0,0:0:0:0:
268,355,255489,1,8,0:0:0:0:
95,160,255647,6,0,P|83:107|102:54,1,96.250002937317,6|0,0:0|0:0,0:0:0:0:
287,210,255962,1,0,1:0:0:0:
61,295,256120,1,8,0:0:0:0:
61,295,256199,1,8,3:0:0:0:
61,295,256278,2,0,L|8:291,1,48.1250014686585,8|0,3:0|0:0,0:0:0:0:
194,139,256436,1,8,3:0:0:0:
268,355,256594,1,4,3:0:0:0:
359,90,256752,1,0,1:0:0:0:
6,189,256910,1,8,0:0:0:0:
243,354,257068,5,2,0:0:0:0:
