osu file format v14

[General]
AudioFilename: audio.mp3
AudioLeadIn: 0
PreviewTime: 41077
Countdown: 0
SampleSet: Normal
StackLeniency: 0.7
Mode: 1
LetterboxInBreaks: 0
WidescreenStoryboard: 1

[Editor]
Bookmarks: 10682,15735,20787,25840,31050,41156,43682,46208,51261,53787,56313,61366,71471,91524
DistanceSpacing: 0.5
BeatDivisor: 3
GridSize: 32
TimelineZoom: 1.1

[Metadata]
Title:Missing You
TitleUnicode:Missing You
Artist:MY FIRST STORY
ArtistUnicode:MY FIRST STORY
Creator:-Sh1n1-
Version:Volta's Futsuu
Source:
Tags:antithese volta shini flying_pan japanese rock j-rock jrock pop
BeatmapID:1817829
BeatmapSetID:869178

[Difficulty]
HPDrainRate:6
CircleSize:3
OverallDifficulty:4
ApproachRate:4
SliderMultiplier:1.4
SliderTickRate:1

[Events]
//Background and Video events
0,0,"MY FIRST STORY - Missing You.jpg",0,125
//Break Periods
//Storyboard Layer 0 (Background)
//Storyboard Layer 1 (Fail)
//Storyboard Layer 2 (Pass)
//Storyboard Layer 3 (Foreground)
//Storyboard Layer 4 (Overlay)
//Storyboard Sound Samples

[TimingPoints]
735,315.789473684211,4,1,0,70,1,0
10682,-100,4,1,0,90,0,0
28524,-100,4,1,0,60,0,0
41156,-100,4,1,0,70,0,0
51261,-100,4,1,0,90,0,0
71471,-100,4,1,0,60,0,0
76524,-100,4,1,0,90,0,0
81419,-100,4,1,0,90,0,1
100524,-100,4,1,0,90,0,0

[HitObjects]
243,205,735,5,2,0:0:0:0:
52,184,1366,1,0,0:0:0:0:
149,120,1840,1,2,0:0:0:0:
175,100,2156,1,2,0:0:0:0:
219,114,2313,1,2,0:0:0:0:
243,205,3261,1,2,0:0:0:0:
137,153,3892,1,0,0:0:0:0:
163,115,4366,1,2,0:0:0:0:
192,138,4682,1,2,0:0:0:0:
297,129,4840,1,2,0:0:0:0:
134,197,5156,1,0,0:3:0:0:
243,205,5787,1,4,0:0:0:0:
170,143,6261,1,0,0:0:0:0:
314,86,6419,1,8,0:0:0:0:
180,112,7050,1,0,0:0:0:0:
314,86,7208,1,8,0:0:0:0:
249,98,7524,1,0,0:0:0:0:
314,86,7682,1,8,0:0:0:0:
249,98,7998,1,0,0:0:0:0:
178,136,8313,1,8,0:0:0:0:
59,90,8945,1,8,0:0:0:0:
117,112,9261,1,8,0:0:0:0:
55,137,9419,1,8,0:0:0:0:
117,112,9577,1,8,0:0:0:0:
117,112,9892,1,8,0:0:0:0:
123,54,10208,5,0,0:0:0:0:
50,163,10366,1,0,0:0:0:0:
157,179,10682,5,12,0:0:0:0:
15,166,11156,1,8,0:0:0:0:
8,100,11471,1,0,0:0:0:0:
323,159,11787,1,8,0:0:0:0:
276,155,11945,1,0,0:0:0:0:
207,91,12261,1,0,0:0:0:0:
177,155,12419,1,8,0:0:0:0:
161,144,12735,1,0,0:0:0:0:
161,144,13208,1,8,0:0:0:0:
226,133,13682,1,8,0:0:0:0:
251,144,13998,1,0,0:0:0:0:
251,144,14156,1,0,0:0:0:0:
161,144,14313,1,8,0:0:0:0:
161,144,14629,1,0,0:0:0:0:
161,144,15261,1,8,0:0:0:0:
185,129,15419,1,8,0:0:0:0:
292,134,15735,1,4,0:0:0:0:
310,93,16208,1,8,0:0:0:0:
187,148,16524,1,0,0:0:0:0:
130,133,16840,1,8,0:0:0:0:
120,125,16998,1,0,0:0:0:0:
187,148,17313,1,0,0:0:0:0:
173,207,17471,1,8,0:0:0:0:
187,148,17787,1,8,0:0:0:0:
187,148,18261,1,0,0:0:0:0:
291,179,18735,1,8,0:0:0:0:
230,160,19050,1,8,0:0:0:0:
77,124,19208,1,0,0:0:0:0:
230,160,19366,5,8,0:0:0:0:
205,129,19682,5,8,0:0:0:0:
46,144,20313,1,0,0:0:0:0:
113,153,20471,5,0,0:0:0:0:
330,217,20787,5,12,0:0:0:0:
15,166,21261,1,8,0:0:0:0:
8,100,21576,1,0,0:0:0:0:
323,159,21892,1,8,0:0:0:0:
276,155,22050,1,0,0:0:0:0:
207,91,22366,1,0,0:0:0:0:
177,155,22524,1,8,0:0:0:0:
161,144,22840,1,0,0:0:0:0:
161,144,23313,1,8,0:0:0:0:
226,133,23787,1,8,0:0:0:0:
251,144,24103,1,0,0:0:0:0:
251,144,24261,1,0,0:0:0:0:
161,144,24418,1,8,0:0:0:0:
161,144,24734,1,8,0:0:0:0:
42,155,25366,1,8,0:0:0:0:
198,146,25524,1,0,0:0:0:0:
292,134,25840,1,4,0:0:0:0:
310,93,26313,1,8,0:0:0:0:
187,148,26629,5,0,0:0:0:0:
130,133,26945,1,8,0:0:0:0:
120,125,27103,1,0,0:0:0:0:
187,148,27419,1,0,0:0:0:0:
156,142,27577,1,8,0:0:0:0:
50,158,27892,5,0,0:0:0:0:
90,131,28050,1,0,0:0:0:0:
90,131,28208,1,0,0:0:0:0:
194,240,28524,5,4,0:0:0:0:
128,119,29156,1,8,0:0:0:0:
81,133,29787,1,8,0:0:0:0:
128,119,30103,1,0,0:0:0:0:
81,133,30419,1,8,0:0:0:0:
156,129,30629,1,0,0:0:0:0:
241,210,31050,5,6,0:0:0:0:
37,151,31998,1,2,0:0:0:0:
241,210,33577,1,2,0:0:0:0:
137,168,34524,1,2,0:0:0:0:
241,210,36103,1,2,0:0:0:0:
137,168,37050,1,2,0:0:0:0:
252,160,38629,1,2,0:0:0:0:
137,168,39577,1,2,0:0:0:0:
252,160,41156,5,0,0:0:0:0:
83,129,41471,1,8,0:0:0:0:
212,157,41787,1,0,0:0:0:0:
186,97,42261,1,8,0:0:0:0:
294,157,42735,1,8,0:0:0:0:
22,128,42892,1,0,0:0:0:0:
92,53,43208,1,2,0:0:0:0:
133,178,43682,1,0,0:0:0:0:
243,180,44156,1,0,0:0:0:0:
124,116,44471,1,8,0:0:0:0:
259,93,44787,1,8,0:0:0:0:
133,155,45419,1,0,0:0:0:0:
133,155,45735,1,2,0:0:0:0:
201,130,46208,1,0,0:0:0:0:
174,168,46524,1,8,0:0:0:0:
137,45,46840,1,0,0:0:0:0:
137,150,47313,1,8,0:0:0:0:
7,151,47787,1,8,0:0:0:0:
203,129,47945,1,0,0:0:0:0:
176,111,48261,1,2,0:0:0:0:
197,126,48735,1,0,0:0:0:0:
151,163,49050,1,8,0:0:0:0:
194,95,49208,1,0,0:0:0:0:
208,69,49682,1,8,0:0:0:0:
156,140,50313,1,0,0:0:0:0:
69,133,50629,1,0,0:0:0:0:
7,149,50787,1,8,0:0:0:0:
322,162,50945,1,0,0:0:0:0:
287,156,51261,5,4,0:0:0:0:
160,95,51577,1,8,0:0:0:0:
149,172,51892,1,0,0:0:0:0:
212,137,52050,1,0,0:0:0:0:
149,172,52208,1,8,0:0:0:0:
149,172,52524,1,8,0:0:0:0:
149,172,53156,1,0,0:0:0:0:
23,138,53471,1,8,0:0:0:0:
149,172,53787,1,8,0:0:0:0:
214,131,54103,1,8,0:0:0:0:
214,131,54261,1,0,0:0:0:0:
149,172,54419,1,8,0:0:0:0:
149,172,54735,1,0,0:0:0:0:
149,172,55050,1,8,0:0:0:0:
215,64,55682,1,8,0:0:0:0:
185,120,55998,1,8,0:0:0:0:
149,172,56313,1,0,0:0:0:0:
185,120,56629,1,8,0:0:0:0:
185,120,56787,1,8,0:0:0:0:
149,172,56945,1,0,0:0:0:0:
194,128,57261,1,8,0:0:0:0:
149,172,57577,1,0,0:0:0:0:
96,171,57892,1,8,0:0:0:0:
125,137,58050,1,8,0:0:0:0:
149,172,58366,1,0,0:0:0:0:
157,136,58524,1,8,0:0:0:0:
149,172,58840,1,0,0:0:0:0:
34,148,59471,1,0,0:0:0:0:
34,148,59787,1,8,0:0:0:0:
149,172,60103,5,2,0:0:0:0:
34,148,60261,1,0,0:0:0:0:
217,144,60419,1,2,0:0:0:0:
149,172,60735,1,2,0:0:0:0:
182,114,61050,1,2,0:0:0:0:
287,156,61366,5,4,0:0:0:0:
81,168,61682,1,8,0:0:0:0:
153,166,61998,1,0,0:0:0:0:
96,115,62156,1,0,0:0:0:0:
194,115,62313,1,8,0:0:0:0:
194,115,62629,1,0,0:0:0:0:
194,115,63261,1,0,0:0:0:0:
133,153,63577,1,8,0:0:0:0:
194,115,63892,1,8,0:0:0:0:
133,153,64208,1,8,0:0:0:0:
133,153,64366,1,8,0:0:0:0:
194,115,64524,1,0,0:0:0:0:
194,115,64840,1,8,0:0:0:0:
194,115,65156,1,0,0:0:0:0:
194,115,65787,1,0,0:0:0:0:
149,120,66103,1,8,0:0:0:0:
194,115,66419,1,8,0:0:0:0:
149,120,66735,1,8,0:0:0:0:
149,120,66892,1,0,0:0:0:0:
194,115,67050,1,8,0:0:0:0:
194,115,67366,1,0,0:0:0:0:
194,115,67682,1,8,0:0:0:0:
194,115,67998,1,8,0:0:0:0:
126,149,68156,1,0,0:0:0:0:
194,115,68471,1,0,0:0:0:0:
126,149,68629,1,8,0:0:0:0:
194,115,68945,1,8,0:0:0:0:
126,149,69419,1,0,0:0:0:0:
137,320,69892,1,8,0:0:0:0:
194,115,70208,5,8,0:0:0:0:
128,149,70524,1,0,0:0:0:0:
131,105,70682,1,8,0:0:0:0:
194,115,70840,1,0,0:0:0:0:
230,78,71156,1,0,0:0:0:0:
141,173,71471,5,2,0:0:0:0:
230,90,71945,1,2,0:0:0:0:
141,173,73998,1,2,0:0:0:0:
204,171,74471,1,2,0:0:0:0:
160,153,75261,1,2,0:0:0:0:
390,202,75735,1,2,0:0:0:0:
125,148,76208,1,8,0:0:0:0:
141,173,76524,1,0,0:0:0:0:
218,138,76840,1,0,0:0:0:0:
158,113,76998,1,0,0:0:0:0:
51,161,77313,1,0,0:0:0:0:
159,179,77629,1,0,0:0:0:0:
115,126,77945,1,0,0:0:0:0:
249,88,78103,5,0,0:0:0:0:
159,179,78261,1,0,0:0:0:0:
159,179,78577,1,0,0:0:0:0:
157,141,78892,1,8,0:0:0:0:
256,192,79208,12,0,80629,0:0:0:0:
210,157,80945,5,0,0:0:0:0:
302,187,81103,1,0,0:0:0:0:
224,157,81419,5,6,0:0:0:0:
236,124,81735,1,0,0:0:0:0:
188,144,81892,1,8,0:0:0:0:
232,140,82208,1,8,0:0:0:0:
263,172,82366,1,0,0:0:0:0:
232,140,82682,1,0,0:0:0:0:
194,98,82998,1,8,0:0:0:0:
70,135,83471,1,0,0:0:0:0:
171,138,83629,1,0,0:0:0:0:
232,140,83945,1,2,0:0:0:0:
171,138,84261,1,0,0:0:0:0:
193,98,84419,1,8,0:0:0:0:
246,126,84735,1,8,0:0:0:0:
171,138,84892,1,0,0:0:0:0:
246,126,85208,1,0,0:0:0:0:
243,177,85998,1,0,0:0:0:0:
243,177,86156,1,0,0:0:0:0:
240,129,86471,1,6,0:0:0:0:
246,151,86787,1,0,0:0:0:0:
268,143,86945,1,8,0:0:0:0:
180,113,87261,1,8,0:0:0:0:
125,137,87419,1,0,0:0:0:0:
180,113,87735,1,0,0:0:0:0:
251,126,88050,1,8,0:0:0:0:
72,153,88524,1,0,0:0:0:0:
243,160,88682,1,0,0:0:0:0:
225,133,88998,1,8,0:0:0:0:
243,160,89313,1,0,0:0:0:0:
225,133,89471,1,8,0:0:0:0:
225,133,89787,1,8,0:0:0:0:
225,133,90103,1,8,0:0:0:0:
144,166,90261,1,0,0:0:0:0:
225,133,90419,1,8,0:0:0:0:
86,138,90577,1,0,0:0:0:0:
262,138,90892,1,8,0:0:0:0:
290,83,91524,5,6,0:0:0:0:
89,160,91840,1,0,0:0:0:0:
224,121,91998,1,8,0:0:0:0:
232,140,92313,1,8,0:0:0:0:
175,176,92471,1,0,0:0:0:0:
232,140,92788,1,0,0:0:0:0:
175,176,93103,1,8,0:0:0:0:
19,124,93261,1,0,0:0:0:0:
107,145,93419,1,8,0:0:0:0:
232,140,94051,1,2,0:0:0:0:
118,157,94366,1,0,0:0:0:0:
215,142,94524,1,8,0:0:0:0:
246,126,94841,1,0,0:0:0:0:
205,157,94998,1,0,0:0:0:0:
246,126,95313,1,8,0:0:0:0:
187,169,95629,1,8,0:0:0:0:
77,131,95787,1,0,0:0:0:0:
123,128,95945,1,8,0:0:0:0:
187,169,96261,1,0,0:0:0:0:
160,144,96577,1,14,0:0:0:0:
123,128,97050,1,8,0:0:0:0:
118,153,97366,1,8,0:0:0:0:
225,215,97524,1,0,0:0:0:0:
118,153,97840,1,0,0:0:0:0:
225,215,98156,1,8,0:0:0:0:
166,77,98313,1,0,0:0:0:0:
118,153,98471,1,8,0:0:0:0:
334,169,99103,1,8,0:0:0:0:
224,214,99419,1,0,0:0:0:0:
334,169,99577,1,8,0:0:0:0:
334,169,99892,1,8,0:0:0:0:
334,169,100208,1,8,0:0:0:0:
224,214,100366,1,0,0:0:0:0:
334,169,100524,1,8,0:0:0:0:
