osu file format v14

[General]
AudioFilename: audio.mp3
AudioLeadIn: 0
PreviewTime: 52724
Countdown: 0
SampleSet: Soft
StackLeniency: 0.7
Mode: 0
LetterboxInBreaks: 0
EpilepsyWarning: 1
WidescreenStoryboard: 1

[Editor]
Bookmarks: 10403,18974,27546,36117,44689,53260,61831,70403,78974,87546,96117,104689,113260,121831,130403,138974,147546,156117,164689,173260,190403,198974,207546,216117,224689
DistanceSpacing: 1
BeatDivisor: 4
GridSize: 16
TimelineZoom: 1.6

[Metadata]
Title:Merry Christmas
TitleUnicode:Merry Christmas
Artist:MY FIRST STORY
ArtistUnicode:MY FIRST STORY
Creator:Chompy
Version:Mistletoe Memories
Source:
Tags:english rock Nyantiaz zer0-g zero-g
BeatmapID:2691912
BeatmapSetID:1297624

[Difficulty]
HPDrainRate:4.5
CircleSize:5
OverallDifficulty:7
ApproachRate:7.8
SliderMultiplier:1.8
SliderTickRate:1

[Events]
//Background and Video events
0,0,"christmas.jpg",0,0
//Break Periods
2,175135,189088
//Storyboard Layer 0 (Background)
//Storyboard Layer 1 (Fail)
//Storyboard Layer 2 (Pass)
//Storyboard Layer 3 (Foreground)
//Storyboard Layer 4 (Overlay)
//Storyboard Sound Samples

[TimingPoints]
-311,535.714285714286,4,2,0,15,1,0
760,-100,4,2,1,35,0,0
1296,-200,4,2,1,35,0,0
1697,-200,4,2,69,5,0,0
1831,-125,4,2,1,35,0,0
18974,-105.263157894737,4,2,1,55,0,0
35314,-105.263157894737,4,2,1,35,0,0
35447,-105.263157894737,4,2,1,45,0,0
36117,-400.000000000003,4,2,1,45,0,0
43349,-153.846153846154,4,2,1,45,0,0
44689,-117.64705882353,4,2,1,45,0,0
51117,-200,4,2,1,45,0,0
52456,-117.64705882353,4,2,1,45,0,0
53260,-95.2380952380956,4,2,1,70,0,1
61564,-95.2380952380956,4,2,3,70,0,1
61831,-95.2380952380956,4,2,1,70,0,1
69599,-95.2380952380956,4,2,3,70,0,1
69867,-95.2380952380956,4,2,1,70,0,1
70001,-95.2380952380956,4,2,3,70,0,1
70135,-95.2380952380956,4,2,4,70,0,1
70269,-95.2380952380956,4,2,5,70,0,1
70403,-105.263157894737,4,2,1,55,0,0
86742,-105.263157894737,4,2,3,55,0,0
87010,-105.263157894737,4,2,1,55,0,0
87546,-105.263157894737,4,2,1,60,0,0
88751,-105.263157894737,4,2,69,5,0,0
88885,-105.263157894737,4,2,3,60,0,0
89153,-105.263157894737,4,2,1,60,0,0
91028,-105.263157894737,4,2,5,60,0,0
91296,-105.263157894737,4,2,1,60,0,0
93171,-105.263157894737,4,2,3,60,0,0
93439,-105.263157894737,4,2,1,60,0,0
95314,-105.263157894737,4,2,3,60,0,0
95581,-105.263157894737,4,2,1,60,0,0
95849,-105.263157894737,4,2,4,60,0,0
96117,-105.263157894737,4,2,1,60,0,0
97456,-105.263157894737,4,2,3,60,0,0
97724,-105.263157894737,4,2,1,60,0,0
99599,-105.263157894737,4,2,5,60,0,0
99867,-105.263157894737,4,2,1,60,0,0
101742,-105.263157894737,4,2,3,60,0,0
102010,-105.263157894737,4,2,1,60,0,0
104689,-95.2380952380954,4,2,1,70,0,1
130135,-95.2380952380954,4,2,3,70,0,1
130403,-95.2380952380954,4,2,1,70,0,1
138974,-95.2380952380954,4,2,1,70,0,0
170715,-95.2380952380954,4,2,3,70,0,0
170849,-95.2380952380954,4,2,4,70,0,0
170983,-95.2380952380954,4,2,5,70,0,0
171117,-95.2380952380954,4,2,1,70,0,0
173260,-95.2380952380954,4,2,1,45,0,0
189867,-125,4,2,1,45,0,0
202456,-125,4,2,1,60,0,0
203260,-105.263157894737,4,2,1,60,0,0
205001,-105.263157894737,4,2,3,60,0,0
205135,-105.263157894737,4,2,4,60,0,0
205269,-105.263157894737,4,2,5,60,0,0
205403,-105.263157894737,4,2,1,60,0,0
207546,-95.2380952380954,4,2,1,70,0,1
224689,-133.333333333333,4,2,1,70,0,0
224822,-133.333333333333,4,2,1,35,0,0

[Colours]
Combo1 : 241,242,204
Combo2 : 209,250,133
Combo3 : 252,185,173

[HitObjects]
10,56,1296,6,0,P|32:32|65:31,1,67.5,2|0,0:2|0:0,0:0:0:0:
85,49,1831,5,2,0:2:0:0:
157,80,2099,2,0,B|151:99|151:99|165:166,1,72,2|0,0:2|0:0,0:0:0:0:
92,190,2635,2,0,B|129:172|166:189|153:215|190:234|222:214,1,144,2|2,0:2|0:2,0:0:0:0:
363,197,3706,2,0,B|377:169|369:128|342:114|342:114|314:120|308:148,1,144,2|2,0:2|0:2,0:0:0:0:
425,233,4778,2,0,B|449:185|447:135|417:85,1,144,2|0,0:2|0:0,0:0:0:0:
356,31,5581,2,0,B|325:48|325:48|290:38,1,72,2|0,0:2|0:0,0:0:0:0:
214,13,6117,5,2,0:2:0:0:
155,66,6385,2,0,L|162:139,1,72,2|0,0:2|0:0,0:0:0:0:
111,221,6921,2,0,B|138:203|138:171|138:171|221:158,1,144,2|2,0:2|0:2,0:0:0:0:
371,207,7992,2,0,B|400:202|408:169|371:156|329:162|301:237,1,144,2|2,0:2|0:2,0:0:0:0:
168,292,9064,2,0,B|200:297|229:282|243:254|243:254|258:281|284:286,1,144,2|0,0:2|0:0,0:0:0:0:
325,354,9867,2,0,P|346:325|380:322,1,72,2|0,0:2|0:0,0:0:0:0:
495,334,10403,6,0,B|493:301|504:284|504:284|501:264,1,72,2|2,0:2|0:2,0:0:0:0:
456,203,10939,1,2,0:2:0:0:
512,143,11206,2,0,B|438:160|438:160|426:122|383:117,1,144,2|2,0:2|0:2,0:0:0:0:
302,127,12010,1,0,0:0:0:0:
347,207,12278,6,0,P|356:268|294:247,1,144,2|0,0:2|0:0,0:0:0:0:
229,222,13081,1,2,0:2:0:0:
169,187,13349,2,0,B|189:231|189:231|164:342,1,144,2|2,0:2|0:2,0:0:0:0:
102,364,14153,1,2,0:2:0:0:
37,326,14421,1,2,0:2:0:0:
10,251,14689,6,0,B|8:233|17:216|36:217|52:239|65:260|65:260|89:241|127:242,1,144,2|2,0:2|0:2,0:0:0:0:
178,193,15492,2,0,B|162:160|188:124|188:124|240:132|248:176,1,144,2|2,0:2|0:2,0:0:0:0:
318,301,16564,1,2,0:2:0:0:
388,265,16831,6,0,B|372:239|348:228|348:228|342:207,1,72,2|2,0:2|0:2,0:0:0:0:
372,137,17367,2,0,B|330:142|330:142|297:127,1,72,0|2,0:0|0:2,0:0:0:0:
256,74,17903,1,0,0:0:0:0:
144,74,18171,2,0,L|136:32,2,24,2|2|2,0:2|0:2|0:2,0:0:0:0:
127,91,18439,2,0,P|123:144|63:137,1,108,2|0,0:2|0:0,0:0:0:0:
47,173,18974,5,6,3:2:0:0:
79,267,19242,2,0,B|106:247|106:247|171:260,1,85.4999977169037,2|0,0:2|3:2,0:0:0:0:
232,279,19778,2,0,B|244:240|221:210|221:210|260:208|287:185|287:185|315:203,1,170.999995433807,2|2,0:2|0:2,0:0:0:0:
345,266,20581,1,0,3:2:0:0:
452,230,20849,6,0,P|481:200|480:159,1,85.4999977169037,2|0,0:2|3:2,0:0:0:0:
421,109,21385,2,0,B|373:105|363:76|363:76|386:62|407:82,1,85.4999977169037,2|0,0:2|3:2,0:0:0:0:
297,36,21921,2,0,B|275:77|301:121|301:121|291:226,1,170.999995433807,2|0,0:2|0:0,0:0:0:0:
224,273,22724,2,0,P|204:307|197:277,1,85.4999977169037,2|0,3:2|0:0,0:0:0:0:
180,210,23260,5,2,3:2:0:0:
88,240,23528,2,0,B|54:234|54:234|33:244|33:244|-6:237,1,85.4999977169037,2|0,0:2|3:2,0:0:0:0:
54,356,24064,2,0,B|72:340|71:312|71:312|91:338|128:339|128:339|158:310|153:289,1,170.999995433807,2|2,0:2|0:2,0:0:0:0:
222,256,24867,1,0,3:2:0:0:
281,358,25135,6,0,B|324:371|324:371|353:343,1,85.4999977169037,2|0,0:2|3:2,0:0:0:0:
393,277,25671,2,0,B|385:248|356:238|356:238|363:208,1,85.4999977169037,2|0,0:2|3:2,0:0:0:0:
488,169,26206,2,0,B|455:174|416:164|416:164|375:123|325:149,1,170.999995433807,2|0,0:2|0:0,0:0:0:0:
209,199,27010,2,0,P|217:149|193:119,1,85.4999977169037,2|0,3:2|0:0,0:0:0:0:
187,122,27412,1,2,0:2:0:0:
174,125,27546,6,0,B|145:140|112:122|112:122|66:135,1,85.4999977169037,2|0,3:2|0:0,0:0:0:0:
25,166,28081,1,10,3:2:0:0:
66,234,28349,2,0,P|80:279|126:273,1,85.4999977169037,2|0,0:2|3:2,0:0:0:0:
212,282,28885,2,0,B|203:239|228:235|205:192,1,85.4999977169037,2|0,0:2|3:2,0:0:0:0:
256,128,29421,1,2,0:2:0:0:
303,198,29689,6,0,B|283:235|308:239|300:282,1,85.4999977169037,2|0,3:2|0:0,0:0:0:0:
346,343,30224,1,8,3:2:0:0:
409,298,30492,1,2,0:2:0:0:
476,338,30760,2,0,B|483:298|483:298|502:257,1,85.4999977169037,0|2,3:2|0:2,0:0:0:0:
482,167,31296,1,2,3:2:0:0:
407,208,31564,1,2,0:2:0:0:
394,208,31697,1,2,0:2:0:0:
379,207,31831,6,0,B|377:179|363:161|363:161|376:139|387:118,1,85.4999977169037,2|0,3:2|0:0,0:0:0:0:
327,73,32367,1,10,3:2:0:0:
250,91,32635,2,0,B|208:106|208:106|133:96,1,85.4999977169037,2|0,0:2|3:2,0:0:0:0:
94,127,33171,2,0,P|101:169|75:157,1,85.4999977169037,2|8,0:2|3:2,0:0:0:0:
39,228,33706,1,2,0:2:0:0:
50,230,33840,1,0,0:0:0:0:
60,232,33974,5,0,3:2:0:0:
112,288,34242,1,2,0:2:0:0:
185,309,34510,1,8,3:2:0:0:
259,287,34778,1,2,0:2:0:0:
328,253,35046,2,0,P|371:261|418:286,1,85.4999977169037,2|8,3:2|3:2,0:0:0:0:
419,288,35447,1,8,3:2:0:0:
428,297,35581,2,0,L|488:290,2,42.7499988584519,8|8|8,3:2|3:2|3:2,0:0:0:0:
362,355,36117,6,0,B|297:394|229:341|269:320|205:251|135:264|135:264|163:277|177:302,1,315,4|0,3:2|0:0,0:0:0:0:
14,219,40403,2,0,B|-22:173|37:122|37:122|105:162|77:213,1,225,2|0,0:2|0:0,0:0:0:0:
52,291,43349,5,0,0:0:0:0:
117,329,43617,1,0,0:0:0:0:
198,280,43885,2,0,L|202:252,2,19.4999991073609,2|2|2,0:2|0:2|0:2,0:0:0:0:
212,298,44153,2,0,P|236:315|265:316,1,58.4999973220826,2|0,0:2|0:0,0:0:0:0:
357,281,44689,6,0,P|404:274|454:275,1,76.5000014591217,6|0,3:2|0:0,0:0:0:0:
474,214,45224,2,0,P|427:207|377:208,1,76.5000014591217,2|2,3:2|0:2,0:0:0:0:
350,145,45760,2,0,P|397:138|447:139,1,76.5000014591217,0|2,3:2|0:2,0:0:0:0:
453,65,46296,2,0,P|406:58|356:59,1,76.5000014591217,2|2,3:2|0:2,0:0:0:0:
290,81,46831,6,0,B|272:114|272:114|278:159,1,76.5000014591217,0|2,3:2|0:2,0:0:0:0:
214,219,47367,2,0,B|179:201|179:201|136:207,1,76.5000014591217,2|2,3:2|0:2,0:0:0:0:
76,143,47903,2,0,B|93:108|93:108|87:65,1,76.5000014591217,0|2,3:2|0:2,0:0:0:0:
152,5,48439,2,0,B|187:22|187:22|230:16,1,76.5000014591217,2|2,3:2|0:2,0:0:0:0:
329,99,48974,6,0,B|318:125|308:136|308:136|303:152|317:177,1,76.5000014591217,2|0,3:2|0:0,0:0:0:0:
364,265,49510,1,10,3:2:0:0:
246,290,49778,1,2,0:2:0:0:
197,184,50046,2,0,B|168:176|168:197|121:186,1,76.5000014591217,0|2,3:2|0:2,0:0:0:0:
17,123,50581,1,8,3:2:0:0:
28,257,50849,1,2,0:2:0:0:
28,257,50983,1,2,0:2:0:0:
28,257,51117,6,0,B|51:281|89:289|136:261|136:261|125:295|133:326,1,180,4|0,3:2|0:0,0:0:0:0:
197,381,52456,1,0,3:2:0:0:
285,336,52724,1,10,0:2:0:0:
285,336,52858,2,0,P|340:348|371:348,1,76.5000014591217,2|2,0:2|0:2,0:0:0:0:
400,334,53260,6,0,L|393:226,1,94.499997116089,4|2,3:2|0:2,0:0:0:0:
454,151,53796,2,0,P|495:149|474:111,1,94.499997116089,10|0,0:2|0:0,0:0:0:0:
461,87,54197,2,0,B|414:100|414:100|375:75|375:75|330:90,1,141.749995674133,2|2,0:2|3:2,0:0:0:0:
251,37,54867,1,8,0:2:0:0:
194,138,55135,2,0,L|134:129,1,47.2499985580445,2|0,0:2|0:0,0:0:0:0:
133,105,55403,5,2,3:2:0:0:
25,142,55671,1,2,0:2:0:0:
62,250,55939,1,10,0:2:0:0:
170,213,56206,2,0,B|209:182|265:205|247:245|301:266|339:231,1,188.999994232178,2|2,0:2|0:2,0:0:0:0:
478,217,57010,2,0,B|483:242|468:262|468:262|490:304,1,94.499997116089,10|8,0:2|0:2,0:0:0:0:
482,326,57412,1,10,0:2:0:0:
482,326,57546,6,0,L|385:318,1,94.499997116089,4|2,3:2|0:2,0:0:0:0:
261,348,58081,2,0,B|205:363|205:363|187:351|188:317,1,94.499997116089,10|0,0:2|0:0,0:0:0:0:
189,303,58483,2,0,B|229:268|229:268|214:175,1,141.749995674133,2|2,0:2|0:2,0:0:0:0:
165,99,59153,1,8,0:2:0:0:
85,164,59421,2,0,P|65:176|42:174,1,47.2499985580445,2|0,0:2|0:0,0:0:0:0:
21,142,59689,5,2,3:2:0:0:
57,47,59956,1,2,0:2:0:0:
158,52,60224,1,10,0:2:0:0:
185,149,60492,1,2,0:2:0:0:
101,204,60760,6,0,B|87:248|87:248|108:266|105:291,1,94.499997116089,0|2,3:2|0:2,0:0:0:0:
157,363,61296,1,10,0:2:0:0:
157,363,61430,2,0,P|202:343|246:352,1,94.499997116089,10|2,0:2|0:2,0:0:0:0:
286,361,61831,6,0,L|389:350,1,94.499997116089,4|2,3:2|0:2,0:0:0:0:
423,278,62367,1,10,0:2:0:0:
423,278,62501,2,0,B|394:281|374:264|374:264|356:274|329:267,1,94.499997116089,2|2,0:2|0:2,0:0:0:0:
297,245,62903,2,0,P|302:195|296:135,1,94.499997116089,0|2,3:2|3:2,0:0:0:0:
229,101,63439,1,8,0:2:0:0:
297,50,63706,1,2,0:2:0:0:
298,150,63974,6,0,P|254:126|241:105,1,47.2499985580445,2|0,3:2|0:0,0:0:0:0:
229,101,64242,2,0,B|196:104|196:104|169:95|129:100,1,94.499997116089,2|10,0:2|0:2,0:0:0:0:
59,138,64778,2,0,B|102:213|38:240|76:328,1,188.999994232178,2|2,0:2|0:2,0:0:0:0:
151,288,65581,1,10,0:2:0:0:
151,288,65715,2,0,P|196:278|255:298,1,94.499997116089,2|2,0:2|0:2,0:0:0:0:
276,314,66117,6,0,B|281:260|281:260|266:209,1,94.499997116089,4|2,3:2|0:2,0:0:0:0:
216,154,66653,2,0,B|244:160|266:144|266:144|285:158|333:160,1,94.499997116089,8|2,0:2|0:2,0:0:0:0:
391,117,67189,2,0,L|494:106,1,94.499997116089,0|2,3:2|0:2,0:0:0:0:
453,196,67724,1,8,0:2:0:0:
471,288,67992,1,2,0:2:0:0:
334,237,68260,5,0,3:2:0:0:
365,161,68528,1,2,0:2:0:0:
322,85,68796,2,0,P|269:97|224:85,1,94.499997116089,8|2,0:2|0:2,0:0:0:0:
144,45,69331,2,0,B|156:91|156:91|135:138,1,94.499997116089,4|8,3:2|0:2,0:0:0:0:
98,148,69733,1,8,0:2:0:0:
98,148,69867,2,0,L|95:208,1,47.2499985580445,8|8,0:2|0:2,0:0:0:0:
62,222,70135,2,0,L|75:281,1,47.2499985580445,8|8,0:2|0:2,0:0:0:0:
98,296,70403,5,6,3:2:0:0:
182,300,70671,2,0,P|219:284|262:302,1,85.4999977169037,2|0,0:2|3:2,0:0:0:0:
325,349,71206,2,0,B|341:310|375:303|375:303|349:250|380:202,1,170.999995433807,2|2,0:2|0:2,0:0:0:0:
441,173,72010,1,0,3:2:0:0:
467,84,72278,6,0,B|426:79|426:79|419:55|390:40,1,85.4999977169037,2|0,0:2|3:2,0:0:0:0:
314,19,72814,2,0,B|330:57|330:57|312:75|314:107,1,85.4999977169037,2|0,0:2|3:2,0:0:0:0:
335,184,73350,2,0,B|359:150|359:150|384:156|411:139,1,85.4999977169037,2|0,0:2|3:2,0:0:0:0:
467,187,73885,1,2,0:2:0:0:
450,276,74153,2,0,P|453:314|473:358,1,85.4999977169037,2|0,3:2|0:0,0:0:0:0:
396,374,74689,5,2,3:2:0:0:
328,313,74956,2,0,B|296:300|296:300|249:320,1,85.4999977169037,2|0,0:2|3:2,0:0:0:0:
169,360,75492,2,0,B|184:335|184:335|176:295|206:269|206:269|224:235|199:186,1,170.999995433807,2|2,0:2|0:2,0:0:0:0:
148,154,76296,1,0,3:2:0:0:
65,129,76564,6,0,B|54:89|54:89|75:49,1,85.4999977169037,2|0,0:2|3:2,0:0:0:0:
156,25,77099,2,0,B|196:35|196:35|219:74,1,85.4999977169037,2|0,0:2|3:2,0:0:0:0:
200,155,77635,2,0,B|170:184|170:184|125:185,1,85.4999977169037,2|0,0:2|3:2,0:0:0:0:
50,225,78171,2,0,L|56:267,1,42.7499988584519,2|0,0:2|0:0,0:0:0:0:
80,284,78439,2,0,P|121:290|162:307,1,85.4999977169037,2|2,3:2|0:2,0:0:0:0:
227,361,78974,6,0,B|201:361|185:351|176:318|195:300|215:287|232:291|232:291|251:278|238:222,1,170.999995433807,2|2,3:2|3:2,0:0:0:0:
274,171,79778,2,0,B|301:186|311:202|311:202|323:196|358:188,1,85.4999977169037,2|0,0:2|3:2,0:0:0:0:
324,104,80314,2,0,B|297:89|287:73|287:73|275:79|240:87,1,85.4999977169037,2|0,0:2|3:2,0:0:0:0:
199,133,80849,1,2,0:2:0:0:
119,83,81117,6,0,P|105:130|117:182,1,85.4999977169037,2|0,3:2|0:0,0:0:0:0:
138,234,81653,2,0,P|185:248|237:236,1,85.4999977169037,2|2,3:2|0:2,0:0:0:0:
286,197,82189,2,0,P|300:244|288:296,1,85.4999977169037,0|2,3:2|0:2,0:0:0:0:
247,341,82724,1,0,3:2:0:0:
330,377,82992,1,2,0:2:0:0:
400,326,83260,6,0,B|377:249|442:253|402:152,1,170.999995433807,2|2,3:2|3:2,0:0:0:0:
334,186,84064,2,0,P|292:188|315:148,1,85.4999977169037,2|0,0:2|3:2,0:0:0:0:
238,99,84599,2,0,P|196:97|219:137,1,85.4999977169037,2|0,0:2|3:2,0:0:0:0:
154,192,85135,1,2,0:2:0:0:
60,184,85403,6,0,B|38:136|38:136|45:100,1,85.4999977169037,0|2,3:2|0:2,0:0:0:0:
138,111,85939,2,0,B|160:159|160:159|153:195,1,85.4999977169037,2|2,3:2|0:2,0:0:0:0:
117,267,86474,2,0,B|101:266|92:264|92:264|61:280|61:280|45:277|30:277,1,85.4999977169037,0|10,3:2|0:2,0:0:0:0:
90,354,87010,1,10,0:2:0:0:
173,309,87278,1,0,0:0:0:0:
175,214,87546,5,6,3:2:0:0:
259,162,87814,2,0,L|360:171,1,85.4999977169037,2|8,0:2|0:2,0:0:0:0:
421,235,88349,2,0,B|423:193|459:182|459:182|482:162|479:128,1,128.249996575356,2|0,0:2|0:0,0:0:0:0:
508,111,88885,1,10,0:2:0:0:
487,20,89153,1,8,0:2:0:0:
395,40,89421,6,0,B|353:50|353:50|317:27,1,85.4999977169037,2|0,0:2|3:2,0:0:0:0:
223,31,89956,2,0,P|187:23|196:58,1,85.4999977169037,2|8,0:2|0:2,0:0:0:0:
266,122,90492,2,0,B|292:137|318:131|318:131|273:257,1,170.999995433807,2|8,0:2|0:2,0:0:0:0:
199,274,91296,1,10,0:2:0:0:
131,221,91564,1,0,0:0:0:0:
59,269,91831,5,2,3:2:0:0:
82,352,92099,2,0,B|104:352|117:368|117:368|174:354,1,85.4999977169037,2|8,0:2|0:2,0:0:0:0:
242,280,92635,2,0,B|278:283|299:313|299:313|313:253|373:249,1,170.999995433807,2|10,0:2|0:2,0:0:0:0:
438,300,93439,1,8,0:2:0:0:
491,220,93706,6,0,L|482:128,1,85.4999977169037,2|0,0:2|3:2,0:0:0:0:
475,49,94242,2,0,B|445:46|423:71|423:71|369:74,1,85.4999977169037,2|8,0:2|0:2,0:0:0:0:
314,97,94778,2,0,B|345:129|345:129|336:168,1,85.4999977169037,2|0,0:2|3:2,0:0:0:0:
382,257,95314,1,8,0:2:0:0:
470,222,95581,1,10,0:2:0:0:
505,310,95849,1,10,0:2:0:0:
425,359,96117,6,0,B|357:343|357:343|334:349,1,85.4999977169037,6|0,3:2|0:0,0:0:0:0:
256,304,96653,1,10,0:2:0:0:
173,349,96921,2,0,P|171:302|153:241,1,85.4999977169037,2|0,0:2|3:2,0:0:0:0:
74,231,97456,1,10,0:2:0:0:
94,139,97723,1,8,0:2:0:0:
44,58,97992,1,2,0:2:0:0:
136,72,98260,6,0,B|195:77|162:97|238:102,1,85.4999977169037,2|0,3:2|0:0,0:0:0:0:
281,167,98796,2,0,B|320:174|341:158|341:158|378:162,1,85.4999977169037,10|2,0:2|0:2,0:0:0:0:
449,199,99331,2,0,B|436:220|436:220|446:237|446:237|435:257|437:286,1,85.4999977169037,0|10,3:2|0:2,0:0:0:0:
472,363,99867,1,10,0:2:0:0:
379,344,100135,1,2,0:2:0:0:
293,304,100403,6,0,P|314:153|321:119,1,170.999995433807,6|10,3:2|0:2,0:0:0:0:
358,50,101206,1,2,0:2:0:0:
267,74,101474,2,0,P|189:78|174:55,1,85.4999977169037,0|10,3:2|0:2,0:0:0:0:
107,32,102010,2,0,P|29:28|14:51,1,85.4999977169037,8|2,0:2|0:2,0:0:0:0:
5,118,102546,5,10,3:2:0:0:
87,126,102813,1,10,3:2:0:0:
132,196,103081,1,8,3:2:0:0:
108,275,103349,1,10,3:2:0:0:
31,306,103617,2,0,P|77:318|97:351,1,85.4999977169037,8|8,3:2|0:2,0:0:0:0:
117,360,104019,1,8,0:2:0:0:
139,356,104153,2,0,L|191:355,1,42.7499988584519,10|10,0:2|0:2,0:0:0:0:
206,340,104421,2,0,P|209:308|212:285,1,42.7499988584519,8|10,0:2|0:2,0:0:0:0:
245,270,104689,6,0,B|281:284|281:284|343:257,1,94.499997116089,4|2,3:2|0:2,0:0:0:0:
435,216,105224,2,0,P|450:251|471:218,1,94.499997116089,10|0,0:2|0:0,0:0:0:0:
501,188,105626,2,0,B|494:156|461:141|461:141|522:50,1,141.749995674133,2|2,0:2|3:2,0:0:0:0:
437,23,106296,1,8,0:2:0:0:
339,71,106564,2,0,P|314:61|275:60,1,47.2499985580445,2|0,0:2|0:0,0:0:0:0:
263,81,106831,5,2,3:2:0:0:
300,189,107099,1,2,0:2:0:0:
192,226,107367,1,10,0:2:0:0:
155,118,107635,2,0,B|152:81|110:66|110:66|78:98|67:146|109:188,1,188.999994232178,2|2,0:2|0:2,0:0:0:0:
50,232,108439,1,10,0:2:0:0:
123,334,108706,1,8,0:2:0:0:
123,334,108840,1,10,0:2:0:0:
123,334,108974,6,0,L|227:316,1,94.499997116089,4|2,3:2|0:2,0:0:0:0:
334,344,109510,2,0,B|302:310|302:310|315:287|304:264,1,94.499997116089,10|0,0:2|0:0,0:0:0:0:
324,231,109912,2,0,B|379:266|436:239|436:239|420:189,1,141.749995674133,2|2,0:2|0:2,0:0:0:0:
493,161,110581,1,8,0:2:0:0:
429,68,110849,2,0,P|411:83|388:87,1,47.2499985580445,2|0,0:2|0:0,0:0:0:0:
355,68,111117,5,2,3:2:0:0:
294,140,111385,1,2,0:2:0:0:
206,104,111653,1,10,0:2:0:0:
213,9,111921,1,2,0:2:0:0:
129,26,112189,6,0,B|98:13|98:13|20:36,1,94.499997116089,0|2,3:2|0:2,0:0:0:0:
6,122,112724,1,10,0:2:0:0:
6,122,112858,2,0,B|14:148|-3:173|-3:173|56:209,1,94.499997116089,2|2,0:2|0:2,0:0:0:0:
78,184,113260,6,0,B|63:277,1,94.499997116089,4|2,3:2|0:2,0:0:0:0:
6,370,113796,1,10,0:2:0:0:
6,370,113930,2,0,P|47:355|98:368,1,94.499997116089,2|2,0:2|0:2,0:0:0:0:
141,355,114331,2,0,P|184:373|228:361,1,94.499997116089,0|2,3:2|3:2,0:0:0:0:
297,293,114867,1,8,0:2:0:0:
247,215,115135,1,2,0:2:0:0:
351,165,115403,5,2,3:2:0:0:
307,64,115671,1,2,0:2:0:0:
408,20,115939,1,10,0:2:0:0:
452,121,116207,1,2,0:2:0:0:
370,173,116474,2,0,B|379:213|379:213|364:240|364:291,1,94.499997116089,0|2,3:2|0:2,0:0:0:0:
332,341,117010,1,10,0:2:0:0:
332,341,117144,2,0,P|263:335|222:331,1,94.499997116089,2|2,0:2|0:2,0:0:0:0:
214,291,117546,6,0,B|179:276|179:276|104:301,1,94.499997116089,4|2,3:2|0:2,0:0:0:0:
35,265,118081,2,0,P|26:199|62:153,1,94.499997116089,8|2,0:2|0:2,0:0:0:0:
116,122,118617,2,0,P|177:114|237:109,1,94.499997116089,0|2,3:2|0:2,0:0:0:0:
289,59,119153,2,0,B|292:93|303:104|303:104|288:120|289:174,1,94.499997116089,8|2,0:2|0:2,0:0:0:0:
247,232,119689,5,0,3:2:0:0:
317,291,119956,1,2,3:2:0:0:
411,285,120224,2,0,B|446:275|458:244|458:244|492:224,1,94.499997116089,12|0,0:2|0:0,0:0:0:0:
505,186,120626,1,8,0:2:0:0:
505,186,120760,1,4,3:2:0:0:
439,112,121028,1,8,0:2:0:0:
439,112,121161,1,8,0:2:0:0:
439,112,121296,2,0,L|378:101,1,47.2499985580445,10|10,0:2|0:2,0:0:0:0:
356,126,121564,2,0,P|345:151|343:185,1,47.2499985580445,8|10,0:2|0:2,0:0:0:0:
375,197,121831,6,0,B|390:240|390:240|376:260|376:293,1,94.499997116089,4|2,3:2|0:2,0:0:0:0:
337,373,122367,2,0,P|291:377|256:347,1,94.499997116089,10|0,0:2|0:0,0:0:0:0:
219,336,122769,2,0,B|198:335|179:348|179:348|193:249,1,141.749995674133,2|2,0:2|3:2,0:0:0:0:
173,153,123439,1,8,0:2:0:0:
107,231,123706,2,0,P|87:217|62:214,1,47.2499985580445,2|0,0:2|0:0,0:0:0:0:
32,235,123974,5,2,3:2:0:0:
3,135,124242,1,2,0:2:0:0:
103,106,124510,1,10,0:2:0:0:
132,206,124778,2,0,B|98:185|98:185|124:130|180:145|180:145|198:166|223:165,1,188.999994232178,2|2,0:2|0:2,0:0:0:0:
273,96,125581,1,10,0:2:0:0:
349,179,125849,1,8,0:2:0:0:
349,179,125983,1,10,0:2:0:0:
349,179,126117,6,0,B|356:215|331:240|331:240|337:290,1,94.499997116089,4|2,3:2|0:2,0:0:0:0:
425,318,126653,2,0,P|451:346|413:353,1,94.499997116089,10|0,0:2|0:0,0:0:0:0:
380,346,127055,2,0,B|355:350|341:372|341:372|313:370|294:348|294:348|225:358,1,141.749995674133,2|2,0:2|0:2,0:0:0:0:
161,368,127724,1,8,0:2:0:0:
185,276,127992,2,0,P|191:253|187:230,1,47.2499985580445,2|0,0:2|0:0,0:0:0:0:
154,210,128260,5,2,3:2:0:0:
52,233,128528,1,2,0:2:0:0:
29,131,128796,1,10,0:2:0:0:
132,108,129064,2,0,B|160:119|196:110|196:110|219:78|207:46|207:46|232:64|264:55,1,188.999994232178,2|2,0:2|0:2,0:0:0:0:
354,26,129867,1,10,0:2:0:0:
354,26,130001,1,10,0:2:0:0:
354,26,130135,2,0,P|355:57|368:98,1,47.2499985580445,8|2,0:2|0:2,0:0:0:0:
399,96,130403,6,0,P|389:150|386:193,1,94.499997116089,4|2,3:2|0:2,0:0:0:0:
432,276,130939,1,10,0:2:0:0:
432,276,131072,2,0,B|356:261|356:261|319:274,1,94.499997116089,2|2,0:2|0:2,0:0:0:0:
306,300,131474,2,0,B|266:300|230:315|230:315|193:302,1,94.499997116089,0|2,3:2|3:2,0:0:0:0:
155,235,132010,1,8,0:2:0:0:
75,286,132278,1,2,0:2:0:0:
80,144,132546,5,2,3:2:0:0:
148,78,132814,2,0,B|174:104|174:137|174:137|192:110|222:86,1,94.499997116089,2|10,0:2|0:2,0:0:0:0:
279,80,133349,2,0,B|323:66|371:77|371:77|362:135|420:154,1,188.999994232178,2|2,0:2|0:2,0:0:0:0:
471,228,134153,1,10,0:2:0:0:
342,287,134421,1,8,0:2:0:0:
342,287,134555,1,10,0:2:0:0:
342,287,134689,6,0,B|332:240|332:240|346:193,1,94.499997116089,4|2,3:2|0:2,0:0:0:0:
419,254,135224,1,8,0:2:0:0:
419,254,135492,1,2,0:2:0:0:
389,343,135760,2,0,B|369:358|342:353|342:353|317:357|295:339,1,94.499997116089,0|2,3:2|0:2,0:0:0:0:
256,256,136296,1,8,0:2:0:0:
212,342,136564,1,2,0:2:0:0:
94,264,136831,5,2,3:2:0:0:
94,264,136965,1,2,3:2:0:0:
94,264,137099,1,12,0:2:0:0:
156,192,137367,2,0,P|212:198|248:171,1,94.499997116089,8|0,0:2|0:0,0:0:0:0:
253,161,137769,1,8,0:2:0:0:
269,144,137903,6,0,P|325:138|361:165,1,94.499997116089,4|8,3:2|0:2,0:0:0:0:
364,174,138305,1,8,0:2:0:0:
368,193,138439,2,0,L|362:246,3,47.2499985580445,10|8|8|8,0:2|0:2|0:2|0:2,0:0:0:0:
378,274,138974,5,6,3:2:0:0:
307,337,139242,1,2,0:2:0:0:
244,266,139510,1,10,0:2:0:0:
312,197,139778,2,0,B|282:207|282:207|246:184|206:205|206:205|179:193,1,141.749995674133,2|0,0:2|0:0,0:0:0:0:
166,161,140314,5,2,0:2:0:0:
110,70,140581,1,10,0:2:0:0:
13,113,140849,2,0,B|9:144|33:164|33:164|17:255,1,141.749995674133,2|0,0:2|0:0,0:0:0:0:
32,277,141385,1,2,0:2:0:0:
95,318,141653,1,10,0:2:0:0:
192,266,141921,6,0,B|270:280|270:280|309:264,1,94.499997116089,2|0,0:2|3:2,0:0:0:0:
352,242,142456,1,2,0:2:0:0:
412,287,142724,1,10,0:2:0:0:
490,224,142992,1,2,3:2:0:0:
429,142,143260,6,0,B|410:79|444:46,1,94.499997116089,6|0,3:2|0:0,0:0:0:0:
362,12,143796,1,10,0:2:0:0:
289,86,144064,2,0,B|251:82|251:82|234:90|234:90|187:86,1,94.499997116089,2|0,0:2|3:2,0:0:0:0:
150,27,144599,5,2,0:2:0:0:
57,49,144867,1,8,0:2:0:0:
79,141,145135,1,2,0:2:0:0:
197,157,145403,6,0,B|192:201|192:201|199:233|177:254,1,94.499997116089,2|2,3:2|0:2,0:0:0:0:
112,278,145939,1,10,0:2:0:0:
176,350,146206,2,0,B|221:366|221:366|260:341,1,94.499997116089,2|0,0:2|3:2,0:0:0:0:
323,260,146742,2,0,B|373:260|396:275|401:297,2,94.499997116089,2|10|2,3:2|0:2|3:2,0:0:0:0:
211,243,147546,6,0,B|120:249|108:169|108:169|163:129,1,188.999994232178,6|8,3:2|0:2,0:0:0:0:
256,128,148349,1,2,0:2:0:0:
366,141,148617,2,0,B|404:169|404:169|392:249|301:243,1,188.999994232178,2|10,3:2|0:2,0:0:0:0:
256,336,149421,1,2,0:2:0:0:
163,317,149689,6,0,B|127:307|127:307|51:325,1,94.499997116089,0|2,3:2|0:2,0:0:0:0:
9,248,150224,2,0,P|58:227|31:184,1,94.499997116089,8|2,0:2|0:2,0:0:0:0:
13,108,150760,2,0,B|65:117|82:93|133:113,1,94.499997116089,0|2,3:2|3:2,0:0:0:0:
181,47,151296,1,10,0:2:0:0:
172,141,151564,1,2,3:2:0:0:
261,111,151831,6,0,B|313:109|313:109|378:134|431:127|431:127|477:101,1,188.999994232178,6|8,3:2|0:2,0:0:0:0:
496,192,152635,1,2,0:2:0:0:
445,265,152903,2,0,B|431:257|431:257|378:250|313:275|313:275|261:273,1,188.999994232178,2|10,3:2|0:2,0:0:0:0:
256,192,153706,1,2,0:2:0:0:
198,117,153974,5,0,3:2:0:0:
117,79,154241,1,2,0:2:0:0:
54,142,154509,1,12,0:2:0:0:
90,223,154777,1,2,0:2:0:0:
184,209,155046,6,0,P|185:159|198:115,1,94.499997116089,4|8,3:2|0:2,0:0:0:0:
213,105,155447,1,8,0:2:0:0:
231,96,155581,2,0,L|282:92,1,47.2499985580445,10|8,0:2|0:2,0:0:0:0:
296,104,155849,2,0,L|347:100,1,47.2499985580445,8|8,0:2|0:2,0:0:0:0:
378,114,156117,6,0,B|400:101|400:75|400:75|442:50,2,94.499997116089,6|2|14,3:2|0:2|0:2,0:0:0:0:
347,193,156921,2,0,B|346:230|369:249|369:249|410:254|417:296|417:296|392:315|392:349,1,188.999994232178,2|2,0:2|0:2,0:0:0:0:
316,380,157724,1,10,0:2:0:0:
240,306,157992,6,0,B|163:294|163:294|151:326|114:330,1,141.749995674133,2|0,0:2|0:0,0:0:0:0:
82,310,158528,1,2,0:2:0:0:
122,214,158796,1,10,0:2:0:0:
45,182,159064,2,0,P|96:178|116:127,1,94.499997116089,2|0,0:2|3:2,0:0:0:0:
131,61,159599,2,0,B|103:52|77:67|77:67|39:57,2,94.499997116089,2|10|2,3:2|0:2|3:2,0:0:0:0:
253,24,160403,5,4,3:2:0:0:
285,102,160671,1,2,0:2:0:0:
363,70,160939,1,10,0:2:0:0:
451,118,161206,2,0,B|446:155|446:155|449:169|449:169|440:232,1,94.499997116089,2|0,0:2|3:2,0:0:0:0:
342,287,161742,2,0,B|393:272|393:272|411:288|432:285,2,94.499997116089,2|8|2,0:2|0:2|0:2,0:0:0:0:
259,367,162546,5,2,3:2:0:0:
174,356,162814,1,2,0:2:0:0:
89,345,163081,1,10,0:2:0:0:
13,380,163349,2,0,P|42:344|40:297,1,94.499997116089,2|0,0:2|3:2,0:0:0:0:
130,235,163885,2,0,B|77:222|77:222|61:206|58:187,2,94.499997116089,2|10|2,3:2|0:2|3:2,0:0:0:0:
193,291,164689,6,0,B|249:295|277:265|277:265|336:275|362:320,1,188.999994232178,6|8,3:2|0:2,0:0:0:0:
434,276,165492,1,2,0:2:0:0:
457,194,165760,2,0,B|401:190|373:220|373:220|314:210|288:165,1,188.999994232178,2|10,3:2|0:2,0:0:0:0:
304,86,166564,6,0,B|265:81|223:92|223:92|185:158|223:227,1,188.999994232178,2|2,0:2|0:2,0:0:0:0:
256,272,167367,1,8,0:2:0:0:
192,336,167635,1,2,0:2:0:0:
116,296,167903,2,0,B|80:286|55:298|55:298|40:260,1,94.499997116089,0|2,3:2|3:2,0:0:0:0:
5,191,168439,1,10,0:2:0:0:
41,108,168706,1,2,3:2:0:0:
50,101,168840,1,2,3:2:0:0:
59,94,168974,5,14,0:2:0:0:
39,14,169242,1,0,3:2:0:0:
144,89,169510,1,10,0:2:0:0:
124,169,169778,1,2,3:2:0:0:
176,230,170046,2,0,P|202:191|196:138,1,94.499997116089,10|0,0:2|3:2,0:0:0:0:
270,90,170581,2,0,P|330:96|349:93,1,47.2499985580445,10|8,0:2|0:2,0:0:0:0:
332,69,170849,2,0,P|392:63|411:66,1,47.2499985580445,8|8,0:2|0:2,0:0:0:0:
411,90,171117,6,0,P|491:97|514:102,1,94.499997116089,12|0,0:2|0:0,0:0:0:0:
462,186,171653,1,10,3:2:0:0:
480,266,171921,1,10,3:2:0:0:
350,329,172189,5,10,3:2:0:0:
370,231,172457,1,10,3:2:0:0:
274,210,172724,1,10,3:2:0:0:
252,307,172992,1,10,3:2:0:0:
176,192,173260,5,0,0:0:0:0:
8,344,189867,6,0,B|40:327|40:327|74:336,1,72,2|0,0:2|0:0,0:0:0:0:
157,311,190403,2,0,B|190:313|209:289|214:263|214:263|181:222,1,108,2|0,0:2|0:0,0:0:0:0:
219,207,190939,2,0,B|245:206|263:184|263:184|337:231,2,108,2|2|2,0:2|0:2|0:2,0:0:0:0:
124,18,192278,1,2,0:2:0:0:
65,71,192546,6,0,L|74:169,1,72,2|2,0:2|0:2,0:0:0:0:
29,209,193081,1,2,0:2:0:0:
137,256,193349,2,0,B|167:283|212:265|194:247|237:232|275:258,1,144,2|0,0:2|0:0,0:0:0:0:
380,281,194153,2,0,B|345:252|345:252|343:221,1,72,2|0,0:2|0:0,0:0:0:0:
363,190,194555,6,0,B|393:182|416:200|416:200|464:181,1,108,2|2,0:2|0:2,0:0:0:0:
482,93,195224,2,0,P|497:62|481:23,1,72,2|0,0:2|0:0,0:0:0:0:
451,10,195626,2,0,B|379:28|379:28|333:9,1,108,2|2,0:2|0:2,0:0:0:0:
214,81,196564,1,2,0:2:0:0:
153,120,196831,6,0,B|146:155|146:155|160:188,1,72,2|2,0:2|0:2,0:0:0:0:
219,231,197367,1,2,0:2:0:0:
112,316,197635,2,0,B|61:337|26:303|26:303|7:255,1,144,2|0,0:2|0:0,0:0:0:0:
24,158,198439,2,0,P|58:154|71:122,1,72,2|0,0:2|0:0,0:0:0:0:
47,86,198840,1,2,0:2:0:0:
47,86,198974,6,0,P|100:75|129:70,1,72,2|2,0:2|0:2,0:0:0:0:
187,122,199510,1,2,0:2:0:0:
187,122,199644,2,0,P|240:133|269:138,1,72,2|2,0:2|0:2,0:0:0:0:
292,109,200046,2,0,P|321:122|304:158,1,72,0|2,0:0|0:2,0:0:0:0:
249,218,200581,1,0,0:0:0:0:
237,296,200849,1,2,0:2:0:0:
315,308,201117,5,2,0:2:0:0:
384,263,201385,2,0,P|431:258|474:260,1,72,2|2,0:2|0:2,0:0:0:0:
501,170,201921,2,0,B|466:172|446:180|446:180|398:164|380:161,1,108,2|0,0:2|0:0,0:0:0:0:
360,158,202456,1,10,3:2:0:0:
277,195,202724,2,0,B|230:201|230:201|183:196,1,72,10|0,3:2|3:2,0:0:0:0:
187,188,203126,1,2,3:2:0:0:
172,178,203260,5,14,0:2:0:0:
138,95,203528,1,14,0:2:0:0:
223,119,203796,1,0,3:2:0:0:
100,161,204064,1,14,0:2:0:0:
87,45,204331,2,0,P|124:26|166:33,1,85.4999977169037,14|0,0:2|0:0,0:0:0:0:
180,41,204733,1,8,0:2:0:0:
200,49,204867,2,0,L|248:38,1,42.7499988584519,10|8,0:2|0:2,0:0:0:0:
257,46,205135,2,0,L|305:57,1,42.7499988584519,8|8,0:2|0:2,0:0:0:0:
317,43,205403,6,0,B|303:88|303:88|311:139,1,85.4999977169037,12|10,0:2|3:2,0:0:0:0:
345,244,205939,1,10,3:2:0:0:
449,190,206206,1,10,3:2:0:0:
413,314,206474,1,10,3:2:0:0:
309,260,206741,1,10,3:2:0:0:
221,349,207010,2,0,L|215:305,1,42.7499988584519,10|10,0:2|0:2,0:0:0:0:
194,289,207278,2,0,L|200:245,1,42.7499988584519,8|10,0:2|0:2,0:0:0:0:
174,210,207546,6,0,B|125:222|125:222|86:192,1,94.499997116089,4|2,3:2|0:2,0:0:0:0:
8,75,208081,2,0,P|17:113|48:88,1,94.499997116089,10|0,0:2|0:0,0:0:0:0:
79,52,208483,2,0,B|124:60|147:28|147:28|235:56,1,141.749995674133,2|2,0:2|0:2,0:0:0:0:
287,14,209153,1,8,0:2:0:0:
384,77,209421,2,0,P|392:97|392:143,1,47.2499985580445,2|0,0:2|0:0,0:0:0:0:
354,145,209689,5,2,3:2:0:0:
228,127,209956,1,2,0:2:0:0:
212,251,210224,1,10,0:2:0:0:
336,269,210492,2,0,B|365:272|386:257|386:257|375:290|403:318|403:318|446:321|461:279,1,188.999994232178,2|2,0:2|0:2,0:0:0:0:
462,166,211296,1,10,0:2:0:0:
346,194,211564,1,8,0:0:0:0:
346,194,211697,1,10,0:0:0:0:
346,194,211831,6,0,B|324:171|324:171|337:101,1,94.499997116089,4|2,3:2|0:2,0:0:0:0:
241,19,212367,2,0,B|202:38|202:38|146:24,1,94.499997116089,10|0,0:2|0:0,0:0:0:0:
116,44,212769,2,0,B|92:69|104:106|104:106|142:130|128:170,1,141.749995674133,2|2,0:2|0:2,0:0:0:0:
38,240,213439,1,8,0:2:0:0:
97,343,213706,2,0,P|115:328|138:323,1,47.2499985580445,2|0,0:2|0:0,0:0:0:0:
173,330,213974,5,2,3:2:0:0:
270,364,214242,1,2,0:2:0:0:
332,282,214510,1,10,0:2:0:0:
273,197,214778,2,0,B|246:201|229:220|229:220|204:206|196:184|196:184|207:156|188:121,1,141.749995674133,2|0,0:2|0:0,0:0:0:0:
161,124,215314,1,2,0:2:0:0:
46,148,215581,1,10,0:2:0:0:
23,40,215849,1,8,0:2:0:0:
23,40,215983,1,10,0:2:0:0:
23,40,216117,6,0,P|94:30|135:28,1,94.499997116089,4|2,3:2|0:2,0:0:0:0:
226,80,216653,1,10,0:2:0:0:
226,80,216787,2,0,B|264:81|294:92|294:92|319:74,1,94.499997116089,2|2,0:2|0:2,0:0:0:0:
365,68,217189,2,0,P|342:120|373:135,1,94.499997116089,0|2,3:2|0:2,0:0:0:0:
467,122,217724,1,8,0:2:0:0:
435,215,217992,1,2,0:2:0:0:
435,215,218126,1,2,0:2:0:0:
435,215,218260,6,0,B|397:234|357:231|357:231|371:274,1,94.499997116089,2|2,3:2|0:2,0:0:0:0:
293,323,218796,1,10,0:2:0:0:
224,244,219064,2,0,B|248:204|219:173|219:173|198:203,1,94.499997116089,2|0,0:2|3:2,0:0:0:0:
143,283,219599,1,2,0:2:0:0:
22,264,219867,1,8,0:2:0:0:
6,150,220135,1,10,0:2:0:0:
6,150,220269,1,8,0:2:0:0:
6,150,220403,6,0,B|52:147|52:147|88:115,1,94.499997116089,6|2,3:2|0:2,0:0:0:0:
203,100,220939,1,8,0:2:0:0:
299,174,221206,1,2,0:2:0:0:
372,76,221474,1,0,3:2:0:0:
275,3,221742,1,2,0:2:0:0:
187,92,222010,2,0,L|187:197,1,94.499997116089,8|2,0:2|0:2,0:0:0:0:
327,189,222546,6,0,L|327:294,1,94.499997116089,4|2,3:2|3:2,0:0:0:0:
276,365,223081,1,8,0:2:0:0:
399,374,223349,1,2,0:2:0:0:
399,374,223483,1,10,0:2:0:0:
399,374,223617,1,2,3:2:0:0:
479,289,223885,2,0,L|490:242,1,47.2499985580445,8|8,0:2|0:2,0:0:0:0:
473,225,224153,2,0,L|462:178,1,47.2499985580445,10|10,0:2|0:2,0:0:0:0:
476,157,224421,2,0,L|487:110,1,47.2499985580445,8|10,0:2|0:2,0:0:0:0:
469,77,224689,6,0,B|421:49|370:72|376:112|321:129|273:91|273:91|309:100|337:79,1,270.000010299683,6|2,3:2|0:2,0:0:0:0:
187,37,226296,1,2,0:2:0:0:
70,128,226831,2,0,B|48:175|89:218|89:218|133:213|160:181|160:181|193:187|207:209|205:247,1,270.000010299683,2|2,0:2|0:2,0:0:0:0:
229,337,228171,1,2,0:2:0:0:
304,366,228439,1,2,0:2:0:0:
334,290,228706,1,2,0:2:0:0:
