osu file format v14

[General]
AudioFilename: HEUHEUHEUHUE.mp3
AudioLeadIn: 0
PreviewTime: 59397
Countdown: 0
SampleSet: Soft
StackLeniency: 0.4
Mode: 0
LetterboxInBreaks: 0
WidescreenStoryboard: 1

[Editor]
Bookmarks: 23403,41689,50832,55403,59975,96546,114832,206211,206783
DistanceSpacing: 1
BeatDivisor: 4
GridSize: 16
TimelineZoom: 1.9

[Metadata]
Title:MINORS (Cut Ver.)
TitleUnicode:MINORS (Cut Ver.)
Artist:MY FIRST STORY
ArtistUnicode:MY FIRST STORY
Creator:Rosiie
Version:door weapon's Normal
Source:
Tags:1,000,000 1000000 million times jrock j-rock japanese rock short version male vocalist A_r_M_i_N Armin Stixy Door Weapon Hivie
BeatmapID:2522082
BeatmapSetID:1206933

[Difficulty]
HPDrainRate:4
CircleSize:3.2
OverallDifficulty:4
ApproachRate:5.5
SliderMultiplier:2
SliderTickRate:1

[Events]
//Background and Video events
0,0,"bg.jpg",0,0
//Break Periods
//Storyboard Layer 0 (Background)
//Storyboard Layer 1 (Fail)
//Storyboard Layer 2 (Pass)
//Storyboard Layer 3 (Foreground)
//Storyboard Layer 4 (Overlay)
//Storyboard Sound Samples

[TimingPoints]
5112,571.428571428571,4,2,1,100,1,0
23397,-111.111111111111,4,2,1,80,0,0
41683,-111.111111111111,4,2,1,75,0,0
55397,-111.111111111111,4,2,1,80,0,0
56540,-111.111111111111,4,2,1,85,0,0
57683,-111.111111111111,4,2,1,75,0,0
59969,-100,4,2,1,100,0,0
96540,-100,4,2,1,60,0,0

[Colours]
Combo1 : 255,128,255
Combo2 : 255,94,94
Combo3 : 128,128,255

[HitObjects]
98,348,23397,6,0,L|91:259,1,89.9999972534181,6|2,1:2|0:0,0:0:0:0:
41,182,23969,2,0,L|48:93,1,89.9999972534181,10|2,0:0|0:0,0:0:0:0:
76,57,24397,2,0,B|162:46|131:101|209:101,1,134.999995880127,2|0,0:0|0:0,0:0:0:0:
288,79,25111,1,8,0:0:0:0:
288,79,25254,2,0,P|294:52|300:32,2,44.999998626709,2|2|2,0:0|0:0|0:0,0:0:0:0:
309,119,25683,6,0,P|330:166|312:217,1,89.9999972534181,2|2,1:2|0:0,0:0:0:0:
300,290,26254,1,10,0:0:0:0:
300,290,26397,2,0,P|273:279|245:273,1,44.999998626709,2|0,1:2|0:0,0:0:0:0:
218,252,26683,2,0,B|161:255|161:255|139:275|139:275|78:283,1,134.999995880127,2|0,1:2|0:0,0:0:0:0:
5,252,27397,1,8,0:0:0:0:
45,171,27683,1,2,0:0:0:0:
11,87,27969,6,0,P|67:73|102:61,1,89.9999972534181,2|2,1:2|0:0,0:0:0:0:
146,73,28397,1,0,0:0:0:0:
146,73,28540,2,0,P|172:73|199:83,1,44.999998626709,10|2,0:0|0:0,0:0:0:0:
253,143,28969,2,0,P|303:152|361:92,1,134.999995880127,2|2,1:2|0:0,0:0:0:0:
428,38,29683,1,10,0:0:0:0:
493,99,29969,2,0,P|487:121|480:147,1,44.999998626709,2|2,0:0|0:0,0:0:0:0:
462,183,30254,6,0,B|466:245|469:298|469:298|442:283|404:292,1,179.999994506836,0|8,1:2|0:0,0:0:0:0:
371,320,30969,1,0,1:2:0:0:
305,258,31254,2,0,P|227:246|196:296,1,134.999995880127,2|0,1:2|0:0,0:0:0:0:
140,356,31969,1,8,0:0:0:0:
140,356,32111,2,0,L|90:345,2,44.999998626709,2|2|2,0:0|0:0|0:0,0:0:0:0:
179,378,32540,6,0,B|225:362|225:362|274:385,1,89.9999972534181,6|2,1:2|0:0,0:0:0:0:
340,334,33111,2,0,B|386:350|386:350|435:327,1,89.9999972534181,10|2,0:0|0:0,0:0:0:0:
455,300,33540,2,0,P|425:229|458:174,1,134.999995880127,2|0,1:2|0:0,0:0:0:0:
446,95,34254,1,8,0:0:0:0:
446,95,34397,2,0,P|457:65|463:46,2,44.999998626709,2|2|2,0:0|0:0|0:0,0:0:0:0:
401,101,34826,6,0,P|356:81|297:87,1,89.9999972534181,2|2,1:2|0:0,0:0:0:0:
249,141,35397,1,10,0:0:0:0:
249,141,35540,2,0,L|252:190,1,44.999998626709,2|0,1:2|0:0,0:0:0:0:
260,230,35826,2,0,P|203:197|140:215,1,134.999995880127,2|0,1:2|0:0,0:0:0:0:
71,272,36540,1,8,0:0:0:0:
71,272,36683,2,0,L|78:321,2,44.999998626709,2|2|2,0:0|0:0|0:0,0:0:0:0:
44,235,37111,6,0,B|24:189|24:189|43:147,1,89.9999972534181,2|2,1:2|0:0,0:0:0:0:
69,120,37540,1,2,0:0:0:0:
69,120,37683,2,0,L|60:72,1,44.999998626709,8|2,0:0|0:0,0:0:0:0:
135,26,38111,2,0,B|172:56|172:56|264:39,1,134.999995880127,2|2,1:2|1:2,0:0:0:0:
343,12,38826,1,10,0:0:0:0:
418,60,39111,2,0,P|411:93|407:117,1,44.999998626709,2|2,0:0|0:0,0:0:0:0:
402,149,39397,6,0,B|301:127|301:127|282:172|228:177,1,179.999994506836,0|8,1:2|0:0,0:0:0:0:
200,163,40111,1,0,1:2:0:0:
118,123,40397,2,0,B|72:108|72:108|25:139,1,89.9999972534181,2|0,1:2|1:2,0:0:0:0:
10,167,40826,2,0,L|15:220,1,44.999998626709,8|8,0:0|0:0,0:0:0:0:
46,242,41111,2,0,L|41:295,1,44.999998626709,8|8,2:3|2:3,0:0:0:0:
24,328,41397,1,8,2:3:0:0:
107,361,41683,6,0,P|155:342|204:341,1,89.9999972534181,4|2,1:2|0:0,0:0:0:0:
281,320,42254,1,2,1:2:0:0:
281,320,42397,2,0,P|272:268|272:218,1,89.9999972534181,2|2,0:0|0:0,0:0:0:0:
207,167,42969,2,0,P|220:115|224:66,1,89.9999972534181,2|0,0:0|0:0,0:0:0:0:
209,35,43397,1,2,1:2:0:0:
296,14,43683,1,2,0:0:0:0:
365,71,43969,6,0,P|420:52|465:65,1,89.9999972534181,2|2,1:2|0:0,0:0:0:0:
480,90,44397,1,2,0:0:0:0:
511,174,44683,1,2,0:0:0:0:
451,241,44969,2,0,B|408:231|408:231|389:234|389:234|344:223,1,89.9999972534181,2|0,1:2|1:2,0:0:0:0:
323,205,45397,1,0,1:2:0:0:
146,239,45969,1,2,0:0:0:0:
62,207,46254,6,0,B|43:250|43:250|58:294,1,89.9999972534181,6|2,1:2|0:0,0:0:0:0:
48,335,46683,1,2,0:0:0:0:
134,360,46969,2,0,L|224:349,1,89.9999972534181,2|2,0:0|0:0,0:0:0:0:
266,334,47398,1,0,1:2:0:0:
422,246,47969,2,0,L|490:257,2,59.9999981689454,2|2|2,1:2|0:0|0:0,0:0:0:0:
382,200,48540,6,0,B|368:102|445:124|419:23,2,179.999994506836,0|0|0,1:2|1:2|1:2,0:0:0:0:
355,335,50111,1,8,2:3:0:0:
355,335,50254,2,0,P|319:323|300:319,1,44.999998626709,10|8,2:3|2:3,0:0:0:0:
269,306,50540,2,0,P|247:311|226:319,1,44.999998626709,10|10,2:3|2:3,0:0:0:0:
181,325,50826,6,0,P|165:283|176:240,1,89.9999972534181,6|2,1:2|0:0,0:0:0:0:
243,181,51397,2,0,P|251:137|232:97,1,89.9999972534181,8|2,0:0|0:0,0:0:0:0:
199,65,51826,1,2,0:0:0:0:
117,26,52111,2,0,P|67:43|21:45,1,89.9999972534181,10|0,0:0|0:0,0:0:0:0:
7,84,52540,2,0,L|20:190,1,89.9999972534181,10|2,0:0|0:0,0:0:0:0:
51,256,53111,6,0,P|129:248|152:275,1,89.9999972534181,2|2,1:2|0:0,0:0:0:0:
162,293,53540,1,2,0:0:0:0:
162,293,53683,2,0,L|221:285,1,44.999998626709,8|2,0:0|0:0,0:0:0:0:
283,334,54111,2,0,L|327:341,1,44.999998626709,0|2,0:0|1:2,0:0:0:0:
371,328,54397,2,0,B|388:281|388:281|361:226,1,89.9999972534181,8|0,0:0|0:0,0:0:0:0:
339,212,54826,1,8,0:0:0:0:
394,141,55111,1,2,0:0:0:0:
350,62,55397,6,0,P|306:53|258:48,1,89.9999972534181,6|2,1:2|1:2,0:0:0:0:
217,59,55826,1,0,0:0:0:0:
140,12,56111,1,2,0:0:0:0:
75,74,56397,1,0,0:0:0:0:
75,74,56540,2,0,L|66:118,1,44.999998626709,2|8,1:2|1:2,0:0:0:0:
46,158,56826,2,0,L|51:202,1,44.999998626709,8|8,1:2|1:2,0:0:0:0:
83,233,57111,1,10,1:2:0:0:
165,196,57397,1,10,1:2:0:0:
254,237,57683,5,6,1:2:0:0:
254,237,57826,2,0,L|354:222,1,89.9999972534181,8|2,0:0|1:2,0:0:0:0:
378,251,58254,1,8,0:0:0:0:
421,329,58540,1,0,1:2:0:0:
337,363,58826,2,0,L|292:357,1,44.999998626709,8|8,0:0|0:0,0:0:0:0:
255,331,59111,2,0,L|191:339,1,44.999998626709,8|8,0:0|0:0,0:0:0:0:
173,363,59397,1,2,0:0:0:0:
22,230,59969,6,0,B|17:169|63:134|63:134|80:157|118:163,1,150,6|0,1:2|1:2,0:0:0:0:
145,156,60540,1,10,0:0:0:0:
240,127,60826,1,6,1:2:0:0:
321,184,61111,2,0,B|365:196|365:196|381:209|381:209|430:222,1,100,2|2,0:0|0:0,0:0:0:0:
460,198,61540,2,0,L|449:88,1,100,2|2,0:0|0:0,0:0:0:0:
377,38,62111,1,2,0:0:0:0:
377,38,62254,6,0,B|311:15|311:15|284:64|223:56,1,150,6|0,1:2|1:2,0:0:0:0:
197,47,62826,1,10,0:0:0:0:
104,10,63111,1,6,1:2:0:0:
29,77,63397,2,0,P|7:120|22:166,1,100,2|2,0:0|0:0,0:0:0:0:
58,202,63826,2,0,L|170:188,1,100,2|2,0:0|0:0,0:0:0:0:
241,133,64397,1,2,0:0:0:0:
241,133,64540,6,0,B|254:88|330:72|374:151|323:230,1,200,4|8,1:2|0:0,0:0:0:0:
402,281,65397,1,6,1:2:0:0:
331,352,65683,2,0,L|229:341,1,100,2|2,0:0|0:0,0:0:0:0:
187,313,66111,2,0,L|87:323,1,100,2|0,0:0|0:0,0:0:0:0:
43,346,66540,1,2,0:0:0:0:
9,251,66826,6,0,P|2:206|30:157,1,100,6|2,1:2|0:0,0:0:0:0:
71,137,67254,2,0,L|170:149,1,100,2|2,1:2|0:0,0:0:0:0:
210,179,67683,2,0,B|193:129|193:129|222:83,1,100,6|0,1:2|0:0,0:0:0:0:
261,63,68111,1,8,0:0:0:0:
120,8,68540,2,0,L|108:59,1,50,10|8,0:0|0:0,0:0:0:0:
73,92,68826,2,0,L|75:148,1,50,8|8,0:0|0:0,0:0:0:0:
103,183,69111,6,0,B|55:209|55:209|72:315,1,150,6|0,1:2|1:2,0:0:0:0:
99,343,69683,1,10,0:0:0:0:
189,300,69969,1,6,1:2:0:0:
276,354,70254,2,0,P|321:329|376:334,1,100,2|2,0:0|0:0,0:0:0:0:
414,352,70683,2,0,L|400:248,1,100,2|2,0:0|0:0,0:0:0:0:
333,186,71254,1,2,0:0:0:0:
333,186,71397,6,0,B|226:175|281:241|175:240,1,150,6|0,1:2|1:2,0:0:0:0:
160,270,71969,1,10,0:0:0:0:
82,332,72254,1,6,1:2:0:0:
4,269,72540,2,0,P|-5:220|12:174,1,100,2|2,0:0|0:0,0:0:0:0:
49,140,72969,2,0,P|98:151|149:159,1,100,2|2,0:0|0:0,0:0:0:0:
243,191,73540,1,2,0:0:0:0:
243,191,73683,6,0,B|301:146|371:168|371:168|386:209|436:216,1,200,4|8,1:2|0:0,0:0:0:0:
506,251,74540,1,6,1:2:0:0:
444,329,74826,2,0,P|389:314|344:309,1,100,2|2,0:0|0:0,0:0:0:0:
302,333,75254,2,0,P|247:348|202:353,1,100,2|0,0:0|0:0,0:0:0:0:
162,325,75683,1,2,0:0:0:0:
82,263,75969,6,0,P|69:212|95:167,1,100,6|2,1:2|0:0,0:0:0:0:
126,138,76397,2,0,L|229:153,1,100,2|2,1:2|0:0,0:0:0:0:
269,176,76826,1,6,1:2:0:0:
334,101,77111,2,0,P|331:62|331:11,2,66.6666666666667,0|8|8,1:2|0:0|0:0,0:0:0:0:
375,154,77683,2,0,P|367:214|359:274,1,100,8|8,2:3|2:3,0:0:0:0:
293,326,78254,6,0,P|240:275|168:284,1,150,6|0,1:2|1:2,0:0:0:0:
132,318,78826,1,8,0:0:0:0:
49,261,79111,2,0,P|56:186|74:113,1,150,6|8,1:2|0:0,0:0:0:0:
118,89,79683,2,0,P|142:94|166:102,1,50,2|0,0:0|1:2,0:0:0:0:
210,126,79969,1,8,0:0:0:0:
270,204,80254,1,2,0:0:0:0:
210,284,80540,6,0,B|159:273|159:273|105:308|119:354,1,150,6|0,1:2|1:2,0:0:0:0:
159,383,81111,1,8,0:0:0:0:
254,353,81397,1,6,1:2:0:0:
359,364,81683,1,2,0:0:0:0:
359,364,81826,2,0,P|415:342|461:338,1,100,8|2,0:0|1:2,0:0:0:0:
504,337,82254,1,8,0:0:0:0:
497,237,82540,1,2,0:0:0:0:
486,137,82826,6,0,B|388:119|421:181|341:184,1,150,6|0,1:2|1:2,0:0:0:0:
303,166,83397,1,8,0:0:0:0:
218,112,83683,2,0,P|143:133|66:150,1,150,6|8,1:2|0:0,0:0:0:0:
34,180,84254,2,0,P|22:210|19:236,1,50,2|0,0:0|1:2,0:0:0:0:
48,268,84540,1,8,0:0:0:0:
7,359,84826,1,2,0:0:0:0:
106,356,85111,6,0,P|149:334|198:343,1,100,6|2,1:2|0:0,0:0:0:0:
238,368,85540,2,0,P|301:374|339:345,1,100,0|0,1:2|1:2,0:0:0:0:
368,322,85969,2,0,L|375:209,1,100,6|2,1:2|0:0,0:0:0:0:
406,184,86397,1,8,0:0:0:0:
317,64,86826,2,0,B|311:28|311:28|333:-15,2,66.6666666666667,8|8|8,0:0|0:0|0:0,0:0:0:0:
285,122,87397,6,0,B|195:106|229:164|132:156,1,150,6|0,1:2|1:2,0:0:0:0:
99,133,87969,1,8,0:0:0:0:
34,212,88254,1,6,1:2:0:0:
34,212,88397,2,0,P|46:277|47:327,1,100,0|8,1:2|0:0,0:0:0:0:
57,360,88826,1,2,0:0:0:0:
145,313,89111,1,10,0:0:0:0:
238,348,89397,1,2,0:0:0:0:
302,271,89683,6,0,B|368:288|368:288|385:310|385:310|455:327,1,150,6|0,1:2|1:2,0:0:0:0:
486,311,90254,1,8,0:0:0:0:
507,213,90540,1,6,1:2:0:0:
413,194,90826,1,2,0:0:0:0:
413,194,90969,2,0,B|360:173|360:173|380:72,1,150,10|8,0:0|0:0,0:0:0:0:
303,14,91683,1,2,0:0:0:0:
228,83,91969,6,0,B|123:54|123:54|87:84,1,150,6|0,1:2|1:2,0:0:0:0:
59,118,92540,1,8,0:0:0:0:
97,215,92826,1,6,1:2:0:0:
97,215,92969,2,0,P|156:201|210:195,1,100,0|8,1:2|0:0,0:0:0:0:
243,184,93397,1,2,0:0:0:0:
327,238,93683,1,8,0:0:0:0:
296,338,93969,2,0,L|220:328,1,50,2|0,0:0|1:2,0:0:0:0:
201,308,94254,6,0,P|150:295|106:335,1,100,6|2,1:2|0:0,0:0:0:0:
80,357,94683,1,2,1:2:0:0:
21,276,94969,1,0,1:2:0:0:
21,276,95111,2,0,P|29:215|41:165,1,100,6|2,1:2|0:0,0:0:0:0:
19,130,95540,1,8,0:0:0:0:
95,64,95826,1,2,1:2:0:0:
95,64,95969,2,0,L|194:81,1,100,8|8,0:0|0:0,0:0:0:0:
292,92,96540,5,6,1:2:0:0:
