osu file format v14

[General]
AudioFilename: audio.mp3
AudioLeadIn: 0
PreviewTime: 91688
Countdown: 0
SampleSet: Soft
StackLeniency: 0.5
Mode: 0
LetterboxInBreaks: 0
WidescreenStoryboard: 0

[Editor]
Bookmarks: 35935,64170,78288,92405,106523,148876,155935,170052,180641,194758,208876,222994,237111,247699
DistanceSpacing: 1.2
BeatDivisor: 4
GridSize: 32
TimelineZoom: 2.499999

[Metadata]
Title:lonely
TitleUnicode:lonely
Artist:MY FIRST STORY
ArtistUnicode:MY FIRST STORY
Creator:Maiev
Version:Daycore's Hard
Source:
Tags:daycore j-rock jrock j japanese rock mfs ACCIDENT
BeatmapID:2732053
BeatmapSetID:1268300

[Difficulty]
HPDrainRate:4
CircleSize:4
OverallDifficulty:6.5
ApproachRate:7.5
SliderMultiplier:1.4
SliderTickRate:1

[Events]
//Background and Video events
0,0,"933864.jpg",0,0
//Break Periods
2,182605,193492
2,209076,220183
//Storyboard Layer 0 (Background)
//Storyboard Layer 1 (Fail)
//Storyboard Layer 2 (Pass)
//Storyboard Layer 3 (Foreground)
//Storyboard Layer 4 (Overlay)
//Storyboard Sound Samples

[TimingPoints]
7700,441.176470588235,4,2,22,50,1,0
7700,-250,4,2,22,50,0,0
9023,-250,4,2,22,5,0,0
9244,-400,4,2,22,50,0,0
11008,-400,4,2,22,5,0,0
11229,-500,4,2,22,50,0,0
13655,-500,4,2,22,5,0,0
13876,-500,4,2,22,50,0,0
14758,-250,4,2,22,50,0,0
16081,-250,4,2,22,5,0,0
16302,-400,4,2,22,50,0,0
18066,-400,4,2,22,5,0,0
18288,-500,4,2,22,50,0,0
21817,-250,4,2,22,50,0,0
23140,-250,4,2,22,5,0,0
23361,-400,4,2,22,50,0,0
25125,-400,4,2,22,5,0,0
25347,-500,4,2,22,50,0,0
27552,-500,4,2,22,5,0,0
27994,-500,4,2,22,50,0,0
28876,-250,4,2,22,50,0,0
30199,-250,4,2,22,5,0,0
30420,-400,4,2,22,50,0,0
32184,-400,4,2,22,5,0,0
32405,-500,4,2,22,50,0,0
34831,-500,4,2,22,5,0,0
35052,-500,4,2,22,50,0,0
35935,-200,4,2,22,65,0,0
64170,-250,4,2,22,50,0,0
68361,-250,4,2,22,5,0,0
71229,-250,4,2,22,50,0,0
73876,-333.333333333333,4,2,22,50,0,0
75420,-333.333333333333,4,2,22,5,0,0
77626,-333.333333333333,4,2,22,50,0,0
78288,-125,4,2,22,70,0,0
92405,-83.3333333333333,4,2,22,80,0,1
93288,-100,4,2,22,80,0,1
94611,-83.3333333333333,4,2,22,80,0,1
96817,-100,4,2,22,80,0,1
98141,-83.3333333333333,4,2,22,80,0,1
100347,-125,4,2,22,80,0,1
101670,-83.3333333333333,4,2,22,80,0,1
104427,-83.3333333333333,4,2,22,5,0,1
104538,-83.3333333333333,4,2,22,80,0,1
106523,-76.9230769230769,4,2,22,80,0,1
109721,-76.9230769230769,4,2,22,5,0,1
109832,-76.9230769230769,4,2,22,80,0,1
113582,-83.3333333333333,4,2,22,80,0,1
114795,-125,4,2,22,80,0,1
115788,-83.3333333333333,4,2,22,80,0,1
117111,-83.3333333333333,4,2,22,80,0,0
119317,-83.3333333333333,4,2,22,65,0,0
120199,-100,4,2,22,65,0,0
121632,-100,4,2,22,5,0,0
121744,-100,4,2,22,65,0,0
148876,-200,4,2,22,50,0,0
155714,-100,4,2,22,50,0,0
155935,-83.3333333333333,4,2,22,80,0,1
156817,-125,4,2,22,80,0,1
158141,-83.3333333333333,4,2,22,80,0,1
160347,-125,4,2,22,80,0,1
161670,-83.3333333333333,4,2,22,80,0,1
163876,-125,4,2,22,80,0,1
165199,-83.3333333333333,4,2,22,80,0,1
167956,-83.3333333333333,4,2,22,5,0,1
168067,-83.3333333333333,4,2,22,80,0,1
170052,-76.9230769230769,4,2,22,80,0,1
177111,-83.3333333333333,4,2,22,80,0,1
178544,-83.3333333333333,4,2,22,5,0,1
178655,-83.3333333333333,4,2,22,80,0,1
180641,-83.3333333333333,4,2,22,50,0,0
194317,-125,4,2,22,50,0,0
203471,-125,4,2,22,5,0,0
203582,-125,4,2,22,50,0,0
205347,-90.9090909090909,4,2,22,55,0,0
208876,-90.9090909090909,4,2,22,70,0,0
221229,-125,4,2,22,70,0,0
222332,-76.9230769230769,4,2,22,70,0,0
222994,-83.3333333333333,4,2,22,80,0,1
223876,-125,4,2,22,80,0,1
225199,-83.3333333333333,4,2,22,80,0,1
227405,-125,4,2,22,80,0,1
229611,-83.3333333333333,4,2,22,80,0,1
230935,-125,4,2,22,80,0,1
232258,-83.3333333333333,4,2,22,80,0,1
237111,-76.9230769230769,4,2,22,80,0,1
247699,-76.9230769230769,4,2,22,80,0,0
252994,-76.9230769230769,4,2,22,5,0,0

[Colours]
Combo1 : 203,217,245
Combo2 : 255,183,183
Combo3 : 255,255,176
Combo4 : 255,210,255

[HitObjects]
109,45,7700,6,0,P|186:27|239:89,1,168
161,104,9244,2,0,L|93:233,1,140.056,2|0,2:0|2:0,2:0:0:0:
44,288,11229,6,0,B|85:280|99:240|99:240|127:274|169:268,1,154.029866666667,2|0,2:0|2:0,2:0:0:0:
237,245,13876,1,2,2:0:0:0:
237,245,14758,6,0,B|283:268|317:230|317:230|349:194|391:216,1,168.0672,2|0,2:0|2:0,2:0:0:0:
440,266,16302,2,0,P|432:210|451:122,1,140.056,2|0,2:0|2:0,2:0:0:0:
397,75,18288,2,0,B|447:115|482:97|508:84|503:57|472:52|453:66|457:82,1,154.029866666667,2|2,2:0|2:0,2:0:0:0:
448,128,20935,1,2,2:0:0:0:
118,42,21817,6,0,B|80:19|80:19|130:135,1,168.0672,2|0,2:0|2:0,2:0:0:0:
92,198,23361,2,0,B|155:188|125:137|205:125,1,140.056,2|0,2:0|2:0,2:0:0:0:
262,74,25347,2,0,P|235:124|206:206,1,140.056,2|0,2:0|2:0,2:0:0:0:
92,198,27994,1,2,2:0:0:0:
331,333,28876,6,0,B|297:306|315:259|375:235|410:322,1,168.0672,2|0,2:0|2:0,2:0:0:0:
463,257,30420,2,0,B|467:211|442:212|445:175|445:175|452:150|478:153|478:189|463:190,1,140.056,2|0,2:0|2:0,2:0:0:0:
405,190,32405,2,0,P|356:174|352:83,1,154.029866666667,2|0,2:0|2:0,2:0:0:0:
420,36,35052,1,2,2:0:0:0:
199,50,35935,6,0,P|158:31|126:41,1,70.028,6|0,3:2|2:0,2:0:0:0:
11,113,36817,1,8,2:0:0:0:
136,36,37258,1,0,2:0:0:0:
81,85,37479,2,0,P|86:113|69:165,1,70.028,2|0,3:2|3:2,2:0:0:0:
28,208,38141,2,0,L|36:254,1,35.0933333333333,0|0,3:2|2:0,2:0:0:0:
58,270,38472,1,0,3:2:0:0:
57,280,38582,2,0,L|49:326,1,35.0933333333333,8|0,2:0|2:0,2:0:0:0:
114,351,39023,1,0,2:0:0:0:
171,304,39244,1,8,2:0:0:0:
171,304,39354,1,8,2:0:0:0:
171,304,39464,6,0,P|209:320|240:300,1,70.028,6|0,3:2|2:0,2:0:0:0:
279,251,40126,1,0,3:2:0:0:
279,251,40236,1,0,3:2:0:0:
279,251,40347,2,0,L|276:176,1,70.028,8|0,2:0|2:0,2:0:0:0:
233,121,41008,2,0,B|267:132|267:132|303:106,1,70.028,0|0,3:2|3:2,2:0:0:0:
252,51,41670,1,0,3:2:0:0:
206,190,42001,1,0,3:2:0:0:
206,190,42111,2,0,P|159:205|110:176,1,105.121333333333,10|8,2:0|2:0,2:0:0:0:
108,142,42883,1,8,2:0:0:0:
114,134,42994,6,0,L|44:131,1,70.028,6|0,3:2|2:0,2:0:0:0:
18,62,43655,1,0,3:2:0:0:
18,62,43766,1,0,3:2:0:0:
18,62,43876,2,0,P|32:40|83:28,1,70.028,8|0,2:0|2:0,2:0:0:0:
140,54,44538,2,0,L|219:59,1,70.028,2|0,3:2|3:2,2:0:0:0:
276,28,45199,1,0,3:2:0:0:
337,119,45530,1,0,3:2:0:0:
337,119,45641,2,0,P|382:111|407:129,1,70.028,8|0,2:0|2:0,2:0:0:0:
474,160,46302,1,8,2:0:0:0:
474,160,46413,1,8,2:0:0:0:
474,160,46523,6,0,L|465:240,1,70.028,6|0,3:2|2:0,2:0:0:0:
404,262,47185,1,0,3:2:0:0:
404,262,47295,1,0,3:2:0:0:
404,262,47405,2,0,P|431:277|452:318,1,70.028,8|0,2:0|2:0,2:0:0:0:
402,365,48067,2,0,L|322:358,1,70.028,0|0,3:2|3:2,2:0:0:0:
281,305,48729,1,0,3:2:0:0:
172,325,49060,1,0,3:2:0:0:
172,325,49170,2,0,P|187:290|184:250,1,70.028,10|0,2:0|2:0,2:0:0:0:
144,205,49832,1,8,2:0:0:0:
144,205,49942,1,8,2:0:0:0:
144,205,50052,6,0,P|120:194|69:195,1,70.028,6|0,3:2|2:0,2:0:0:0:
47,125,50714,1,0,3:2:0:0:
47,125,50824,1,0,3:2:0:0:
47,125,50935,2,0,P|54:74|55:42,1,70.028,8|0,2:0|2:0,2:0:0:0:
127,44,51597,2,0,P|147:59|166:108,1,70.028,2|0,3:2|3:2,2:0:0:0:
139,167,52258,1,0,3:2:0:0:
205,254,52589,1,0,3:2:0:0:
205,254,52699,2,0,P|172:259|151:295,1,70.028,8|0,2:0|2:0,2:0:0:0:
202,353,53361,1,8,2:0:0:0:
202,353,53472,1,8,2:0:0:0:
202,353,53582,6,0,L|274:343,1,70.028,6|0,3:2|2:0,2:0:0:0:
323,291,54244,1,0,3:2:0:0:
323,291,54354,1,0,3:2:0:0:
323,291,54464,2,0,P|367:299|389:276,1,70.028,8|0,2:0|2:0,2:0:0:0:
421,221,55126,2,0,P|412:183|419:139,1,70.028,0|0,3:2|3:2,2:0:0:0:
448,86,55788,2,0,L|445:40,1,35.0933333333333,0|0,3:2|2:0,2:0:0:0:
418,26,56119,1,0,3:2:0:0:
418,26,56229,1,10,2:0:0:0:
355,64,56449,1,0,3:2:0:0:
283,46,56670,1,0,3:2:0:0:
267,122,56891,1,8,2:0:0:0:
267,122,57001,1,8,2:0:0:0:
267,122,57111,6,0,P|278:165|284:202,1,70.028,6|0,3:2|2:0,2:0:0:0:
259,264,57773,1,0,3:2:0:0:
259,264,57883,1,0,3:2:0:0:
259,264,57994,2,0,B|295:256|292:282|328:282,1,70.028,8|0,2:0|2:0,2:0:0:0:
381,235,58655,2,0,P|395:270|391:310,1,70.028,2|0,3:2|3:2,2:0:0:0:
341,353,59317,1,0,3:2:0:0:
231,343,59648,1,0,3:2:0:0:
231,343,59758,2,0,P|195:329|159:332,1,70.028,8|0,2:0|2:0,2:0:0:0:
95,303,60420,1,8,2:0:0:0:
95,303,60530,1,8,2:0:0:0:
95,303,60641,6,0,P|74:312|22:291,1,70.028,6|0,3:2|2:0,2:0:0:0:
19,227,61302,1,0,3:2:0:0:
19,227,61413,1,0,3:2:0:0:
19,227,61523,2,0,P|27:194|30:149,1,70.028,8|0,2:0|2:0,2:0:0:0:
103,157,62185,2,0,P|95:124|92:79,1,70.028,0|0,3:2|3:2,2:0:0:0:
152,46,62847,1,0,3:2:0:0:
250,95,63177,1,0,3:2:0:0:
250,95,63288,2,0,P|246:98|227:109,3,17.5466666666667,10|0|0|0,2:0|3:2|3:2|3:2,2:0:0:0:
233,141,63729,2,0,P|229:144|210:155,3,17.5466666666667,0|0|0|0,3:2|3:2|3:2|3:2,2:0:0:0:
205,177,64170,6,0,P|234:203|256:244,2,84.0335999999999,6|2|2,3:2|2:0|2:0,2:0:0:0:
145,278,66155,1,2,2:0:0:0:
341,314,66817,2,0,B|393:309|410:266|376:263|422:222|443:226|469:296|435:318|400:295,1,196.014933333333,2|0,2:0|2:0,2:0:0:0:
96,64,71229,6,0,B|112:43|112:43|109:104,2,84.0335999999999,2|2|2,2:0|2:0|2:0,2:0:0:0:
209,94,73214,1,2,2:0:0:0:
73,154,73876,2,0,B|102:190|102:247|29:259|26:197|69:194,1,147.011195513916,2|0,2:0|2:0,2:0:0:0:
480,352,77626,5,0,3:2:0:0:
402,301,77847,1,8,2:0:0:0:
485,261,78067,1,0,3:2:0:0:
443,187,78288,6,0,P|390:145|381:80,1,112.0448,10|8,2:0|2:0,2:0:0:0:
311,64,78949,1,2,3:2:0:0:
311,64,79170,2,0,P|285:95|246:101,1,56.1493333333333,8|0,2:0|3:2,2:0:0:0:
204,60,79611,1,10,2:0:0:0:
163,127,79832,1,0,3:2:0:0:
104,74,80052,6,0,L|124:209,1,112.0448,8|8,2:0|2:0,2:0:0:0:
38,269,80824,1,0,3:2:0:0:
38,269,80935,2,0,P|84:264|88:236,1,56.1493333333333,10|0,2:0|3:2,2:0:0:0:
120,184,81376,1,8,2:0:0:0:
178,236,81597,1,0,3:2:0:0:
191,312,81817,6,0,P|207:264|261:223,1,112.0448,8|8,2:0|2:0,2:0:0:0:
386,344,82699,2,0,P|384:313|364:274,1,56.1493333333333,8|0,2:0|3:2,2:0:0:0:
331,224,83141,1,8,2:0:0:0:
288,158,83361,1,0,3:2:0:0:
260,87,83582,6,0,B|284:95|300:123|300:123|323:105|355:106,1,112.0448,8|8,2:0|2:0,2:0:0:0:
410,160,84244,1,0,3:2:0:0:
410,160,84464,2,0,P|430:124|428:87,1,56.1493333333333,8|0,2:0|3:2,2:0:0:0:
374,55,84905,2,0,P|354:91|356:128,1,56.1493333333333,8|0,2:0|3:2,2:0:0:0:
295,159,85347,6,0,L|316:285,1,112.0448,10|8,2:0|2:0,2:0:0:0:
254,320,86008,1,2,3:2:0:0:
196,266,86229,2,0,P|147:252|128:258,1,56.1493333333333,8|0,2:0|3:2,2:0:0:0:
124,328,86670,2,0,P|173:342|192:336,1,56.1493333333333,10|0,2:0|3:2,2:0:0:0:
254,320,87111,6,0,L|313:327,1,56.1493333333333,8|2,2:0|3:2,2:0:0:0:
382,297,87552,2,0,L|441:290,1,56.1493333333333,8|0,2:0|3:2,2:0:0:0:
460,214,87994,2,0,L|401:207,1,56.1493333333333,10|0,2:0|3:2,2:0:0:0:
358,143,88435,1,8,2:0:0:0:
284,168,88655,1,0,3:2:0:0:
216,127,88876,5,8,3:2:0:0:
204,125,88986,1,8,3:2:0:0:
192,123,89097,1,8,2:0:0:0:
180,121,89207,1,8,3:2:0:0:
168,119,89317,2,0,L|125:110,3,28.0746666666666,8|8|8|8,3:2|3:2|2:0|3:2,2:0:0:0:
76,148,89758,5,8,2:0:0:0:
72,137,89869,1,8,2:0:0:0:
69,126,89979,1,8,2:0:0:0:
66,115,90089,1,8,2:0:0:0:
62,104,90199,1,8,2:0:0:0:
106,38,90420,1,8,2:0:0:0:
106,38,90530,1,0,3:2:0:0:
106,38,90641,5,8,2:0:0:0:
140,86,92405,6,0,B|175:77|175:77|151:177,2,126.145596154785,6|0|0,3:2|3:2|3:2,2:0:0:0:
86,27,93288,6,0,B|120:33|160:65|164:112|164:112|213:25|289:25|325:89|274:163|221:125,1,350.298666666666,10|0,2:0|3:2,2:0:0:0:
279,205,94611,2,0,L|268:288,1,84.2239974365234,0|0,3:2|2:0,2:0:0:0:
270,325,94942,1,0,3:2:0:0:
270,325,95052,6,0,B|304:346|304:346|345:331,1,84.2239974365234,10|0,2:0|2:0,2:0:0:0:
357,299,95383,2,0,L|367:215,1,84.2239974365234,8|0,2:0|2:0,2:0:0:0:
404,189,95714,1,0,3:2:0:0:
349,122,95935,6,0,P|343:65|411:22,2,126.145596154785,6|0|0,3:2|3:2|3:2,2:0:0:0:
404,189,96817,6,0,B|380:192|360:204|352:271|390:265|422:253|433:317|433:317|422:246|445:167|506:157,1,350,10|0,2:0|3:2,2:0:0:0:
418,103,98141,2,0,P|377:96|338:110,1,84.2239974365234,0|0,3:2|2:0,2:0:0:0:
299,132,98472,1,0,3:2:0:0:
299,132,98582,6,0,L|240:136,3,42.1119987182618,10|0|0|0,2:0|2:0|3:2|3:2,2:0:0:0:
216,156,99023,1,0,3:2:0:0:
139,124,99244,1,0,3:2:0:0:
139,124,99354,1,0,3:2:0:0:
139,124,99464,6,0,P|131:163|187:240,2,126.145596154785,6|0|0,3:2|3:2|3:2,2:0:0:0:
105,71,100347,6,0,B|118:117|186:145|245:135|283:67|254:18|196:2|175:57,1,280.238933333333,10|0,2:0|3:2,2:0:0:0:
105,71,101670,2,0,P|97:125|79:173,1,84.2239974365234,0|0,3:2|2:0,2:0:0:0:
59,189,102001,1,0,3:2:0:0:
59,189,102111,5,10,2:0:0:0:
73,284,102332,1,0,2:0:0:0:
73,284,102442,1,8,2:0:0:0:
200,222,102773,1,0,3:2:0:0:
200,222,102883,1,8,2:0:0:0:
200,222,102994,6,0,P|254:227|262:315,2,126.145596154785,6|0|0,3:2|3:2|3:2,2:0:0:0:
288,193,103876,2,0,L|354:119,1,84.2239974365234,10|0,2:0|2:0,2:0:0:0:
335,84,104207,2,0,B|346:125|346:125|389:130,1,84.2239974365234,8|0,2:0|2:0,2:0:0:0:
433,132,104538,1,0,3:2:0:0:
413,42,104758,5,2,2:0:0:0:
335,84,104979,1,0,3:2:0:0:
253,41,105199,2,0,B|213:22|213:22|172:43,1,84.2239974365234,0|0,3:2|2:0,2:0:0:0:
139,13,105530,1,0,3:2:0:0:
134,24,105641,1,10,2:0:0:0:
75,106,105861,5,0,3:2:0:0:
77,126,105972,1,0,3:2:0:0:
80,146,106082,2,0,L|85:201,3,42.1119987182618,0|0|0|0,3:2|3:2|3:2|3:2,2:0:0:0:
73,208,106523,6,0,P|138:209|173:286,1,136.863993751526,6|0,3:2|3:2,2:0:0:0:
176,300,106964,6,0,P|194:346|242:356,1,91.2426625010174,10|0,2:0|3:2,2:0:0:0:
265,346,107295,1,8,2:0:0:0:
275,355,107405,6,0,P|355:352|431:366,1,136.863993751526,2|0,3:2|3:2,2:0:0:0:
461,361,107847,6,0,P|442:291|447:252,1,91.2426625010174,10|0,2:0|3:2,2:0:0:0:
381,193,108288,6,0,B|421:207|421:207|460:165|460:165|446:112,1,136.863993751526,2|0,3:2|3:2,2:0:0:0:
446,116,108729,2,0,B|435:86|435:86|387:130,1,91.2426625010174,10|0,2:0|3:2,2:0:0:0:
295,96,109170,6,0,P|331:81|354:23,1,91.2426625010174,2|0,3:2|2:0,2:0:0:0:
315,4,109501,2,0,P|279:19|256:77,1,91.2426625010174,0|0,3:2|2:0,2:0:0:0:
255,115,109832,1,0,3:2:0:0:
255,115,109942,1,8,2:0:0:0:
255,115,110052,6,0,L|118:97,1,136.863993751526,6|0,3:2|3:2,2:0:0:0:
74,88,110494,2,0,L|58:182,1,91.2426625010174,10|0,2:0|3:2,2:0:0:0:
17,259,110935,6,0,B|81:278|82:213|152:249,1,136.863993751526,2|0,3:2|3:2,2:0:0:0:
180,278,111376,2,0,L|171:370,1,91.2426625010174,10|0,2:0|3:2,2:0:0:0:
256,335,111817,6,0,P|307:349|343:276,1,136.863993751526,2|0,3:2|3:2,2:0:0:0:
332,242,112258,2,0,L|298:146,1,91.2426625010174,10|0,2:0|3:2,2:0:0:0:
313,111,112589,1,8,2:0:0:0:
306,104,112699,6,0,P|281:50|300:8,1,91.2426625010174,2|8,3:2|2:0,2:0:0:0:
298,20,113030,1,8,2:0:0:0:
306,17,113141,2,0,L|362:23,3,45.6213312505087,2|0|0|0,3:2|3:2|3:2|3:2,2:0:0:0:
384,17,113582,6,0,B|442:6|442:6|471:1|510:22|501:70,2,126.145596154785,6|0|0,3:2|3:2|3:2,2:0:0:0:
369,88,114464,6,0,P|342:125|342:174,1,84.2239974365234,10|0,2:0|2:0,2:0:0:0:
348,191,114795,6,0,P|328:146|201:165,1,196.014933333333,8|0,2:0|3:2,2:0:0:0:
128,169,115788,2,0,P|176:180|208:275,1,126.335996154785,2|0,3:2|3:2,2:0:0:0:
209,280,116229,6,0,L|201:371,1,84.2239974365234,8|0,2:0|3:2,2:0:0:0:
165,374,116560,1,8,2:0:0:0:
151,364,116670,2,0,P|130:351|106:344,3,42.1119987182618,2|0|8|8,3:2|2:0|2:0|2:0,2:0:0:0:
256,192,117111,12,0,119317,2:0:0:0:
273,139,119758,5,0,3:2:0:0:
203,140,119979,1,2,2:0:0:0:
203,140,120089,1,2,2:0:0:0:
203,140,120199,2,0,L|197:193,1,35.0933333333333,8|8,2:0|2:0,2:0:0:0:
87,144,120641,6,0,L|87:59,1,70.1866666666666,12|0,2:0|2:0,3:2:0:0:
87,35,120972,1,0,2:0:0:0:
87,35,121082,1,8,2:0:0:0:
160,13,121302,2,0,P|188:37|280:25,1,105.28,0|0,3:2|2:0,2:0:0:0:
287,21,121744,1,0,3:2:0:0:
354,58,121964,1,8,2:0:0:0:
421,20,122185,6,0,B|381:55|381:55|412:149,1,140.056,0|0,3:2|3:2,2:0:0:0:
406,215,122847,2,0,P|447:206|472:183,1,70.1866666666666,8|0,2:0|2:0,2:0:0:0:
490,158,123177,1,0,3:2:0:0:
490,158,123288,1,0,2:0:0:0:
408,137,123508,1,0,3:2:0:0:
406,215,123729,2,0,L|303:207,1,70.1866666666666,8|0,2:0|2:0,2:0:0:0:
308,236,124060,1,0,3:2:0:0:
308,236,124170,6,0,P|259:207|205:217,1,105.28,0|0,3:2|3:2,2:0:0:0:
186,240,124611,1,8,2:0:0:0:
122,196,124832,2,0,P|139:237|142:342,1,140.056,0|0,3:2|3:2,2:0:0:0:
67,319,125494,1,8,2:0:0:0:
31,250,125714,2,0,B|45:216|23:182|23:182|-8:210|2:250,1,140.056,0|0,3:2|3:2,2:0:0:0:
25,170,126376,1,8,2:0:0:0:
3,56,126707,1,0,3:2:0:0:
3,56,126817,2,0,P|41:63|73:40,1,70.1866666666666,0|0,3:2|3:2,2:0:0:0:
140,25,127258,1,8,2:0:0:0:
140,25,127369,1,0,3:2:0:0:
212,61,127589,1,0,3:2:0:0:
212,61,127699,6,0,P|208:115|221:133,1,70.1866666666666,4|0,3:2|2:0,2:0:0:0:
250,151,128030,1,0,3:2:0:0:
250,151,128141,1,8,2:0:0:0:
319,118,128361,2,0,P|321:176|261:227,1,140.056,0|0,3:2|3:2,2:0:0:0:
185,229,129023,1,8,2:0:0:0:
262,226,129244,6,0,P|246:267|249:321,1,70.1866666666666,0|0,3:2|2:0,2:0:0:0:
310,332,129685,2,0,B|239:317|251:359|170:348,1,140.056,0|0,3:2|2:0,2:0:0:0:
147,320,130236,1,0,3:2:0:0:
147,320,130347,1,0,3:2:0:0:
76,349,130567,1,0,3:2:0:0:
31,286,130788,1,8,2:0:0:0:
31,286,130898,1,0,3:2:0:0:
101,254,131119,1,0,3:2:0:0:
101,254,131229,6,0,P|101:206|134:171,1,70.1866666666666,4|0,3:2|2:0,2:0:0:0:
141,163,131560,1,0,3:2:0:0:
141,163,131670,1,8,2:0:0:0:
124,87,131891,2,0,P|144:126|244:122,1,140.056,0|0,3:2|3:2,2:0:0:0:
291,84,132552,1,8,2:0:0:0:
324,158,132773,5,0,3:2:0:0:
324,158,132883,1,8,2:0:0:0:
392,119,133104,1,0,3:2:0:0:
392,119,133214,1,8,2:0:0:0:
411,197,133435,1,0,3:2:0:0:
411,197,133545,1,8,3:2:0:0:
479,158,133766,1,0,3:2:0:0:
479,158,133876,2,0,P|491:204|473:250,1,70.1866666666666,8|0,2:0|3:2,2:0:0:0:
428,276,134317,1,0,3:2:0:0:
444,359,134538,1,8,2:0:0:0:
444,359,134648,1,0,3:2:0:0:
444,359,134758,6,0,P|405:356|359:357,1,70.1866666666666,4|0,3:2|2:0,2:0:0:0:
337,344,135089,1,0,3:2:0:0:
337,344,135199,1,8,2:0:0:0:
262,325,135420,2,0,B|244:336|167:329|186:239|234:259,1,140.056,0|0,3:2|3:2,2:0:0:0:
205,184,136082,1,8,2:0:0:0:
263,134,136302,6,0,B|189:115|211:168|120:151,1,140.056,0|0,3:2|3:2,2:0:0:0:
86,87,136964,1,8,2:0:0:0:
39,192,137295,1,0,3:2:0:0:
39,192,137405,2,0,P|34:248|49:272,1,70.1866666666666,0|0,3:2|3:2,2:0:0:0:
115,271,137847,1,8,2:0:0:0:
170,371,138177,1,0,3:2:0:0:
170,371,138288,6,0,P|196:341|243:331,1,70.1866666666666,4|0,3:2|2:0,2:0:0:0:
262,335,138619,1,0,3:2:0:0:
262,335,138729,1,8,2:0:0:0:
303,270,138949,2,0,P|355:298|399:218,1,140.056,0|0,3:2|3:2,2:0:0:0:
370,178,139611,1,8,2:0:0:0:
434,129,139832,6,0,B|400:111|391:77|391:77|361:108|316:105,1,140.056,0|0,3:2|3:2,2:0:0:0:
260,70,140494,1,8,2:0:0:0:
185,157,140824,1,0,3:2:0:0:
185,157,140935,2,0,P|132:142|100:157,1,70.1866666666666,0|0,3:2|3:2,2:0:0:0:
51,182,141376,1,8,2:0:0:0:
51,182,141486,1,0,3:2:0:0:
91,247,141707,1,0,3:2:0:0:
91,247,141817,6,0,P|69:277|83:326,1,70.1866666666666,4|0,3:2|2:0,2:0:0:0:
87,343,142148,1,0,3:2:0:0:
87,343,142258,1,8,2:0:0:0:
160,320,142479,2,0,B|241:304|222:360|296:348,1,140.056,0|0,3:2|3:2,2:0:0:0:
278,272,143141,1,8,2:0:0:0:
350,296,143361,6,0,P|395:300|430:204,1,140.056,0|0,3:2|3:2,2:0:0:0:
398,162,144023,1,8,2:0:0:0:
286,183,144354,1,0,3:2:0:0:
286,183,144464,2,0,P|248:145|249:105,1,70.1866666666666,0|0,3:2|3:2,2:0:0:0:
271,58,144905,2,0,L|321:64,3,35.0933333333333,8|0|0|0,2:0|3:2|3:2|3:2,2:0:0:0:
331,33,145347,6,0,L|240:22,1,70.1866666666666,4|0,3:2|2:0,2:0:0:0:
228,4,145677,1,0,3:2:0:0:
228,4,145788,1,8,2:0:0:0:
156,32,146008,2,0,P|171:84|111:155,1,140.056,0|0,3:2|3:2,2:0:0:0:
94,79,146670,1,8,2:0:0:0:
39,133,146891,6,0,B|78:159|78:159|65:262,1,140.056,0|0,3:2|3:2,2:0:0:0:
20,313,147552,1,8,2:0:0:0:
96,322,147773,1,0,3:2:0:0:
147,266,147994,5,0,3:2:0:0:
147,266,148104,1,8,3:2:0:0:
147,266,148214,1,8,3:2:0:0:
184,273,148324,1,0,3:2:0:0:
221,280,148435,2,0,L|276:289,3,35.0933333333333,8|0|0|0,3:2|3:2|3:2|3:2,2:0:0:0:
273,292,148876,6,0,P|331:291|370:259,2,105.042,4|0|0,2:0|3:2|3:2,2:0:0:0:
273,292,151964,1,0,2:0:0:0:
308,223,152405,2,0,B|297:262|324:293|324:293|334:268|351:261,2,105.042,0|0|0,2:0|3:2|2:0,2:0:0:0:
36,101,155052,5,8,2:0:0:0:
115,74,155273,1,8,2:0:0:0:
111,94,155383,1,8,2:0:0:0:
107,114,155494,1,8,2:0:0:0:
104,134,155604,1,8,2:0:0:0:
100,155,155714,2,0,L|107:197,1,35.0933333333333,8|8,2:0|2:0,2:0:0:0:
116,235,155935,6,0,B|50:250|78:191|-1:208,2,126.145596154785,6|0|0,3:2|3:2|3:2,2:0:0:0:
183,184,156817,6,0,P|151:228|297:281,1,280.238933333333,10|0,2:0|3:2,2:0:0:0:
341,208,158141,2,0,L|331:110,1,84.2239974365234,0|0,3:2|2:0,2:0:0:0:
304,87,158472,1,0,3:2:0:0:
304,87,158582,6,0,P|292:43|265:16,1,84.2239974365234,10|0,2:0|2:0,2:0:0:0:
220,25,158913,2,0,P|200:61|201:103,1,84.2239974365234,8|0,2:0|2:0,2:0:0:0:
234,136,159244,1,0,3:2:0:0:
145,162,159464,6,0,B|50:151|50:151|64:161|78:184,2,126.145596154785,6|0|0,3:2|3:2|3:2,2:0:0:0:
154,240,160347,6,0,B|195:170|195:170|196:161|196:161|187:258|187:258|177:270|177:270|168:349,1,280.238933333333,10|0,2:0|3:2,2:0:0:0:
285,331,161670,2,0,P|326:324|365:338,1,84.6047974365235,0|0,3:2|2:0,2:0:0:0:
393,376,162001,1,0,3:2:0:0:
393,376,162111,6,0,L|452:380,3,42.2389320515951,10|0|0|0,2:0|2:0|3:2|3:2,2:0:0:0:
463,342,162552,2,0,L|466:283,3,42.1119987182618,0|0|0|0,3:2|3:2|3:2|3:2,2:0:0:0:
439,261,162994,6,0,P|427:197|481:143,2,126.145596154785,6|0|0,3:2|3:2|3:2,2:0:0:0:
361,272,163876,6,0,B|301:303|240:241|240:241|165:172|101:230,1,280.238933333333,10|0,2:0|3:2,2:0:0:0:
28,137,165199,2,0,P|63:106|114:73,1,84.2239974365234,0|0,3:2|2:0,2:0:0:0:
138,97,165530,1,0,3:2:0:0:
138,97,165641,5,10,2:0:0:0:
275,82,165972,1,8,2:0:0:0:
223,160,166192,1,0,2:0:0:0:
223,160,166302,1,0,3:2:0:0:
223,160,166413,1,8,2:0:0:0:
223,160,166523,6,0,B|193:203|193:203|218:288,2,126.335996154785,6|0|0,3:2|3:2|3:2,2:0:0:0:
270,218,167405,2,0,L|295:300,1,84.2239974365234,10|0,2:0|2:0,2:0:0:0:
331,290,167736,2,0,P|311:324|254:303,1,84.2239974365234,8|0,2:0|2:0,2:0:0:0:
241,347,168067,1,0,3:2:0:0:
189,291,168288,6,0,L|134:282,1,42.1119987182618,10|0,2:0|2:0,2:0:0:0:
118,260,168508,1,0,3:2:0:0:
118,260,168619,2,0,L|63:269,1,42.1119987182618,10|0,2:0|3:2,2:0:0:0:
47,291,168839,1,0,3:2:0:0:
47,291,168949,1,10,2:0:0:0:
6,207,169170,5,10,2:0:0:0:
60,121,169391,1,0,3:2:0:0:
62,101,169501,1,8,2:0:0:0:
65,81,169611,2,0,L|70:26,3,42.2389320515951,8|8|8|8,2:0|2:0|2:0|2:0,2:0:0:0:
114,18,170052,6,0,B|157:21|157:21|166:26|166:26|240:30,1,91.2426625010174,6|0,3:2|2:0,2:0:0:0:
251,13,170383,1,0,3:2:0:0:
251,13,170494,2,0,P|229:52|226:117,1,91.2426625010174,10|0,2:0|3:2,2:0:0:0:
162,189,170935,6,0,B|223:162|223:162|314:202,1,136.863993751526,2|0,3:2|3:2,2:0:0:0:
329,216,171376,2,0,L|320:315,1,91.2426625010174,10|0,2:0|3:2,2:0:0:0:
394,359,171817,6,0,L|219:335,1,136.863993751526,2|0,3:2|3:2,2:0:0:0:
213,333,172258,2,0,B|169:329|169:329|167:326|167:326|113:321,1,91.2426625010174,10|0,2:0|3:2,2:0:0:0:
33,278,172699,6,0,B|2:244|2:244|15:196,1,91.2426625010174,2|0,3:2|2:0,2:0:0:0:
62,187,173030,1,0,3:2:0:0:
62,187,173141,1,10,2:0:0:0:
1,107,173361,1,0,3:2:0:0:
100,108,173582,6,0,L|235:90,1,136.863993751526,6|0,3:2|3:2,2:0:0:0:
278,63,174023,2,0,L|262:157,1,91.6551958343507,10|0,2:0|3:2,2:0:0:0:
191,223,174464,6,0,B|234:191|234:191|339:211,1,136.863993751526,2|0,3:2|3:2,2:0:0:0:
347,245,174905,2,0,P|356:189|384:150,1,91.2426625010174,10|0,2:0|3:2,2:0:0:0:
472,181,175347,6,0,P|460:253|423:304,1,136.863993751526,2|0,3:2|3:2,2:0:0:0:
377,322,175788,2,0,L|281:325,1,91.2426625010174,10|8,2:0|2:0,2:0:0:0:
278,319,176119,1,8,2:0:0:0:
271,312,176229,6,0,L|257:238,3,45.6213312505087,10|8|8|8,3:2|2:0|2:0|2:0,2:0:0:0:
272,217,176670,2,0,L|258:143,3,45.6213312505087,2|0|0|0,3:2|3:2|3:2|3:2,2:0:0:0:
229,141,177111,6,0,B|173:148|173:148|165:153|165:153|93:162,2,126.145596154785,6|0|0,3:2|3:2|3:2,2:0:0:0:
300,81,177994,6,0,P|322:138|310:181,1,84.2239974365234,10|0,2:0|2:0,2:0:0:0:
299,200,178324,6,0,P|298:241|318:278,1,84.2239974365234,8|0,2:0|2:0,2:0:0:0:
364,285,178655,5,0,3:2:0:0:
280,324,178876,6,0,L|234:320,2,42.1119987182618,10|0|0,2:0|3:2|3:2,2:0:0:0:
311,358,179207,2,0,L|352:361,2,42.1119987182618,10|0|0,2:0|3:2|3:2,2:0:0:0:
282,336,179538,2,0,L|236:332,1,42.1119987182618,10|0,2:0|3:2,2:0:0:0:
204,302,179758,6,0,L|211:218,1,84.6047974365235,0|0,3:2|3:2,2:0:0:0:
230,176,180089,1,0,3:2:0:0:
216,166,180199,2,0,P|195:153|171:146,3,42.2389320515951,2|0|0|0,3:2|3:2|3:2|2:0,2:0:0:0:
163,120,180641,5,4,2:0:0:0:
256,192,180751,12,0,182405,2:0:0:0:
330,84,194317,6,0,P|341:99|348:119,3,28.0746666666666,8|0|0|0,2:0|3:2|3:2|3:2,2:0:0:0:
351,137,194758,6,0,L|238:130,1,112.0448,4|8,3:2|2:0,2:0:0:0:
182,175,195530,2,0,P|167:126|185:84,2,84.0970666666666,8|8|8,2:0|2:0|2:0,2:0:0:0:
83,224,196523,6,0,P|125:213|194:263,1,112.0448,4|8,3:2|2:0,2:0:0:0:
289,269,197295,1,8,2:0:0:0:
121,288,197626,1,8,2:0:0:0:
223,384,197957,1,8,2:0:0:0:
223,384,198067,1,0,3:2:0:0:
283,343,198288,6,0,P|331:330|365:269,1,112.0448,4|8,3:2|2:0,2:0:0:0:
295,185,199060,2,0,L|287:290,2,84.0970666666666,8|8|8,2:0|2:0|2:0,2:0:0:0:
255,83,200052,6,0,B|284:90|302:116|302:116|321:90|370:88,1,112.0448,4|8,3:2|2:0,2:0:0:0:
307,0,200824,1,8,2:0:0:0:
301,116,201155,1,8,2:0:0:0:
364,170,201376,1,8,2:0:0:0:
364,170,201486,2,0,L|363:219,2,28.0746666666666,0|0|0,3:2|3:2|3:2,2:0:0:0:
392,142,201817,6,0,P|447:127|498:162,1,112.0448,4|8,3:2|2:0,2:0:0:0:
459,268,202589,1,8,2:0:0:0:
459,268,202699,2,0,P|404:283|383:282,1,56.1493333333333,0|8,2:0|2:0,2:0:0:0:
339,326,203141,1,0,2:0:0:0:
339,326,203251,2,0,P|284:311|263:312,1,56.1493333333333,8|0,2:0|2:0,2:0:0:0:
247,321,203582,6,0,P|194:315|156:253,1,112.0448,4|8,3:2|2:0,2:0:0:0:
88,194,204354,1,8,2:0:0:0:
88,194,204464,2,0,P|99:180|103:133,1,56.1493333333333,0|8,3:2|2:0,2:0:0:0:
67,80,204905,2,0,L|72:28,3,28.0746666666666,8|0|0|0,2:0|3:2|3:2|3:2,2:0:0:0:
99,11,205347,6,0,P|138:10|184:48,1,77.2053356831869,4|0,3:2|3:2,2:0:0:0:
193,85,205677,2,0,L|233:152,1,77.2053356831869,12|0,2:0|3:2,2:0:0:0:
279,151,206008,2,0,L|319:85,1,77.2053356831869,12|0,2:0|3:2,2:0:0:0:
341,28,206339,2,0,P|374:9|413:11,1,76.8562690165202,10|0,2:0|3:2,2:0:0:0:
437,68,206670,1,8,2:0:0:0:
436,83,206780,1,0,3:2:0:0:
435,98,206891,1,0,3:2:0:0:
434,113,207001,1,0,3:2:0:0:
435,128,207111,6,0,L|434:171,2,38.6026678415934,12|0|0,2:0|2:0|3:2,2:0:0:0:
471,150,207442,2,0,L|508:129,2,38.6026678415934,12|0|0,2:0|2:0|3:2,2:0:0:0:
470,107,207773,1,12,2:0:0:0:
485,227,207994,6,0,L|486:273,3,38.6026678415934,10|8|8|8,2:0|2:0|2:0|2:0,2:0:0:0:
457,297,208435,1,8,2:0:0:0:
431,310,208545,1,8,2:0:0:0:
403,312,208655,1,8,2:0:0:0:
376,302,208766,1,8,2:0:0:0:
356,282,208876,5,0,2:0:0:0:
18,366,221008,5,0,3:2:0:0:
18,366,221119,1,0,3:2:0:0:
18,366,221229,2,0,P|37:335|90:309,1,84.224,8|0,2:0|3:2,2:0:0:0:
104,222,221891,1,0,3:2:0:0:
142,283,222111,5,4,3:2:0:0:
198,199,222332,2,0,L|248:194,1,45.6213312505087,8|8,2:0|2:0,2:0:0:0:
285,173,222552,1,8,2:0:0:0:
274,196,222663,1,8,2:0:0:0:
272,222,222773,1,8,2:0:0:0:
281,247,222883,1,8,2:0:0:0:
299,266,222994,6,0,B|350:258|350:258|355:262|355:262|424:251,2,126.145596154785,6|0|0,3:2|3:2|3:2,2:0:0:0:
250,327,223876,6,2,B|187:365|109:321|129:240|129:240|147:291|203:291,1,280.238933333333,8|0,2:0|3:2,2:0:0:0:
198,214,225199,2,0,L|210:112,1,84.2239974365234,0|0,3:2|2:0,2:0:0:0:
183,101,225530,1,0,3:2:0:0:
183,101,225641,5,10,2:0:0:0:
331,130,225972,1,8,2:0:0:0:
199,213,226302,1,0,3:2:0:0:
130,163,226523,6,0,B|74:143|67:193|8:179,2,126.145596154785,6|0|0,3:2|3:2|3:2,2:0:0:0:
166,102,227405,2,0,P|62:103|111:229,1,280.238933333333,10|0,2:0|3:2,2:0:0:0:
181,295,228729,1,0,3:2:0:0:
291,191,229060,1,0,3:2:0:0:
291,191,229170,5,10,2:0:0:0:
353,270,229391,1,0,3:2:0:0:
353,270,229501,1,8,2:0:0:0:
353,270,229611,2,0,L|396:269,3,42.1119987182618,0|0|0|0,3:2|3:2|3:2|3:2,2:0:0:0:
434,300,230052,6,0,P|437:262|507:212,2,126.145596154785,6|0|0,3:2|3:2|3:2,2:0:0:0:
359,327,230935,6,0,B|285:319|273:279|310:250|241:189|178:225|171:300|222:333|267:303,1,280.238933333333,10|0,2:0|3:2,2:0:0:0:
358,253,232258,2,0,L|342:155,1,84.2239974365234,0|0,3:2|2:0,2:0:0:0:
367,129,232589,1,0,3:2:0:0:
367,129,232699,5,10,2:0:0:0:
272,85,232920,1,0,3:2:0:0:
272,85,233030,1,8,2:0:0:0:
272,85,233141,2,0,P|278:51|279:16,3,42.1119987182618,0|0|0|0,3:2|2:0|3:2|3:2,2:0:0:0:
239,17,233582,6,0,L|188:13,2,42.1119987182618,14|0|0,2:0|3:2|3:2,2:0:0:0:
278,43,233913,2,0,L|329:39,2,42.1119987182618,14|0|0,2:0|3:2|3:2,2:0:0:0:
239,61,234244,2,0,L|188:57,2,42.1119987182618,14|0|0,2:0|3:2|3:2,2:0:0:0:
278,87,234574,2,0,L|329:83,2,42.3023987182618,14|0|0,2:0|3:2|3:2,2:0:0:0:
256,128,234905,1,14,2:0:0:0:
262,227,235126,1,8,2:0:0:0:
262,227,235236,1,0,2:0:0:0:
262,227,235347,6,0,L|205:220,3,42.1119987182618,10|8|8|8,2:0|2:0|2:0|2:0,2:0:0:0:
178,200,235788,2,0,L|121:207,3,42.1119987182618,0|0|0|0,3:2|3:2|3:2|3:2,2:0:0:0:
95,227,236229,6,0,L|87:269,1,42.1119987182618,10|0,2:0|3:2,2:0:0:0:
124,294,236449,2,0,L|116:336,1,42.1119987182618,8|0,2:0|3:2,2:0:0:0:
154,362,236670,1,8,2:0:0:0:
184,369,236780,1,0,3:2:0:0:
214,361,236891,1,0,3:2:0:0:
237,340,237001,1,0,3:2:0:0:
247,311,237111,6,0,L|249:202,1,91.2426625010174,6|0,3:2|3:2,2:0:0:0:
279,180,237442,1,0,3:2:0:0:
279,180,237552,1,10,2:0:0:0:
367,227,237773,5,0,3:2:0:0:
367,227,237883,2,0,P|370:177|408:101,1,136.863993751526,8|0,2:0|3:2,2:0:0:0:
333,33,238435,1,10,2:0:0:0:
482,71,238766,1,8,2:0:0:0:
482,71,238876,6,0,P|479:106|453:159,1,91.2426625010174,2|0,3:2|3:2,2:0:0:0:
410,172,239207,1,0,3:2:0:0:
410,172,239317,1,10,2:0:0:0:
315,138,239538,1,0,3:2:0:0:
315,138,239648,1,8,2:0:0:0:
315,138,239758,6,0,P|270:148|242:231,1,136.863993751526,2|0,3:2|3:2,2:0:0:0:
257,273,240199,2,0,L|160:254,1,91.2426625010174,10|0,2:0|3:2,2:0:0:0:
126,284,240530,1,8,2:0:0:0:
113,275,240641,6,0,P|126:228|103:163,1,91.2426625010174,6|0,3:2|3:2,2:0:0:0:
81,167,240972,1,0,3:2:0:0:
81,167,241082,1,10,2:0:0:0:
132,105,241302,1,0,3:0:0:0:
132,105,241413,1,8,2:0:0:0:
28,12,241744,1,0,3:2:0:0:
107,29,241964,1,10,2:0:0:0:
107,29,242074,1,0,3:2:0:0:
187,46,242295,1,8,2:0:0:0:
187,46,242405,6,0,L|283:35,1,91.2426625010174,2|0,3:2|3:2,2:0:0:0:
310,60,242736,1,0,3:2:0:0:
310,60,242847,1,10,2:0:0:0:
361,171,243177,1,8,2:0:0:0:
361,171,243288,2,0,P|384:131|448:126,1,91.2426625010174,2|8,3:2|2:0,2:0:0:0:
456,152,243619,1,8,2:0:0:0:
456,152,243729,2,0,P|444:180|397:194,3,45.6213312505087,2|8|0|0,3:2|2:0|3:2|3:2,2:0:0:0:
419,228,244170,6,0,L|431:326,1,91.2426625010174,6|0,3:2|3:2,2:0:0:0:
409,354,244501,1,0,3:2:0:0:
409,354,244611,1,10,2:0:0:0:
330,329,244832,5,0,3:2:0:0:
330,329,244942,1,8,2:0:0:0:
330,329,245052,1,2,3:2:0:0:
409,354,245273,1,8,2:0:0:0:
390,274,245494,2,0,L|409:227,3,45.6213312505087,10|0|0|0,2:0|3:2|3:2|3:2,2:0:0:0:
423,193,245935,5,8,2:0:0:0:
321,116,246155,1,8,2:0:0:0:
245,218,246376,1,8,2:0:0:0:
346,294,246597,1,8,2:0:0:0:
426,277,246817,5,8,2:0:0:0:
263,300,247038,1,8,2:0:0:0:
239,138,247258,1,8,2:0:0:0:
402,115,247479,1,8,2:0:0:0:
256,192,247699,12,0,252994,2:0:0:0:
