osu file format v14

[General]
AudioFilename: audio.mp3
AudioLeadIn: 0
PreviewTime: 48448
Countdown: 0
SampleSet: None
StackLeniency: 0.7
Mode: 0
LetterboxInBreaks: 0
WidescreenStoryboard: 0

[Editor]
DistanceSpacing: 0.5
BeatDivisor: 4
GridSize: 32
TimelineZoom: 2.3

[Metadata]
Title:Last Call
TitleUnicode:Last Call
Artist:MY FIRST STORY
ArtistUnicode:MY FIRST STORY
Creator:Feb
Version:Very Insane
Source:
Tags:
BeatmapID:1521013
BeatmapSetID:698757

[Difficulty]
HPDrainRate:6
CircleSize:3
OverallDifficulty:7
ApproachRate:9
SliderMultiplier:1.2
SliderTickRate:2

[Events]
//Background and Video events
0,0,"bg.jpg",0,0
Video,45,"video2.avi"
//Break Periods
2,68054,71604
2,120854,123654
2,180654,187254
//Storyboard Layer 0 (Background)
//Storyboard Layer 1 (Fail)
//Storyboard Layer 2 (Pass)
//Storyboard Layer 3 (Foreground)
//Storyboard Sound Samples

[TimingPoints]
13854,300,4,3,2,40,1,0
13854,-142.857142857143,4,3,2,40,0,0
14904,-71.4285714285714,4,3,4,75,0,0
24654,-100,4,3,4,65,0,0
31554,-100,4,3,7,65,0,0
31704,-100,4,3,4,65,0,0
31854,-83.3333333333333,4,3,4,65,0,0
34254,-86.9565217391304,4,3,4,70,0,0
36354,-86.9565217391304,4,3,7,70,0,0
36504,-86.9565217391304,4,3,4,70,0,0
38154,-105.263157894737,4,3,4,65,0,0
38754,-181.818181818181,4,3,4,65,0,0
38979,-181.818181818181,4,3,4,15,0,0
39054,-86.9565217391304,4,3,4,70,0,0
41154,-181.818181818181,4,3,4,65,0,0
41379,-181.818181818181,4,3,4,15,0,0
41454,-86.9565217391304,4,3,4,70,0,0
43854,-133.333333333333,4,3,4,80,0,0
44154,-86.9565217391304,4,3,7,50,0,0
44454,-86.9565217391304,4,3,4,55,0,0
44754,-86.9565217391304,4,3,4,60,0,0
45054,-86.9565217391304,4,3,4,65,0,0
45354,-86.9565217391304,4,3,4,70,0,0
46254,-86.9565217391304,4,3,4,75,0,0
46704,-86.9565217391304,4,3,4,80,0,0
48054,-50,4,3,4,100,0,0
48129,-50,4,2,4,5,0,0
48654,-200,4,3,4,80,0,1
49254,-153.846153846154,4,3,4,80,0,1
49554,-200,4,3,4,80,0,1
50004,-153.846153846154,4,3,7,80,0,1
50304,-200,4,3,4,80,0,1
51654,-153.846153846154,4,3,4,80,0,1
51954,-200,4,3,4,80,0,1
52404,-200,4,3,7,80,0,1
52554,-200,4,3,4,80,0,1
54804,-153.846153846154,4,3,4,80,0,1
55104,-200,4,3,4,80,0,1
55254,-153.846153846154,4,3,7,80,0,1
55404,-153.846153846154,4,3,4,80,0,1
55554,-200,4,3,4,80,0,1
56754,-133.333333333333,4,3,4,80,0,1
57054,-100,4,3,4,80,0,1
58254,-153.846153846154,4,3,4,80,0,1
58854,-153.846153846154,4,3,4,80,0,1
59154,-200,4,3,4,80,0,1
59604,-153.846153846154,4,3,7,80,0,1
59754,-200,4,3,4,80,0,1
59904,-200,4,3,4,80,0,1
61254,-153.846153846154,4,3,4,80,0,1
61554,-200,4,3,4,80,0,1
62004,-200,4,3,7,80,0,1
62154,-200,4,3,4,80,0,1
63654,-153.846153846154,4,3,4,80,0,1
63954,-200,4,3,4,80,0,1
64404,-153.846153846154,4,3,4,80,0,1
64704,-200,4,3,4,80,0,1
64854,-153.846153846154,4,3,7,80,0,1
65004,-200,4,3,4,80,0,1
65154,-200,4,3,4,80,0,1
66354,-100,4,3,4,80,0,1
66654,-50,4,3,4,100,0,0
66729,-50,4,2,4,5,0,0
67854,-133.333333333333,4,3,4,65,0,0
70254,-105.263157894737,4,3,4,65,0,0
72654,-100,4,3,4,65,0,0
82254,-86.9565217391304,4,3,4,70,0,0
83004,-86.9565217391304,4,3,7,70,0,0
83154,-86.9565217391304,4,3,4,70,0,0
84354,-86.9565217391304,4,3,7,70,0,0
84504,-86.9565217391304,4,3,4,70,0,0
86754,-86.9565217391304,4,3,7,70,0,0
86904,-86.9565217391304,4,3,4,70,0,0
89154,-86.9565217391304,4,3,7,70,0,0
89304,-86.9565217391304,4,3,4,70,0,0
89454,-74.0740740740741,4,3,4,70,0,0
90654,-83.3333333333333,4,3,4,70,0,0
91404,-133.333333333333,4,3,4,70,0,0
91854,-133.333333333333,4,3,4,60,0,0
96654,-133.333333333333,4,3,4,65,0,0
98904,-100,4,3,4,65,0,0
100254,-90.9090909090909,4,3,3,65,0,0
100554,-83.3333333333333,4,3,4,65,0,0
101454,-153.846153846154,4,3,4,80,0,1
102054,-153.846153846154,4,3,4,80,0,1
102354,-200,4,3,4,80,0,1
102804,-153.846153846154,4,3,7,80,0,1
102954,-200,4,3,4,80,0,1
103104,-200,4,3,4,80,0,1
104454,-153.846153846154,4,3,4,80,0,1
104754,-200,4,3,4,80,0,1
105204,-200,4,3,7,80,0,1
105354,-200,4,3,4,80,0,1
107604,-153.846153846154,4,3,4,80,0,1
107904,-200,4,3,4,80,0,1
108054,-153.846153846154,4,3,7,80,0,1
108204,-200,4,3,4,80,0,1
108354,-200,4,3,4,80,0,1
109554,-133.333333333333,4,3,4,80,0,1
109854,-100,4,3,4,80,0,1
111054,-153.846153846154,4,3,4,80,0,1
111654,-153.846153846154,4,3,4,80,0,1
111954,-200,4,3,4,80,0,1
112404,-153.846153846154,4,3,7,80,0,1
112554,-153.846153846154,4,3,4,80,0,1
112704,-200,4,3,4,80,0,1
114054,-153.846153846154,4,3,4,80,0,1
114354,-200,4,3,4,80,0,1
114804,-200,4,3,7,80,0,1
114954,-200,4,3,4,80,0,1
116454,-153.846153846154,4,3,4,80,0,1
116754,-200,4,3,4,80,0,1
117204,-153.846153846154,4,3,4,80,0,1
117504,-200,4,3,4,80,0,1
117654,-153.846153846154,4,3,7,80,0,1
117804,-153.846153846154,4,3,4,80,0,1
117954,-200,4,3,4,80,0,1
119154,-100,4,3,4,80,0,1
119379,-100,4,2,4,5,0,1
119454,-100,4,3,4,80,0,1
120354,-133.333333333333,4,3,4,80,0,1
120579,-133.333333333333,4,2,4,5,0,1
120654,-200,4,3,4,80,0,0
124254,-133.333333333333,4,3,4,60,0,0
125454,-200,4,3,4,60,0,0
130029,-200,4,2,4,5,0,0
130104,-200,4,3,4,60,0,0
139779,-200,4,2,4,5,0,0
139854,-200,4,3,4,60,0,0
142254,-133.333333333333,4,3,4,60,0,0
143379,-133.333333333333,4,2,4,5,0,0
143454,-71.4285714285714,4,3,4,60,0,0
144204,-285.714285714286,4,3,4,60,0,0
144504,-100,4,3,4,70,0,0
146604,-222.222222222222,4,3,4,60,0,0
147054,-100,4,3,4,70,0,0
151704,-79.9999999999999,4,3,4,70,0,0
153204,-117.647058823529,4,3,4,70,0,0
153804,-222.222222222222,4,3,4,60,0,0
154254,-100,4,3,4,70,0,0
156204,-222.222222222222,4,3,4,60,0,0
156654,-100,4,3,4,70,0,0
158604,-222.222222222222,4,3,4,60,0,0
159054,-100,4,3,4,70,0,0
163254,-133.333333333333,4,3,4,70,0,0
163554,-181.818181818182,4,3,4,70,0,0
163854,-285.714285714286,4,3,4,60,0,0
166254,-100,4,3,4,60,0,0
168654,-133.333333333333,4,3,4,60,0,0
171054,-83.3333333333333,4,3,4,60,0,0
177054,-100,4,3,4,60,0,0
177854,-133.333333333333,4,3,4,60,0,0
190854,-133.333333333333,4,2,4,5,0,0
191454,-200,4,3,4,80,0,1
192054,-153.846153846154,4,3,4,80,0,1
192354,-200,4,3,4,80,0,1
192804,-153.846153846154,4,3,7,80,0,1
192954,-153.846153846154,4,3,4,80,0,1
193104,-200,4,3,4,80,0,1
194454,-153.846153846154,4,3,4,80,0,1
194754,-200,4,3,4,80,0,1
195204,-200,4,3,7,80,0,1
195354,-200,4,3,4,80,0,1
197604,-153.846153846154,4,3,4,80,0,1
197904,-200,4,3,4,80,0,1
198054,-153.846153846154,4,3,7,80,0,1
198204,-153.846153846154,4,3,4,80,0,1
198354,-200,4,3,4,80,0,1
199554,-133.333333333333,4,3,4,80,0,1
199854,-100,4,3,4,80,0,1
201054,-153.846153846154,4,3,4,80,0,1
201654,-153.846153846154,4,3,4,80,0,1
201954,-200,4,3,4,80,0,1
202404,-153.846153846154,4,3,4,80,0,1
202704,-200,4,3,4,80,0,1
204054,-153.846153846154,4,3,4,80,0,1
204354,-200,4,3,4,80,0,1
206454,-153.846153846154,4,3,4,80,0,1
206754,-200,4,3,4,80,0,1
207204,-153.846153846154,4,3,4,80,0,1
207504,-200,4,3,4,80,0,1
207654,-153.846153846154,4,3,7,80,0,1
207804,-153.846153846154,4,3,7,5,0,1
207954,-200,4,3,4,80,0,1
208254,-100,4,3,4,80,0,1
209154,-142.857142857143,4,3,4,80,0,1
209604,-71.4285714285715,4,3,4,80,0,1
210354,-133.333333333333,4,3,4,80,0,1
210579,-133.333333333333,4,2,4,5,0,1
210654,-100,4,3,4,100,0,0
213804,-100,4,2,4,5,0,0

[Colours]
Combo1 : 102,102,102
Combo2 : 192,196,189

[HitObjects]
65,159,13854,5,2,0:0:0:0:
57,152,14154,1,2,0:0:0:0:
106,279,14304,1,2,0:0:0:0:
104,289,14379,1,2,0:0:0:0:
101,300,14454,2,0,L|111:240,2,41.9999987182618,8|8|8,0:1|0:1|0:1,0:0:0:0:
180,177,14904,6,0,P|244:139|364:165,1,167.999994873047,4|2,0:0|0:0,0:0:0:0:
415,302,15354,2,0,P|384:273|367:235,1,83.9999974365235,8|2,0:1|0:0,0:0:0:0:
247,125,15654,2,0,P|206:136|174:162,1,83.9999974365235,8|0,0:1|0:0,0:0:0:0:
425,162,15954,2,0,P|472:152|512:123,1,83.9999974365235,2|0,0:0|0:0,0:0:0:0:
270,236,16254,6,0,L|274:348,1,83.9999974365235,8|2,0:1|0:0,0:0:0:0:
353,90,16554,2,0,L|356:-14,1,83.9999974365235,8|2,0:1|0:0,0:0:0:0:
355,6,16779,1,2,0:0:0:0:
355,6,16854,2,0,B|396:-2|396:-2|458:15,2,83.9999974365235,8|4|4,0:1|0:0|0:0,0:0:0:0:
232,61,17304,6,0,B|159:52|159:52|169:50|42:37,1,167.999994873047,4|2,0:0|0:0,0:0:0:0:
152,164,17754,1,8,0:1:0:0:
214,50,17904,1,2,0:0:0:0:
70,240,18054,6,0,B|52:200|52:200|52:137,1,83.9999974365235,8|0,0:1|0:0,0:0:0:0:
60,253,18354,1,2,0:0:0:0:
153,342,18504,2,0,B|198:357|198:357|247:361,1,83.9999974365235,2|8,0:0|0:1,0:0:0:0:
138,348,18804,1,2,0:0:0:0:
330,350,18954,5,8,0:3:0:0:
371,343,19029,1,8,0:3:0:0:
412,335,19104,1,8,0:3:0:0:
453,327,19179,1,8,0:3:0:0:
495,327,19254,2,0,B|510:289|510:289|501:227,2,83.9999974365235,8|8|8,0:1|0:1|0:1,0:0:0:0:
394,377,19704,6,0,B|383:179,1,167.999994873047,4|2,0:0|0:0,0:0:0:0:
476,82,20154,2,0,B|447:53|447:53|389:39,1,83.9999974365235,8|2,0:1|0:0,0:0:0:0:
220,146,20454,1,8,0:1:0:0:
312,169,20604,2,0,B|353:161|353:161|399:112,1,83.9999974365235,2|2,0:0|0:0,0:0:0:0:
144,88,20904,6,0,B|103:93|103:93|59:115,2,83.9999974365235,8|8|2,0:1|0:1|0:0,0:0:0:0:
107,262,21354,2,0,B|69:279|69:279|34:313,2,83.9999974365235,8|2|8,0:1|0:0|0:0,0:0:0:0:
194,274,21729,1,8,0:1:0:0:
204,280,21804,1,8,0:1:0:0:
213,288,21879,1,8,0:1:0:0:
221,296,21954,1,8,0:0:0:0:
227,306,22029,1,0,0:0:0:0:
240,326,22104,6,0,B|329:343|329:343|374:343|417:321,1,167.999994873047,4|2,0:1|0:0,0:0:0:0:
268,183,22554,5,8,0:1:0:0:
325,308,22704,1,2,0:0:0:0:
239,179,22854,5,8,0:1:0:0:
437,247,23004,1,2,0:0:0:0:
369,152,23154,2,0,L|369:48,1,83.9999974365235,8|2,0:1|0:0,0:0:0:0:
369,59,23379,1,2,0:0:0:0:
368,50,23454,6,0,B|409:39|409:39|455:43,2,83.9999974365235,8|2|2,0:1|0:0|0:0,0:0:0:0:
119,266,23904,2,0,B|78:277|78:277|32:273,2,83.9999974365235,8|2|2,0:1|0:0|0:0,0:0:0:0:
97,22,24354,5,8,0:0:0:0:
73,51,24429,1,8,0:0:0:0:
70,88,24504,1,8,0:0:0:0:
84,122,24579,1,8,0:0:0:0:
128,153,24654,6,0,L|192:146,1,60,4|0,0:0|0:0,0:0:0:0:
187,146,24954,2,0,B|272:138,1,60,4|0,0:0|0:0,0:0:0:0:
246,140,25254,6,0,L|310:133,1,60,4|0,0:0|0:0,0:0:0:0:
305,133,25554,2,0,B|390:125,1,60,4|0,0:3|0:0,0:0:0:0:
205,250,25854,6,0,L|269:243,1,60,4|0,0:0|0:0,0:0:0:0:
264,243,26154,2,0,B|348:235,1,60,4|0,0:0|0:0,0:0:0:0:
323,237,26454,6,0,L|387:230,1,60,4|0,0:3|0:0,0:0:0:0:
471,225,26754,1,4,0:3:0:0:
471,225,26904,1,4,0:1:0:0:
344,352,27054,6,0,L|280:345,1,60,4|0,0:0|0:0,0:0:0:0:
191,335,27354,1,4,0:0:0:0:
344,352,27504,6,0,L|404:347,2,60,0|4|0,0:0|0:0|0:0,0:0:0:0:
191,335,27954,1,4,0:0:0:0:
88,325,28104,6,0,B|69:293|69:293|82:191,1,120,2|0,0:0|0:0,0:0:0:0:
82,93,28554,2,0,B|59:74|59:74|16:66,1,60,4|0,0:0|0:0,0:0:0:0:
8,153,28854,1,4,0:0:0:0:
157,153,29004,2,0,B|180:134|180:134|223:126,1,60,0|4,0:0|0:0,0:0:0:0:
231,213,29304,1,0,0:0:0:0:
175,39,29454,6,0,B|303:20,1,120,4|8,0:1|0:1,0:0:0:0:
293,21,29904,1,4,0:0:0:0:
487,115,30054,2,0,B|359:96,1,120,0|4,0:0|0:0,0:0:0:0:
369,97,30504,1,4,0:0:0:0:
384,326,30654,5,8,0:1:0:0:
384,326,30804,2,0,B|375:255,1,60,4|8,0:0|0:1,0:0:0:0:
275,190,31104,2,0,B|265:264,1,60,4|4,0:0|0:0,0:0:0:0:
148,350,31404,2,0,L|130:204,1,120,4|4,0:0|0:0,0:0:0:0:
6,74,31854,6,0,B|42:85|42:85|91:86,1,71.9999978027344,4|4,0:1|0:0,0:0:0:0:
256,189,32154,2,0,B|222:171|222:171|197:147,1,71.9999978027344,8|4,0:1|0:0,0:0:0:0:
352,40,32454,2,0,B|380:20|380:20|415:8,1,71.9999978027344,8|0,0:1|0:0,0:0:0:0:
434,205,32754,5,4,0:0:0:0:
307,119,32904,1,4,0:0:0:0:
352,252,33054,5,8,0:1:0:0:
407,111,33204,1,4,0:0:0:0:
468,329,33354,6,0,L|418:322,3,35.9999989013672,8|8|8|8,0:1|0:0|0:0|0:0,0:0:0:0:
348,364,33654,2,0,L|302:354,3,35.9999989013672,8|8|8|8,0:0|0:0|0:0|0:0,0:0:0:0:
219,376,33954,5,8,0:0:0:0:
188,356,34029,1,8,0:0:0:0:
173,322,34104,1,8,0:0:0:0:
166,286,34179,1,8,0:0:0:0:
190,260,34254,6,0,B|152:269|152:269|118:290,2,69.0000013160706,4|4|8,0:1|0:0|0:0,0:0:0:0:
309,166,34704,2,0,B|275:146|275:146|235:138,2,69.0000013160706,4|0|4,0:0|0:0|0:0,0:0:0:0:
328,261,35154,1,8,0:1:0:0:
150,167,35304,6,0,B|138:10,1,138.000002632141,4|4,0:0|0:0,0:0:0:0:
77,233,35754,1,8,0:1:0:0:
77,233,35904,2,0,L|69:319,1,69.0000013160706,0|4,0:0|0:0,0:0:0:0:
158,375,36204,2,0,P|213:334|302:337,1,138.000002632141,4|0,0:0|0:0,0:0:0:0:
372,381,36654,5,4,0:0:0:0:
372,381,36804,1,4,0:0:0:0:
193,276,36954,2,0,L|186:205,1,69.0000013160706,8|4,0:1|0:0,0:0:0:0:
53,17,37254,6,0,B|88:26|88:26|134:58,2,69.0000013160706,0|4|8,0:0|0:0|0:1,0:0:0:0:
246,104,37704,2,0,B|234:74|234:74|211:47,1,69.0000013160706,4|0,0:0|0:0,0:0:0:0:
113,164,38004,1,4,0:0:0:0:
330,61,38154,6,0,B|379:50|376:49|376:49|459:34,1,113.999996955872,8|0,0:1|0:0,0:0:0:0:
309,311,38604,1,8,0:0:0:0:
299,281,38679,1,8,0:0:0:0:
293,263,38754,1,12,0:1:0:0:
293,263,39054,6,0,B|326:266|326:266|381:290,2,69.0000013160706,4|4|8,0:1|0:0|0:0,0:0:0:0:
462,178,39504,2,0,B|489:196|489:196|527:243,2,69.0000013160706,4|0|4,0:0|0:0|0:0,0:0:0:0:
363,156,39954,1,8,0:1:0:0:
211,304,40104,6,0,B|147:323|147:323|58:327,1,138.000002632141,4|4,0:0|0:0,0:0:0:0:
240,204,40554,1,8,0:1:0:0:
240,204,40704,2,0,L|247:127,1,69.0000013160706,0|4,0:0|0:0,0:0:0:0:
42,160,41004,2,0,L|47:254,1,69.0000013160706,4|8,0:0|0:1,0:0:0:0:
45,228,41304,1,0,0:0:0:0:
56,63,41454,6,0,L|67:210,1,138.000002632141,0|8,0:0|0:1,0:0:0:0:
153,25,41904,1,4,0:0:0:0:
153,25,42054,2,0,B|184:10|184:10|231:5,1,69.0000013160706,0|4,0:0|0:0,0:0:0:0:
380,71,42354,2,0,B|352:46|352:46|292:33,1,69.0000013160706,8|0,0:1|0:0,0:0:0:0:
361,254,42654,5,4,0:0:0:0:
361,254,42804,2,0,L|369:162,1,69.0000013160706,0|4,0:1|0:0,0:0:0:0:
161,121,43104,1,8,0:0:0:0:
167,144,43179,1,8,0:0:0:0:
174,168,43254,6,0,L|265:183,1,69.0000013160706,8|4,0:1|0:0,0:0:0:0:
87,346,43554,2,0,L|13:362,1,69.0000013160706,4|4,0:0|0:0,0:0:0:0:
79,125,43854,6,0,B|171:114|171:114|314:82,1,225.000008583069,12|8,0:1|0:1,0:0:0:0:
116,29,44754,5,8,0:1:0:0:
80,151,44904,1,8,0:1:0:0:
199,86,45054,5,8,0:1:0:0:
178,227,45204,1,8,0:1:0:0:
303,126,45354,5,8,0:1:0:0:
330,252,45504,1,8,0:1:0:0:
441,117,45654,6,0,L|449:67,3,34.5000006580353,8|8|8|8,0:0|0:0|0:0|0:0,0:0:0:0:
472,222,45954,2,0,L|481:266,3,34.5000006580353,8|8|8|8,0:0|0:0|0:0|0:0,0:0:0:0:
346,211,46254,6,0,B|317:226|317:226|286:259,2,69.0000013160706,12|4|4,0:1|0:0|0:0,0:0:0:0:
55,229,46704,2,0,B|47:260|47:260|53:305,2,69.0000013160706,8|4|4,0:1|0:0|0:0,0:0:0:0:
238,145,47154,5,8,0:1:0:0:
139,337,47304,1,4,0:0:0:0:
107,64,47454,6,0,L|101:24,7,34.5000006580353,8|8|8|8|8|8|8|8,0:0|0:0|0:0|0:0|0:0|0:0|0:0|0:0,0:0:0:0:
128,162,48054,6,0,L|136:76,1,60,8|0,0:3|0:0,0:0:0:0:
133,181,48654,5,4,0:1:0:0:
133,181,48804,1,4,0:0:0:0:
220,343,48954,2,0,P|250:338|281:319,1,60,0|8,0:0|0:1,0:0:0:0:
339,212,49404,2,0,P|378:210|416:220,1,77.9999964294435,0|0,0:0|0:0,0:0:0:0:
137,262,49854,6,0,L|133:197,1,60
100,357,50304,1,8,0:0:0:0:
100,357,50379,1,8,0:0:0:0:
100,357,50454,1,8,0:1:0:0:
162,265,50604,1,4,0:0:0:0:
15,317,50754,1,4,0:0:0:0:
158,119,50904,6,0,P|196:105|223:112,1,60,8|4,0:1|0:0,0:0:0:0:
372,32,51354,2,0,P|361:22|347:20,1,30,4|4,0:0|0:0,0:0:0:0:
474,95,51654,1,8,0:1:0:0:
474,95,51804,2,0,P|487:62|485:19,1,77.9999964294435,0|0,0:0|0:0,0:0:0:0:
375,231,52254,6,0,P|362:263|365:294,1,60,0|4,0:0|0:0,0:0:0:0:
437,354,52704,1,4,0:0:0:0:
289,349,52854,1,8,0:1:0:0:
289,349,53004,1,4,0:0:0:0:
207,282,53154,6,0,L|174:278,1,30,0|8,0:0|0:1,0:0:0:0:
34,206,53454,2,0,L|67:200,1,30,4|4,0:0|0:0,0:0:0:0:
73,100,53754,2,0,L|42:94,1,30,4|4,0:0|0:0,0:0:0:0:
266,186,54054,1,8,0:1:0:0:
266,186,54204,2,0,P|278:176|285:161,1,30,0|0,0:0|0:0,0:0:0:0:
187,53,54504,6,0,P|189:65|205:81,1,30,0|0,0:0|0:0,0:0:0:0:
413,49,54804,2,0,P|427:39|449:34,1,38.9999982147218,8|4,0:1|0:0,0:0:0:0:
427,292,55104,2,0,P|398:277|371:225,1,90,4|0,0:0|0:0,0:0:0:0:
482,197,55704,1,8,0:0:0:0:
482,197,55779,1,8,0:0:0:0:
482,197,55854,5,8,0:1:0:0:
441,300,56004,1,4,0:0:0:0:
337,360,56154,1,4,0:0:0:0:
450,310,56304,5,8,0:1:0:0:
334,373,56454,1,4,0:0:0:0:
229,309,56604,1,4,0:0:0:0:
353,132,56754,1,8,0:1:0:0:
353,132,57054,6,0,L|306:140,5,30,0|0|0|0|0|8,0:0|0:0|0:0|0:0|0:0|0:0,0:0:0:0:
257,224,57504,2,0,L|288:234,5,30,4|8|8|8|8|8,0:0|0:0|0:0|0:0|0:0|0:0,0:0:0:0:
402,227,57954,5,8,0:1:0:0:
441,186,58029,1,8,0:1:0:0:
453,130,58104,1,8,0:1:0:0:
436,75,58179,1,8,0:1:0:0:
389,43,58254,6,0,P|382:29|379:1,1,38.9999982147218,4|4,0:1|0:0,0:0:0:0:
227,125,58554,2,0,P|194:103|156:95,1,77.9999964294435,4|8,0:0|0:1,0:0:0:0:
105,0,59004,2,0,P|66:2|26:19,1,77.9999964294435,0|0,0:0|0:0,0:0:0:0:
102,209,59454,6,0,L|98:274,1,60,0|0,0:0|0:0,0:0:0:0:
37,149,59904,1,8,0:0:0:0:
37,149,59979,1,8,0:0:0:0:
37,149,60054,1,8,0:1:0:0:
122,203,60204,1,4,0:0:0:0:
26,334,60354,1,4,0:0:0:0:
201,259,60504,6,0,P|239:245|266:252,1,60,8|4,0:1|0:0,0:0:0:0:
400,175,60954,2,0,P|389:165|375:163,1,30,4|4,0:0|0:0,0:0:0:0:
481,232,61254,1,8,0:1:0:0:
481,232,61404,2,0,P|494:199|492:156,1,77.9999964294435,0|0,0:0|0:0,0:0:0:0:
291,64,61854,6,0,P|278:96|281:127,1,60,0|4,0:0|0:0,0:0:0:0:
385,37,62304,1,4,0:0:0:0:
195,106,62454,1,8,0:1:0:0:
195,106,62604,1,4,0:0:0:0:
124,33,62754,6,0,L|92:20,1,30,8|8,0:1|0:1,0:0:0:0:
173,223,63054,2,0,L|206:217,1,30,4|4,0:0|0:0,0:0:0:0:
207,329,63354,2,0,L|176:323,1,30,4|4,0:0|0:0,0:0:0:0:
277,159,63654,1,8,0:1:0:0:
277,159,63804,2,0,P|288:148|311:139,1,38.9999982147218,0|0,0:0|0:0,0:0:0:0:
381,365,64104,6,0,P|370:358|363:336,1,30,0|0,0:0|0:0,0:0:0:0:
487,190,64404,2,0,P|496:175|501:153,1,38.9999982147218,8|4,0:1|0:0,0:0:0:0:
248,150,64704,2,0,P|227:124|222:66,1,90,4|0,0:0|0:0,0:0:0:0:
312,18,65304,1,8,0:0:0:0:
312,18,65379,1,8,0:0:0:0:
312,18,65454,5,8,0:1:0:0:
217,65,65604,1,4,0:0:0:0:
120,34,65754,1,4,0:0:0:0:
329,8,65904,2,0,B|358:0|358:0|392:-1,1,60,8|8,0:1|0:1,0:0:0:0:
469,46,66354,5,8,0:1:0:0:
465,84,66429,1,8,0:0:0:0:
460,122,66504,1,8,0:0:0:0:
455,160,66579,1,8,0:0:0:0:
447,219,66654,6,0,L|455:159,1,60,8|0,0:0|0:0,0:0:0:0:
457,137,67854,5,4,0:1:0:0:
38,74,72204,6,0,L|50:192,1,113.999996955872,8|8,0:1|0:0,0:0:0:0:
114,264,72579,1,8,0:0:0:0:
134,228,72654,6,0,B|160:212|160:212|197:203,2,60,4|4|8,0:1|0:0|0:1,0:0:0:0:
74,354,73104,1,4,0:0:0:0:
74,354,73254,1,8,0:1:0:0:
74,354,73404,1,4,0:0:0:0:
219,292,73554,2,0,B|254:293|254:293|291:302,1,60,8|4,0:1|0:0,0:0:0:0:
493,348,73854,6,0,B|462:357|462:357|431:360,1,60,8|4,0:1|0:0,0:0:0:0:
304,278,74154,2,0,L|298:212,1,60,8|4,0:1|0:0,0:0:0:0:
457,229,74454,2,0,L|462:169,1,60,8|8,0:1|0:0,0:0:0:0:
461,169,74679,1,8,0:0:0:0:
461,169,74754,2,0,L|469:102,1,60,8|4,0:1|0:0,0:0:0:0:
263,135,75054,6,0,B|237:150|237:150|199:158,2,60,12|4|8,0:1|0:0|0:1,0:0:0:0:
286,41,75504,1,4,0:0:0:0:
286,41,75654,1,8,0:1:0:0:
286,41,75804,1,4,0:0:0:0:
143,83,75954,2,0,B|113:81|113:81|76:70,1,60,8|8,0:1|0:0,0:0:0:0:
84,72,76179,1,8,0:0:0:0:
84,72,76254,5,12,0:1:0:0:
21,225,76404,1,4,0:0:0:0:
21,225,76554,2,0,B|50:214|50:214|81:212,1,60,8|4,0:1|0:0,0:0:0:0:
223,270,76854,1,8,0:1:0:0:
129,283,77004,2,0,B|112:297|112:297|100:315,2,30,8|8|8,0:0|0:0|0:1,0:0:0:0:
240,282,77304,1,4,0:0:0:0:
384,338,77454,6,0,B|415:332|415:332|450:318,2,60,12|4|8,0:1|0:0|0:1,0:0:0:0:
330,257,77904,1,4,0:0:0:0:
330,257,78054,1,8,0:1:0:0:
330,257,78204,1,4,0:0:0:0:
434,145,78354,2,0,B|438:77,1,60,8|8,0:1|0:0,0:0:0:0:
437,85,78579,1,8,0:0:0:0:
437,85,78654,5,8,0:1:0:0:
288,164,78804,1,4,0:0:0:0:
231,98,78954,2,0,B|205:90|205:90|161:87,1,60,8|4,0:1|0:0,0:0:0:0:
142,202,79254,2,0,B|116:210|116:210|72:213,1,60,8|8,0:1|0:0,0:0:0:0:
83,212,79479,1,8,0:0:0:0:
83,212,79554,2,0,B|50:209|50:209|24:201,1,60,8|4,0:1|0:0,0:0:0:0:
218,314,79854,6,0,B|202:291|202:291|174:274,2,60,12|4|8,0:1|0:0|0:1,0:0:0:0:
128,374,80304,1,4,0:0:0:0:
128,374,80454,1,8,0:1:0:0:
128,374,80604,1,4,0:0:0:0:
306,283,80754,2,0,B|332:273|332:273|371:270,1,60,8|8,0:1|0:0,0:0:0:0:
377,290,80979,1,8,0:0:0:0:
391,309,81054,5,8,0:1:0:0:
283,179,81204,1,8,0:1:0:0:
346,90,81354,2,0,B|372:78|372:78|413:76,1,60,4|0,0:1|0:0,0:0:0:0:
269,161,81654,1,4,0:0:0:0:
253,59,81804,2,0,B|262:45|262:45|275:35,2,30,8|8|8,0:0|0:0|0:1,0:0:0:0:
162,128,82104,1,8,0:0:0:0:
130,144,82179,1,8,0:0:0:0:
94,154,82254,6,0,P|63:153|30:135,1,69.0000013160706,4|4,0:1|0:0,0:0:0:0:
98,274,82554,2,0,P|127:256|161:255,1,69.0000013160706,8|0,0:1|0:0,0:0:0:0:
252,366,82854,2,0,P|323:384|391:367,1,138.000002632141,4|0,0:0|0:0,0:0:0:0:
511,243,83304,6,0,P|475:259|424:265,1,69.0000013160706,4|8,0:0|0:1,0:0:0:0:
367,131,83604,2,0,P|335:113|289:114,1,69.0000013160706,4|4,0:0|0:0,0:0:0:0:
476,89,83904,2,0,L|487:16,1,69.0000013160706,8|4,0:1|0:0,0:0:0:0:
311,197,84204,2,0,L|315:349,1,138.000002632141,4|8,0:0|0:0,0:0:0:0:
222,368,84579,1,8,0:0:0:0:
179,382,84654,6,0,B|158:352|158:352|148:299,1,69.0000013160706,4|4,0:0|0:0,0:0:0:0:
190,226,84954,1,8,0:1:0:0:
190,226,85104,1,4,0:0:0:0:
100,143,85254,2,0,B|73:134|73:134|27:128,2,69.0000013160706,4|8|4,0:0|0:1|0:0,0:0:0:0:
319,213,85704,6,0,P|347:207|379:179,1,69.0000013160706,4|8,0:1|0:1,0:0:0:0:
492,80,86004,2,0,P|501:46|500:12,1,69.0000013160706,4|4,0:0|0:0,0:0:0:0:
300,129,86304,2,0,L|224:110,1,69.0000013160706,8|4,0:1|0:0,0:0:0:0:
379,284,86604,2,0,L|228:301,1,138.000002632141,4|8,0:0|0:0,0:0:0:0:
196,373,86979,1,8,0:0:0:0:
154,356,87054,6,0,B|139:324|139:324|138:269,1,69.0000013160706,4|4,0:1|0:0,0:0:0:0:
35,319,87354,1,8,0:1:0:0:
35,319,87504,1,4,0:0:0:0:
201,194,87654,2,0,B|222:165|222:165|229:118,1,69.0000013160706,4|4,0:0|0:0,0:0:0:0:
4,223,87954,1,8,0:1:0:0:
32,39,88104,6,0,P|58:25|99:22,1,69.0000013160706,4|4,0:0|0:0,0:0:0:0:
154,136,88404,2,0,P|187:150|231:142,1,69.0000013160706,4|8,0:0|0:1,0:0:0:0:
278,36,88704,1,4,0:0:0:0:
278,36,88854,1,4,0:0:0:0:
43,124,89004,2,0,B|46:175|46:175|44:174|52:268,1,138.000002632141,4|8,0:0|0:0,0:0:0:0:
0,329,89379,1,8,0:0:0:0:
28,355,89454,6,0,B|65:372|65:372|132:353,1,81.0000003089905,8|4,0:1|0:0,0:0:0:0:
262,56,89754,2,0,B|223:45|223:45|186:62,1,81.0000003089905,8|4,0:1|0:0,0:0:0:0:
193,328,90054,6,0,B|230:345|230:345|297:326,1,81.0000003089905,8|4,0:1|0:0,0:0:0:0:
427,13,90354,2,0,B|388:2|388:2|351:19,1,81.0000003089905,8|0,0:1|0:0,0:0:0:0:
371,370,90654,6,0,B|381:323|381:323|358:261,1,95.9999970703126,4|0,0:1|0:0,0:0:0:0:
291,228,90954,1,8,0:1:0:0:
291,228,91054,1,8,0:1:0:0:
291,228,91154,2,0,L|235:222,1,47.9999985351563,8|8,0:1|0:3,0:0:0:0:
368,169,91404,6,0,P|404:152|470:154,1,90.0000034332277,4|4,0:1|0:0,0:0:0:0:
512,224,91854,5,8,0:0:0:0:
512,224,92154,1,8,0:1:0:0:
512,224,92754,1,8,0:1:0:0:
512,224,93354,1,8,0:1:0:0:
512,224,93954,5,8,0:1:0:0:
448,147,94104,1,4,0:0:0:0:
469,52,94254,5,4,0:1:0:0:
469,52,94554,1,8,0:1:0:0:
469,52,95154,1,8,0:1:0:0:
383,86,95454,6,0,L|337:77,1,45.0000017166138,8|8,0:1|0:1,0:0:0:0:
182,94,95754,2,0,L|137:86,1,45.0000017166138,4|8,0:1|0:0,0:0:0:0:
137,86,95979,1,8,0:0:0:0:
137,86,96054,5,8,0:1:0:0:
104,177,96204,1,4,0:0:0:0:
155,74,96354,1,4,0:0:0:0:
69,10,96504,1,4,0:0:0:0:
211,179,96654,6,0,L|355:171,1,135.000005149841,4|4,0:1|0:0,0:0:0:0:
168,257,97254,1,8,0:1:0:0:
168,257,97554,5,4,0:0:0:0:
244,316,97704,1,4,0:0:0:0:
244,316,98004,5,8,0:1:0:0:
337,291,98304,5,4,0:0:0:0:
434,312,98454,2,0,B|444:257,1,45.0000017166138,8|0,0:1|0:0,0:0:0:0:
463,162,98904,1,8,0:3:0:0:
474,166,98979,1,8,0:3:0:0:
484,172,99054,6,0,L|445:180,5,30,8|8|8|8|8|8,0:1|0:0|0:0|0:0|0:0|0:0,0:0:0:0:
375,74,99504,2,0,L|425:89,5,30,8|8|8|8|8|8,0:1|0:0|0:0|0:0|0:0|0:0,0:0:0:0:
276,193,99954,5,8,0:1:0:0:
247,163,100028,1,8,0:0:0:0:
235,121,100104,1,8,0:0:0:0:
244,80,100179,1,8,0:0:0:0:
267,53,100254,6,0,B|251:46|251:46|232:42,3,33.0000010070801,4|4|12|4,0:0|0:0|0:0|0:0,0:0:0:0:
127,13,100554,2,0,B|109:14|109:14|88:24,3,35.9999989013672,4|4|4|4,0:0|0:0|0:0|0:0,0:0:0:0:
39,127,100854,5,8,0:1:0:0:
77,135,100929,1,8,0:1:0:0:
116,133,101004,1,8,0:1:0:0:
155,127,101079,1,8,0:1:0:0:
193,118,101154,1,8,0:1:0:0:
230,105,101229,1,8,0:1:0:0:
266,89,101304,1,8,0:1:0:0:
301,71,101379,1,8,0:1:0:0:
329,42,101454,6,0,P|341:21|343:4,1,38.9999982147218,4|4,0:1|0:0,0:0:0:0:
227,144,101754,2,0,P|210:176|208:224,1,77.9999964294435,4|8,0:0|0:1,0:0:0:0:
307,352,102204,2,0,P|286:313|254:285,1,77.9999964294435,0|0,0:0|0:0,0:0:0:0:
57,278,102654,6,0,L|119:270,1,60,0|0,0:0|0:0,0:0:0:0:
8,192,103104,1,8,0:0:0:0:
8,192,103179,1,8,0:0:0:0:
8,192,103254,1,8,0:1:0:0:
45,284,103404,1,4,0:0:0:0:
86,131,103554,1,4,0:0:0:0:
232,262,103704,6,0,P|270:276|297:269,1,60,8|4,0:1|0:0,0:0:0:0:
404,157,104154,2,0,P|393:147|379:145,1,30,4|4,0:0|0:0,0:0:0:0:
446,346,104454,1,8,0:1:0:0:
446,346,104604,2,0,P|459:313|457:270,1,77.9999964294435,0|0,0:0|0:0,0:0:0:0:
296,93,105054,6,0,P|283:125|286:156,1,60,0|4,0:0|0:0,0:0:0:0:
372,44,105504,1,12,0:0:0:0:
372,44,105579,1,8,0:0:0:0:
372,44,105654,1,8,0:1:0:0:
194,150,105804,1,4,0:0:0:0:
116,81,105954,6,0,L|111:50,1,30,0|8,0:0|0:1,0:0:0:0:
40,247,106254,2,0,L|35:288,1,30,4|4,0:0|0:0,0:0:0:0:
132,321,106554,2,0,L|129:281,1,30,4|4,0:0|0:0,0:0:0:0:
297,156,106854,1,8,0:1:0:0:
297,156,107004,2,0,P|311:150|331:146,1,30,0|0,0:0|0:0,0:0:0:0:
399,329,107304,6,0,P|388:321|381:301,1,30,0|0,0:0|0:0,0:0:0:0:
429,75,107604,2,0,P|445:80|462:94,1,38.9999982147218,8|4,0:1|0:0,0:0:0:0:
252,238,107904,2,0,P|223:223|196:171,1,90,4|0,0:0|0:0,0:0:0:0:
297,156,108504,1,8,0:0:0:0:
297,156,108579,1,8,0:0:0:0:
297,156,108654,5,8,0:1:0:0:
264,247,108804,1,4,0:0:0:0:
189,298,108954,1,4,0:0:0:0:
277,260,109104,5,8,0:1:0:0:
193,312,109254,1,4,0:0:0:0:
105,284,109404,1,4,0:0:0:0:
328,339,109554,1,8,0:1:0:0:
328,339,109854,6,0,L|293:350,5,30,0|0|8|8|8|8,0:0|0:0|0:1|0:0|0:0|0:0,0:0:0:0:
398,240,110304,2,0,L|428:247,5,30,4|8|8|8|8|8,0:0|0:0|0:0|0:0|0:0|0:0,0:0:0:0:
302,246,110754,5,8,0:1:0:0:
268,199,110829,1,8,0:1:0:0:
253,144,110904,1,8,0:1:0:0:
261,87,110979,1,8,0:1:0:0:
299,40,111054,6,0,P|312:32|340:27,1,38.9999982147218,4|4,0:1|0:0,0:0:0:0:
229,143,111354,2,0,P|194:145|151:127,1,77.9999964294435,4|8,0:0|0:1,0:0:0:0:
75,13,111804,2,0,P|40:2|-4:5,1,77.9999964294435,0|0,0:0|0:0,0:0:0:0:
80,252,112254,6,0,L|76:187,1,60,0|0,0:0|0:0,0:0:0:0:
35,344,112704,1,8,0:0:0:0:
35,344,112779,1,8,0:0:0:0:
35,344,112854,1,8,0:1:0:0:
96,264,113004,1,4,0:0:0:0:
0,154,113154,1,4,0:0:0:0:
121,348,113304,6,0,P|159:362|186:355,1,60,8|4,0:1|0:0,0:0:0:0:
264,224,113754,2,0,P|253:214|239:212,1,30,4|4,0:0|0:0,0:0:0:0:
426,299,114054,1,8,0:1:0:0:
426,299,114204,2,0,P|439:266|437:223,1,77.9999964294435,0|0,0:0|0:0,0:0:0:0:
281,73,114654,6,0,P|304:98|333:108,1,60,0|4,0:0|0:0,0:0:0:0:
391,46,115104,1,4,0:0:0:0:
211,129,115254,1,8,0:1:0:0:
211,129,115404,1,4,0:0:0:0:
135,66,115554,6,0,L|100:61,1,30,8|8,0:1|0:1,0:0:0:0:
24,218,115854,2,0,L|57:212,1,30,4|4,0:0|0:0,0:0:0:0:
122,314,116154,2,0,L|91:308,1,30,4|4,0:0|0:0,0:0:0:0:
274,370,116454,1,8,0:1:0:0:
274,370,116604,2,0,P|284:358|291:334,1,38.9999982147218,0|0,0:0|0:0,0:0:0:0:
400,203,116904,6,0,P|393:187|374:174,1,30,0|0,0:0|0:0,0:0:0:0:
184,224,117204,2,0,P|201:226|223:222,1,38.9999982147218,8|4,0:1|0:0,0:0:0:0:
275,14,117504,2,0,P|245:29|218:81,1,90,4|0,0:0|0:0,0:0:0:0:
323,113,118104,5,8,0:0:0:0:
317,107,118179,1,8,0:0:0:0:
312,101,118254,5,12,0:1:0:0:
257,168,118404,1,4,0:0:0:0:
294,253,118554,1,8,0:1:0:0:
298,260,118629,1,8,0:0:0:0:
302,267,118704,5,8,0:0:0:0:
367,196,118854,1,4,0:0:0:0:
338,361,119004,5,4,0:0:0:0:
185,215,119154,1,8,0:1:0:0:
185,215,119454,5,4,0:1:0:0:
440,215,119604,2,0,L|452:142,1,60,8|4,0:1|0:1,0:0:0:0:
468,57,119904,1,8,0:1:0:0:
468,57,119979,1,8,0:1:0:0:
468,57,120054,1,8,0:1:0:0:
292,85,120204,1,4,0:0:0:0:
292,85,120354,6,0,B|367:74,1,67.5000025749207,4|0,0:0|0:0,0:0:0:0:
372,72,120654,5,4,0:1:0:0:
230,49,124254,6,0,P|193:27|101:24,1,135.000005149841,4|0,0:1|0:0,0:0:0:0:
144,149,124854,1,4,0:0:0:0:
143,144,125004,1,4,0:0:0:0:
142,139,125154,1,4,0:0:0:0:
138,132,125454,6,0,L|133:227,1,90,4|4,0:1|0:0,0:0:0:0:
133,221,126354,1,4,0:0:0:0:
133,221,126654,5,8,0:1:0:0:
228,161,126804,2,0,L|234:224,1,60,8|0,0:1|0:0,0:0:0:0:
245,312,127254,5,8,0:1:0:0:
340,252,127404,2,0,L|346:315,1,60,0|0,0:0|0:0,0:0:0:0:
429,190,127854,6,0,L|434:96,1,90,0|4,0:0|0:0,0:0:0:0:
433,100,128754,1,4,0:0:0:0:
433,100,129054,5,8,0:1:0:0:
333,150,129204,2,0,L|339:87,1,60,8|0,0:1|0:0,0:0:0:0:
333,150,129654,5,8,0:1:0:0:
233,200,129804,2,0,L|239:137,1,60,8|0,0:1|0:0,0:0:0:0:
126,29,130254,6,0,L|33:34,2,90,4|4|4,0:1|0:0|0:0,0:0:0:0:
126,29,131454,5,8,0:1:0:0:
169,115,131604,2,0,L|104:118,1,60,8|0,0:1|0:0,0:0:0:0:
169,115,132054,5,8,0:1:0:0:
207,196,132204,2,0,L|143:202,1,60,8|0,0:1|0:0,0:0:0:0:
333,292,132654,6,0,L|424:308,2,90,4|4|4,0:0|0:0|0:0,0:0:0:0:
333,292,133854,5,8,0:1:0:0:
310,198,134004,2,0,L|373:209,1,60,8|0,0:1|0:0,0:0:0:0:
310,198,134454,5,8,0:1:0:0:
291,111,134604,2,0,L|354:119,1,60,8|0,0:1|0:0,0:0:0:0:
170,23,135054,5,4,0:0:0:0:
170,23,135504,1,4,0:0:0:0:
170,23,135954,1,4,0:0:0:0:
170,23,136254,5,8,0:1:0:0:
95,132,136404,2,0,L|89:63,1,60,8|0,0:1|0:0,0:0:0:0:
95,132,136854,5,8,0:1:0:0:
217,191,137004,2,0,L|232:126,1,60,8|0,0:1|0:0,0:0:0:0:
149,292,137454,5,4,0:0:0:0:
149,292,137904,1,0,0:0:0:0:
149,292,138354,1,4,0:0:0:0:
149,292,138654,5,8,0:1:0:0:
281,348,138804,2,0,L|216:354,1,60,8|0,0:1|0:0,0:0:0:0:
281,348,139254,5,8,0:1:0:0:
367,246,139404,2,0,L|302:237,1,60,8|0,0:1|0:0,0:0:0:0:
481,305,139854,5,4,0:0:0:0:
481,305,140304,1,4,0:0:0:0:
481,305,140754,1,4,0:0:0:0:
481,305,141054,5,8,0:1:0:0:
503,161,141204,2,0,L|512:220,1,60,8|0,0:1|0:0,0:0:0:0:
503,161,141654,5,8,0:1:0:0:
402,69,141804,2,0,L|392:128,1,60,8|4,0:1|0:0,0:0:0:0:
332,211,142254,6,0,P|291:232|236:231,1,90.0000034332277,8|0,0:1|0:0,0:0:0:0:
249,129,142704,2,0,P|206:111|145:120,1,90.0000034332277,4|0,0:0|0:0,0:0:0:0:
80,165,143154,1,4,0:0:0:0:
80,165,143454,5,8,0:1:0:0:
130,335,143604,1,8,0:1:0:0:
30,263,143754,1,8,0:0:0:0:
30,263,143829,1,8,0:0:0:0:
30,263,143904,1,8,0:0:0:0:
30,263,143979,1,8,0:0:0:0:
30,263,144054,5,4,0:0:0:0:
253,362,144204,1,4,0:0:0:0:
253,362,144504,1,8,0:0:0:0:
257,323,144579,1,8,0:0:0:0:
266,286,144654,6,0,P|332:259|395:262,1,120,8|4,0:1|0:0,0:0:0:0:
157,191,145104,2,0,P|184:163|278:132,1,120,8|8,0:1|0:0,0:0:0:0:
252,131,145479,1,8,0:0:0:0:
246,129,145554,2,0,P|209:123|186:102,1,60,8|4,0:1|0:0,0:0:0:0:
395,53,145854,6,0,P|420:36|460:28,1,60,4|8,0:0|0:1,0:0:0:0:
444,157,146154,2,0,P|473:163|503:183,1,60,0|8,0:0|0:0,0:0:0:0:
498,178,146379,1,8,0:0:0:0:
498,178,146454,1,8,0:1:0:0:
343,354,146604,6,0,L|339:323,2,26.9999991760254,8|8|0,0:1|0:0|0:0,0:0:0:0:
389,255,146979,1,8,0:0:0:0:
358,219,147054,6,0,P|322:202|231:199,1,120,12|0,0:1|0:0,0:0:0:0:
485,110,147504,2,0,P|457:81|373:45,1,120,8|8,0:1|0:0,0:0:0:0:
391,47,147879,1,8,0:0:0:0:
396,47,147954,2,0,P|434:41|462:19,1,60,8|4,0:1|0:0,0:0:0:0:
198,32,148254,6,0,P|164:40|135:62,1,60,4|8,0:0|0:1,0:0:0:0:
210,128,148554,2,0,P|191:154|187:195,1,60,0|8,0:0|0:0,0:0:0:0:
185,180,148779,1,8,0:0:0:0:
185,180,148854,1,8,0:1:0:0:
101,287,149004,2,0,L|23:296,2,60,8|0|0,0:1|0:0|0:0,0:0:0:0:
188,363,149379,1,8,0:0:0:0:
227,341,149454,6,0,B|290:345|290:345|285:345|346:349,1,120,12|4,0:1|0:0,0:0:0:0:
162,183,149904,2,0,B|225:179|225:179|220:179|281:174,1,120,8|8,0:1|0:0,0:0:0:0:
280,174,150279,1,8,0:0:0:0:
280,174,150354,1,8,0:1:0:0:
220,87,150504,1,4,0:0:0:0:
152,223,150654,5,4,0:0:0:0:
57,188,150804,1,4,0:0:0:0:
116,100,150954,2,0,L|107:24,1,60,0|8,0:0|0:0,0:0:0:0:
108,40,151179,1,8,0:0:0:0:
108,40,151254,1,8,0:1:0:0:
75,288,151404,1,8,0:1:0:0:
75,288,151554,1,0,0:0:0:0:
229,205,151704,1,8,0:0:0:0:
257,246,151779,1,8,0:0:0:0:
265,290,151854,6,0,P|271:203|314:142,1,150,12|4,0:1|0:0,0:0:0:0:
512,0,152304,2,0,P|472:77|409:117,1,150,12|8,0:1|0:0,0:0:0:0:
439,117,152679,1,8,0:0:0:0:
456,122,152754,2,0,P|474:165|469:205,1,75,8|4,0:1|0:0,0:0:0:0:
420,299,153054,5,4,0:0:0:0:
420,299,153204,1,8,0:1:0:0:
331,96,153354,2,0,P|303:86|265:82,1,51.0000009727478,0|8,0:0|0:0,0:0:0:0:
282,82,153579,1,8,0:0:0:0:
282,82,153654,1,8,0:1:0:0:
145,22,153804,6,0,L|153:58,2,26.9999991760254,8|8|0,0:1|0:0|0:0,0:0:0:0:
88,130,154179,1,8,0:0:0:0:
127,135,154254,6,0,P|157:183|170:259,1,120,12|4,0:1|0:0,0:0:0:0:
314,223,154704,2,0,P|308:289|277:351,1,120,8|8,0:1|0:0,0:0:0:0:
291,334,155079,1,8,0:0:0:0:
297,330,155154,2,0,P|332:315|355:313,1,60,8|4,0:1|0:0,0:0:0:0:
112,377,155454,6,0,P|83:365|59:337,1,60,4|8,0:0|0:1,0:0:0:0:
129,174,155754,1,0,0:0:0:0:
137,275,155904,1,8,0:0:0:0:
137,275,155979,1,8,0:0:0:0:
137,275,156054,1,8,0:1:0:0:
45,147,156204,6,0,L|49:120,2,26.9999991760254,8|8|0,0:1|0:0|0:0,0:0:0:0:
122,54,156579,1,8,0:0:0:0:
150,84,156654,6,0,B|211:79|211:79|286:65,1,120,12|4,0:1|0:0,0:0:0:0:
264,238,157104,2,0,B|321:216|321:216|389:182,1,120,8|8,0:1|0:0,0:0:0:0:
371,195,157479,1,8,0:0:0:0:
369,200,157554,2,0,B|357:230|357:230|350:269,1,60,8|4,0:1|0:0,0:0:0:0:
493,92,157854,6,0,B|490:64|490:64|477:33,1,60,4|8,0:0|0:1,0:0:0:0:
307,57,158154,1,0,0:0:0:0:
404,101,158304,1,8,0:0:0:0:
404,101,158379,1,8,0:0:0:0:
404,101,158454,1,8,0:1:0:0:
216,33,158604,6,0,L|210:66,2,26.9999991760254,8|8|0,0:1|0:0|0:0,0:0:0:0:
154,132,158979,1,8,0:0:0:0:
165,170,159054,6,0,P|126:128|55:113,1,120,12|4,0:1|0:0,0:0:0:0:
232,284,159504,2,0,P|174:287|118:333,1,120,8|8,0:1|0:0,0:0:0:0:
131,321,159879,1,8,0:0:0:0:
136,320,159954,2,0,P|150:276|149:248,1,60,8|4,0:1|0:0,0:0:0:0:
61,210,160254,1,4,0:0:0:0:
248,195,160404,1,8,0:1:0:0:
324,154,160554,2,0,L|333:69,1,60,0|8,0:0|0:0,0:0:0:0:
330,94,160779,1,8,0:0:0:0:
330,94,160854,5,8,0:1:0:0:
505,18,161004,1,8,0:1:0:0:
447,101,161154,1,0,0:0:0:0:
509,181,161304,1,8,0:0:0:0:
503,222,161379,1,8,0:0:0:0:
497,263,161454,5,8,0:1:0:0:
337,315,161604,2,0,L|262:309,1,60,4|4,0:0|0:0,0:0:0:0:
120,129,161904,5,8,0:1:0:0:
263,199,162054,2,0,L|338:193,1,60,4|4,0:0|0:0,0:0:0:0:
364,105,162354,5,8,0:1:0:0:
370,94,162504,1,4,0:0:0:0:
184,254,162654,5,8,0:1:0:0:
175,245,162804,1,4,0:0:0:0:
413,361,162954,1,8,0:1:0:0:
413,361,163254,6,0,L|375:352,2,30.0000011444092,8|8|8,0:0|0:0|0:0,0:0:0:0:
229,328,163554,2,0,L|263:322,2,22.0000006713867,8|8|8,0:0|0:0|0:0,0:0:0:0:
429,240,163854,6,0,L|496:231,1,62.9999980773926,12|8,0:1|0:0,0:0:0:0:
512,144,164379,1,8,0:0:0:0:
512,144,164454,1,8,0:1:0:0:
327,144,164604,2,0,L|280:140,1,41.9999987182618,4|8,0:0|0:0,0:0:0:0:
201,128,164979,1,8,0:0:0:0:
201,128,165054,5,8,0:1:0:0:
203,228,165204,2,0,L|156:224,1,41.9999987182618,4|8,0:0|0:0,0:0:0:0:
71,208,165579,1,8,0:0:0:0:
71,208,165654,5,8,0:1:0:0:
84,307,165804,1,4,0:0:0:0:
284,293,165954,2,0,L|305:290,1,20.9999993591309,8|8,0:1|0:0,0:0:0:0:
304,290,166179,1,8,0:0:0:0:
304,290,166254,6,0,B|336:275|336:275|369:266,1,60,12|4,0:1|0:0,0:0:0:0:
492,152,166554,2,0,B|468:137|468:137|416:128,1,60
151,183,166854,6,0,B|182:167|182:167|215:158,1,60,8|4,0:1|0:0,0:0:0:0:
338,44,167154,2,0,B|306:28|306:28|268:18,1,60
0,39,167454,5,8,0:1:0:0:
39,123,167604,2,0,L|48:249,1,120,0|8,0:0|0:0,0:0:0:0:
26,330,167979,1,8,0:0:0:0:
51,361,168054,6,0,B|76:374|76:374|123:380,1,60,12|4,0:1|0:0,0:0:0:0:
263,278,168354,2,0,B|286:261|286:261|332:248,1,60,8|4,0:1|0:0,0:0:0:0:
467,47,168654,6,0,P|441:89|429:143,1,90.0000034332277,12|0,0:1|0:0,0:0:0:0:
430,127,169104,1,4,0:0:0:0:
156,295,169254,2,0,P|150:245|126:195,1,90.0000034332277,8|0,0:1|0:0,0:0:0:0:
135,209,169704,1,4,0:0:0:0:
213,26,169854,6,0,P|225:18|304:11,1,90.0000034332277,8|0,0:1|0:0,0:0:0:0:
356,105,170304,1,8,0:0:0:0:
356,105,170379,1,8,0:0:0:0:
356,105,170454,5,8,0:1:0:0:
296,183,170604,1,4,0:0:0:0:
314,3,170754,1,8,0:1:0:0:
428,36,170904,1,8,0:0:0:0:
467,45,170979,1,8,0:0:0:0:
506,54,171054,6,0,B|524:86|524:86|523:149,1,71.9999978027344,12|4,0:1|0:0,0:0:0:0:
483,207,171354,1,4,0:0:0:0:
122,234,171504,6,0,B|104:202|104:202|105:139,1,71.9999978027344,8|4,0:1|0:0,0:0:0:0:
152,83,171804,1,4,0:0:0:0:
338,326,171954,6,0,B|305:337|305:337|252:336,1,71.9999978027344,8|4,0:1|0:0,0:0:0:0:
179,313,172254,1,4,0:0:0:0:
231,29,172404,6,0,B|264:18|264:18|317:19,1,71.9999978027344,8|4,0:1|0:0,0:0:0:0:
390,42,172704,1,4,0:0:0:0:
199,180,172854,5,8,0:1:0:0:
390,42,173004,1,4,0:0:0:0:
346,204,173154,5,8,0:1:0:0:
152,83,173304,1,12,0:1:0:0:
423,131,173454,6,0,L|397:296,1,143.999995605469,12|0,0:1|0:0,0:0:0:0:
378,363,173904,1,8,0:1:0:0:
378,363,174204,5,4,0:0:0:0:
213,110,174354,2,0,L|229:264,1,143.999995605469,8|4,0:1|0:0,0:0:0:0:
235,347,174804,1,8,0:1:0:0:
235,347,175104,5,4,0:0:0:0:
36,98,175254,2,0,L|81:246,1,143.999995605469,8|0,0:1|0:0,0:0:0:0:
136,74,175704,1,8,0:0:0:0:
136,74,175779,1,8,0:0:0:0:
136,74,175854,5,12,0:1:0:0:
220,124,176004,1,4,0:0:0:0:
366,58,176154,5,8,0:1:0:0:
494,14,176304,1,4,0:0:0:0:
352,166,176454,5,8,0:1:0:0:
270,15,176604,1,4,0:0:0:0:
486,107,176754,5,8,0:1:0:0:
486,107,177054,6,0,L|481:162,2,40,4|0|8,0:1|0:0|0:0,0:0:0:0:
352,306,177354,2,0,L|344:247,2,40,8|0|8,0:0|0:0|0:0,0:0:0:0:
236,128,177654,6,0,L|231:183,2,40,8|8|4,0:0|0:0|0:0,0:0:0:0:
134,267,177954,2,0,L|128:221,2,30.0000011444092,4|4|4,0:0|0:0|0:0,0:0:0:0:
107,149,178254,5,4,0:1:0:0:
256,192,187854,12,0,190854,0:0:0:0:
253,359,191454,5,4,0:1:0:0:
253,359,191604,1,4,0:0:0:0:
52,312,191754,2,0,P|33:288|22:253,1,60,0|8,0:0|0:1,0:0:0:0:
121,163,192204,2,0,P|136:127|139:87,1,77.9999964294435,0|0,0:0|0:0,0:0:0:0:
346,91,192654,6,0,L|407:83,1,60,0|0,0:0|0:0,0:0:0:0:
307,199,193104,1,8,0:0:0:0:
307,199,193179,1,8,0:0:0:0:
307,199,193254,1,8,0:1:0:0:
326,92,193404,1,4,0:0:0:0:
406,214,193554,1,4,0:0:0:0:
222,106,193704,6,0,P|184:92|154:93,1,60,8|4,0:1|0:0,0:0:0:0:
27,30,194154,2,0,P|38:20|52:18,1,30,4|4,0:0|0:0,0:0:0:0:
23,238,194454,1,8,0:1:0:0:
23,238,194604,2,0,P|10:205|5:161,1,77.9999964294435,0|0,0:0|0:0,0:0:0:0:
108,315,195054,6,0,P|84:340|55:350,1,60,0|4,0:0|0:0,0:0:0:0:
153,197,195504,1,8,0:0:0:0:
153,197,195579,1,8,0:0:0:0:
153,197,195654,1,8,0:1:0:0:
122,315,195804,1,4,0:0:0:0:
250,192,195954,6,0,L|283:188,1,30,4|8,0:0|0:1,0:0:0:0:
415,355,196254,2,0,L|382:349,1,30,4|4,0:0|0:0,0:0:0:0:
427,254,196554,2,0,L|458:248,1,30,4|4,0:0|0:0,0:0:0:0:
242,305,196854,1,8,0:1:0:0:
242,305,197004,2,0,P|230:315|223:330,1,30,0|0,0:0|0:0,0:0:0:0:
405,138,197304,6,0,P|406:125|397:103,1,30,8|0,0:1|0:0,0:0:0:0:
279,188,197604,2,0,P|290:203|307:213,1,38.9999982147218,8|4,0:1|0:0,0:0:0:0:
163,146,197904,2,0,P|129:142|77:167,1,90,4|0,0:0|0:0,0:0:0:0:
138,236,198504,1,8,0:0:0:0:
138,236,198579,1,8,0:0:0:0:
138,236,198654,5,8,0:1:0:0:
172,140,198804,1,4,0:0:0:0:
127,55,198954,1,4,0:0:0:0:
190,136,199104,5,8,0:1:0:0:
137,46,199254,1,4,0:0:0:0:
36,44,199404,1,4,0:0:0:0:
287,46,199554,1,8,0:1:0:0:
287,46,199854,6,0,L|211:28,1,60,4|8,0:1|0:1,0:0:0:0:
433,113,200154,2,0,L|509:95,1,60,0|4,0:0|0:0,0:0:0:0:
277,315,200454,6,0,L|286:262,2,40,8|8|8,0:0|0:0|0:0,0:0:0:0:
375,216,200754,2,0,L|395:263,2,40,8|8|8,0:0|0:0|0:0,0:0:0:0:
195,347,201054,6,0,P|176:354|155:352,1,38.9999982147218,4|4,0:1|0:0,0:0:0:0:
100,247,201354,2,0,P|67:225|29:217,1,77.9999964294435,4|8,0:0|0:1,0:0:0:0:
157,110,201804,2,0,P|193:95|231:93,1,77.9999964294435,0|0,0:0|0:0,0:0:0:0:
399,196,202254,6,0,P|370:180|349:156,1,60,0|0,0:0|0:0,0:0:0:0:
381,79,202704,1,8,0:0:0:0:
360,281,202854,1,8,0:1:0:0:
360,281,203004,1,4,0:0:0:0:
418,198,203154,1,4,0:0:0:0:
279,310,203304,6,0,L|211:314,1,60,8|4,0:1|0:0,0:0:0:0:
84,365,203754,2,0,L|117:371,1,30,4|4,0:0|0:0,0:0:0:0:
24,222,204054,1,8,0:1:0:0:
24,222,204204,2,0,L|19:136,1,77.9999964294435,0|0,0:0|0:0,0:0:0:0:
195,50,204654,6,0,L|188:115,1,60,0|4,0:0|0:0,0:0:0:0:
241,198,205104,1,4,0:0:0:0:
97,75,205254,1,8,0:1:0:0:
97,75,205404,1,4,0:0:0:0:
275,7,205554,6,0,P|289:0|311:0,1,30,4|8,0:0|0:1,0:0:0:0:
377,97,205854,2,0,P|396:104|419:103,1,30,4|4,0:0|0:0,0:0:0:0:
468,191,206154,2,0,P|453:193|437:201,1,30,4|4,0:0|0:0,0:0:0:0:
214,309,206454,1,8,0:1:0:0:
214,309,206604,2,0,P|225:320|248:329,1,38.9999982147218,0|0,0:0|0:0,0:0:0:0:
133,240,206904,6,0,P|122:247|115:269,1,30,0|0,0:0|0:0,0:0:0:0:
318,95,207204,2,0,P|317:77|310:56,1,38.9999982147218,8|4,0:1|0:0,0:0:0:0:
36,77,207504,2,0,P|62:97|120:101,1,90,4|0,0:0|0:0,0:0:0:0:
99,15,208104,1,8,0:0:0:0:
7,175,208254,6,0,P|20:184|38:187,5,30,12|0|8|8|8|8,0:1|0:0|0:3|0:3|0:3|0:3,0:0:0:0:
191,243,208704,2,0,P|206:242|222:233,5,30,8|8|8|8|8|8,0:1|0:0|0:0|0:0|0:0|0:0,0:0:0:0:
121,188,209154,5,8,0:1:0:0:
316,214,209304,1,8,0:0:0:0:
319,195,209379,1,8,0:0:0:0:
319,176,209454,1,8,0:0:0:0:
321,157,209529,1,8,0:0:0:0:
322,143,209604,5,8,0:1:0:0:
399,36,209754,1,8,0:0:0:0:
407,81,209829,1,8,0:0:0:0:
418,125,209904,1,8,0:0:0:0:
427,170,209979,1,8,0:0:0:0:
436,215,210054,5,4,0:0:0:0:
489,59,210204,1,4,0:0:0:0:
230,54,210354,6,0,L|303:56,1,67.5000025749207,8|0,0:1|0:0,0:0:0:0:
311,58,210654,5,4,0:1:0:0:
256,192,210729,12,0,213804,0:0:0:0:
