osu file format v14

[General]
AudioFilename: audio.mp3
AudioLeadIn: 0
PreviewTime: 48454
Countdown: 0
SampleSet: Soft
StackLeniency: 0.3
Mode: 0
LetterboxInBreaks: 0
WidescreenStoryboard: 0

[Editor]
Bookmarks: 39904
DistanceSpacing: 1
BeatDivisor: 4
GridSize: 8
TimelineZoom: 1.8

[Metadata]
Title:Last Call
TitleUnicode:Last Call
Artist:MY FIRST STORY
ArtistUnicode:MY FIRST STORY
Creator:Artorias
Version:Last
Source:
Tags:
BeatmapID:1249747
BeatmapSetID:590506

[Difficulty]
HPDrainRate:6
CircleSize:4.1
OverallDifficulty:9
ApproachRate:9.4
SliderMultiplier:1.7
SliderTickRate:1

[Events]
//Background and Video events
0,0,"background.jpg",0,0
//Break Periods
2,24804,28834
//Storyboard Layer 0 (Background)
//Storyboard Layer 1 (Fail)
//Storyboard Layer 2 (Pass)
//Storyboard Layer 3 (Foreground)
//Storyboard Sound Samples

[TimingPoints]
604,300,4,2,0,30,1,0
14254,-100,4,2,1,65,0,0
15604,-133.333333333333,4,2,1,65,0,0
16204,-100,4,2,1,65,0,0
18004,-133.333333333333,4,2,1,65,0,0
18454,-100,4,2,1,65,0,0
24604,-133.333333333333,4,2,1,50,0,0
29404,-100,4,2,1,50,0,0
34204,-90.9090909090909,4,2,1,65,0,0
43804,-100,4,2,1,30,0,0
44104,-100,4,2,1,40,0,0
44404,-100,4,2,1,50,0,0
44704,-100,4,2,1,60,0,0
48004,-200,4,2,1,45,0,0
48604,-100,4,2,1,80,0,1
67954,-133.333333333333,4,2,1,50,0,0

[HitObjects]
224,99,13729,5,0,0:0:0:0:
224,99,13804,2,0,L|129:114,1,85
322,155,14104,2,0,L|410:139,1,85
425,137,14329,1,0,0:0:0:0:
425,137,14404,5,8,0:0:0:0:
336,319,14554,1,8,0:0:0:0:
355,72,14704,1,8,0:0:0:0:
180,213,14854,2,0,P|111:217|65:310,1,170,4|0,0:0|0:0,0:0:0:0:
232,344,15304,1,8,0:0:0:0:
288,224,15454,1,0,0:0:0:0:
208,96,15604,2,0,P|175:82|141:88,2,63.7500024318696,8|0|0,0:0|0:0|0:0,0:0:0:0:
276,296,16054,5,8,0:0:0:0:
335,132,16204,1,0,0:0:0:0:
413,242,16354,1,8,0:0:0:0:
163,254,16504,1,0,0:0:0:0:
413,242,16654,1,0,0:0:0:0:
413,242,16729,1,0,0:0:0:0:
413,242,16804,1,8,0:0:0:0:
446,78,16954,1,0,0:0:0:0:
330,301,17104,1,0,0:0:0:0:
198,126,17254,2,0,P|238:71|335:75,1,170,4|0,0:0|0:0,0:0:0:0:
410,180,17704,5,8,0:0:0:0:
318,291,17854,1,0,0:0:0:0:
175,245,18004,2,0,P|148:227|114:228,2,63.7500024318696,8|0|0,0:0|0:0|0:0,0:0:0:0:
396,150,18454,1,8,0:0:0:0:
427,330,18604,1,0,0:0:0:0:
273,321,18754,5,8,0:0:0:0:
248,287,18829,1,0,0:0:0:0:
236,246,18904,1,0,0:0:0:0:
242,204,18979,1,0,0:0:0:0:
263,167,19054,1,0,0:0:0:0:
294,138,19129,1,0,0:0:0:0:
307,98,19204,5,8,0:0:0:0:
113,99,19354,1,8,0:0:0:0:
370,233,19504,1,0,0:0:0:0:
60,240,19654,2,0,P|10:266|24:369,1,170,4|8,0:0|0:0,0:0:0:0:
214,362,20104,1,8,0:0:0:0:
234,186,20254,1,0,0:0:0:0:
214,362,20404,2,0,B|242:378|242:378|294:377,1,85,8|0,0:0|0:0,0:0:0:0:
234,186,20704,5,0,0:0:0:0:
434,215,20854,1,0,0:0:0:0:
293,95,21004,1,8,0:0:0:0:
434,215,21154,1,0,0:0:0:0:
376,304,21304,1,8,0:0:0:0:
410,43,21454,1,0,0:0:0:0:
372,247,21604,5,8,0:0:0:0:
342,222,21679,1,0,0:0:0:0:
305,211,21754,1,0,0:0:0:0:
266,215,21829,1,0,0:0:0:0:
233,234,21904,1,0,0:0:0:0:
228,23,22054,6,0,P|297:53|261:158,1,170,4|0,0:0|0:0,0:0:0:0:
86,128,22504,2,0,L|174:115,1,85,8|0,0:0|0:0,0:0:0:0:
235,269,22804,2,0,L|145:258,1,85,8|0,0:0|0:0,0:0:0:0:
56,341,23104,1,8,0:0:0:0:
20,172,23254,5,0,0:0:0:0:
20,172,23329,1,0,0:0:0:0:
20,172,23404,1,8,0:0:0:0:
184,319,23554,1,0,0:0:0:0:
213,92,23704,1,0,0:0:0:0:
18,152,23854,2,0,P|16:196|30:237,1,85,8|0,0:0|0:0,0:0:0:0:
154,347,24154,1,0,0:0:0:0:
171,60,24304,5,8,0:0:0:0:
135,45,24379,1,0,0:0:0:0:
96,43,24454,1,0,0:0:0:0:
58,48,24529,1,0,0:0:0:0:
27,66,24604,1,4,0:0:0:0:
112,222,29404,5,0,0:0:0:0:
112,222,29554,1,0,0:0:0:0:
234,126,29704,6,0,L|221:210,1,85,8|0,0:0|0:0,0:0:0:0:
393,166,30004,2,0,L|371:83,1,85,8|0,0:0|0:0,0:0:0:0:
294,307,30304,5,0,0:0:0:0:
469,267,30454,1,0,0:0:0:0:
294,307,30604,2,0,L|208:337,1,85,8|0,0:0|0:0,0:0:0:0:
374,153,30904,2,0,L|476:175,1,85,8|0,0:0|0:0,0:0:0:0:
220,182,31204,5,0,0:0:0:0:
220,182,31354,1,0,0:0:0:0:
192,356,31504,1,8,0:0:0:0:
220,182,31654,1,0,0:0:0:0:
44,342,31804,5,8,0:0:0:0:
44,342,31954,2,0,L|32:161,1,170,8|0,0:0|0:0,0:0:0:0:
196,277,32404,2,0,L|184:107,1,170,8|0,0:0|0:0,0:0:0:0:
184,107,33004,5,0,0:0:0:0:
196,277,33154,1,8,0:0:0:0:
435,339,33304,5,0,0:0:0:0:
475,316,33379,1,0,0:0:0:0:
496,274,33454,1,0,0:0:0:0:
505,228,33529,1,0,0:0:0:0:
490,183,33604,6,0,L|481:132,1,42.5,8|0,0:0|0:0,0:0:0:0:
338,118,33754,2,0,L|345:159,1,42.5
412,286,33904,2,0,L|403:235,1,42.5
260,221,34054,2,0,L|267:262,1,42.5,8|8,0:0|0:0,0:0:0:0:
199,372,34204,5,0,0:0:0:0:
154,154,34354,1,0,0:0:0:0:
90,354,34504,1,0,0:0:0:0:
302,307,34654,1,0,0:0:0:0:
93,167,34804,2,0,P|41:167|-1:189,1,93.5000028533936
236,282,35104,2,0,P|288:282|330:260,1,93.5000028533936
212,110,35404,5,0,0:0:0:0:
127,307,35554,1,0,0:0:0:0:
352,201,35704,1,0,0:0:0:0:
110,203,35854,1,0,0:0:0:0:
359,304,36004,1,0,0:0:0:0:
359,304,36154,1,0,0:0:0:0:
110,203,36304,1,0,0:0:0:0:
359,304,36454,1,0,0:0:0:0:
437,73,36604,5,0,0:0:0:0:
437,73,36754,1,0,0:0:0:0:
437,208,36904,2,0,L|439:312,1,93.5000028533936
412,91,37204,2,0,P|357:98|310:74,1,93.5000028533936
300,41,37429,1,0,0:0:0:0:
300,41,37504,1,0,0:0:0:0:
133,116,37654,2,0,L|27:106,1,93.5000028533936
106,333,37954,5,0,0:0:0:0:
98,302,38029,1,0,0:0:0:0:
90,271,38104,1,0,0:0:0:0:
271,324,38254,1,0,0:0:0:0:
310,128,38404,1,0,0:0:0:0:
271,324,38554,1,0,0:0:0:0:
271,324,38629,1,0,0:0:0:0:
271,324,38704,1,0,0:0:0:0:
89,255,38854,1,0,0:0:0:0:
404,299,39004,6,0,L|407:151,1,140.25000428009
386,111,39304,1,0,0:0:0:0:
116,86,39454,1,0,0:0:0:0:
116,86,39529,1,0,0:0:0:0:
116,86,39604,6,0,P|103:131|132:180,1,93.5000028533936
154,205,39829,1,0,0:0:0:0:
154,205,39904,1,0,0:0:0:0:
283,110,40054,1,0,0:0:0:0:
265,316,40204,5,0,0:0:0:0:
283,110,40354,1,0,0:0:0:0:
265,316,40504,1,0,0:0:0:0:
441,325,40654,5,0,0:0:0:0:
441,325,40729,1,0,0:0:0:0:
441,325,40804,1,0,0:0:0:0:
422,131,40954,1,0,0:0:0:0:
341,335,41104,6,0,L|194:324,1,140.25000428009
201,324,41404,1,0,0:0:0:0:
231,127,41554,1,0,0:0:0:0:
368,240,41704,1,0,0:0:0:0:
368,240,41854,1,0,0:0:0:0:
147,235,42004,1,0,0:0:0:0:
272,88,42154,1,0,0:0:0:0:
272,88,42304,1,0,0:0:0:0:
236,287,42454,1,0,0:0:0:0:
358,88,42604,5,0,0:0:0:0:
358,317,42754,1,0,0:0:0:0:
154,88,42904,5,0,0:0:0:0:
154,317,43054,1,8,0:0:0:0:
154,317,43129,1,0,0:0:0:0:
154,317,43204,1,0,0:0:0:0:
401,140,43354,1,8,0:0:0:0:
89,203,43504,1,8,0:0:0:0:
384,326,43654,1,8,0:0:0:0:
57,88,43804,6,0,P|12:128|48:323,1,255,12|0,0:0|0:0,0:0:0:0:
116,311,44404,1,0,0:0:0:0:
286,143,44704,5,8,0:0:0:0:
220,289,44854,1,0,0:0:0:0:
362,190,45004,1,8,0:0:0:0:
226,81,45154,1,0,0:0:0:0:
299,331,45304,1,8,0:0:0:0:
96,212,45454,5,0,0:0:0:0:
402,249,45604,1,8,0:0:0:0:
402,249,45679,1,0,0:0:0:0:
402,249,45754,1,0,0:0:0:0:
283,145,45904,5,8,0:0:0:0:
300,126,45979,1,0,0:0:0:0:
323,115,46054,1,0,0:0:0:0:
348,110,46129,1,0,0:0:0:0:
373,111,46204,5,8,0:0:0:0:
215,325,46354,1,0,0:0:0:0:
218,69,46504,1,0,0:0:0:0:
404,241,46654,1,8,0:0:0:0:
97,175,46804,1,0,0:0:0:0:
367,62,46954,1,0,0:0:0:0:
346,343,47104,1,8,0:0:0:0:
97,175,47254,2,0,B|87:130|87:130|107:88,1,85,0|8,0:0|0:0,0:0:0:0:
125,63,47479,5,0,0:0:0:0:
160,47,47554,1,0,0:0:0:0:
198,43,47629,1,0,0:0:0:0:
236,44,47704,1,0,0:0:0:0:
274,47,47779,1,0,0:0:0:0:
312,49,47854,1,0,0:0:0:0:
350,52,47929,1,0,0:0:0:0:
384,43,48004,2,0,B|394:75|394:75|414:105|414:105|411:149|411:149|418:185|418:185,1,148.75,8|0,0:0|0:0,0:0:0:0:
438,215,48604,6,0,P|400:298|363:306,1,127.5
330,295,48904,1,0,0:0:0:0:
283,120,49054,1,0,0:0:0:0:
208,344,49204,1,8,0:0:0:0:
352,158,49354,1,0,0:0:0:0:
352,158,49654,1,0,0:0:0:0:
174,114,49804,2,0,P|115:123|80:139,1,85,0|8,0:0|0:0,0:0:0:0:
83,312,50104,5,0,0:0:0:0:
83,312,50179,1,0,0:0:0:0:
83,312,50254,1,0,0:0:0:0:
184,182,50404,1,8,0:0:0:0:
272,359,50554,1,0,0:0:0:0:
297,110,50704,1,0,0:0:0:0:
176,329,50854,1,0,0:0:0:0:
493,256,51004,6,0,B|447:257|429:287|429:287|377:263,1,127.5
342,244,51304,1,0,0:0:0:0:
122,169,51454,1,0,0:0:0:0:
337,66,51604,2,0,L|355:159,1,85,8|0,0:0|0:0,0:0:0:0:
154,289,51904,1,0,0:0:0:0:
256,168,52054,1,8,0:0:0:0:
236,366,52204,1,0,0:0:0:0:
84,197,52354,2,0,L|37:191,2,42.5
336,162,52654,1,0,0:0:0:0:
387,306,52804,6,0,P|330:332|285:317,1,85,8|0,0:0|0:0,0:0:0:0:
228,84,53104,1,8,0:0:0:0:
227,302,53254,5,0,0:0:0:0:
227,302,53404,1,0,0:0:0:0:
228,84,53554,5,0,0:0:0:0:
227,302,53704,1,0,0:0:0:0:
228,84,53854,5,0,0:0:0:0:
63,64,54004,1,8,0:0:0:0:
63,64,54304,5,0,0:0:0:0:
84,337,54454,1,8,0:0:0:0:
335,65,54754,5,8,0:0:0:0:
319,337,54904,1,0,0:0:0:0:
335,65,55054,1,0,0:0:0:0:
140,179,55204,6,0,B|125:144|125:144|126:106|126:106|118:68,2,85,8|0|0,0:0|0:0|0:0,0:0:0:0:
421,238,55654,1,0,0:0:0:0:
421,238,55729,1,0,0:0:0:0:
421,238,55804,5,8,0:0:0:0:
276,365,55954,1,0,0:0:0:0:
290,170,56104,1,0,0:0:0:0:
428,309,56254,2,0,L|530:327,2,85,8|0|0,0:0|0:0|0:0,0:0:0:0:
385,103,56704,5,8,0:0:0:0:
306,342,56854,1,0,0:0:0:0:
112,246,57004,5,0,0:0:0:0:
110,229,57079,1,0,0:0:0:0:
108,212,57154,1,0,0:0:0:0:
110,195,57229,1,0,0:0:0:0:
116,179,57304,5,0,0:0:0:0:
114,162,57379,1,0,0:0:0:0:
112,145,57454,1,0,0:0:0:0:
114,128,57529,1,0,0:0:0:0:
120,86,57604,5,0,0:0:0:0:
155,109,57679,1,0,0:0:0:0:
194,125,57754,1,0,0:0:0:0:
236,130,57829,1,0,0:0:0:0:
277,121,57904,1,0,0:0:0:0:
312,98,57979,1,0,0:0:0:0:
338,65,58054,1,0,0:0:0:0:
365,32,58129,1,0,0:0:0:0:
405,19,58204,6,0,B|433:65|433:65|440:131,1,85,8|0,0:0|0:0,0:0:0:0:
417,227,58504,1,0,0:0:0:0:
274,254,58654,1,0,0:0:0:0:
274,254,58804,2,0,L|137:233,1,127.5,8|0,0:0|0:0,0:0:0:0:
147,234,59104,1,8,0:0:0:0:
238,371,59254,1,0,0:0:0:0:
274,124,59404,2,0,B|277:89|277:89|263:60|263:60|268:33,1,85
412,204,59704,1,8,0:0:0:0:
474,67,59854,5,0,0:0:0:0:
474,67,59929,1,0,0:0:0:0:
474,67,60004,2,0,B|413:68|413:68|352:88,1,85
322,347,60304,1,8,0:0:0:0:
276,173,60454,1,0,0:0:0:0:
452,155,60604,2,0,P|474:217|444:277,1,127.5
400,298,60904,6,0,L|292:294,1,85
148,127,61204,2,0,L|256:131,1,85,8|0,0:0|0:0,0:0:0:0:
383,122,61504,1,8,0:0:0:0:
208,272,61654,1,0,0:0:0:0:
297,83,61804,1,0,0:0:0:0:
371,265,61954,1,8,0:0:0:0:
143,143,62104,5,0,0:0:0:0:
154,93,62179,1,0,0:0:0:0:
188,55,62254,1,0,0:0:0:0:
234,34,62329,1,0,0:0:0:0:
284,32,62404,1,8,0:0:0:0:
338,384,62554,1,0,0:0:0:0:
354,133,62704,1,8,0:0:0:0:
137,249,62854,1,0,0:0:0:0:
423,248,63004,6,0,L|430:73,1,170
191,199,63454,5,0,0:0:0:0:
365,153,63604,1,8,0:0:0:0:
273,54,63754,2,0,P|231:48|182:55,1,85
77,153,64054,1,8,0:0:0:0:
127,317,64204,1,0,0:0:0:0:
160,79,64354,1,0,0:0:0:0:
231,329,64504,1,0,0:0:0:0:
25,246,64654,1,0,0:0:0:0:
364,158,64804,6,0,P|428:155|476:243,1,170,8|0,0:0|0:0,0:0:0:0:
269,200,65254,5,0,0:0:0:0:
269,200,65329,1,0,0:0:0:0:
269,200,65403,2,0,L|258:285,1,85,8|0,0:0|0:0,0:0:0:0:
67,133,65704,1,0,0:0:0:0:
261,226,65854,2,0,L|250:311,1,85,8|0,0:0|0:0,0:0:0:0:
70,197,66154,1,0,0:0:0:0:
244,66,66304,1,8,0:0:0:0:
130,317,66454,2,0,B|104:320|104:320|75:315,2,42.5
232,223,66754,6,0,P|276:261|213:365,2,170,0|0|0,0:0|0:0|0:0,0:0:0:0:
104,206,67504,2,0,P|89:152|122:96,1,85
177,32,67804,1,4,0:0:0:0:
256,192,67954,12,0,70204,0:0:0:0:
