osu file format v14

[General]
AudioFilename: audio.mp3
AudioLeadIn: 0
PreviewTime: 200024
Countdown: 0
SampleSet: Drum
StackLeniency: 0.4
Mode: 0
LetterboxInBreaks: 0
WidescreenStoryboard: 1

[Editor]
Bookmarks: 57078,72807,101351,121943,137672,148051,155835,171402,184213,185672,196051,201240,203835
DistanceSpacing: 1
BeatDivisor: 4
GridSize: 8
TimelineZoom: 2.2

[Metadata]
Title:Kimi no Inai Yoru o Koete
TitleUnicode:君のいない夜を越えて
Artist:MY FIRST STORY
ArtistUnicode:MY FIRST STORY
Creator:AirinCat
Version:Normal
Source:御茶ノ水ロック
Tags:all secret tracks mfs hiro moriuchi Katou Nobuaki Nishizawa Teruki hiroki nob teru kid'z sho japanese rock jrock j-rock ochanomizu rock tv serial series 森内寛樹 加藤伸明 佐々木翔平 西澤照貴
BeatmapID:2385039
BeatmapSetID:1140731

[Difficulty]
HPDrainRate:3
CircleSize:3.4
OverallDifficulty:4
ApproachRate:5.6
SliderMultiplier:1
SliderTickRate:1

[Events]
//Background and Video events
0,0,"uwu.jpg",0,0
//Break Periods
2,185662,194931
//Storyboard Layer 0 (Background)
//Storyboard Layer 1 (Fail)
//Storyboard Layer 2 (Pass)
//Storyboard Layer 3 (Foreground)
//Storyboard Layer 4 (Overlay)
//Storyboard Sound Samples

[TimingPoints]
2227,722.89156626506,4,2,1,34,1,0
2227,-62.5,4,2,1,34,0,0
2949,685.714285714286,4,2,1,34,1,0
2949,-62.5,4,2,1,34,0,0
4320,715.990453460621,4,2,1,34,1,0
4320,-62.5,4,2,1,34,0,0
5751,706.713780918728,4,2,1,34,1,0
5751,-62.5,4,2,1,34,0,0
7164,698.48661233993,4,2,1,34,1,0
7164,-62.5,4,2,1,34,0,0
7862,714.285714285713,4,2,1,34,1,0
7862,-62.5,4,2,1,34,0,0
9290,666.666666666667,4,2,1,34,1,0
9290,-62.5,4,2,1,34,0,0
9956,705.882352941176,4,2,1,34,1,0
9956,-62.5,4,2,1,34,0,0
10661,722.89156626506,4,2,1,34,1,0
10661,-62.5,4,2,1,34,0,0
11383,731.707317073171,4,2,1,34,1,0
11383,-62.5,4,2,1,34,0,0
12114,697.67441860465,4,2,1,34,1,0
12114,-62.5,4,2,1,34,0,0
13508,714.285714285714,4,2,1,34,1,0
13508,-62.5,4,2,1,34,0,0
14222,697.674418604651,4,2,1,34,1,0
14222,-62.5,4,2,1,34,0,0
14919,714.285714285714,4,2,1,34,1,0
14919,-62.5,4,2,1,34,0,0
15633,697.674418604651,4,2,1,34,1,0
15633,-62.5,4,2,1,34,0,0
16330,714.285714285714,4,2,1,34,1,0
16330,-62.5,4,2,1,34,0,0
17758,705.882352941176,4,2,1,34,1,0
17758,-62.5,4,2,1,34,0,0
18110,697.674418604651,4,2,1,34,1,0
18110,-62.5,4,2,1,34,0,0
19156,705.882352941176,4,2,1,34,1,0
19156,-62.5,4,2,1,34,0,0
24798,324.324324324324,4,2,1,60,1,0
24798,-100,4,2,1,60,0,0
26095,-100,4,2,1,70,0,0
34527,-100,4,2,1,70,0,0
35014,-105.263157894737,4,2,1,70,0,0
36473,-111.111111111111,4,2,1,38,0,0
44257,-111.111111111111,4,2,1,40,0,0
45554,-111.111111111111,4,2,1,46,0,0
46852,-117.647058823529,4,2,1,50,0,0
54635,-117.647058823529,4,2,1,40,0,0
55933,-117.647058823529,4,2,1,30,0,0
56419,-117.647058823529,4,2,1,50,0,0
56581,-117.647058823529,4,2,1,50,0,0
57068,-100,4,2,1,60,0,0
59095,-100,4,2,1,5,0,0
59176,-100,4,2,1,60,0,0
60392,-100,4,2,1,5,0,0
60473,-100,4,2,1,60,0,0
64284,-100,4,2,1,5,0,0
64365,-100,4,2,1,60,0,0
65581,-100,4,2,1,5,0,0
65662,-100,4,2,1,60,0,0
67446,-105.263157894737,4,2,1,60,0,0
69554,-100,4,2,1,60,0,0
72473,-100,4,2,1,60,0,0
72716,-100,4,2,1,5,0,0
72797,-95.2380952380952,4,2,1,74,0,1
83176,-100,4,2,1,60,0,0
85446,-100,4,2,1,60,0,0
85770,-100,4,2,1,60,0,0
88365,-100,4,2,1,70,0,0
89662,-100,4,2,1,60,0,0
90635,-111.111111111111,4,2,1,60,0,0
90879,-111.111111111111,4,2,1,5,0,0
90960,-100,4,2,1,60,0,0
99879,-105.263157894737,4,2,1,60,0,0
101338,-117.647058823529,4,2,1,48,0,0
109122,-117.647058823529,4,2,1,44,0,0
111716,-111.111111111111,4,2,1,52,0,0
119500,-117.647058823529,4,2,1,50,0,0
121933,-100,4,2,1,60,0,0
123960,-100,4,2,1,5,0,0
124041,-100,4,2,1,60,0,0
125257,-100,4,2,1,5,0,0
125338,-100,4,2,1,60,0,0
132311,-105.263157894737,4,2,1,50,0,0
132635,-105.263157894737,4,3,2,50,0,0
134419,-100,4,2,1,60,0,0
135068,-100,4,2,1,66,0,0
135473,-100,4,2,1,60,0,0
135879,-100,4,2,1,60,0,0
136689,-111.111111111111,4,2,1,50,0,0
137014,-111.111111111111,4,2,1,56,0,0
137338,-111.111111111111,4,2,1,62,0,0
137662,-95.2380952380952,4,2,1,76,0,1
148041,-100,4,2,1,60,0,0
150311,-100,4,2,1,60,0,0
150635,-100,4,2,1,60,0,0
153230,-100,4,2,1,70,0,0
154527,-111.111111111111,4,3,2,50,0,0
155825,-125,4,2,1,56,0,0
156797,-125,4,3,2,56,0,0
160527,-125,4,2,1,56,0,0
160852,-125,4,3,2,5,0,0
161011,-125,4,2,1,56,0,0
161014,-125,4,2,1,56,0,0
161338,-125,4,3,2,56,0,0
166203,-125,4,2,1,56,0,0
166527,-125,4,3,2,56,0,0
169933,-125,4,2,1,56,0,0
171392,-111.111111111111,4,2,1,60,0,0
175284,-105.263157894737,4,2,1,50,0,0
175933,-105.263157894737,4,2,1,56,0,0
176581,-100,4,2,1,56,0,0
177879,-105.263157894737,4,2,1,60,0,0
178527,-105.263157894737,4,2,1,64,0,0
179176,-100,4,2,1,70,0,0
181770,-95.2380952380952,4,2,1,76,0,0
196041,-133.333333333333,4,2,1,30,0,0
200581,-133.333333333333,4,2,1,30,0,0
200906,-133.333333333333,4,2,1,50,0,0
201230,-117.647058823529,4,2,1,50,0,0
202852,-111.111111111111,4,2,1,60,0,0
203500,-111.111111111111,4,2,1,60,0,0
203743,-111.111111111111,4,2,1,5,0,0
203825,-95.2380952380952,4,2,1,78,0,1
212906,-100,4,2,1,78,0,1
214203,-100,4,2,1,68,0,0
216473,-100,4,2,1,68,0,0
216797,-100,4,2,1,68,0,0
219392,-100,4,2,1,72,0,0
220689,-111.111111111111,4,2,1,62,0,0
221662,-111.111111111111,4,2,1,68,0,0
221987,-100,4,2,1,60,0,0
230906,-111.111111111111,4,2,1,60,0,0
231554,-125,4,2,1,50,0,0
232473,-111.111111111111,4,2,1,60,0,0
232527,-111.111111111111,4,2,1,30,0,0

[Colours]
Combo1 : 188,134,122
Combo2 : 233,163,120
Combo3 : 241,205,160
Combo4 : 238,155,149

[HitObjects]
0,296,2227,6,0,P|35:278|73:286,1,80,2|0,0:3|0:2,0:0:0:0:
141,336,2949,2,0,L|236:325,1,80,2|2,0:2|0:2,0:0:0:0:
255,306,3463,2,0,P|296:346|354:339,1,120,2|2,0:2|0:2,0:0:0:0:
421,301,4320,1,2,0:2:0:0:
496,326,4677,1,2,0:2:0:0:
508,246,5035,6,0,L|486:155,1,80,2|2,0:3|0:2,0:0:0:0:
424,119,5751,2,0,P|385:130|346:136,1,80,2|2,0:2|0:2,0:0:0:0:
295,195,6457,2,0,L|313:284,1,80,2|2,0:2|0:2,0:0:0:0:
267,341,7164,1,2,0:2:0:0:
194,307,7513,1,2,0:2:0:0:
125,346,7862,6,0,P|84:340|44:333,2,80,2|2|2,0:3|0:2|0:2,0:0:0:0:
194,307,8933,1,2,0:2:0:0:
154,239,9290,2,0,L|173:147,1,80,2|2,0:2|0:2,0:0:0:0:
231,116,9956,2,0,L|309:131,1,80,2|2,0:2|0:2,0:0:0:0:
351,146,10485,1,2,0:2:0:0:
351,146,10661,6,0,P|310:213|312:291,1,160,2|2,0:3|0:2,0:0:0:0:
359,356,11748,1,2,0:2:0:0:
279,371,12114,2,0,L|167:382,1,80,2|0,0:3|0:2,0:0:0:0:
141,323,12811,1,2,0:3:0:0:
75,371,13160,1,0,0:2:0:0:
14,319,13508,6,0,L|11:225,1,80,2|2,0:3|0:2,0:0:0:0:
66,178,14222,2,0,L|168:172,1,80,2|2,0:2|0:2,0:0:0:0:
200,228,14919,1,2,0:2:0:0:
279,236,15276,1,2,0:2:0:0:
329,174,15633,2,0,L|320:81,1,80,2|2,0:2|0:2,0:0:0:0:
260,44,16330,6,0,P|184:56|127:57,2,120,2|2|2,0:3|0:2|0:2,0:0:0:0:
331,81,17758,1,2,0:3:0:0:
405,50,18110,1,2,0:0:0:0:
465,101,18458,1,2,0:3:0:0:
428,171,18807,1,2,0:2:0:0:
349,161,19156,5,2,0:3:0:0:
256,192,20567,12,0,24097,0:0:0:0:
188,106,24798,6,0,L|118:107,1,50,12|0,0:0|1:0,0:0:0:0:
88,98,25122,2,0,L|91:210,1,100,8|8,0:0|0:3,0:0:0:0:
28,276,25770,1,8,0:0:0:0:
106,338,26095,6,0,L|172:334,1,50,6|2,1:2|1:2,0:0:0:0:
205,332,26419,1,10,0:0:0:0:
280,266,26743,2,0,L|275:212,1,50,2|2,1:2|1:2,0:0:0:0:
251,178,27068,1,8,0:0:0:0:
251,178,27230,2,0,P|300:171|368:166,1,100,2|2,0:0|1:2,0:0:0:0:
397,185,27716,1,8,0:0:0:0:
474,121,28041,1,2,1:2:0:0:
435,28,28365,1,8,0:0:0:0:
335,28,28689,6,0,L|267:34,1,50,2|2,1:2|1:2,0:0:0:0:
235,38,29014,1,10,0:0:0:0:
178,120,29338,2,0,L|184:184,1,50,2|2,1:2|1:2,0:0:0:0:
212,216,29662,1,8,0:0:0:0:
212,216,29825,2,0,B|161:203|161:203|104:241,2,100,6|10|2,1:2|0:0|1:2,0:0:0:0:
256,238,30635,1,8,0:0:0:0:
285,333,30960,1,4,0:3:0:0:
196,378,31284,6,0,L|138:371,1,50,6|2,1:2|1:2,0:0:0:0:
96,365,31608,1,10,0:0:0:0:
22,296,31933,2,0,L|34:233,1,50,2|2,1:2|1:2,0:0:0:0:
20,203,32257,1,8,0:0:0:0:
20,203,32419,2,0,L|137:222,1,100,2|2,0:0|1:2,0:0:0:0:
168,227,32906,1,8,0:2:0:0:
248,167,33230,1,2,1:2:0:0:
201,78,33554,1,8,0:0:0:0:
280,16,33879,5,10,0:0:0:0:
280,16,34041,1,10,0:0:0:0:
373,63,34365,1,10,0:0:0:0:
373,63,34527,1,10,0:0:0:0:
472,36,34852,1,10,0:0:0:0:
472,36,35014,6,0,L|459:147,1,94.9999974632264,6|0,1:2|1:0,0:0:0:0:
497,160,35500,2,0,L|489:216,1,47.4999987316132,8|8,0:0|0:3,0:0:0:0:
506,252,35825,1,8,0:0:0:0:
435,315,36149,1,4,0:3:0:0:
352,280,36473,6,0,P|307:289|252:298,2,89.9999972534181,4|2|2,1:2|0:3|0:0,0:0:0:0:
335,100,37770,2,0,P|380:91|435:82,2,89.9999972534181,2|2|2,0:3|0:3|0:0,0:0:0:0:
177,188,39068,6,0,P|155:149|160:105,2,89.9999972534181,2|2|0,0:3|0:3|0:0,0:0:0:0:
355,210,40365,2,0,P|376:248|371:292,2,89.9999972534181,2|2|2,0:3|0:3|0:0,0:0:0:0:
194,292,41662,6,0,P|150:299|96:313,2,89.9999972534181,2|2|2,0:3|0:3|0:0,0:0:0:0:
246,119,42960,2,0,P|289:111|344:98,2,89.9999972534181,2|2|2,0:3|0:3|0:0,0:0:0:0:
73,170,44257,6,0,B|45:131|45:95|73:105|62:66|39:37,2,134.999995880127,2|8|4,0:0|0:1|0:2,0:0:0:0:
134,236,45554,5,8,0:0:0:0:
53,344,46041,1,8,0:0:0:0:
184,374,46527,2,0,L|239:361,1,44.999998626709,8|8,0:0|0:0,0:0:0:0:
270,362,46852,6,0,L|259:264,2,85.0000016212464,4|0|10,1:2|1:0|0:0,0:0:0:0:
353,379,47825,1,2,3:2:0:0:
425,334,48149,2,0,L|482:325,2,42.5000008106232,2|8|2,1:2|0:0|1:2,0:0:0:0:
365,273,48797,2,0,P|338:217|371:166,1,127.50000243187,8|0,0:0|3:2,0:0:0:0:
409,145,49446,5,2,1:2:0:0:
432,63,49770,1,2,1:2:0:0:
357,21,50095,2,0,L|259:40,1,85.0000016212464,8|2,0:0|3:2,0:0:0:0:
189,50,50743,2,0,L|179:4,2,42.5000008106232,2|8|2,1:2|0:0|1:2,0:0:0:0:
136,117,51392,2,0,P|94:110|58:131,1,85.0000016212464,8|0,0:0|3:0,0:0:0:0:
35,168,51879,1,0,3:0:0:0:
35,168,52041,6,0,P|36:209|38:272,1,85.0000016212464,6|0,1:2|1:0,0:0:0:0:
117,281,52689,2,0,L|113:183,1,85.0000016212464,10|0,0:0|3:0,0:0:0:0:
177,140,53338,2,0,L|173:88,2,42.5000008106232,2|10|2,1:2|0:0|1:2,0:0:0:0:
253,187,53987,1,8,0:0:0:0:
253,187,54149,2,0,P|296:179|351:168,1,85.0000016212464,8|4,0:3|0:3,0:0:0:0:
367,142,54635,6,0,B|399:176|441:156|441:156|462:205|429:242|429:242|470:268|457:324,1,255.000004863739,4|2,1:2|0:3,0:0:0:0:
393,367,55933,1,2,0:0:0:0:
293,292,56419,1,0,1:0:0:0:
293,292,56581,2,0,L|301:244,2,42.5000008106232,8|4|8,0:0|1:3|0:3,0:0:0:0:
256,326,57068,6,0,B|209:311|209:311|199:318|199:318|142:304,1,100,6|2,1:2|1:2,0:0:0:0:
116,330,57554,1,10,0:0:0:0:
29,279,57879,1,2,1:2:0:0:
72,191,58203,1,10,0:2:0:0:
72,191,58365,2,0,P|67:142|69:79,1,100,2|2,0:0|1:2,0:0:0:0:
96,49,58852,1,10,0:0:0:0:
187,90,59176,2,0,L|249:81,1,50,2|2,1:2|1:2,0:0:0:0:
283,61,59500,1,8,0:0:0:0:
283,61,59662,6,0,B|284:101|284:101|289:107|289:107|292:170,1,100,6|0,1:2|1:0,0:0:0:0:
298,208,60149,1,10,0:0:0:0:
260,300,60473,1,2,1:2:0:0:
345,360,60797,1,10,0:2:0:0:
345,360,60960,2,0,P|397:349|457:347,1,100,2|0,0:0|1:0,0:0:0:0:
479,312,61446,1,8,0:0:0:0:
418,232,61770,2,0,L|421:181,1,50,2|10,1:2|0:0,0:0:0:0:
452,143,62095,1,10,0:0:0:0:
452,143,62257,6,0,B|411:135|411:135|402:140|402:140|351:132,1,100,6|2,1:2|1:2,0:0:0:0:
304,126,62743,1,10,0:0:0:0:
265,33,63068,1,2,1:2:0:0:
170,54,63392,1,10,0:0:0:0:
170,54,63554,2,0,L|176:168,1,100,2|2,0:0|1:2,0:0:0:0:
180,203,64041,1,10,0:0:0:0:
115,279,64365,2,0,L|48:285,1,50,2|0,1:2|1:0,0:0:0:0:
24,310,64689,1,10,0:0:0:0:
24,310,64852,6,0,B|18:265|18:265|23:260|23:260|16:201,1,100,6|0,1:2|1:0,0:0:0:0:
13,162,65338,1,10,0:0:0:0:
70,80,65662,2,0,L|137:73,1,50,2|2,1:2|1:2,0:0:0:0:
164,108,65987,1,10,0:0:0:0:
164,108,66149,2,0,P|222:96|276:94,1,100,2|0,1:2|1:0,0:0:0:0:
302,64,66635,1,10,0:0:0:0:
374,133,66960,2,0,L|367:193,1,50,8|8,0:0|0:3,0:0:0:0:
369,236,67284,1,4,0:3:0:0:
369,236,67446,6,0,P|408:252|462:230,1,94.9999974632264,4|8,1:2|0:0,0:0:0:0:
485,198,67933,1,8,0:0:0:0:
458,106,68257,2,0,L|460:56,1,47.4999987316132,10|8,0:0|0:0,0:0:0:0:
369,51,68743,1,8,0:0:0:0:
369,51,68906,2,0,L|365:104,1,47.4999987316132,10|0,0:0|1:0,0:0:0:0:
363,145,69230,1,10,0:0:0:0:
274,192,69554,2,0,B|230:192|209:144|209:144|176:134|137:157,1,150,8|0,0:0|1:0,0:0:0:0:
105,179,70203,6,0,L|115:248,1,50,14|2,0:0|1:2,0:0:0:0:
127,280,70527,1,10,0:0:0:0:
127,280,70689,2,0,B|167:251|167:251|217:276,1,100,0|2,1:0|1:3,0:0:0:0:
175,366,71338,1,6,1:2:0:0:
53,224,72797,6,0,L|49:165,1,52.4999983978272,4|2,1:0|0:0,0:0:0:0:
47,118,73122,1,10,0:0:0:0:
126,49,73446,1,2,1:2:0:0:
229,85,73770,1,10,0:0:0:0:
229,85,73933,2,0,P|273:68|327:96,1,104.999996795654,2|0,0:0|0:0,0:0:0:0:
369,125,74419,1,10,0:0:0:0:
369,125,74581,2,0,P|348:174|336:232,1,104.999996795654,2|2,0:0|0:0,0:0:0:0:
366,268,75068,1,10,0:0:0:0:
312,356,75392,5,6,1:2:0:0:
220,304,75716,2,0,P|169:317|99:331,1,104.999996795654,10|0,0:0|1:2,0:0:0:0:
27,273,76365,2,0,L|17:217,1,52.4999983978272,10|2,0:0|0:0,0:0:0:0:
58,188,76689,2,0,P|91:149|89:97,1,104.999996795654,2|10,1:2|0:0,0:0:0:0:
70,48,77176,1,2,0:0:0:0:
178,50,77500,1,2,0:0:0:0:
178,50,77662,2,0,L|236:33,1,52.4999983978272,10|8,0:0|0:0,0:0:0:0:
279,23,77987,5,6,1:2:0:0:
336,110,78311,2,0,P|328:161|314:221,1,104.999996795654,10|0,0:0|1:0,0:0:0:0:
387,287,78960,1,10,0:0:0:0:
482,243,79284,2,0,P|502:197|476:136,1,104.999996795654,2|8,1:2|0:0,0:0:0:0:
475,95,79770,2,0,P|430:104|351:112,1,104.999996795654,2|2,0:0|0:0,0:0:0:0:
323,88,80257,1,8,0:0:0:0:
229,137,80581,6,0,B|236:180|236:180|232:189|232:189|243:262,1,104.999996795654,6|8,1:2|0:0,0:0:0:0:
163,312,81230,1,0,1:0:0:0:
250,366,81554,2,0,L|321:360,1,52.4999983978272,10|2,0:0|1:2,0:0:0:0:
339,324,81879,2,0,L|454:343,1,104.999996795654,12|0,0:0|1:0,0:0:0:0:
491,317,82365,1,10,0:0:0:0:
491,317,82527,2,0,L|501:250,1,52.4999983978272,2|8,1:2|0:0,0:0:0:0:
507,212,82852,1,10,0:0:0:0:
448,131,83176,6,0,B|408:118|362:128|398:158|342:179|293:154,1,150,6|2,1:2|1:2,0:0:0:0:
259,151,83825,2,0,P|264:195|266:266,1,100,8|0,0:0|0:0,0:0:0:0:
203,327,84473,2,0,L|151:325,1,50,2|8,1:2|0:0,0:0:0:0:
103,322,84797,1,2,1:2:0:0:
34,249,85122,1,10,0:0:0:0:
96,171,85446,1,2,0:0:0:0:
46,84,85770,6,0,P|103:40|172:64,1,150,6|2,1:2|1:2,0:0:0:0:
214,89,86419,2,0,P|266:77|323:72,1,100,8|2,0:0|0:0,0:0:0:0:
366,80,86906,1,10,0:0:0:0:
366,80,87068,1,0,1:2:0:0:
415,166,87392,2,0,L|406:223,1,50,2|8,1:3|0:0,0:0:0:0:
362,238,87716,2,0,L|311:227,1,50,8|8,0:0|0:0,0:0:0:0:
272,256,88041,2,0,L|221:245,1,50,8|8,0:0|0:0,0:0:0:0:
183,214,88365,6,0,L|165:318,1,100,4|4,1:2|1:2,0:0:0:0:
460,370,89662,2,0,L|479:270,1,100,6|8,1:2|0:0,0:0:0:0:
453,234,90149,1,0,1:0:0:0:
453,234,90311,2,0,L|349:215,1,100,8|10,0:3|0:0,0:0:0:0:
257,239,90960,6,0,L|248:290,1,50,6|2,1:2|1:2,0:0:0:0:
237,337,91284,1,10,0:0:0:0:
141,306,91608,2,0,L|153:248,1,50,2|2,1:2|1:2,0:0:0:0:
143,212,91933,1,8,0:0:0:0:
143,212,92095,2,0,L|35:194,1,100,2|2,0:0|1:2,0:0:0:0:
14,155,92581,1,8,0:0:0:0:
16,54,92906,1,2,1:2:0:0:
106,12,93230,1,8,0:0:0:0:
176,83,93554,6,0,L|244:76,1,50,2|2,1:2|1:2,0:0:0:0:
275,68,93879,1,10,0:0:0:0:
354,14,94203,2,0,L|409:25,1,50,2|0,1:2|1:2,0:0:0:0:
455,37,94527,1,8,0:0:0:0:
455,37,94689,2,0,B|448:72|448:72|443:80|443:80|433:141,1,100,6|2,1:2|1:2,0:0:0:0:
425,183,95176,1,8,0:0:0:0:
489,259,95500,1,2,1:2:0:0:
432,341,95825,2,0,L|367:329,1,50,8|8,0:0|0:0,0:0:0:0:
344,300,96149,6,0,L|283:309,1,50,6|2,1:2|1:2,0:0:0:0:
246,321,96473,1,10,0:0:0:0:
160,269,96797,2,0,L|149:211,1,50,2|2,1:2|1:2,0:0:0:0:
183,182,97122,1,8,0:0:0:0:
183,182,97284,2,0,L|287:163,1,100,2|2,0:0|1:2,0:0:0:0:
329,152,97770,1,8,0:0:0:0:
343,52,98095,1,8,0:0:0:0:
255,4,98419,1,8,0:0:0:0:
187,77,98743,5,10,0:0:0:0:
187,77,98906,1,10,0:0:0:0:
105,29,99230,1,10,0:0:0:0:
105,29,99392,1,10,0:0:0:0:
31,96,99716,1,10,0:0:0:0:
31,96,99879,6,0,P|37:138|49:210,1,94.9999974632264,6|0,1:2|1:0,0:0:0:0:
62,234,100365,2,0,L|120:222,1,47.4999987316132,8|8,0:0|0:0,0:0:0:0:
154,236,100689,1,8,0:0:0:0:
223,300,101014,1,4,0:3:0:0:
283,240,101338,6,0,P|274:196|266:150,1,85.0000016212464,6|8,1:2|0:0,0:0:0:0:
258,114,101825,1,2,1:3:0:0:
321,57,102149,2,0,L|311:8,2,42.5000008106232,8|8|4,0:0|0:3|0:3,0:0:0:0:
361,70,102635,2,0,P|404:59|453:48,1,85.0000016212464,2|8,1:3|0:0,0:0:0:0:
484,38,103122,1,2,1:3:0:0:
445,159,103608,2,0,L|457:207,1,42.5000008106232,8|8,0:0|0:0,0:0:0:0:
481,233,103933,6,0,L|392:254,1,85.0000016212464,2|8,1:3|0:0,0:0:0:0:
358,266,104419,1,2,1:3:0:0:
303,330,104743,2,0,L|313:374,2,42.5000008106232,8|8|4,0:0|0:3|0:3,0:0:0:0:
267,305,105230,2,0,B|228:290|228:290|185:325,1,85.0000016212464,2|8,1:3|0:0,0:0:0:0:
166,349,105716,1,2,1:3:0:0:
50,295,106203,2,0,L|46:246,1,42.5000008106232,8|8,0:0|0:0,0:0:0:0:
27,214,106527,6,0,L|125:203,1,85.0000016212464,2|8,1:3|0:0,0:0:0:0:
154,201,107014,1,2,1:3:0:0:
226,245,107338,2,0,L|231:295,2,42.5000008106232,8|8|4,0:0|0:3|0:3,0:0:0:0:
263,224,107825,6,0,L|254:126,1,85.0000016212464,2|8,1:3|0:0,0:0:0:0:
249,97,108311,1,2,1:3:0:0:
185,41,108635,2,0,L|130:45,2,42.5000008106232,8|4|8,0:0|0:3|0:3,0:0:0:0:
219,12,109122,6,0,P|286:-1|327:46,2,127.50000243187,4|4|4,1:2|1:2|1:2,0:0:0:0:
45,132,110906,1,8,0:0:0:0:
45,132,111068,2,0,L|51:186,1,42.5000008106232,8|4,0:0|0:3,0:0:0:0:
36,219,111392,2,0,L|42:272,1,42.5000008106232,8|8,0:3|0:3,0:0:0:0:
28,304,111716,6,0,P|75:296|138:291,1,89.9999972534181,4|0,1:2|1:0,0:0:0:0:
191,241,112365,1,10,0:0:0:0:
237,312,112689,1,2,1:2:0:0:
319,276,113014,2,0,B|310:235|310:235|313:225|313:225|305:183,1,89.9999972534181,2|0,1:2|1:0,0:0:0:0:
352,111,113662,2,0,P|392:118|441:91,1,89.9999972534181,8|0,0:0|1:0,0:0:0:0:
476,77,114149,1,10,0:0:0:0:
476,77,114311,6,0,L|492:172,1,89.9999972534181,2|2,1:3|1:2,0:0:0:0:
437,234,114960,1,8,0:0:0:0:
431,323,115284,2,0,L|375:327,1,44.999998626709,2|2,1:2|0:0,0:0:0:0:
341,332,115608,2,0,P|289:343|236:358,1,89.9999972534181,2|0,1:2|1:2,0:0:0:0:
182,296,116257,2,0,P|187:249|197:196,1,89.9999972534181,8|0,0:0|1:0,0:0:0:0:
170,175,116743,1,10,0:0:0:0:
170,175,116906,6,0,P|128:170|64:159,1,89.9999972534181,2|0,1:3|1:0,0:0:0:0:
93,73,117554,2,0,P|138:81|200:90,1,89.9999972534181,10|0,0:0|1:0,0:0:0:0:
271,85,118203,2,0,L|258:180,1,89.9999972534181,2|10,1:2|0:0,0:0:0:0:
290,206,118689,2,0,L|343:214,1,44.999998626709,8|8,0:0|0:0,0:0:0:0:
370,185,119014,2,0,P|419:194|473:202,1,89.9999972534181,8|4,0:3|0:3,0:0:0:0:
484,233,119500,6,0,P|439:257|446:334,1,127.50000243187,4|0,1:2|1:0,0:0:0:0:
470,356,120149,1,8,0:0:0:0:
347,344,120635,1,8,0:0:0:0:
347,344,120797,2,0,L|350:286,2,42.5000008106232,0|8|0,1:0|0:0|1:0,0:0:0:0:
267,372,121446,2,0,B|234:344|234:344|187:355,1,85.0000016212464,8|8,0:0|0:3,0:0:0:0:
142,333,121933,6,0,B|136:287|136:287|141:272|141:272|136:216,1,100,6|0,1:2|1:0,0:0:0:0:
129,185,122419,1,10,0:0:0:0:
207,123,122743,1,2,1:2:0:0:
294,182,123068,1,10,0:0:0:0:
294,182,123230,2,0,P|343:175|399:170,1,100,2|2,0:0|1:2,0:0:0:0:
440,188,123716,1,10,0:0:0:0:
505,112,124041,2,0,L|499:62,1,50,2|2,1:2|1:2,0:0:0:0:
468,30,124365,1,8,0:0:0:0:
468,30,124527,6,0,B|422:34|422:34|416:38|416:38|359:44,1,100,6|0,1:2|1:0,0:0:0:0:
325,18,125014,1,10,0:0:0:0:
245,78,125338,1,2,1:2:0:0:
301,166,125662,1,10,0:2:0:0:
301,166,125825,2,0,P|293:215|293:272,1,100,2|0,0:0|1:0,0:0:0:0:
317,308,126311,1,8,0:0:0:0:
243,375,126635,2,0,L|187:366,1,50,2|10,1:2|0:0,0:0:0:0:
148,359,126960,1,10,0:0:0:0:
148,359,127122,6,0,B|181:323|181:323|162:275,1,100,6|0,1:2|1:0,0:0:0:0:
133,234,127608,1,10,0:0:0:0:
33,246,127933,1,10,0:0:0:0:
1,158,128257,1,10,0:0:0:0:
1,158,128419,2,0,B|7:108|7:108|12:101|12:101|17:50,1,100,6|2,1:2|1:2,0:0:0:0:
56,30,128906,1,10,0:0:0:0:
130,96,129230,2,0,L|186:101,1,50,10|8,0:0|0:3,0:0:0:0:
233,101,129554,1,4,0:3:0:0:
233,101,129716,6,0,B|229:141|229:141|220:151|220:151|213:211,1,100,6|0,1:2|1:0,0:0:0:0:
208,247,130203,1,10,0:0:0:0:
284,311,130527,2,0,L|341:300,1,50,10|10,0:0|0:0,0:0:0:0:
386,296,130852,1,2,1:2:0:0:
386,296,131014,2,0,B|407:251|407:251|364:200,1,100,14|0,0:0|1:0,0:0:0:0:
335,182,131500,1,8,0:0:0:0:
414,120,131825,1,10,0:0:0:0:
414,120,131987,1,10,1:2:0:0:
346,52,132311,6,0,P|285:69|188:86,1,142.49999619484,4|4,1:2|0:3,0:0:0:0:
163,87,132960,1,4,1:3:0:0:
163,87,133122,2,0,P|121:64|75:71,1,94.9999974632264,10|4,2:2|0:3,0:0:0:0:
43,106,133608,1,4,0:3:0:0:
43,106,133770,2,0,L|46:163,1,47.4999987316132,4|4,1:3|0:3,0:0:0:0:
65,251,134257,5,0,1:0:0:0:
65,251,134419,1,12,0:0:0:0:
151,200,134743,1,8,0:0:0:0:
221,270,135068,6,0,L|219:331,2,50,10|2|10,0:0|1:2|0:0,0:0:0:0:
254,233,135554,2,0,B|299:211|299:211|352:248,2,100,2|10|10,1:2|0:0|0:0,0:0:0:0:
288,363,136689,5,10,0:0:0:0:
376,382,137014,1,10,0:0:0:0:
431,311,137338,2,0,L|426:265,1,44.999998626709,10|8,0:0|0:0,0:0:0:0:
442,216,137662,6,0,P|397:241|339:228,1,104.999996795654,4|10,1:0|0:0,0:0:0:0:
269,161,138311,1,2,1:2:0:0:
212,79,138635,1,10,0:0:0:0:
212,79,138797,2,0,P|162:89|97:104,1,104.999996795654,2|0,0:0|0:0,0:0:0:0:
60,99,139284,1,10,0:0:0:0:
60,99,139446,2,0,L|85:216,1,104.999996795654,2|2,0:0|0:0,0:0:0:0:
92,253,139933,1,10,0:0:0:0:
18,328,140257,5,4,1:2:0:0:
108,381,140581,2,0,P|161:368|224:360,1,104.999996795654,10|0,0:0|1:0,0:0:0:0:
250,263,141230,1,10,0:0:0:0:
354,266,141554,2,0,L|369:329,1,52.4999983978272,2|2,1:2|0:0,0:0:0:0:
391,368,141879,1,10,0:0:0:0:
391,368,142041,2,0,P|442:373|483:343,1,104.999996795654,2|2,0:0|0:0,0:0:0:0:
494,291,142527,1,10,0:0:0:0:
428,208,142852,5,4,1:2:0:0:
494,126,143176,2,0,P|478:75|472:20,1,104.999996795654,10|0,0:0|1:0,0:0:0:0:
367,17,143825,1,10,0:2:0:0:
317,110,144149,2,0,L|246:100,1,52.4999983978272,2|2,1:2|0:0,0:0:0:0:
219,87,144473,1,10,0:0:0:0:
219,87,144635,2,0,P|213:133|205:194,1,104.999996795654,2|2,0:0|0:0,0:0:0:0:
198,243,145122,1,8,0:0:0:0:
297,275,145446,6,0,P|336:235|394:247,2,104.999996795654,6|8|0,1:2|0:0|1:0,0:0:0:0:
251,370,146419,2,0,L|187:359,1,52.4999983978272,10|2,0:0|1:2,0:0:0:0:
158,328,146743,2,0,P|105:335|44:346,1,104.999996795654,12|0,0:0|1:0,0:0:0:0:
15,316,147230,1,10,0:0:0:0:
15,316,147392,2,0,L|9:262,1,52.4999983978272,2|8,1:2|0:0,0:0:0:0:
8,211,147716,1,10,0:0:0:0:
77,138,148041,6,0,B|124:130|150:162|132:171|160:201|208:188,1,150,6|2,1:2|1:2,0:0:0:0:
257,188,148689,2,0,P|247:138|246:81,1,100,8|0,0:0|0:0,0:0:0:0:
318,19,149338,2,0,L|383:31,1,50,2|8,1:2|0:0,0:0:0:0:
416,34,149662,1,2,0:0:0:0:
483,108,149987,1,10,0:0:0:0:
408,174,150311,1,2,0:0:0:0:
463,257,150635,6,0,P|392:269|372:337,1,150,6|2,1:2|1:2,0:0:0:0:
324,353,151284,2,0,P|279:344|207:338,2,100,8|2|2,0:0|0:0|1:2,0:0:0:0:
300,255,152257,1,2,1:3:0:0:
200,252,152581,2,0,L|151:244,1,50,8|8,0:0|0:0,0:0:0:0:
120,283,152906,2,0,L|71:275,1,50,8|8,0:0|0:0,0:0:0:0:
33,241,153230,6,0,L|20:348,1,100,4|4,1:2|1:2,0:0:0:0:
287,382,154527,2,0,L|297:278,1,89.9999972534181,10|4,2:2|0:3,0:0:0:0:
287,252,155014,1,8,0:3:0:0:
287,252,155176,2,0,L|385:262,1,89.9999972534181,2|4,0:2|0:3,0:0:0:0:
424,272,155662,1,8,0:3:0:0:
424,272,155825,6,0,P|471:230|455:166,1,120,6|0,1:2|1:0,0:0:0:0:
434,152,156473,1,8,0:0:0:0:
361,185,156797,1,0,0:3:0:0:
302,130,157122,2,0,P|314:67|323:2,2,120,2|2|2,1:2|1:2|0:2,0:0:0:0:
232,169,158419,6,0,P|176:157|103:144,1,120,0|0,1:0|1:0,0:0:0:0:
79,166,159068,1,8,2:2:0:0:
103,241,159392,2,0,L|108:283,1,40,0|8,0:0|0:2,0:0:0:0:
97,321,159716,2,0,P|155:310|224:305,1,120,0|0,1:0|1:0,0:0:0:0:
258,320,160365,1,8,2:2:0:0:
258,320,160527,1,12,2:2:0:0:
371,280,161014,6,0,P|406:238|378:175,1,120,6|0,1:2|1:0,0:0:0:0:
352,160,161662,1,8,2:2:0:0:
292,214,161987,1,0,0:0:0:0:
237,155,162311,2,0,P|228:97|227:26,1,120,2|0,1:2|1:0,0:0:0:0:
193,14,162960,1,8,2:2:0:0:
121,49,163284,2,0,L|74:39,1,40,0|8,0:0|0:2,0:0:0:0:
43,34,163608,6,0,P|3:74|15:130,1,120,2|0,1:2|1:0,0:0:0:0:
33,166,164257,1,8,2:2:0:0:
16,244,164581,1,0,0:0:0:0:
82,289,164906,2,0,P|140:277|206:271,1,120,2|0,1:2|1:0,0:0:0:0:
239,280,165554,1,8,2:2:0:0:
284,346,165879,1,0,0:0:0:0:
362,361,166203,6,0,P|425:362|459:314,1,120,6|0,1:2|1:0,0:0:0:0:
464,280,166852,1,8,2:2:0:0:
404,226,167176,1,0,0:0:0:0:
326,245,167500,2,0,P|313:189|303:124,1,120,2|0,1:2|1:0,0:0:0:0:
314,88,168149,1,8,2:2:0:0:
390,65,168473,1,0,0:0:0:0:
458,105,168797,6,0,P|446:162|441:230,1,120,2|0,1:2|1:0,0:0:0:0:
467,253,169446,1,8,2:2:0:0:
410,309,169770,2,0,L|361:302,1,40,8|8,2:2|0:0,0:0:0:0:
330,295,170095,2,0,L|321:384,2,80,2|8|8,1:2|0:0|0:0,0:0:0:0:
259,257,171068,2,0,L|264:215,1,40,0|8,1:0|0:0,0:0:0:0:
224,196,171392,6,0,P|183:212|141:198,1,89.9999972534181,6|2,1:2|1:3,0:0:0:0:
71,141,172041,1,2,1:3:0:0:
81,51,172365,1,2,1:3:0:0:
162,9,172689,2,0,P|204:17|265:24,1,89.9999972534181,2|2,1:2|1:3,0:0:0:0:
338,2,173338,1,2,1:3:0:0:
405,62,173662,2,0,L|397:106,1,44.999998626709,2|2,1:3|0:3,0:0:0:0:
414,147,173987,6,0,P|423:189|402:229,1,89.9999972534181,2|2,1:2|1:3,0:0:0:0:
339,293,174635,1,2,1:3:0:0:
252,267,174960,1,2,1:3:0:0:
206,183,175284,2,0,B|155:181|155:181|117:206|117:206|59:188,1,142.49999619484,14|8,0:0|0:0,0:0:0:0:
27,207,175933,2,0,B|-2:275|-2:275|-2:315|47:329,1,142.49999619484,8|8,1:2|1:3,0:0:0:0:
78,362,176581,6,0,P|124:344|174:337,1,100,6|4,1:2|1:3,0:0:0:0:
273,345,177230,1,4,1:3:0:0:
329,263,177554,5,4,1:3:0:0:
265,191,177879,1,10,0:0:0:0:
179,231,178203,1,8,0:0:0:0:
96,184,178527,2,0,L|104:129,1,47.4999987316132,8|8,0:0|0:0,0:0:0:0:
79,95,178852,2,0,L|86:40,1,47.4999987316132,8|8,0:0|0:0,0:0:0:0:
126,21,179176,6,0,B|166:21|166:21|171:25|171:25|230:32,1,100,14|0,0:0|1:0,0:0:0:0:
254,71,179662,2,0,B|301:86|301:86|339:53,1,100,12|0,0:0|1:0,0:0:0:0:
379,22,180149,1,10,0:0:0:0:
472,70,180473,5,2,1:2:0:0:
472,70,180635,2,0,L|458:172,1,100,12|0,0:0|1:0,0:0:0:0:
459,216,181122,1,10,0:0:0:0:
369,260,181446,2,0,L|308:248,1,50,8|0,0:0|1:0,0:0:0:0:
280,215,181770,6,0,B|272:256|272:256|275:266|275:266|266:318,1,104.999996795654,14|10,0:0|0:0,0:0:0:0:
262,374,182257,1,2,1:2:0:0:
262,374,182419,1,10,0:0:0:0:
162,339,182743,2,0,L|172:283,1,52.4999983978272,10|2,0:0|1:2,0:0:0:0:
183,236,183068,6,0,B|142:228|142:228|132:231|132:231|80:222,1,104.999996795654,14|10,0:0|0:0,0:0:0:0:
33,213,183554,1,2,1:2:0:0:
33,213,183716,2,0,L|40:150,1,52.4999983978272,10|10,1:2|0:0,0:0:0:0:
53,113,184041,1,10,0:0:0:0:
53,113,184203,1,10,0:0:0:0:
4,356,196041,6,0,P|53:358|120:339,1,112.500004291535,0|2,1:0|0:0,0:0:0:0:
259,303,197176,2,0,P|299:307|367:341,1,112.500004291535,0|0,1:0|3:2,0:0:0:0:
437,350,197987,2,0,P|458:325|457:268,1,75.0000028610231,2|0,3:2|0:0,0:0:0:0:
424,219,198635,2,0,P|457:178|515:184,2,112.500004291535,0|2|2,1:0|0:0|0:0,0:0:0:0:
345,348,200257,2,0,P|304:338|256:330,1,75.0000028610231,0|2,1:0|3:2,0:0:0:0:
196,353,200906,1,2,2:2:0:0:
132,302,201230,6,0,L|154:208,1,85.0000016212464,12|8,0:0|0:0,0:0:0:0:
144,182,201716,1,8,0:0:0:0:
144,182,201879,2,0,B|107:173|107:173|101:174|101:174|56:164,2,85.0000016212464,8|8|8,0:0|0:0|0:0,0:0:0:0:
224,140,202852,2,0,L|287:149,1,44.999998626709,10|8,0:0|0:0,0:0:0:0:
298,180,203176,2,0,L|354:189,1,44.999998626709,10|8,0:0|0:0,0:0:0:0:
374,218,203500,1,14,0:0:0:0:
460,158,203825,6,0,L|458:96,1,52.4999983978272,4|0,1:1|0:0,0:0:0:0:
455,53,204149,1,10,0:0:0:0:
357,14,204473,1,2,1:2:0:0:
268,66,204797,1,10,0:0:0:0:
268,66,204960,2,0,P|214:79|170:57,1,104.999996795654,2|0,0:0|0:0,0:0:0:0:
124,74,205446,1,10,0:0:0:0:
124,74,205608,2,0,P|120:121|109:191,1,104.999996795654,2|2,0:0|0:0,0:0:0:0:
74,216,206095,1,10,0:0:0:0:
106,315,206419,5,4,1:2:0:0:
206,286,206743,2,0,P|262:284|320:278,1,104.999996795654,10|0,0:0|1:0,0:0:0:0:
368,191,207392,2,0,L|361:138,1,52.4999983978272,10|2,0:0|0:0,0:0:0:0:
361,86,207716,2,0,P|411:83|468:69,1,104.999996795654,2|10,1:2|0:0,0:0:0:0:
510,95,208203,1,2,0:0:0:0:
470,194,208527,1,2,0:0:0:0:
470,194,208689,2,0,L|479:261,1,52.4999983978272,10|8,0:0|0:0,0:0:0:0:
482,298,209014,5,4,1:2:0:0:
380,322,209338,2,0,P|329:309|265:303,1,104.999996795654,10|0,0:0|1:0,0:0:0:0:
179,343,209987,1,10,0:0:0:0:
77,316,210311,2,0,P|58:267|81:221,1,104.999996795654,2|10,1:2|0:0,0:0:0:0:
73,170,210797,2,0,P|124:182|175:191,1,104.999996795654,2|2,0:0|1:2,0:0:0:0:
228,187,211284,2,0,L|235:119,1,52.4999983978272,8|0,0:0|1:0,0:0:0:0:
239,82,211608,5,14,0:0:0:0:
328,27,211933,1,8,0:0:0:0:
411,90,212257,1,8,0:0:0:0:
377,189,212581,2,0,L|316:182,1,52.4999983978272,10|2,0:0|1:2,0:0:0:0:
276,196,212906,2,0,P|247:238|255:284,1,100,12|8,0:0|0:0,0:0:0:0:
281,332,213392,1,8,0:0:0:0:
281,332,213554,1,8,0:0:0:0:
363,278,213879,1,4,0:3:0:0:
440,341,214203,6,0,P|481:277|452:207,1,150,4|2,1:2|1:2,0:0:0:0:
454,162,214852,2,0,P|416:174|348:183,1,100,8|0,0:0|1:0,0:0:0:0:
309,165,215338,1,2,1:2:0:0:
310,68,215662,1,8,0:0:0:0:
310,68,215825,1,2,0:0:0:0:
229,8,216149,1,10,0:0:0:0:
144,61,216473,1,2,0:0:0:0:
180,154,216797,6,0,P|108:152|73:215,1,150,6|2,1:2|1:2,0:0:0:0:
46,257,217446,2,0,P|95:255|144:264,1,100,8|2,0:0|1:2,0:0:0:0:
176,303,217933,1,2,1:2:0:0:
253,239,218257,1,8,0:0:0:0:
253,239,218419,1,2,0:0:0:0:
320,312,218743,2,0,L|379:302,1,50,10|0,0:0|1:0,0:0:0:0:
393,259,219068,2,0,L|447:252,1,50,10|0,0:0|0:0,0:0:0:0:
486,277,219392,6,0,L|473:171,1,100,4|4,1:2|1:2,0:0:0:0:
206,213,220689,2,0,L|215:307,1,89.9999972534181,12|8,0:0|0:0,0:0:0:0:
224,351,221176,1,0,1:0:0:0:
224,351,221338,2,0,L|131:359,1,89.9999972534181,8|10,1:3|0:0,0:0:0:0:
40,324,221987,6,0,L|34:260,1,50,6|2,1:2|1:2,0:0:0:0:
29,224,222311,1,10,0:0:0:0:
104,158,222635,2,0,L|159:155,1,50,2|2,1:2|1:2,0:0:0:0:
198,129,222960,1,8,0:0:0:0:
198,129,223122,2,0,L|207:237,1,100,2|2,0:0|1:2,0:0:0:0:
169,262,223608,1,8,0:0:0:0:
209,353,223933,1,2,1:2:0:0:
308,351,224257,1,8,0:0:0:0:
364,268,224581,6,0,L|418:261,1,50,2|2,1:2|1:2,0:0:0:0:
463,256,224906,1,10,0:0:0:0:
468,156,225230,2,0,L|403:164,1,50,2|2,1:2|1:2,0:0:0:0:
372,167,225554,1,8,0:0:0:0:
372,167,225716,2,0,B|340:127|340:127|367:69,1,100,6|2,1:2|1:2,0:0:0:0:
390,42,226203,1,8,0:0:0:0:
299,0,226527,2,0,L|198:17,1,100,8|8,0:3|0:0,0:0:0:0:
132,90,227176,6,0,L|142:151,1,50,6|2,1:2|1:2,0:0:0:0:
155,186,227500,1,10,0:0:0:0:
245,229,227825,1,10,0:0:0:0:
319,162,228149,2,0,L|379:151,1,50,8|2,0:0|1:2,0:0:0:0:
412,130,228473,2,0,B|420:170|420:170|415:176|415:176|428:236,1,100,8|2,0:0|1:2,0:0:0:0:
446,277,228960,1,12,0:0:0:0:
446,277,229122,1,2,1:2:0:0:
365,336,229446,2,0,L|295:322,1,50,8|0,0:0|1:0,0:0:0:0:
271,318,229770,5,10,0:2:0:0:
271,318,229933,1,10,0:0:0:0:
183,361,230257,1,10,0:0:0:0:
183,361,230419,1,10,0:0:0:0:
99,316,230743,1,10,0:0:0:0:
99,316,230906,6,0,P|113:210|130:130,1,179.999994506836,6|8,1:2|0:3,0:0:0:0:
127,98,231716,2,0,B|100:78|100:78|61:90,2,66.6666666666667,8|8|4,0:0|0:3|0:3,0:0:0:0:
183,77,232473,5,4,1:2:0:0:
256,192,232689,12,0,241284,0:0:0:0:
