osu file format v14

[General]
AudioFilename: audio.mp3
AudioLeadIn: 0
PreviewTime: 200024
Countdown: 0
SampleSet: Soft
StackLeniency: 0.6
Mode: 0
LetterboxInBreaks: 0
WidescreenStoryboard: 1

[Editor]
Bookmarks: 57078,72807,101351,121943,137672,148051,155835,171402,184213,185672,196051,201240,203835
DistanceSpacing: 0.4
BeatDivisor: 4
GridSize: 8
TimelineZoom: 3.099999

[Metadata]
Title:Kimi no Inai Yoru o Koete
TitleUnicode:君のいない夜を越えて
Artist:MY FIRST STORY
ArtistUnicode:MY FIRST STORY
Creator:AirinCat
Version:Insane
Source:御茶ノ水ロック
Tags:all secret tracks mfs hiro moriuchi Katou Nobuaki Nishizawa Teruki hiroki nob teru kid'z sho japanese rock jrock j-rock ochanomizu rock tv serial series 森内寛樹 加藤伸明 佐々木翔平 西澤照貴
BeatmapID:2382712
BeatmapSetID:1140731

[Difficulty]
HPDrainRate:5
CircleSize:3.8
OverallDifficulty:8
ApproachRate:9
SliderMultiplier:1.7
SliderTickRate:1

[Events]
//Background and Video events
0,0,"uwu.jpg",0,0
//Break Periods
2,185662,195441
//Storyboard Layer 0 (Background)
//Storyboard Layer 1 (Fail)
//Storyboard Layer 2 (Pass)
//Storyboard Layer 3 (Foreground)
//Storyboard Layer 4 (Overlay)
//Storyboard Sound Samples

[TimingPoints]
2227,722.89156626506,4,2,1,34,1,0
2227,-83.3333333333333,4,2,1,34,0,0
2949,685.714285714286,4,2,1,34,1,0
2949,-83.3333333333333,4,2,1,34,0,0
4320,715.990453460621,4,2,1,34,1,0
4320,-83.3333333333333,4,2,1,34,0,0
5751,706.713780918728,4,2,1,34,1,0
5751,-83.3333333333333,4,2,1,34,0,0
7164,698.48661233993,4,2,1,34,1,0
7164,-83.3333333333333,4,2,1,34,0,0
7862,714.285714285713,4,2,1,34,1,0
7862,-83.3333333333333,4,2,1,34,0,0
9290,666.666666666667,4,2,1,34,1,0
9290,-83.3333333333333,4,2,1,34,0,0
9956,705.882352941176,4,2,1,34,1,0
9956,-83.3333333333333,4,2,1,34,0,0
10661,722.89156626506,4,2,1,34,1,0
10661,-83.3333333333333,4,2,1,34,0,0
11383,731.707317073171,4,2,1,34,1,0
11383,-83.3333333333333,4,2,1,34,0,0
12114,697.67441860465,4,2,1,34,1,0
12114,-83.3333333333333,4,2,1,34,0,0
13508,714.285714285714,4,2,1,34,1,0
13508,-83.3333333333333,4,2,1,34,0,0
14222,697.674418604651,4,2,1,34,1,0
14222,-83.3333333333333,4,2,1,34,0,0
14919,714.285714285714,4,2,1,34,1,0
14919,-83.3333333333333,4,2,1,34,0,0
15633,697.674418604651,4,2,1,34,1,0
15633,-83.3333333333333,4,2,1,34,0,0
16330,714.285714285714,4,2,1,34,1,0
16330,-83.3333333333333,4,2,1,34,0,0
17758,705.882352941176,4,2,1,34,1,0
17758,-83.3333333333333,4,2,1,34,0,0
18110,697.674418604651,4,2,1,34,1,0
19156,705.882352941176,4,2,1,34,1,0
24798,324.324324324324,4,2,1,60,1,0
24798,-83.3333333333333,4,2,1,60,0,0
25770,-166.666666666667,4,2,1,60,0,0
26095,-90.9090909090909,4,2,1,70,0,0
34527,-100,4,2,1,70,0,0
35014,-142.857142857143,4,2,1,70,0,0
36473,-142.857142857143,4,2,1,38,0,0
44257,-166.666666666667,4,2,1,40,0,0
45554,-100,4,2,1,46,0,0
46852,-133.333333333333,4,2,1,50,0,0
54635,-222.222222222222,4,2,1,40,0,0
55933,-222.222222222222,4,2,1,30,0,0
56419,-222.222222222222,4,2,1,50,0,0
56581,-133.333333333333,4,2,1,50,0,0
57068,-90.9090909090909,4,2,1,60,0,0
59095,-90.9090909090909,4,2,1,5,0,0
59176,-90.9090909090909,4,2,1,60,0,0
60392,-90.9090909090909,4,2,1,5,0,0
60473,-90.9090909090909,4,2,1,60,0,0
64284,-90.9090909090909,4,2,1,5,0,0
64365,-90.9090909090909,4,2,1,60,0,0
65581,-90.9090909090909,4,2,1,5,0,0
65662,-90.9090909090909,4,2,1,60,0,0
67446,-111.111111111111,4,2,1,60,0,0
69554,-100,4,2,1,60,0,0
71825,-166.666666666667,4,2,1,46,0,0
72068,-166.666666666667,4,2,1,5,0,0
72149,-166.666666666667,4,2,1,46,0,0
72392,-166.666666666667,4,2,1,5,0,0
72473,-142.857142857143,4,2,1,60,0,0
72716,-142.857142857143,4,2,1,5,0,0
72797,-86.9565217391304,4,2,1,80,0,1
83176,-105.263157894737,4,2,1,68,0,0
85365,-105.263157894737,4,2,1,5,0,0
85446,-90.9090909090909,4,2,1,68,0,0
85689,-90.9090909090909,4,2,1,5,0,0
85770,-111.111111111111,4,2,1,68,0,0
88365,-90.9090909090909,4,2,1,70,0,0
89662,-90.9090909090909,4,2,1,60,0,0
90635,-142.857142857143,4,2,1,60,0,0
90879,-142.857142857143,4,2,1,5,0,0
90960,-90.9090909090909,4,2,1,60,0,0
99879,-166.666666666667,4,2,1,60,0,0
101338,-117.647058823529,4,2,1,48,0,0
109122,-142.857142857143,4,2,1,44,0,0
111716,-117.647058823529,4,2,1,52,0,0
119500,-142.857142857143,4,2,1,50,0,0
121933,-90.9090909090909,4,2,1,60,0,0
123960,-90.9090909090909,4,2,1,5,0,0
124041,-90.9090909090909,4,2,1,60,0,0
125257,-90.9090909090909,4,2,1,5,0,0
125338,-90.9090909090909,4,2,1,60,0,0
132311,-111.111111111111,4,2,1,50,0,0
132635,-111.111111111111,4,3,2,50,0,0
134419,-83.3333333333333,4,2,1,60,0,0
135068,-83.3333333333333,4,2,1,66,0,0
135473,-90.9090909090909,4,2,1,60,0,0
135879,-90.9090909090909,4,2,1,60,0,0
136689,-125,4,2,1,50,0,0
137014,-125,4,2,1,56,0,0
137338,-125,4,2,1,62,0,0
137662,-86.9565217391304,4,2,1,80,0,1
148041,-105.263157894737,4,2,1,68,0,0
150230,-105.263157894737,4,2,1,5,0,0
150311,-90.9090909090909,4,2,1,68,0,0
150554,-90.9090909090909,4,2,1,5,0,0
150635,-111.111111111111,4,2,1,68,0,0
153230,-90.9090909090909,4,2,1,70,0,0
154527,-125,4,3,2,50,0,0
155825,-153.846153846154,4,2,1,56,0,0
156797,-153.846153846154,4,3,2,56,0,0
160527,-166.666666666667,4,2,1,56,0,0
160852,-166.666666666667,4,3,2,5,0,0
161011,-166.666666666667,4,2,1,56,0,0
161014,-133.333333333333,4,2,1,56,0,0
161338,-133.333333333333,4,3,2,56,0,0
166203,-133.333333333333,4,2,1,56,0,0
166527,-133.333333333333,4,3,2,56,0,0
169933,-133.333333333333,4,2,1,56,0,0
171392,-117.647058823529,4,2,1,60,0,0
175284,-105.263157894737,4,2,1,50,0,0
175933,-105.263157894737,4,2,1,56,0,0
176581,-100,4,2,1,56,0,0
177879,-100,4,2,1,60,0,0
178527,-100,4,2,1,64,0,0
179176,-90.9090909090909,4,2,1,70,0,0
181770,-76.9230769230769,4,2,1,76,0,0
196041,-185.185185185185,4,2,1,30,0,0
200906,-117.64705882353,4,2,1,50,0,0
201230,-86.9565217391307,4,2,1,50,0,0
202852,-86.9565217391307,4,2,1,60,0,0
203500,-117.647058823529,4,2,1,60,0,0
203743,-117.647058823529,4,2,1,5,0,0
203825,-86.9565217391304,4,2,1,80,0,1
212906,-95.2380952380952,4,2,1,80,0,1
214203,-105.263157894737,4,2,1,68,0,0
216392,-105.263157894737,4,2,1,5,0,0
216473,-90.9090909090909,4,2,1,68,0,0
216716,-90.9090909090909,4,2,1,5,0,0
216797,-111.111111111111,4,2,1,68,0,0
219392,-95.2380952380952,4,2,1,72,0,0
220689,-95.2380952380952,4,2,1,62,0,0
221662,-133.333333333333,4,2,1,68,0,0
221987,-90.9090909090909,4,2,1,60,0,0
230906,-200,4,2,1,60,0,0
231554,-200,4,2,1,50,0,0
232473,-250,4,2,1,60,0,0
232527,-250,4,2,1,30,0,0

[Colours]
Combo1 : 188,134,122
Combo2 : 233,163,120
Combo3 : 241,205,160
Combo4 : 238,155,149

[HitObjects]
9,305,2227,6,0,P|52:276|100:289,1,101.999996887207,2|0,0:3|0:2,0:0:0:0:
153,354,2769,1,2,0:2:0:0:
153,354,2949,2,0,L|269:342,1,101.999996887207,2|2,0:2|0:2,0:0:0:0:
331,364,3463,2,0,P|386:345|372:252,1,152.999995330811,2|2,0:2|0:2,0:0:0:0:
383,261,4320,2,0,P|432:251|474:279,1,101.999996887207,2|2,0:2|0:2,0:0:0:0:
407,360,4856,5,2,0:2:0:0:
407,360,5035,2,0,P|357:347|307:338,1,101.999996887207,2|2,0:3|0:2,0:0:0:0:
307,338,5751,2,0,P|256:347|206:356,1,101.999996887207,2|2,0:2|0:2,0:0:0:0:
133,368,6281,1,2,0:2:0:0:
133,368,6457,2,0,P|90:340|85:288,1,101.999996887207,2|2,0:2|0:2,0:0:0:0:
83,292,7164,2,0,P|110:248|97:200,1,101.999996887207,2|2,0:2|0:2,0:0:0:0:
35,131,7687,5,2,0:2:0:0:
35,131,7862,2,0,L|158:114,1,101.999996887207,2|2,0:3|0:2,0:0:0:0:
136,117,8576,2,0,P|166:156|157:205,1,101.999996887207,2|2,0:0|0:0,0:0:0:0:
102,268,9111,1,2,0:2:0:0:
102,268,9290,2,0,L|117:378,1,101.999996887207,2|2,0:2|0:2,0:0:0:0:
273,366,9956,2,0,L|286:255,1,101.999996887207,2|2,0:2|0:2,0:0:0:0:
228,215,10485,1,2,0:2:0:0:
205,143,10661,6,0,B|262:121|308:165|277:175|312:226|392:203,1,203.999993774414,2|2,0:3|0:2,0:0:0:0:
361,132,11565,2,0,P|355:107|360:82,2,50.9999984436036,2|2|2,0:2|0:2|0:2,0:0:0:0:
382,205,12114,2,0,P|383:255|381:306,1,101.999996887207,2|0,0:3|0:2,0:0:0:0:
381,306,12811,2,0,P|428:288|475:312,1,101.999996887207,2|0,0:3|0:2,0:0:0:0:
252,378,13508,6,0,P|200:366|130:356,1,101.999996887207,2|2,0:3|0:2,0:0:0:0:
76,356,14043,1,2,0:2:0:0:
76,356,14222,2,0,P|50:309|61:255,1,101.999996887207,2|2,0:2|0:2,0:0:0:0:
46,185,14745,1,2,0:0:0:0:
46,185,14919,2,0,L|168:212,1,101.999996887207,2|2,0:2|0:2,0:0:0:0:
145,206,15633,2,0,P|176:162|171:115,1,101.999996887207,2|2,0:2|0:2,0:0:0:0:
120,56,16156,1,2,0:2:0:0:
171,116,16330,6,0,P|279:93|335:74,2,152.999995330811,2|2|2,0:3|0:2|0:2,0:0:0:0:
98,69,17580,1,2,0:0:0:0:
91,152,17758,1,2,0:3:0:0:
91,152,18110,1,2,0:0:0:0:
85,236,18458,1,2,0:3:0:0:
18,277,18807,1,2,0:2:0:0:
153,286,19156,5,2,0:3:0:0:
256,192,20567,12,0,24450,0:0:0:0:
102,106,24798,5,12,0:0:0:0:
171,223,24960,1,0,1:0:0:0:
171,223,25041,1,0,1:0:0:0:
171,223,25122,2,0,L|182:156,3,50.9999984436036,8|8|0|0,0:0|0:0|1:0|1:0,0:0:0:0:
254,129,25446,1,8,0:3:0:0:
256,117,25527,1,8,0:3:0:0:
259,104,25608,1,0,1:3:0:0:
262,94,25689,1,0,1:3:0:0:
265,84,25770,6,0,P|306:87|364:93,1,76.4999976654053,8|0,0:0|0:0,0:0:0:0:
350,76,26095,6,0,L|339:182,1,93.5000028533936,6|2,1:2|1:2,0:0:0:0:
465,307,26419,2,0,P|484:266|474:217,1,93.5000028533936,10|0,0:0|0:0,0:0:0:0:
278,246,26743,1,2,1:2:0:0:
362,351,26906,1,2,1:2:0:0:
390,243,27068,1,8,0:0:0:0:
249,354,27230,6,0,L|158:332,1,93.5000028533936,2|0,0:0|1:0,0:0:0:0:
41,245,27554,2,0,P|14:282|17:328,1,93.5000028533936,2|8,1:2|0:0,0:0:0:0:
155,226,27879,1,2,0:0:0:0:
45,148,28041,1,2,1:2:0:0:
45,148,28203,1,2,1:2:0:0:
143,60,28365,2,0,P|186:66|246:70,1,93.5000028533936,8|0,0:0|0:0,0:0:0:0:
415,203,28689,5,2,1:2:0:0:
261,170,28852,1,2,1:2:0:0:
332,17,29014,2,0,P|356:55|352:101,1,93.5000028533936,10|0,0:0|0:0,0:0:0:0:
274,268,29338,1,2,1:2:0:0:
166,161,29500,1,2,1:2:0:0:
81,305,29662,1,8,0:0:0:0:
166,161,29825,6,0,L|177:269,1,93.5000028533936,6|0,1:2|1:0,0:0:0:0:
283,361,30149,1,10,0:0:0:0:
283,361,30230,1,8,0:0:0:0:
283,361,30311,2,0,L|293:307,3,46.7500014266968,8|8|2|0,0:0|0:0|1:2|1:0,0:0:0:0:
369,278,30635,1,8,0:0:0:0:
369,278,30716,1,8,0:0:0:0:
369,278,30797,2,0,L|423:286,1,46.7500014266968,8|8,0:3|0:3,0:0:0:0:
497,215,30960,1,4,0:3:0:0:
497,215,31041,1,4,0:3:0:0:
497,215,31122,2,0,L|443:207,1,46.7500014266968,4|4,0:3|0:3,0:0:0:0:
368,152,31284,6,0,P|346:111|357:67,1,93.5000028533936,6|2,1:2|1:2,0:0:0:0:
512,0,31608,2,0,P|503:55|497:110,1,93.5000028533936,10|0,0:0|0:0,0:0:0:0:
269,49,31933,1,2,1:2:0:0:
410,0,32095,1,2,1:2:0:0:
368,152,32257,1,8,0:0:0:0:
246,41,32419,6,0,P|201:49|153:56,1,93.5000028533936,2|0,0:0|1:0,0:0:0:0:
28,127,32743,2,0,P|4:86|15:40,1,93.5000028533936,2|8,1:2|0:2,0:0:0:0:
137,154,33068,1,2,0:0:0:0:
19,230,33230,1,2,1:2:0:0:
19,230,33392,1,2,1:2:0:0:
140,294,33554,1,8,0:0:0:0:
140,294,33716,1,2,1:2:0:0:
220,125,33879,5,10,0:0:0:0:
286,302,34041,2,0,L|308:197,1,93.5000028533936,10|0,0:0|1:0,0:0:0:0:
507,124,34365,1,10,0:0:0:0:
441,301,34527,2,0,L|419:196,1,85,10|0,0:0|1:0,0:0:0:0:
205,134,34852,1,10,0:0:0:0:
271,311,35014,6,0,L|295:192,1,118.999996368408,6|0,1:2|1:0,0:0:0:0:
349,116,35500,2,0,L|408:129,1,59.4999981842042,8|8,0:0|0:3,0:0:0:0:
408,129,35743,1,8,0:0:0:0:
408,129,35825,1,8,0:0:0:0:
501,100,35987,1,8,0:3:0:0:
474,15,36149,1,4,0:3:0:0:
387,44,36311,1,4,0:3:0:0:
497,187,36473,6,0,P|485:241|471:322,2,118.999996368408,4|2|2,1:2|0:3|0:0,0:0:0:0:
497,187,37446,2,0,L|427:177,1,59.4999981842042,2|2,0:0|0:0,0:0:0:0:
353,218,37770,2,0,P|298:216|272:160,2,118.999996368408,2|2|2,0:3|0:3|0:0,0:0:0:0:
353,218,39068,6,0,P|339:268|328:342,2,118.999996368408,2|2|0,0:3|0:3|0:0,0:0:0:0:
208,334,40365,2,0,P|198:275|183:217,2,118.999996368408,2|2|2,0:3|0:3|0:0,0:0:0:0:
208,334,41662,6,0,P|175:315|104:358,1,118.999996368408,2|2,0:3|0:3,0:0:0:0:
22,321,42149,1,2,0:0:0:0:
22,321,42311,1,2,0:0:0:0:
44,138,42797,1,2,0:0:0:0:
44,138,42960,2,0,P|100:146|141:82,1,118.999996368408,2|2,0:3|0:3,0:0:0:0:
229,113,43446,1,2,0:0:0:0:
229,113,43608,2,0,L|220:173,1,59.4999981842042,2|2,0:0|0:0,0:0:0:0:
190,291,44095,5,2,0:3:0:0:
190,291,44176,1,2,0:3:0:0:
190,291,44257,2,0,B|146:299|99:272|137:256|100:231|54:237,2,152.999995330811,2|8|4,0:0|0:1|0:2,0:0:0:0:
204,303,45554,5,8,0:0:0:0:
284,264,45716,2,0,L|278:221,3,42.5,0|0|0|0,3:0|3:0|3:0|3:0,0:0:0:0:
295,346,46041,5,8,0:0:0:0:
379,296,46203,2,0,L|374:254,3,42.5,0|0|0|0,3:0|3:0|3:0|3:0,0:0:0:0:
401,374,46527,5,8,0:0:0:0:
477,303,46689,1,8,0:0:0:0:
295,346,46852,6,0,L|156:362,2,127.500004863739,4|0|10,1:2|1:0|0:0,0:0:0:0:
348,275,47662,1,2,0:2:0:0:
283,216,47825,2,0,L|274:143,1,63.7500024318696,2|2,3:2|3:2,0:0:0:0:
284,142,48068,1,0,3:2:0:0:
289,129,48149,6,0,P|257:133|225:137,2,63.7500024318696,2|8|2,1:2|0:0|1:2,0:0:0:0:
380,93,48635,2,0,P|375:61|385:31,1,63.7500024318696,2|8,2:2|0:0,0:0:0:0:
422,176,48960,2,0,P|433:204|428:241,1,63.7500024318696,2|0,0:0|3:2,0:0:0:0:
421,249,49203,1,0,3:2:0:0:
413,258,49284,1,0,3:2:0:0:
405,267,49365,1,0,3:2:0:0:
396,276,49446,6,0,P|444:238|500:261,2,127.500004863739,2|2|8,1:2|1:2|0:0,0:0:0:0:
396,292,50419,1,2,3:2:0:0:
298,320,50581,5,2,3:2:0:0:
298,320,50662,1,0,3:2:0:0:
298,320,50743,2,0,P|263:313|217:308,1,63.7500024318696,2|8,1:2|0:0,0:0:0:0:
178,235,51068,1,2,1:2:0:0:
102,281,51230,2,0,L|90:355,1,63.7500024318696,2|8,2:2|0:0,0:0:0:0:
178,235,51554,2,0,L|162:166,1,63.7500024318696,2|0,0:0|3:0,0:0:0:0:
152,172,51797,1,0,3:0:0:0:
142,170,51879,1,0,3:0:0:0:
132,167,51960,1,0,3:0:0:0:
122,164,52041,6,0,P|184:154|267:138,1,127.500004863739,6|0,1:2|1:0,0:0:0:0:
299,56,52527,1,2,0:2:0:0:
224,5,52689,2,0,P|161:16|98:26,1,127.500004863739,10|0,0:0|3:0,0:0:0:0:
25,74,53176,1,2,3:2:0:0:
113,137,53338,5,2,1:2:0:0:
19,89,53500,1,10,0:0:0:0:
104,152,53662,1,2,1:2:0:0:
27,239,53825,1,2,3:2:0:0:
27,239,53906,1,8,3:2:0:0:
27,239,53987,2,0,L|12:160,1,63.7500024318696,8|8,0:0|0:3,0:0:0:0:
113,254,54311,1,4,0:3:0:0:
54,317,54473,1,4,0:3:0:0:
131,354,54635,6,0,B|184:368|250:340|189:303|266:283|318:300,1,191.249994163513,4|0,1:2|0:0,0:0:0:0:
366,254,55608,2,0,P|380:288|374:326,2,76.4999976654053,2|2|0,0:3|0:0|0:0,0:0:0:0:
449,152,56419,5,0,1:0:0:0:
449,152,56500,1,0,1:0:0:0:
449,152,56581,2,0,L|527:164,1,63.7500024318696,8|4,0:0|1:3,0:0:0:0:
499,50,56906,1,8,0:3:0:0:
349,228,57068,6,0,B|314:218|285:216|285:216|269:187|260:160|260:160|195:146,1,187.000005706787,6|2,1:2|1:2,0:0:0:0:
94,295,57554,2,0,P|144:283|198:273,1,93.5000028533936,10|0,0:0|0:0,0:0:0:0:
79,167,57879,1,2,1:2:0:0:
0,249,58041,1,2,1:2:0:0:
33,70,58203,1,10,0:2:0:0:
195,182,58365,6,0,P|189:225|184:285,1,93.5000028533936,2|0,0:0|1:0,0:0:0:0:
314,142,58689,1,2,1:2:0:0:
428,256,58852,2,0,P|488:228|484:159,1,140.25000428009,10|0,0:0|0:0,0:0:0:0:
467,146,59176,1,2,1:2:0:0:
331,242,59338,2,0,P|336:286|341:345,1,93.5000028533936,2|8,1:2|0:0,0:0:0:0:
219,173,59662,6,0,B|170:170|170:170|117:154|117:154|71:169|70:222,1,187.000005706787,6|0,1:2|1:0,0:0:0:0:
136,372,60149,2,0,L|154:274,1,93.5000028533936,10|0,0:0|0:0,0:0:0:0:
0,298,60473,1,2,1:2:0:0:
0,298,60635,1,0,1:0:0:0:
32,135,60797,1,10,0:2:0:0:
152,280,60960,6,0,B|213:292|258:253|212:241|267:196|326:219,1,187.000005706787,2|0,0:0|1:0,0:0:0:0:
443,137,61446,2,0,P|467:175|462:221,1,93.5000028533936,8|0,0:0|0:0,0:0:0:0:
325,108,61770,1,2,1:2:0:0:
438,30,61933,1,10,0:0:0:0:
438,30,62014,1,8,0:0:0:0:
438,30,62095,1,10,0:0:0:0:
226,21,62257,6,0,B|227:63|236:96|236:96|229:132|229:132|245:230,1,187.000005706787,6|2,1:2|1:2,0:0:0:0:
374,354,62743,2,0,L|389:251,1,93.5000028533936,10|0,0:0|0:0,0:0:0:0:
182,284,63068,1,2,1:2:0:0:
284,363,63230,1,2,1:2:0:0:
320,223,63392,1,10,0:0:0:0:
161,366,63554,6,0,B|116:361|116:361|112:357|112:357|56:349,1,93.5000028533936,2|0,0:0|1:0,0:0:0:0:
187,200,63879,1,2,1:2:0:0:
284,363,64041,2,0,L|296:270,1,93.5000028533936,10|0,0:0|0:0,0:0:0:0:
153,106,64365,2,0,P|110:129|94:172,1,93.5000028533936,2|0,1:2|1:0,0:0:0:0:
268,170,64689,1,10,0:0:0:0:
100,296,64852,6,0,P|87:209|1:207,1,187.000005706787,6|0,1:2|1:0,0:0:0:0:
27,360,65338,2,0,P|88:352|171:339,1,140.25000428009,10|0,0:0|0:0,0:0:0:0:
180,352,65662,1,2,1:2:0:0:
286,254,65825,1,2,1:2:0:0:
176,203,65987,1,10,0:0:0:0:
305,355,66149,6,0,B|306:294|306:294|323:241|326:156,1,187.000005706787,2|0,1:2|1:0,0:0:0:0:
284,46,66635,2,0,B|325:20|325:20|367:39,1,93.5000028533936,10|8,0:0|0:0,0:0:0:0:
366,39,66879,1,8,0:0:0:0:
366,39,66960,1,8,0:0:0:0:
413,131,67122,1,8,0:3:0:0:
325,169,67284,1,4,0:3:0:0:
204,17,67446,6,0,P|136:20|50:29,1,152.999995330811,4|8,1:2|0:0,0:0:0:0:
37,131,67933,1,8,0:0:0:0:
37,131,68257,5,10,0:0:0:0:
121,239,68419,2,0,L|128:156,1,76.4999976654053,8|0,0:0|1:0,0:0:0:0:
216,92,68743,1,8,0:0:0:0:
296,205,68906,1,10,0:0:0:0:
382,80,69068,1,0,1:0:0:0:
382,80,69230,2,0,L|394:162,1,76.4999976654053,10|0,0:0|1:0,0:0:0:0:
394,326,69554,5,8,0:0:0:0:
421,352,69635,1,8,0:3:0:0:
458,356,69716,1,8,1:3:0:0:
494,344,69797,1,8,0:3:0:0:
512,310,69879,2,0,L|502:252,3,42.5,8|8|0|0,1:3|0:3|1:0|1:0,0:0:0:0:
487,162,70203,5,14,0:0:0:0:
333,299,70365,1,2,1:2:0:0:
279,98,70527,1,10,0:0:0:0:
376,186,70689,1,0,1:0:0:0:
376,186,70770,1,0,1:0:0:0:
376,186,70852,1,8,0:0:0:0:
215,227,71014,2,0,L|227:316,1,85,2|0,1:3|0:0,0:0:0:0:
96,160,71338,1,6,1:2:0:0:
96,160,71825,6,0,P|60:147|24:156,1,76.4999976654053,2|0,0:0|0:0,0:0:0:0:
22,177,72149,2,0,P|58:190|94:181,1,76.4999976654053,2|0,0:0|0:0,0:0:0:0:
96,160,72473,2,0,P|99:113|104:60,1,89.2499972763062,2|0,0:3|0:0,0:0:0:0:
131,63,72797,6,0,L|122:168,1,97.7500018644333,4|2,1:0|0:0,0:0:0:0:
241,284,73122,1,10,0:0:0:0:
307,126,73284,1,2,0:0:0:0:
220,191,73446,1,2,1:2:0:0:
393,141,73608,1,2,0:0:0:0:
242,43,73770,1,10,0:0:0:0:
423,31,73933,6,0,P|415:139|417:248,1,195.500003728867,2|0,0:0|0:0,0:0:0:0:
313,384,74419,1,10,0:0:0:0:
211,271,74581,2,0,P|263:264|315:252,1,97.7500018644333,2|0,0:0|1:0,0:0:0:0:
423,374,74906,1,2,0:0:0:0:
512,281,75068,2,0,P|501:225|499:172,1,97.7500018644333,10|2,0:0|0:0,0:0:0:0:
372,30,75392,6,0,P|330:26|273:13,1,97.7500018644333,6|0,1:2|0:0,0:0:0:0:
157,116,75716,2,0,P|204:165|268:139,1,146.62500279665,10|0,0:0|0:0,0:0:0:0:
262,125,76041,2,0,P|242:168|256:214,1,97.7500018644333,0|0,1:2|0:0,0:0:0:0:
324,347,76365,1,10,0:0:0:0:
413,229,76527,1,2,0:0:0:0:
324,347,76689,6,0,B|237:375|267:304|184:333,1,146.62500279665,2|0,1:2|0:0,0:0:0:0:
191,349,77014,1,10,0:0:0:0:
58,244,77176,2,0,P|64:291|69:344,1,97.7500018644333,2|0,0:0|1:0,0:0:0:0:
164,222,77500,1,2,0:0:0:0:
11,144,77662,1,10,0:0:0:0:
127,43,77825,5,8,0:0:0:0:
127,43,77906,1,8,0:0:0:0:
127,43,77987,2,0,L|106:146,1,97.7500018644333,6|0,1:2|0:0,0:0:0:0:
260,202,78311,2,0,P|308:178|305:85,1,146.62500279665,10|0,0:0|0:0,0:0:0:0:
295,96,78635,2,0,P|308:143|311:192,1,97.7500018644333,0|0,1:0|0:0,0:0:0:0:
483,45,78960,2,0,P|435:33|391:11,1,97.7500018644333,10|0,0:0|0:0,0:0:0:0:
512,144,79284,6,0,P|496:213|484:285,1,146.62500279665,2|0,1:2|0:0,0:0:0:0:
483,313,79608,1,8,0:0:0:0:
301,218,79770,2,0,P|345:202|387:223,1,97.7500018644333,2|0,0:0|1:0,0:0:0:0:
378,364,80095,1,2,0:0:0:0:
378,364,80257,2,0,P|332:378|290:357,1,97.7500018644333,8|0,0:0|0:0,0:0:0:0:
95,231,80581,6,0,B|192:198|192:198|242:234|223:297,2,195.500003728867,6|8|0,1:2|0:0|1:0,0:0:0:0:
0,280,81392,1,0,1:0:0:0:
42,151,81554,1,10,0:0:0:0:
133,327,81716,1,2,1:2:0:0:
190,159,81879,6,0,L|178:56,1,97.7500018644333,12|0,0:0|1:0,0:0:0:0:
293,12,82203,1,0,1:0:0:0:
383,161,82365,1,10,0:0:0:0:
409,67,82527,1,2,1:2:0:0:
277,194,82689,1,8,0:0:0:0:
462,259,82852,1,10,0:0:0:0:
462,259,83176,6,0,B|367:237|367:237|347:262|306:286,1,161.499995687485,6|0,1:2|0:0,0:0:0:0:
231,339,83662,1,2,1:2:0:0:
136,298,83825,1,8,0:0:0:0:
136,298,83987,2,0,L|148:390,1,80.7499978437424,2|0,0:0|0:0,0:0:0:0:
0,228,84311,5,8,0:0:0:0:
0,228,84392,1,8,0:0:0:0:
0,228,84473,2,0,L|88:210,1,80.7499978437424,2|8,1:2|0:0,0:0:0:0:
164,153,84797,2,0,P|170:114|149:70,1,80.7499978437424,2|0,1:2|1:0,0:0:0:0:
250,208,85122,6,0,P|315:208|351:164,1,121.124996765614,10|0,0:0|0:0,0:0:0:0:
343,88,85446,6,0,P|396:59|412:119,1,140.25000428009,2|0,0:0|0:0,0:0:0:0:
349,168,85770,6,0,B|357:211|343:267|343:267|400:298,1,152.999995330811,6|0,1:2|0:0,0:0:0:0:
483,329,86257,1,2,1:2:0:0:
339,374,86419,2,0,B|269:338|269:338|235:365|199:361,1,152.999995330811,8|2,0:0|0:0,0:0:0:0:
118,254,86906,1,10,0:0:0:0:
118,254,86987,1,8,0:0:0:0:
118,254,87068,2,0,L|201:268,1,76.4999976654053,0|8,1:2|0:0,0:0:0:0:
0,358,87392,6,0,L|12:278,1,76.4999976654053,2|8,1:3|0:0,0:0:0:0:
12,283,87635,1,8,0:0:0:0:
12,283,87716,1,8,0:0:0:0:
109,337,87879,1,8,0:0:0:0:
193,266,88041,1,8,0:0:0:0:
152,180,88203,1,8,0:0:0:0:
225,360,88365,6,0,L|382:342,1,140.25000428009,4|0,1:2|0:0,0:0:0:0:
363,329,88689,2,0,L|253:341,1,93.5000028533936,4|0,1:2|0:0,0:0:0:0:
508,91,89662,5,6,1:2:0:0:
405,178,89825,1,8,0:0:0:0:
405,178,89906,1,8,0:0:0:0:
405,178,89987,2,0,L|400:106,3,46.7500014266968,8|8|0|0,0:0|0:0|1:0|1:0,0:0:0:0:
326,92,90311,1,8,0:3:0:0:
324,77,90392,1,8,1:3:0:0:
324,63,90473,1,0,1:3:0:0:
323,51,90554,1,0,1:3:0:0:
321,38,90635,6,0,L|232:48,1,89.2499972763062,10|0,0:0|0:0,0:0:0:0:
218,32,90960,6,0,L|229:135,1,93.5000028533936,6|2,1:2|1:2,0:0:0:0:
168,261,91284,2,0,P|124:276|81:262,1,93.5000028533936,10|0,0:0|0:0,0:0:0:0:
50,94,91608,1,2,1:2:0:0:
133,166,91770,1,2,1:2:0:0:
3,187,91933,1,8,0:0:0:0:
143,69,92095,6,0,P|193:74|243:78,1,93.5000028533936,2|0,0:0|1:0,0:0:0:0:
381,139,92419,2,0,P|400:97|390:52,1,93.5000028533936,2|8,1:2|0:0,0:0:0:0:
277,177,92743,1,2,0:2:0:0:
402,245,92906,1,2,1:2:0:0:
402,245,93068,1,2,1:2:0:0:
312,327,93230,2,0,L|214:315,1,93.5000028533936,8|0,0:0|0:0,0:0:0:0:
33,184,93554,5,2,1:2:0:0:
196,211,93716,1,2,1:2:0:0:
112,347,93879,2,0,P|104:299|96:251,1,93.5000028533936,10|0,0:0|0:0,0:0:0:0:
206,107,94203,1,2,1:2:0:0:
206,107,94284,1,8,0:0:0:0:
206,107,94365,1,0,1:2:0:0:
63,63,94527,1,8,0:0:0:0:
196,211,94689,6,0,P|260:199|351:180,1,140.25000428009,6|0,1:2|0:0,0:0:0:0:
331,161,95014,2,0,L|347:254,1,93.5000028533936,2|8,1:2|0:0,0:0:0:0:
444,369,95338,1,2,0:0:0:0:
512,253,95500,1,2,1:2:0:0:
512,253,95662,1,2,1:2:0:0:
336,358,95825,5,8,0:0:0:0:
313,353,95906,1,8,0:0:0:0:
290,348,95987,1,8,0:0:0:0:
267,342,96068,1,8,0:0:0:0:
247,336,96149,6,0,L|265:231,1,93.5000028533936,6|2,1:2|1:2,0:0:0:0:
222,96,96473,2,0,P|182:72|138:84,1,93.5000028533936,10|0,0:0|0:0,0:0:0:0:
20,195,96797,1,2,1:2:0:0:
174,180,96960,1,2,1:2:0:0:
58,96,97122,1,8,0:0:0:0:
97,267,97284,6,0,P|90:313|84:366,1,93.5000028533936,2|0,0:0|1:0,0:0:0:0:
252,381,97608,2,0,P|259:335|265:282,1,93.5000028533936,2|8,1:2|0:0,0:0:0:0:
174,180,97933,1,2,1:2:0:0:
368,122,98095,1,8,0:0:0:0:
354,241,98257,1,2,1:2:0:0:
284,65,98419,1,8,0:0:0:0:
455,88,98581,1,2,1:2:0:0:
253,156,98743,5,10,0:0:0:0:
338,333,98906,2,0,L|355:233,1,93.5000028533936,10|0,0:0|1:0,0:0:0:0:
212,373,99230,1,10,0:0:0:0:
129,206,99392,2,0,L|112:306,1,93.5000028533936,10|0,0:0|1:0,0:0:0:0:
250,146,99716,1,10,0:0:0:0:
354,342,99879,6,0,L|371:242,1,101.999996887207,6|0,1:2|1:0,0:0:0:0:
440,175,100365,2,0,L|506:185,1,50.9999984436036,8|8,0:0|0:0,0:0:0:0:
490,182,100608,1,8,0:0:0:0:
490,182,100689,1,8,0:0:0:0:
512,274,100852,1,8,0:3:0:0:
432,309,101014,1,4,0:3:0:0:
371,241,101176,1,4,0:3:0:0:
297,340,101338,6,0,L|210:323,1,72.2500013780594,6|8,1:2|0:0,0:0:0:0:
217,335,101581,1,8,0:0:0:0:
215,345,101662,2,0,L|230:255,1,72.2500013780594,8|2,0:0|1:3,0:0:0:0:
226,273,102149,2,0,L|137:261,1,72.2500013780594,8|8,0:0|0:3,0:0:0:0:
70,297,102473,1,4,0:3:0:0:
12,156,102635,6,0,L|-1:240,1,72.2500013780594,2|8,1:3|0:0,0:0:0:0:
4,237,102879,1,8,0:0:0:0:
8,244,102960,1,8,0:0:0:0:
108,168,103122,1,2,1:3:0:0:
108,168,103608,5,8,0:0:0:0:
110,149,103689,1,8,0:0:0:0:
111,129,103770,1,8,0:0:0:0:
113,109,103852,1,8,0:0:0:0:
113,89,103933,1,2,1:3:0:0:
216,107,104095,2,0,L|214:144,2,36.1250006890297,8|8|8,0:0|0:0|0:0,0:0:0:0:
311,170,104419,1,2,1:3:0:0:
311,170,104743,2,0,L|316:92,2,72.2500013780594,8|8|4,0:0|0:3|0:3,0:0:0:0:
422,300,105230,5,2,1:3:0:0:
512,271,105392,1,8,0:0:0:0:
481,182,105554,1,8,0:0:0:0:
396,212,105716,1,2,1:3:0:0:
396,212,106203,5,8,0:0:0:0:
394,231,106284,1,8,0:0:0:0:
392,250,106365,1,8,0:0:0:0:
390,269,106446,1,8,0:0:0:0:
388,288,106527,1,2,1:3:0:0:
295,268,106689,2,0,L|300:232,2,36.1250006890297,8|8|8,0:0|0:0|0:0,0:0:0:0:
212,195,107014,1,2,1:3:0:0:
212,195,107338,2,0,L|201:268,2,72.2500013780594,8|8|4,0:0|0:3|0:3,0:0:0:0:
129,92,107825,6,0,L|55:81,1,72.2500013780594,2|8,1:3|0:0,0:0:0:0:
51,74,108068,1,8,0:0:0:0:
44,71,108149,2,0,L|31:156,1,72.2500013780594,8|2,0:0|1:3,0:0:0:0:
33,142,108635,2,0,L|121:154,1,72.2500013780594,8|4,0:0|0:3,0:0:0:0:
165,216,108960,1,8,0:3:0:0:
276,132,109122,6,0,P|269:191|261:250,1,118.999996368408,4|0,1:2|0:0,0:0:0:0:
301,332,109608,2,0,P|352:357|400:327,1,118.999996368408,4|0,1:2|0:0,0:0:0:0:
455,258,110095,1,4,1:2:0:0:
455,258,110473,6,0,L|450:225,3,19.8333327280681,2|2|2|0,0:0|0:0|0:0|0:0,0:0:0:0:
512,100,110906,1,8,0:0:0:0:
512,100,110987,1,8,0:0:0:0:
512,100,111068,2,0,L|441:108,1,59.4999981842042,8|4,0:0|0:3,0:0:0:0:
360,147,111392,1,8,0:3:0:0:
334,56,111554,5,8,0:3:0:0:
332,49,111635,1,8,0:3:0:0:
330,43,111716,2,0,P|237:38|168:31,1,144.500002756119,4|0,1:2|1:0,0:0:0:0:
99,8,112203,1,2,0:0:0:0:
51,82,112365,2,0,P|61:118|71:160,1,72.2500013780594,10|0,0:0|0:0,0:0:0:0:
148,225,112689,1,2,1:2:0:0:
61,262,112852,1,2,0:0:0:0:
148,225,113014,6,0,B|196:233|196:233|218:266|218:266|299:277,1,144.500002756119,2|0,1:2|1:0,0:0:0:0:
350,229,113500,1,2,0:0:0:0:
430,308,113662,1,8,0:0:0:0:
430,308,113825,2,0,L|439:229,1,72.2500013780594,2|0,0:0|1:0,0:0:0:0:
512,136,114149,1,10,0:0:0:0:
403,62,114311,6,0,B|313:51|354:123|254:102,2,144.500002756119,2|2|8,1:3|1:2|0:0,0:0:0:0:
412,54,115284,1,2,1:2:0:0:
398,142,115446,1,2,0:0:0:0:
512,136,115608,6,0,P|503:200|495:296,1,144.500002756119,2|0,1:2|1:2,0:0:0:0:
424,348,116095,1,2,0:0:0:0:
319,277,116257,1,8,0:0:0:0:
319,277,116419,2,0,L|396:260,1,72.2500013780594,2|0,0:0|1:0,0:0:0:0:
332,376,116743,1,10,0:0:0:0:
225,321,116906,6,0,P|276:279|249:216,1,144.500002756119,2|0,1:3|1:0,0:0:0:0:
140,302,117392,1,2,0:0:0:0:
81,193,117554,2,0,P|26:233|54:295,1,144.500002756119,10|0,0:0|1:0,0:0:0:0:
170,207,118041,1,2,0:0:0:0:
103,114,118203,6,0,L|22:97,1,72.2500013780594,2|0,1:2|0:0,0:0:0:0:
59,11,118527,2,0,L|139:27,1,72.2500013780594,10|8,0:0|0:0,0:0:0:0:
129,25,118770,1,8,0:0:0:0:
129,25,118852,1,8,0:0:0:0:
222,95,119014,1,8,0:3:0:0:
303,41,119176,1,4,0:3:0:0:
226,0,119338,1,4,0:3:0:0:
392,7,119500,6,0,P|386:69|378:198,1,178.499994552612,4|0,1:2|1:0,0:0:0:0:
319,263,120149,2,0,P|367:293|421:272,1,118.999996368408,8|0,0:0|0:0,0:0:0:0:
485,193,120635,1,8,0:0:0:0:
485,193,120716,1,8,0:0:0:0:
485,193,120797,1,0,1:0:0:0:
378,184,120960,2,0,L|297:165,1,59.4999981842042,8|0,0:0|1:0,0:0:0:0:
222,270,121284,5,8,0:0:0:0:
222,270,121365,1,8,0:0:0:0:
222,270,121446,1,8,0:0:0:0:
319,263,121608,1,8,0:3:0:0:
233,170,121770,1,8,0:3:0:0:
58,369,121933,6,0,B|39:312|41:269|41:269|21:232|21:232|23:179,1,187.000005706787,6|0,1:2|1:0,0:0:0:0:
150,103,122419,2,0,P|141:144|134:195,1,93.5000028533936,10|0,0:0|0:0,0:0:0:0:
0,73,122743,1,2,1:2:0:0:
135,3,122906,1,2,1:2:0:0:
0,73,123068,1,10,0:0:0:0:
134,195,123230,6,0,P|185:188|226:184,1,93.5000028533936,2|0,0:0|1:0,0:0:0:0:
335,72,123554,1,2,1:2:0:0:
406,212,123716,2,0,P|396:293|391:365,1,140.25000428009,10|0,0:0|0:0,0:0:0:0:
406,370,124041,1,2,1:2:0:0:
512,252,124203,2,0,P|504:206|497:155,1,93.5000028533936,2|8,1:2|0:0,0:0:0:0:
309,293,124527,6,0,B|253:299|200:272|200:272|178:302|178:302|130:314,1,187.000005706787,6|0,1:2|1:0,0:0:0:0:
21,200,125014,2,0,P|65:191|102:218,1,93.5000028533936,10|0,0:0|0:0,0:0:0:0:
23,347,125338,1,2,1:2:0:0:
23,347,125500,1,2,1:2:0:0:
103,219,125662,1,10,0:2:0:0:
218,351,125825,6,0,P|291:334|420:316,1,187.000005706787,2|0,0:0|1:0,0:0:0:0:
511,198,126311,2,0,P|515:152|488:115,1,93.5000028533936,8|0,0:0|0:0,0:0:0:0:
378,193,126635,1,2,1:2:0:0:
510,303,126797,1,10,0:0:0:0:
510,303,126879,1,8,0:0:0:0:
510,303,126960,1,10,0:0:0:0:
336,365,127122,6,0,B|326:294|326:294|292:265|292:265|280:196,1,187.000005706787,6|0,1:2|1:0,0:0:0:0:
355,28,127608,2,0,B|385:63|385:63|366:113,1,93.5000028533936,10|2,0:0|1:2,0:0:0:0:
196,125,127933,2,0,B|166:90|166:90|184:39,1,93.5000028533936,10|2,0:0|1:2,0:0:0:0:
381,192,128257,1,10,0:0:0:0:
214,269,128419,6,0,B|178:264|178:264|163:266|163:266|110:258,1,93.5000028533936,6|0,1:2|0:0,0:0:0:0:
269,79,128743,1,2,1:2:0:0:
397,208,128906,2,0,L|387:314,1,93.5000028533936,10|8,0:0|0:0,0:0:0:0:
388,301,129149,1,8,0:0:0:0:
388,301,129230,1,10,0:0:0:0:
485,358,129392,1,8,0:3:0:0:
494,261,129554,1,4,0:3:0:0:
282,366,129716,6,0,B|229:345|181:318|181:318|145:358|90:350,1,187.000005706787,6|0,1:2|1:0,0:0:0:0:
0,205,130203,2,0,P|10:149|16:98,1,93.5000028533936,10|0,0:0|1:0,0:0:0:0:
220,171,130527,1,10,0:0:0:0:
106,263,130689,1,10,0:0:0:0:
102,166,130852,1,2,1:2:0:0:
207,319,131014,6,0,P|298:295|402:279,1,187.000005706787,14|0,0:0|1:0,0:0:0:0:
504,230,131500,2,0,B|531:266|531:266|510:310,1,93.5000028533936,8|0,0:0|1:0,0:0:0:0:
325,198,131825,1,10,0:0:0:0:
485,93,131987,1,10,1:2:0:0:
485,93,132311,6,0,B|390:117|425:50|340:73,1,152.999995330811,4|4,1:2|0:3,0:0:0:0:
266,119,132797,1,4,0:3:0:0:
214,46,132960,1,4,1:3:0:0:
146,102,133122,2,0,L|163:186,2,76.4999976654053,10|4|4,2:2|0:3|0:3,0:0:0:0:
66,60,133608,1,4,0:3:0:0:
10,135,133770,1,4,1:3:0:0:
10,135,133933,2,0,L|27:210,1,76.4999976654053,4|4,0:3|0:3,0:0:0:0:
133,275,134257,5,0,1:0:0:0:
133,275,134338,1,0,1:0:0:0:
133,275,134419,2,0,B|87:288|87:288|82:299|82:299|22:314,1,101.999996887207,12|0,0:0|1:0,0:0:0:0:
330,279,134743,2,0,B|376:292|376:292|381:303|381:303|441:318,1,101.999996887207,8|0,0:0|1:0,0:0:0:0:
234,44,135068,5,10,0:0:0:0:
230,241,135230,1,2,1:2:0:0:
344,124,135392,1,10,0:0:0:0:
130,105,135554,2,0,P|137:155|144:213,1,93.5000028533936,2|0,1:2|1:0,0:0:0:0:
58,342,135879,2,0,B|31:301|31:301|46:258,1,93.5000028533936,10|0,0:0|1:0,0:0:0:0:
254,240,136203,2,0,B|280:280|280:280|265:323,2,93.5000028533936,10|0|0,0:0|1:0|1:0,0:0:0:0:
52,119,136689,6,0,L|119:109,1,68,10|0,0:0|1:0,0:0:0:0:
239,10,137014,2,0,L|171:18,1,68,10|0,0:0|1:2,0:0:0:0:
373,127,137338,1,10,0:0:0:0:
396,163,137419,1,8,0:0:0:0:
434,155,137500,1,8,0:0:0:0:
437,120,137581,1,8,0:0:0:0:
405,98,137662,6,0,P|391:194|380:291,1,195.500003728867,4|10,1:0|0:0,0:0:0:0:
261,372,138149,1,0,0:0:0:0:
141,216,138311,1,2,1:2:0:0:
286,239,138473,1,2,0:0:0:0:
119,350,138635,1,10,0:0:0:0:
286,239,138797,6,0,B|345:231|379:274|349:277|389:337|448:323,1,195.500003728867,2|0,0:0|0:0,0:0:0:0:
459,205,139284,1,10,0:0:0:0:
289,329,139446,2,0,P|237:319|187:310,1,97.7500018644333,2|0,0:0|1:0,0:0:0:0:
103,211,139770,1,2,0:0:0:0:
220,118,139933,1,10,0:0:0:0:
85,49,140095,1,2,0:0:0:0:
220,118,140257,6,0,L|319:105,1,97.7500018644333,4|0,1:2|0:0,0:0:0:0:
512,202,140581,2,0,P|446:223|405:168,1,146.62500279665,10|0,0:0|0:0,0:0:0:0:
413,157,140906,2,0,L|421:274,1,97.7500018644333,0|0,1:0|0:0,0:0:0:0:
310,364,141230,2,0,P|263:376|219:358,1,97.7500018644333,10|2,0:0|0:0,0:0:0:0:
98,206,141554,5,2,1:2:0:0:
279,272,141716,1,2,0:0:0:0:
94,368,141879,1,10,0:0:0:0:
182,260,142041,2,0,P|201:216|188:169,1,97.7500018644333,2|0,0:0|1:0,0:0:0:0:
93,0,142365,1,2,0:0:0:0:
56,127,142527,1,10,0:0:0:0:
251,82,142689,5,10,0:0:0:0:
251,82,142770,1,8,0:0:0:0:
251,82,142852,2,0,P|197:85|142:72,1,97.7500018644333,4|0,1:2|0:0,0:0:0:0:
304,160,143176,2,0,P|368:123|440:119,1,146.62500279665,10|0,0:0|0:0,0:0:0:0:
460,108,143500,2,0,P|454:153|448:218,1,97.7500018644333,0|0,1:0|0:0,0:0:0:0:
436,364,143825,1,10,0:2:0:0:
436,364,143987,1,2,0:0:0:0:
365,221,144149,5,2,1:2:0:0:
337,370,144311,1,2,0:0:0:0:
506,310,144473,1,10,0:0:0:0:
296,283,144635,2,0,P|272:241|280:193,1,97.7500018644333,2|0,0:0|1:0,0:0:0:0:
436,164,144960,2,0,P|459:205|451:253,1,97.7500018644333,2|8,0:0|0:0,0:0:0:0:
337,108,145284,1,2,0:0:0:0:
187,237,145446,6,0,B|126:238|95:189|95:189|60:214|60:214|5:225,2,195.500003728867,6|8|0,1:2|0:0|1:0,0:0:0:0:
338,171,146257,1,2,1:2:0:0:
180,134,146419,1,10,0:0:0:0:
281,293,146581,1,2,1:2:0:0:
425,190,146743,6,0,P|433:137|443:88,1,97.7500018644333,12|0,0:0|1:0,0:0:0:0:
345,28,147068,1,0,1:0:0:0:
243,191,147230,1,10,0:0:0:0:
216,68,147392,1,2,1:2:0:0:
338,171,147554,1,8,0:0:0:0:
151,211,147716,1,10,0:0:0:0:
150,211,148041,6,0,B|59:185|59:185|24:194|14:236,1,161.499995687485,6|0,1:2|0:0,0:0:0:0:
10,326,148527,1,2,1:2:0:0:
116,374,148689,1,8,0:0:0:0:
116,374,148852,2,0,L|201:358,1,80.7499978437424,2|0,0:0|0:0,0:0:0:0:
269,214,149176,5,10,0:0:0:0:
269,214,149257,1,8,0:0:0:0:
269,214,149338,2,0,L|278:299,1,80.7499978437424,2|8,1:2|0:0,0:0:0:0:
379,363,149662,2,0,P|417:371|453:354,1,80.7499978437424,2|0,0:0|1:0,0:0:0:0:
487,194,149987,6,0,P|430:206|405:258,1,121.124996765614,10|0,0:0|0:0,0:0:0:0:
480,272,150311,6,0,P|465:204|460:132,1,140.25000428009,2|0,0:0|0:0,0:0:0:0:
501,63,150635,6,0,P|448:113|380:87,1,152.999995330811,6|0,1:2|0:0,0:0:0:0:
297,12,151122,1,2,1:2:0:0:
209,112,151284,2,0,B|176:148|176:148|169:28,1,152.999995330811,8|2,0:0|0:0,0:0:0:0:
66,9,151770,1,2,0:0:0:0:
66,9,151852,1,8,0:0:0:0:
66,9,151933,2,0,L|73:101,1,76.4999976654053,2|8,1:2|0:0,0:0:0:0:
9,239,152257,6,0,L|0:150,1,76.4999976654053,2|8,1:3|0:0,0:0:0:0:
0,162,152500,1,8,0:0:0:0:
0,162,152581,1,8,0:0:0:0:
99,210,152743,1,8,0:0:0:0:
186,160,152906,1,8,0:0:0:0:
175,60,153068,1,8,0:0:0:0:
258,222,153230,6,0,L|414:202,1,140.25000428009,4|0,1:2|0:0,0:0:0:0:
392,191,153554,2,0,L|292:203,1,93.5000028533936,4|0,1:2|0:0,0:0:0:0:
299,202,154527,6,0,L|309:285,1,68,10|8,2:2|0:3,0:0:0:0:
263,344,154852,1,4,0:3:0:0:
194,295,155014,1,8,0:3:0:0:
126,355,155176,2,0,L|47:345,1,68,2|8,0:2|0:3,0:0:0:0:
15,271,155500,1,4,0:3:0:0:
70,208,155662,1,8,0:3:0:0:
4,99,155825,6,0,P|66:156|141:131,1,165.749992412568,6|0,1:2|1:0,0:0:0:0:
202,73,156473,1,8,0:0:0:0:
309,182,156797,1,0,0:3:0:0:
309,182,156960,1,0,0:3:0:0:
373,114,157122,6,0,L|365:51,2,55.2499974708558,2|0|0,1:2|0:0|0:0,0:0:0:0:
452,158,157608,1,2,1:2:0:0:
452,158,157770,2,0,L|442:229,1,55.2499974708558,8|0,2:2|0:0,0:0:0:0:
448,221,158014,1,0,0:0:0:0:
452,228,158095,2,0,L|520:239,1,55.2499974708558,2|0,0:2|0:0,0:0:0:0:
482,332,158419,6,0,L|428:322,2,55.2499974708558,0|0|0,1:0|0:0|0:0,0:0:0:0:
371,249,158906,1,0,1:0:0:0:
300,321,159068,1,8,2:2:0:0:
300,321,159392,1,0,0:0:0:0:
221,264,159554,1,8,0:2:0:0:
221,264,159635,1,0,3:2:0:0:
221,264,159716,2,0,L|239:192,2,55.2499974708558,0|0|0,1:0|0:0|0:0,0:0:0:0:
103,329,160203,5,0,1:0:0:0:
103,329,160284,1,0,1:0:0:0:
103,329,160365,1,8,2:2:0:0:
14,216,160527,2,0,L|152:244,1,127.499996109009,12|0,2:2|2:0,0:0:0:0:
144,250,161014,6,0,P|182:201|163:138,1,127.500004863739,6|0,1:2|0:0,0:0:0:0:
106,60,161500,1,0,1:0:0:0:
195,10,161662,1,8,2:2:0:0:
195,10,161987,1,0,0:0:0:0:
265,64,162149,1,8,0:3:0:0:
363,1,162311,6,0,L|346:143,1,127.500004863739,2|0,1:2|0:0,0:0:0:0:
395,217,162797,1,0,1:0:0:0:
478,109,162960,2,0,L|482:172,2,63.7500024318696,8|0|0,2:2|0:0|0:0,0:0:0:0:
464,297,163446,5,8,0:2:0:0:
464,297,163527,1,8,0:2:0:0:
464,297,163608,2,0,P|407:265|349:296,1,127.500004863739,2|0,1:2|0:0,0:0:0:0:
293,365,164095,1,0,1:0:0:0:
221,249,164257,2,0,L|212:313,2,63.7500024318696,8|0|0,2:2|0:0|0:0,0:0:0:0:
143,196,164743,1,8,0:3:0:0:
49,273,164906,6,0,P|43:209|31:136,1,127.500004863739,2|0,1:2|0:0,0:0:0:0:
82,54,165392,1,0,1:0:0:0:
168,102,165554,2,0,L|238:91,1,63.7500024318696,8|0,2:2|0:0,0:0:0:0:
239,81,165797,1,0,0:0:0:0:
246,67,165879,2,0,L|183:76,1,63.7500024318696
339,141,166203,6,0,P|363:85|424:76,1,127.500004863739,6|0,1:2|1:0,0:0:0:0:
509,121,166689,1,0,1:0:0:0:
440,194,166852,1,8,2:2:0:0:
440,194,167176,1,0,0:0:0:0:
497,273,167338,1,8,0:3:0:0:
399,351,167500,6,0,P|332:333|258:325,1,127.500004863739,2|0,1:2|0:0,0:0:0:0:
193,373,167987,1,0,1:0:0:0:
108,273,168149,2,0,L|99:339,1,63.7500024318696,8|0,2:2|0:0,0:0:0:0:
108,342,168392,1,0,0:0:0:0:
115,350,168473,2,0,L|123:286,1,63.7500024318696
23,227,168797,6,0,P|16:160|3:90,1,127.500004863739,2|0,1:2|0:0,0:0:0:0:
74,34,169284,1,0,1:0:0:0:
197,97,169446,2,0,L|127:109,1,63.7500024318696,8|0,2:2|1:0,0:0:0:0:
158,202,169770,2,0,L|228:190,1,63.7500024318696,8|8,2:2|0:0,0:0:0:0:
220,191,170014,1,8,0:0:0:0:
220,191,170095,5,2,1:2:0:0:
298,111,170257,1,8,0:0:0:0:
365,194,170419,1,0,1:3:0:0:
367,207,170500,1,8,0:0:0:0:
359,216,170581,1,8,0:0:0:0:
348,213,170662,1,8,0:0:0:0:
347,200,170743,1,8,0:0:0:0:
482,4,171068,5,0,1:0:0:0:
392,39,171230,1,8,0:0:0:0:
482,4,171392,6,0,B|489:54|489:54|470:91|470:91|478:146,1,144.500002756119,6|2,1:2|1:3,0:0:0:0:
512,270,171879,1,2,0:3:0:0:
512,270,171960,1,2,0:3:0:0:
512,270,172041,2,0,L|438:256,1,72.2500013780594,2|0,1:3|0:3,0:0:0:0:
341,359,172365,2,0,L|411:345,1,72.2500013780594,2|0,1:3|0:3,0:0:0:0:
321,269,172689,6,0,P|305:335|238:351,1,144.500002756119,2|2,1:2|1:3,0:0:0:0:
130,305,173176,1,2,0:3:0:0:
130,305,173338,2,0,L|148:214,1,72.2500013780594,2|0,1:3|0:0,0:0:0:0:
112,110,173662,1,2,1:3:0:0:
17,184,173825,1,2,0:3:0:0:
112,110,173987,6,0,B|162:123|162:123|176:147|176:147|258:168,1,144.500002756119,2|2,1:2|1:3,0:0:0:0:
360,127,174473,1,2,0:3:0:0:
360,127,174554,1,2,0:3:0:0:
360,127,174635,2,0,L|374:45,1,72.2500013780594,2|0,1:3|0:0,0:0:0:0:
270,0,174960,2,0,L|256:82,1,72.2500013780594,2|0,1:3|0:0,0:0:0:0:
354,232,175284,5,14,0:0:0:0:
454,149,175446,1,8,0:0:0:0:
454,149,175527,1,8,0:0:0:0:
454,149,175608,2,0,L|513:157,3,40.3749989218712,8|8|8|8,0:0|0:0|0:0|0:0,0:0:0:0:
506,242,175933,5,8,1:2:0:0:
475,251,176014,1,8,0:0:0:0:
452,274,176095,1,8,0:0:0:0:
440,304,176176,1,8,0:0:0:0:
439,336,176257,2,0,L|378:327,3,40.3749989218712,4|4|8|8,1:3|1:3|1:3|1:3,0:0:0:0:
328,363,176581,6,0,P|265:310|296:229,1,170,6|4,1:2|1:3,0:0:0:0:
387,150,177068,1,4,0:3:0:0:
291,67,177230,2,0,L|196:80,1,85,4|4,1:3|0:3,0:0:0:0:
78,144,177554,2,0,P|55:106|64:60,1,85,4|4,1:3|0:3,0:0:0:0:
167,175,177879,5,10,0:0:0:0:
123,259,178041,1,8,0:0:0:0:
41,223,178203,1,8,0:0:0:0:
78,144,178365,1,8,0:0:0:0:
205,246,178527,5,8,0:0:0:0:
0,157,178689,1,8,0:0:0:0:
147,100,178852,1,8,0:0:0:0:
57,301,179014,1,8,0:0:0:0:
258,169,179176,6,0,L|244:77,1,93.5000028533936,14|0,0:0|1:0,0:0:0:0:
347,0,179500,1,0,1:0:0:0:
454,162,179662,2,0,L|466:61,1,93.5000028533936,12|0,0:0|1:0,0:0:0:0:
351,114,179987,1,0,1:0:0:0:
421,266,180149,2,0,L|519:252,1,93.5000028533936,10|0,0:0|1:0,0:0:0:0:
258,132,180473,5,2,1:2:0:0:
222,336,180635,2,0,B|189:299|189:299|206:258,1,93.5000028533936,12|0,0:0|1:0,0:0:0:0:
335,280,180960,1,0,1:0:0:0:
159,172,181122,6,0,B|117:176|117:176|109:179|109:179|66:184,1,93.5000028533936,10|0,0:0|1:0,0:0:0:0:
307,49,181446,2,0,B|264:43|264:43|255:41|255:41|214:36,1,93.5000028533936,8|0,0:0|1:0,0:0:0:0:
206,47,181689,1,0,1:0:0:0:
199,57,181770,6,0,B|251:62|251:62|261:66|261:66|316:72,1,110.499994941712,14|0,0:0|1:0,0:0:0:0:
481,153,182095,1,10,0:0:0:0:
347,245,182257,1,2,1:2:0:0:
481,153,182419,2,0,B|487:96|487:96|492:85|492:85|498:41,1,110.499994941712,10|0,0:0|1:0,0:0:0:0:
335,161,182743,1,10,0:0:0:0:
489,273,182906,1,2,1:2:0:0:
335,161,183068,6,0,B|285:169|285:169|271:179|271:179|228:184,1,110.499994941712,14|0,0:0|1:2,0:0:0:0:
146,340,183392,1,10,0:0:0:0:
285,310,183554,1,2,1:2:0:0:
133,139,183716,5,10,1:2:0:0:
48,298,183879,1,10,0:0:0:0:
141,124,184041,1,10,0:0:0:0:
42,311,184203,1,10,0:0:0:0:
11,328,196041,6,0,P|59:324|116:317,1,91.800002241211,0|0,1:0|1:0,0:0:0:0:
168,355,196527,2,0,P|216:358|273:366,1,91.800002241211,2|0,0:0|0:0,0:0:0:0:
259,363,197176,2,0,P|298:344|357:352,1,91.800002241211,0|0,1:0|0:0,0:0:0:0:
424,373,197662,1,0,3:2:0:0:
424,373,197987,2,0,P|428:324|435:276,1,91.800002241211,2|0,3:2|0:0,0:0:0:0:
507,259,198473,1,0,0:0:0:0:
486,184,198635,6,0,P|441:184|384:178,1,91.800002241211,0|0,1:0|1:0,0:0:0:0:
332,224,199122,2,0,B|283:226|286:243|223:241,1,91.800002241211,2|0,0:0|0:0,0:0:0:0:
176,201,199608,2,0,L|188:151,1,45.9000011206055,2|0,0:0|1:0,0:0:0:0:
171,155,200257,6,0,L|161:208,1,45.9000011206055,0|0,1:0|0:0,0:0:0:0:
87,248,200581,2,0,P|46:247|20:224,1,68.8500016809082,2|0,3:2|0:0,0:0:0:0:
27,221,200906,6,0,P|62:219|93:243,1,72.2500013780594,2|0,2:2|0:0,0:0:0:0:
255,354,201230,6,0,P|302:342|350:331,1,97.7500018644333,12|8,0:0|0:0,0:0:0:0:
352,319,201473,1,8,0:0:0:0:
356,304,201554,2,0,L|368:360,1,48.8750009322167,8|8,0:0|0:0,0:0:0:0:
455,330,201716,1,8,0:0:0:0:
455,330,201797,1,8,0:0:0:0:
455,330,201879,2,0,L|445:279,3,48.8750009322167,8|8|8|8,0:0|0:0|0:0|0:0,0:0:0:0:
426,201,202203,5,8,0:0:0:0:
432,177,202284,1,8,0:0:0:0:
452,163,202365,1,8,0:0:0:0:
476,163,202446,1,8,0:0:0:0:
499,173,202527,2,0,L|485:110,3,48.8750009322167,8|8|8|8,0:0|0:0|0:0|0:0,0:0:0:0:
460,37,202852,5,10,0:0:0:0:
457,27,202933,1,8,0:0:0:0:
454,18,203014,2,0,L|390:30,1,48.8750009322167,8|8,0:0|0:0,0:0:0:0:
349,115,203176,1,10,0:0:0:0:
351,127,203257,1,8,0:0:0:0:
353,138,203338,2,0,L|289:150,1,48.8750009322167,8|8,0:0|0:0,0:0:0:0:
201,115,203500,6,0,L|184:7,1,108.375002067089,14|0,0:0|0:0,0:0:0:0:
163,8,203825,6,0,L|180:113,1,97.7500018644333,4|0,1:1|0:0,0:0:0:0:
146,313,204149,1,10,0:0:0:0:
4,189,204311,1,2,0:0:0:0:
182,201,204473,1,2,1:2:0:0:
53,355,204635,1,2,0:0:0:0:
90,163,204797,1,10,0:0:0:0:
243,351,204960,6,0,P|332:331|328:240,1,195.500003728867,2|0,0:0|0:0,0:0:0:0:
249,129,205446,1,10,0:0:0:0:
406,52,205608,2,0,P|396:91|383:162,1,97.7500018644333,2|0,0:0|1:0,0:0:0:0:
469,327,205933,1,2,0:0:0:0:
512,176,206095,1,10,0:0:0:0:
339,255,206257,5,8,0:0:0:0:
339,255,206338,1,8,0:0:0:0:
339,255,206419,2,0,P|394:244|446:238,1,97.7500018644333,4|0,1:2|0:0,0:0:0:0:
268,344,206743,2,0,P|219:285|147:275,1,146.62500279665,10|0,0:0|0:0,0:0:0:0:
148,257,207068,2,0,P|137:305|127:367,1,97.7500018644333,0|0,1:0|0:0,0:0:0:0:
43,189,207392,1,10,0:0:0:0:
171,122,207554,1,2,0:0:0:0:
43,189,207716,6,0,P|-1:143|30:61,1,146.62500279665,2|0,1:2|0:0,0:0:0:0:
36,54,208041,1,10,0:0:0:0:
171,122,208203,2,0,P|217:132|256:104,1,97.7500018644333,2|0,0:0|1:0,0:0:0:0:
344,0,208527,1,2,0:0:0:0:
398,161,208689,1,10,0:0:0:0:
512,43,208852,5,8,0:0:0:0:
512,43,208933,1,8,0:0:0:0:
512,43,209014,2,0,L|416:60,1,97.7500018644333,4|0,1:2|0:0,0:0:0:0:
394,267,209338,2,0,P|461:256|484:178,1,146.62500279665,10|0,0:0|0:0,0:0:0:0:
476,186,209662,2,0,P|471:233|481:281,1,97.7500018644333,0|0,1:0|0:0,0:0:0:0:
281,151,209987,2,0,P|329:147|378:132,1,97.7500018644333,10|0,0:0|0:0,0:0:0:0:
272,308,210311,6,0,P|225:254|154:252,1,146.62500279665,2|0,1:2|0:0,0:0:0:0:
134,265,210635,1,10,0:0:0:0:
145,80,210797,2,0,P|179:112|182:160,1,97.7500018644333,2|0,0:0|1:0,0:0:0:0:
45,215,211122,1,2,1:2:0:0:
45,215,211284,2,0,P|10:182|7:134,1,97.7500018644333,8|0,0:0|1:0,0:0:0:0:
17,125,211527,1,0,1:0:0:0:
27,117,211608,6,0,B|23:158|23:158|19:169|19:169|15:234,1,97.7500018644333,14|0,0:0|1:0,0:0:0:0:
181,362,211933,2,0,B|177:321|177:321|173:310|173:310|169:245,1,97.7500018644333,8|0,0:0|1:0,0:0:0:0:
351,120,212257,2,0,B|347:161|347:161|343:172|343:172|339:237,1,97.7500018644333,8|0,0:0|1:0,0:0:0:0:
430,361,212581,1,10,0:0:0:0:
512,220,212743,1,2,1:2:0:0:
430,361,212906,6,0,L|326:340,1,89.2499972763062,12|8,0:0|0:0,0:0:0:0:
330,353,213149,1,8,0:0:0:0:
323,364,213230,1,8,0:0:0:0:
236,248,213392,1,8,0:0:0:0:
123,382,213554,2,0,P|103:343|114:300,1,89.2499972763062,8|8,0:0|0:3,0:0:0:0:
157,186,213879,1,4,0:3:0:0:
51,223,214041,1,4,0:3:0:0:
219,334,214203,6,0,B|268:330|302:306|302:306|383:328,1,161.499995687485,4|0,1:2|0:0,0:0:0:0:
512,346,214689,1,2,1:2:0:0:
469,204,214852,1,8,0:0:0:0:
469,204,215014,2,0,L|450:290,1,80.7499978437424,2|0,0:0|1:0,0:0:0:0:
298,300,215338,6,0,P|260:288|221:278,1,80.7499978437424,2|0,1:2|0:0,0:0:0:0:
191,154,215662,1,8,0:0:0:0:
71,174,215825,2,0,P|42:201|39:243,1,80.7499978437424,2|0,0:0|1:0,0:0:0:0:
191,154,216149,6,0,P|160:103|183:50,1,121.124996765614,10|0,0:0|0:0,0:0:0:0:
253,17,216473,6,0,B|299:11|324:43|303:43|345:73|386:59,1,140.25000428009,2|0,0:0|0:0,0:0:0:0:
437,10,216797,6,0,P|420:89|411:184,1,152.999995330811,6|0,1:2|0:0,0:0:0:0:
512,256,217284,1,2,1:2:0:0:
419,332,217446,2,0,B|375:316|375:316|348:326|348:326|316:309|316:309|276:319,1,152.999995330811,8|2,0:0|1:2,0:0:0:0:
168,361,217933,1,2,1:2:0:0:
168,361,218257,1,8,0:0:0:0:
131,258,218419,6,0,L|142:179,1,76.4999976654053,2|0,0:0|1:2,0:0:0:0:
262,83,218743,2,0,B|276:118|276:118|250:146,1,76.4999976654053,10|0,0:0|1:0,0:0:0:0:
54,123,219068,2,0,B|39:87|39:87|65:59,1,76.4999976654053,10|0,0:0|0:0,0:0:0:0:
233,263,219392,6,0,L|375:233,1,133.874995914459,4|0,1:2|0:0,0:0:0:0:
364,252,219716,2,0,L|268:274,1,89.2499972763062,4|0,1:2|0:0,0:0:0:0:
443,233,220689,5,12,0:0:0:0:
340,148,220852,1,8,0:0:0:0:
340,148,220933,1,8,0:0:0:0:
340,148,221014,2,0,L|343:210,3,44.6249986381531,8|8|0|0,0:0|0:0|1:0|1:0,0:0:0:0:
277,254,221338,1,8,1:3:0:0:
277,271,221419,1,8,1:3:0:0:
278,288,221500,1,0,1:0:0:0:
279,305,221581,1,0,1:0:0:0:
280,323,221662,6,0,L|182:320,1,95.6250036478044,10|0,0:0|0:0,0:0:0:0:
166,337,221987,6,0,P|169:281|171:242,1,93.5000028533936,6|2,1:2|1:2,0:0:0:0:
66,100,222311,2,0,P|41:139|48:184,1,93.5000028533936,10|0,0:0|0:0,0:0:0:0:
242,161,222635,1,2,1:2:0:0:
164,62,222797,1,2,1:2:0:0:
137,165,222960,1,8,0:0:0:0:
269,64,223122,6,0,P|311:72|375:79,1,93.5000028533936,2|0,0:0|1:0,0:0:0:0:
486,157,223446,2,0,P|510:118|505:72,1,93.5000028533936,2|8,1:2|0:0,0:0:0:0:
375,182,223770,1,2,0:0:0:0:
494,263,223933,1,2,1:2:0:0:
494,263,224095,1,2,1:2:0:0:
375,182,224257,2,0,P|327:189|265:197,1,93.5000028533936,8|0,0:0|0:0,0:0:0:0:
87,251,224581,5,2,1:2:0:0:
242,287,224743,1,2,1:2:0:0:
178,114,224906,2,0,P|176:159|170:217,1,93.5000028533936,10|0,0:0|0:0,0:0:0:0:
17,335,225230,1,2,1:2:0:0:
17,335,225311,1,8,0:0:0:0:
17,335,225392,1,2,1:2:0:0:
7,188,225554,1,8,0:0:0:0:
151,350,225716,6,0,P|215:337|313:326,1,140.25000428009,6|0,1:2|0:0,0:0:0:0:
305,345,226041,2,0,L|295:243,1,93.5000028533936,2|8,1:2|0:0,0:0:0:0:
380,138,226365,1,2,1:2:0:0:
488,243,226527,1,8,0:3:0:0:
490,261,226608,1,8,0:3:0:0:
492,279,226689,1,0,1:0:0:0:
493,297,226770,1,0,1:0:0:0:
495,315,226852,2,0,L|394:327,1,93.5000028533936,8|0,0:0|0:0,0:0:0:0:
254,180,227176,5,6,1:2:0:0:
162,326,227338,1,2,1:2:0:0:
31,203,227500,2,0,P|37:155|45:95,1,93.5000028533936,10|0,0:0|1:0,0:0:0:0:
250,53,227825,1,10,0:0:0:0:
131,185,227987,1,2,1:2:0:0:
116,7,228149,1,8,0:0:0:0:
253,168,228311,5,2,1:2:0:0:
253,168,228392,1,0,1:0:0:0:
253,168,228473,2,0,L|345:154,1,93.5000028533936,8|0,0:0|1:2,0:0:0:0:
403,31,228797,1,2,1:2:0:0:
512,181,228960,2,0,B|532:140|532:140|508:98,1,93.5000028533936,12|0,0:0|1:0,0:0:0:0:
345,153,229284,1,2,1:2:0:0:
455,246,229446,1,8,0:0:0:0:
378,356,229608,1,0,1:0:0:0:
378,356,229689,1,0,1:0:0:0:
378,356,229770,5,10,0:2:0:0:
345,153,229933,2,0,L|325:251,1,93.5000028533936,10|0,0:0|1:0,0:0:0:0:
104,356,230257,1,10,0:0:0:0:
149,153,230419,2,0,L|169:251,1,93.5000028533936,10|0,0:0|1:0,0:0:0:0:
402,345,230743,1,10,0:0:0:0:
361,130,230906,6,0,L|333:267,1,127.5,6|0,1:2|0:0,0:0:0:0:
269,343,231554,5,8,0:3:0:0:
258,340,231635,1,8,0:3:0:0:
247,338,231716,1,8,0:0:0:0:
130,286,231987,5,8,0:3:0:0:
37,368,232257,5,4,0:3:0:0:
134,155,232473,5,4,1:2:0:0:
256,192,232527,12,0,241284,0:0:0:0:
