osu file format v14

[General]
AudioFilename: audio.mp3
AudioLeadIn: 0
PreviewTime: 200024
Countdown: 0
SampleSet: Drum
StackLeniency: 0.6
Mode: 0
LetterboxInBreaks: 0
WidescreenStoryboard: 0

[Editor]
Bookmarks: 57078,72807,101351,121943,137672,148051,155835,171402,184213,185672,196051,201240,203835
DistanceSpacing: 0.7
BeatDivisor: 4
GridSize: 16
TimelineZoom: 4.399998

[Metadata]
Title:Kimi no Inai Yoru o Koete
TitleUnicode:君のいない夜を越えて
Artist:MY FIRST STORY
ArtistUnicode:MY FIRST STORY
Creator:AirinCat
Version:Extra
Source:御茶ノ水ロック
Tags:all secret tracks mfs hiro moriuchi Katou Nobuaki Nishizawa Teruki hiroki nob teru kid'z sho japanese rock jrock j-rock ochanomizu rock tv serial series 森内寛樹 加藤伸明 佐々木翔平 西澤照貴
BeatmapID:2382711
BeatmapSetID:1140731

[Difficulty]
HPDrainRate:5.6
CircleSize:4
OverallDifficulty:8.6
ApproachRate:9.2
SliderMultiplier:1.7
SliderTickRate:1

[Events]
//Background and Video events
0,0,"uwu.jpg",0,0
//Break Periods
2,185662,195471
//Storyboard Layer 0 (Background)
//Storyboard Layer 1 (Fail)
//Storyboard Layer 2 (Pass)
//Storyboard Layer 3 (Foreground)
//Storyboard Layer 4 (Overlay)
//Storyboard Sound Samples

[TimingPoints]
2227,722.89156626506,4,2,1,34,1,0
2227,-83.3333333333333,4,2,1,34,0,0
2949,685.714285714286,4,2,1,34,1,0
2949,-86.9565217391304,4,2,1,34,0,0
4320,715.990453460621,4,2,1,34,1,0
4320,-83.3333333333333,4,2,1,34,0,0
5751,706.713780918728,4,2,1,34,1,0
5751,-85.4700854700855,4,2,1,34,0,0
7164,698.48661233993,4,2,1,34,1,0
7164,-83.3333333333333,4,2,1,34,0,0
7862,714.285714285713,4,2,1,34,1,0
7862,-83.3333333333333,4,2,1,34,0,0
9290,666.666666666667,4,2,1,34,1,0
9290,-83.3333333333333,4,2,1,34,0,0
9956,705.882352941176,4,2,1,34,1,0
9956,-83.3333333333333,4,2,1,34,0,0
10661,722.89156626506,4,2,1,34,1,0
10661,-83.3333333333333,4,2,1,34,0,0
11383,731.707317073171,4,2,1,34,1,0
11383,-83.3333333333333,4,2,1,34,0,0
12114,697.67441860465,4,2,1,34,1,0
12114,-83.3333333333333,4,2,1,34,0,0
13508,714.285714285714,4,2,1,34,1,0
13508,-83.3333333333333,4,2,1,34,0,0
14222,697.674418604651,4,2,1,34,1,0
14222,-83.3333333333333,4,2,1,34,0,0
14919,714.285714285714,4,2,1,34,1,0
14919,-83.3333333333333,4,2,1,34,0,0
15633,697.674418604651,4,2,1,34,1,0
15633,-83.3333333333333,4,2,1,34,0,0
16330,714.285714285714,4,2,1,34,1,0
16330,-83.3333333333333,4,2,1,34,0,0
17758,705.882352941176,4,2,1,34,1,0
17758,-83.3333333333333,4,2,1,34,0,0
18110,697.674418604651,4,2,1,34,1,0
19156,705.882352941176,4,2,1,34,1,0
24798,324.324324324324,4,2,1,60,1,0
24798,-83.3333333333333,4,2,1,60,0,0
25770,-166.666666666667,4,2,1,60,0,0
26095,-76.9230769230769,4,2,1,70,0,0
34527,-83.3333333333333,4,2,1,70,0,0
35014,-166.666666666667,4,2,1,70,0,0
36473,-142.857142857143,4,2,1,38,0,0
44257,-166.666666666667,4,2,1,40,0,0
45554,-100,4,2,1,46,0,0
46852,-117.647058823529,4,2,1,50,0,0
54635,-222.222222222222,4,2,1,40,0,0
55933,-222.222222222222,4,2,1,30,0,0
56419,-222.222222222222,4,2,1,50,0,0
57068,-83.3333333333333,4,2,1,60,0,0
59095,-83.3333333333333,4,2,1,5,0,0
59176,-83.3333333333333,4,2,1,60,0,0
60392,-83.3333333333333,4,2,1,5,0,0
60473,-83.3333333333333,4,2,1,60,0,0
64284,-83.3333333333333,4,2,1,5,0,0
64365,-83.3333333333333,4,2,1,60,0,0
65581,-83.3333333333333,4,2,1,5,0,0
65662,-83.3333333333333,4,2,1,60,0,0
67446,-111.111111111111,4,2,1,60,0,0
69554,-100,4,2,1,60,0,0
71825,-166.666666666667,4,2,1,46,0,0
72068,-166.666666666667,4,2,1,5,0,0
72149,-166.666666666667,4,2,1,46,0,0
72392,-166.666666666667,4,2,1,5,0,0
72473,-125,4,2,1,60,0,0
72716,-125,4,2,1,5,0,0
72797,-76.9230769230769,4,2,1,80,0,1
83176,-100,4,2,1,68,0,0
85365,-100,4,2,1,5,0,0
85446,-90.9090909090909,4,2,1,68,0,0
85689,-90.9090909090909,4,2,1,5,0,0
85770,-105.263157894737,4,2,1,68,0,0
88365,-83.3333333333333,4,2,1,70,0,0
89662,-83.3333333333333,4,2,1,60,0,0
90635,-142.857142857143,4,2,1,60,0,0
90879,-142.857142857143,4,2,1,5,0,0
90960,-83.3333333333333,4,2,1,60,0,0
99879,-166.666666666667,4,2,1,60,0,0
101338,-100,4,2,1,48,0,0
109122,-142.857142857143,4,2,1,44,0,0
111716,-117.647058823529,4,2,1,52,0,0
119500,-142.857142857143,4,2,1,50,0,0
121933,-83.3333333333334,4,2,1,60,0,0
123960,-83.3333333333334,4,2,1,5,0,0
124041,-83.3333333333334,4,2,1,60,0,0
125257,-83.3333333333334,4,2,1,5,0,0
125338,-83.3333333333334,4,2,1,60,0,0
132311,-111.111111111111,4,2,1,50,0,0
132635,-111.111111111111,4,3,2,50,0,0
134419,-83.3333333333333,4,2,1,60,0,0
135068,-83.3333333333333,4,2,1,66,0,0
135473,-90.9090909090909,4,2,1,60,0,0
135879,-90.9090909090909,4,2,1,60,0,0
136689,-90.9090909090909,4,2,1,50,0,0
137014,-90.9090909090909,4,2,1,56,0,0
137338,-90.9090909090909,4,2,1,62,0,0
137662,-76.9230769230769,4,2,1,80,0,1
148041,-100,4,2,1,68,0,0
150230,-100,4,2,1,5,0,0
150311,-90.9090909090909,4,2,1,68,0,0
150554,-90.9090909090909,4,2,1,5,0,0
150635,-105.263157894737,4,2,1,68,0,0
153230,-95.2380952380954,4,2,1,70,0,0
154527,-111.111111111111,4,3,2,50,0,0
155825,-142.857142857143,4,2,1,56,0,0
156797,-142.857142857143,4,3,2,56,0,0
160527,-166.666666666667,4,2,1,56,0,0
160852,-166.666666666667,4,3,2,5,0,0
161011,-133.333333333333,4,2,1,56,0,0
161338,-133.333333333333,4,3,2,56,0,0
166203,-133.333333333333,4,2,1,56,0,0
166527,-133.333333333333,4,3,2,56,0,0
169933,-133.333333333333,4,2,1,56,0,0
171392,-117.647058823529,4,2,1,60,0,0
175284,-105.263157894737,4,2,1,50,0,0
175933,-105.263157894737,4,2,1,56,0,0
176581,-100,4,2,1,56,0,0
177879,-100,4,2,1,60,0,0
178527,-100,4,2,1,64,0,0
179176,-90.9090909090909,4,2,1,70,0,0
181770,-71.4285714285714,4,2,1,76,0,0
196041,-181.818181818182,4,2,1,30,0,0
200906,-117.64705882353,4,2,1,50,0,0
201230,-86.9565217391307,4,2,1,50,0,0
202852,-86.9565217391307,4,2,1,60,0,0
203500,-111.111111111111,4,2,1,60,0,0
203743,-111.111111111111,4,2,1,5,0,0
203825,-76.9230769230769,4,2,1,80,0,1
214203,-100,4,2,1,68,0,0
216392,-100,4,2,1,5,0,0
216473,-90.9090909090909,4,2,1,68,0,0
216716,-90.9090909090909,4,2,1,5,0,0
216797,-105.263157894737,4,2,1,68,0,0
219392,-95.2380952380952,4,2,1,72,0,0
220689,-95.2380952380952,4,2,1,62,0,0
221662,-133.333333333333,4,2,1,68,0,0
221987,-83.3333333333333,4,2,1,60,0,0
230906,-200,4,2,1,60,0,0
231554,-200,4,2,1,50,0,0
232473,-250,4,2,1,60,0,0
232527,-250,4,2,1,30,0,0

[Colours]
Combo1 : 188,134,122
Combo2 : 233,163,120
Combo3 : 241,205,160
Combo4 : 238,155,149

[HitObjects]
27,296,2227,6,0,P|66:266|115:275,1,101.999996887207,2|0,0:3|0:2,0:2:0:0:
185,325,2769,1,2,0:2:0:0:
185,325,2949,2,0,L|287:307,1,97.7500018644333,2|2,0:2|0:2,0:2:0:0:
358,334,3463,2,0,P|403:299|381:217,1,146.62500279665,2|2,0:2|0:2,0:2:0:0:
384,220,4320,2,0,P|422:189|472:193,1,101.999996887207,2|2,0:2|0:2,0:2:0:0:
307,311,4856,5,2,0:2:0:0:
307,311,5035,2,0,P|299:260|289:206,2,101.999996887207,2|2|2,0:3|0:2|0:2,0:2:0:0:
307,311,6104,2,0,L|363:302,1,49.7250001896858,2|2,0:2|0:2,0:2:0:0:
251,373,6457,2,0,P|202:361|152:349,1,99.4500003793716,2|2,0:2|0:2,0:2:0:0:
75,357,6987,1,2,0:2:0:0:
75,357,7164,2,0,P|50:310|67:258,1,101.999996887207,2|2,0:2|0:2,0:2:0:0:
119,216,7687,1,2,0:2:0:0:
196,276,7862,6,0,P|204:224|214:167,2,101.999996887207,2|2|2,0:3|0:2|0:2,0:2:0:0:
196,276,8933,2,0,P|162:268|142:264,1,50.9999984436036,2|2,0:2|0:2,0:2:0:0:
257,325,9290,2,0,L|370:307,1,101.999996887207,2|2,0:2|0:2,0:2:0:0:
512,189,9956,2,0,P|456:178|405:171,1,101.999996887207,2|2,0:2|0:2,0:2:0:0:
356,227,10485,1,2,0:2:0:0:
357,308,10661,6,0,B|244:301|325:204|199:200,1,203.999993774414,2|2,0:3|0:2,0:2:0:0:
137,247,11565,2,0,P|125:225|123:199,2,50.9999984436036,2|2|2,0:2|0:2|0:2,0:2:0:0:
47,208,12114,2,0,P|86:176|94:126,1,101.999996887207,2|0,0:3|0:2,0:2:0:0:
31,83,12637,1,2,0:2:0:0:
31,83,12811,2,0,P|70:52|121:56,1,101.999996887207,2|0,0:3|0:2,0:2:0:0:
251,190,13508,6,0,P|244:239|237:293,1,101.999996887207,2|2,0:3|0:2,0:2:0:0:
282,364,14043,1,2,0:2:0:0:
282,364,14222,2,0,P|328:383|379:359,1,101.999996887207,2|2,0:2|0:2,0:2:0:0:
424,306,14745,1,2,0:0:0:0:
424,306,14919,2,0,P|424:257|427:202,1,101.999996887207,2|2,0:2|0:2,0:2:0:0:
426,204,15633,2,0,P|381:181|334:196,1,101.999996887207,2|2,0:2|0:2,0:2:0:0:
376,264,16156,1,2,0:2:0:0:
276,290,16330,6,0,P|268:242|240:127,2,152.999995330811,2|2|2,0:3|0:2|0:2,0:2:0:0:
295,372,17580,1,2,0:0:0:0:
215,356,17758,1,2,0:3:0:0:
215,356,18110,1,2,0:0:0:0:
132,333,18458,1,2,0:3:0:0:
215,356,18807,1,2,0:2:0:0:
51,309,19156,5,2,0:3:0:0:
256,192,20567,12,0,24450,0:0:0:0:
12,101,24798,5,12,0:0:0:0:
89,251,24960,2,0,L|96:187,1,50.9999984436036,0|0,1:0|1:0,0:0:0:0:
212,101,25122,1,8,0:0:0:0:
212,101,25203,1,8,0:0:0:0:
212,101,25284,2,0,L|205:161,1,50.9999984436036,0|0,1:0|1:0,0:0:0:0:
256,260,25446,5,8,0:3:0:0:
289,280,25527,1,8,0:3:0:0:
328,279,25608,1,0,1:3:0:0:
362,257,25689,1,0,1:3:0:0:
375,225,25770,6,0,L|468:234,1,76.4999976654053,8|0,0:0|0:0,0:0:0:0:
454,252,26095,5,6,1:2:0:0:
293,87,26257,1,2,1:2:0:0:
188,316,26419,2,0,P|155:273|168:221,1,110.499994941712,10|0,0:0|0:0,0:0:0:0:
409,65,26743,1,2,1:2:0:0:
375,225,26906,1,2,1:2:0:0:
203,77,27068,1,8,0:0:0:0:
375,225,27230,6,0,P|433:214|491:204,1,110.499994941712,2|0,0:0|1:0,0:0:0:0:
321,40,27554,1,2,1:2:0:0:
167,222,27716,1,8,0:0:0:0:
96,112,27879,1,2,0:0:0:0:
272,243,28041,1,2,1:2:0:0:
87,354,28203,1,2,1:2:0:0:
272,243,28365,2,0,B|311:278|311:278|294:333,1,110.499994941712,8|0,0:0|0:0,0:0:0:0:
14,209,28689,5,2,1:2:0:0:
215,135,28852,1,2,1:2:0:0:
173,352,29014,2,0,L|140:246,1,110.499994941712,10|0,0:0|0:0,0:0:0:0:
286,68,29338,1,2,1:2:0:0:
383,205,29500,1,2,1:2:0:0:
485,28,29662,1,8,0:0:0:0:
215,135,29825,6,0,P|161:121|105:110,1,110.499994941712,6|0,1:2|1:0,0:0:0:0:
333,0,30149,1,10,0:0:0:0:
359,27,30230,1,8,0:0:0:0:
370,63,30311,1,8,0:0:0:0:
365,101,30392,1,8,0:0:0:0:
341,131,30473,2,0,L|407:116,1,55.2499974708558,2|0,1:2|1:0,0:0:0:0:
510,193,30635,5,8,0:0:0:0:
502,216,30716,1,8,0:0:0:0:
494,239,30797,2,0,L|440:226,1,55.2499974708558,8|8,0:3|0:3,0:0:0:0:
343,304,30960,5,4,0:3:0:0:
346,320,31041,1,4,0:3:0:0:
349,336,31122,1,4,0:3:0:0:
352,352,31203,1,4,0:3:0:0:
356,367,31284,6,0,L|480:340,1,110.499994941712,6|2,1:2|1:2,0:0:0:0:
237,118,31608,2,0,P|191:146|181:198,1,110.499994941712,10|0,0:0|0:0,0:0:0:0:
239,384,31933,1,2,1:2:0:0:
293,227,32095,1,2,1:2:0:0:
93,337,32257,1,8,0:0:0:0:
40,116,32419,6,0,P|49:167|58:228,1,110.499994941712,2|0,0:0|1:0,0:0:0:0:
194,321,32743,1,2,1:2:0:0:
237,118,32906,1,8,0:2:0:0:
293,227,33068,1,2,0:0:0:0:
40,116,33230,5,2,1:2:0:0:
287,58,33392,1,2,1:2:0:0:
157,229,33554,1,8,0:0:0:0:
139,12,33716,1,2,1:2:0:0:
375,254,33879,5,10,0:0:0:0:
440,35,34041,2,0,P|450:93|461:145,1,110.499994941712,10|0,0:0|1:0,0:0:0:0:
203,139,34365,1,10,0:0:0:0:
273,327,34527,2,0,P|283:268|295:215,1,101.999996887207,10|0,0:0|1:0,0:0:0:0:
33,323,34852,1,10,0:0:0:0:
77,153,35014,6,0,P|87:211|96:259,1,101.999996887207,6|0,1:2|1:0,0:0:0:0:
123,370,35500,1,8,0:0:0:0:
262,250,35662,1,8,0:3:0:0:
262,250,35743,1,8,0:0:0:0:
262,250,35825,1,8,0:0:0:0:
185,307,35987,1,8,0:3:0:0:
94,253,36149,1,4,0:3:0:0:
119,158,36311,1,4,0:3:0:0:
281,335,36473,6,0,P|340:347|387:303,2,118.999996368408,4|2|2,1:2|0:3|0:0,0:0:0:0:
222,260,37284,1,2,0:0:0:0:
222,260,37446,2,0,L|233:190,1,59.4999981842042,2|2,0:0|0:0,0:0:0:0:
212,116,37770,2,0,P|155:84|96:115,2,118.999996368408,2|2|2,0:3|0:3|0:0,0:0:0:0:
297,153,38581,2,0,P|355:141|414:130,1,118.999996368408,2|2,0:0|0:0,0:0:0:0:
485,216,39068,6,0,P|495:158|518:84,2,118.999996368408,2|2|0,0:3|0:3|0:0,0:0:0:0:
288,240,40365,2,0,P|303:301|309:365,2,118.999996368408,2|2|2,0:3|0:3|0:0,0:0:0:0:
188,348,41338,1,2,0:0:0:0:
188,348,41662,6,0,L|58:321,1,118.999996368408,2|2,0:3|0:3,0:0:0:0:
21,254,42149,1,2,0:0:0:0:
92,207,42311,2,0,P|122:158|100:104,1,118.999996368408,2|0,0:0|0:0,0:0:0:0:
31,57,42797,1,2,0:0:0:0:
100,104,42960,2,0,B|153:93|153:93|184:106|226:87,1,118.999996368408,2|2,0:3|0:3,0:0:0:0:
273,22,43446,1,2,0:0:0:0:
342,79,43608,2,0,L|330:140,1,59.4999981842042,2|2,0:0|0:0,0:0:0:0:
389,288,44095,5,2,0:3:0:0:
389,288,44176,1,2,0:3:0:0:
389,288,44257,2,0,B|439:292|474:260|429:248|478:213|516:223,2,152.999995330811,2|8|4,0:0|0:1|0:2,0:0:0:0:
389,288,45554,5,8,0:0:0:0:
321,180,45716,1,0,3:0:0:0:
321,180,45797,1,0,3:0:0:0:
321,180,45879,2,0,L|309:232,1,42.5,0|0,3:0|3:0,0:0:0:0:
283,301,46041,5,8,0:0:0:0:
185,187,46203,1,0,3:0:0:0:
185,187,46284,1,0,3:0:0:0:
185,187,46365,2,0,L|193:237,1,42.5,0|0,3:0|3:0,0:0:0:0:
171,312,46527,5,8,0:0:0:0:
77,236,46689,1,8,0:0:0:0:
23,306,46852,6,0,P|31:234|42:142,2,144.500002756119,4|0|10,1:2|1:0|0:0,0:0:0:0:
99,376,47662,1,2,0:2:0:0:
164,299,47825,1,2,3:2:0:0:
249,380,47987,1,2,3:2:0:0:
249,380,48068,1,0,3:2:0:0:
249,380,48149,1,2,1:2:0:0:
323,280,48311,6,0,P|329:317|334:355,1,72.2500013780594,8|2,0:0|1:2,0:0:0:0:
418,380,48635,1,2,0:2:0:0:
510,284,48797,2,0,L|502:364,1,72.2500013780594,8|2,0:0|0:0,0:0:0:0:
412,184,49122,1,0,3:2:0:0:
409,192,49203,1,0,3:2:0:0:
405,200,49284,1,0,3:2:0:0:
401,208,49365,1,0,3:2:0:0:
399,216,49446,6,0,P|468:241|516:188,2,144.500002756119,2|2|8,1:2|1:2|0:0,0:0:0:0:
385,220,50419,1,2,3:2:0:0:
443,110,50581,1,2,3:2:0:0:
443,110,50662,1,0,3:2:0:0:
443,110,50743,1,2,1:2:0:0:
275,46,50906,6,0,P|313:40|361:34,1,72.2500013780594,8|2,0:0|1:2,0:0:0:0:
415,103,51230,1,2,0:2:0:0:
271,151,51392,2,0,L|356:163,1,72.2500013780594,8|2,0:0|0:0,0:0:0:0:
214,252,51716,1,0,3:0:0:0:
204,250,51797,1,0,3:0:0:0:
194,248,51879,1,0,3:0:0:0:
184,246,51960,1,0,3:0:0:0:
174,242,52041,6,0,P|181:167|193:93,1,144.500002756119,6|0,1:2|1:0,0:0:0:0:
142,26,52527,1,2,0:2:0:0:
0,106,52689,2,0,P|16:181|24:255,1,144.500002756119,10|0,0:0|3:0,0:0:0:0:
84,340,53176,1,2,3:2:0:0:
203,280,53338,5,2,1:2:0:0:
90,354,53500,1,10,0:0:0:0:
211,296,53662,1,2,1:2:0:0:
110,237,53825,1,2,3:2:0:0:
110,237,53906,1,8,3:2:0:0:
110,237,53987,1,8,0:0:0:0:
182,374,54149,1,8,0:3:0:0:
289,336,54311,1,4,0:3:0:0:
287,252,54473,1,4,0:3:0:0:
218,210,54635,6,0,P|285:213|309:99,1,191.249994163513,4|0,1:2|0:0,0:0:0:0:
275,42,55608,2,0,P|314:30|354:20,2,76.4999976654053,2|2|0,0:3|0:0|0:0,0:0:0:0:
304,215,56419,5,0,1:0:0:0:
302,193,56500,1,0,1:0:0:0:
299,176,56581,1,8,0:0:0:0:
395,104,56743,1,4,1:3:0:0:
416,258,56906,1,8,0:3:0:0:
186,103,57068,6,0,B|126:98|126:98|71:78|71:78|24:104|39:161,1,203.999993774414,6|2,1:2|1:2,0:0:0:0:
214,349,57554,2,0,L|231:246,1,101.999996887207,10|0,0:0|0:0,0:0:0:0:
17,243,57879,1,2,1:2:0:0:
104,342,58041,1,2,1:2:0:0:
153,198,58203,1,10,0:2:0:0:
374,341,58365,6,0,P|422:337|456:300,1,101.999996887207,2|0,0:0|1:0,0:0:0:0:
364,214,58689,1,2,1:2:0:0:
262,370,58852,2,0,L|244:217,1,152.999995330811,10|0,0:0|0:0,0:0:0:0:
243,196,59176,1,2,1:2:0:0:
456,299,59338,1,2,1:2:0:0:
470,170,59500,1,8,0:0:0:0:
223,304,59662,6,0,B|154:289|154:289|128:228|128:228|61:215,1,203.999993774414,6|0,1:2|1:0,0:0:0:0:
106,13,60149,2,0,P|174:38|171:108,1,152.999995330811,10|0,0:0|0:0,0:0:0:0:
154,121,60473,1,2,1:2:0:0:
20,91,60635,1,0,1:0:0:0:
61,215,60797,1,10,0:2:0:0:
248,141,60960,6,0,B|355:116|355:116|405:155|382:206,1,203.999993774414,2|0,0:0|1:0,0:0:0:0:
374,384,61446,2,0,P|353:339|377:287,1,101.999996887207,8|0,0:0|0:0,0:0:0:0:
507,178,61770,1,2,1:2:0:0:
493,350,61933,1,10,0:0:0:0:
493,350,62014,1,8,0:0:0:0:
493,350,62095,1,10,0:0:0:0:
306,216,62257,6,0,B|259:189|185:233|250:262|182:299|132:276,1,203.999993774414,6|2,1:2|1:2,0:0:0:0:
0,153,62743,2,0,P|39:122|89:131,1,101.999996887207,10|0,0:0|0:0,0:0:0:0:
88,359,63068,1,2,1:2:0:0:
151,192,63230,1,2,1:2:0:0:
0,248,63392,1,10,0:0:0:0:
187,347,63554,6,0,B|232:332|232:332|240:334|240:334|285:320,1,101.999996887207,2|0,0:0|1:0,0:0:0:0:
381,171,63879,1,2,1:2:0:0:
497,325,64041,2,0,P|419:336|400:268,1,152.999995330811,10|0,0:0|0:0,0:0:0:0:
414,266,64365,2,0,P|422:315|434:377,1,101.999996887207,2|0,1:2|1:0,0:0:0:0:
507,138,64689,1,10,0:0:0:0:
191,189,64852,6,0,B|120:173|120:173|102:109|102:109|21:86,1,203.999993774414,6|0,1:2|1:0,0:0:0:0:
270,0,65338,2,0,L|294:167,1,152.999995330811,10|0,0:0|0:0,0:0:0:0:
295,177,65662,1,2,1:2:0:0:
380,63,65825,1,2,1:2:0:0:
187,86,65987,1,10,0:0:0:0:
479,210,66149,6,0,B|525:183|522:118|480:87|480:87|475:122|445:140,1,203.999993774414,2|0,1:2|1:0,0:0:0:0:
342,288,66635,1,10,0:0:0:0:
199,190,66797,1,8,0:0:0:0:
199,190,66879,1,8,0:0:0:0:
199,190,66960,1,8,0:0:0:0:
327,194,67122,1,8,0:3:0:0:
245,308,67284,1,4,0:3:0:0:
72,219,67446,6,0,P|84:136|91:54,1,152.999995330811,4|8,1:2|0:0,0:0:0:0:
190,0,67933,1,8,0:0:0:0:
190,0,68257,1,10,0:0:0:0:
283,188,68419,1,8,0:0:0:0:
342,84,68581,1,0,1:0:0:0:
145,177,68743,1,8,0:0:0:0:
360,274,68906,1,10,0:0:0:0:
251,328,69068,1,0,1:0:0:0:
160,183,69230,2,0,L|145:262,1,76.4999976654053,10|0,0:0|1:0,0:0:0:0:
396,349,69554,5,8,0:0:0:0:
425,328,69635,1,8,0:3:0:0:
443,297,69716,1,8,1:3:0:0:
443,261,69797,1,8,0:3:0:0:
431,226,69879,1,8,1:3:0:0:
403,202,69960,1,8,0:3:0:0:
367,194,70041,2,0,L|312:205,1,42.5,0|0,1:0|1:0,0:0:0:0:
251,328,70203,5,14,0:0:0:0:
142,126,70365,1,2,1:2:0:0:
410,107,70527,1,10,0:0:0:0:
230,232,70689,1,0,1:0:0:0:
230,232,70770,1,0,1:0:0:0:
230,232,70852,1,8,0:0:0:0:
250,51,71014,2,0,B|290:67|290:67|279:107,1,85,2|0,1:3|0:0,0:0:0:0:
8,180,71338,1,6,1:2:0:0:
8,180,71825,6,0,P|43:167|76:184,1,76.4999976654053,2|0,0:0|0:0,0:0:0:0:
76,201,72149,2,0,P|40:212|7:195,1,76.4999976654053,2|0,0:0|0:0,0:0:0:0:
8,180,72473,2,0,P|19:123|24:62,1,102,2|0,0:3|0:0,0:0:0:0:
36,56,72797,5,4,1:0:0:0:
178,218,72960,1,2,0:0:0:0:
291,24,73122,1,10,0:0:0:0:
128,106,73284,1,2,0:0:0:0:
315,267,73446,1,2,1:2:0:0:
156,322,73608,1,2,0:0:0:0:
337,140,73770,1,10,0:0:0:0:
90,216,73933,6,0,P|153:132|249:167,1,220.999989883423,2|0,0:0|0:0,0:0:0:0:
423,363,74419,1,10,0:0:0:0:
512,230,74581,2,0,P|461:225|401:212,1,110.499994941712,2|0,0:0|1:0,0:0:0:0:
257,376,74906,1,2,0:0:0:0:
178,218,75068,1,10,0:0:0:0:
304,273,75230,1,2,0:0:0:0:
69,366,75392,6,0,P|58:310|39:259,1,110.499994941712,6|0,1:2|0:0,0:0:0:0:
179,56,75716,2,0,P|249:90|246:168,1,165.749992412568,10|0,0:0|0:0,0:0:0:0:
178,218,76041,2,0,P|123:202|104:137,1,110.499994941712,0|0,1:2|0:0,0:0:0:0:
364,146,76365,1,10,0:0:0:0:
276,320,76527,1,2,0:0:0:0:
364,146,76689,6,0,B|408:133|459:161|417:188|469:206|511:199,1,165.749992412568,2|0,1:2|0:0,0:0:0:0:
496,116,77014,1,10,0:0:0:0:
416,316,77176,2,0,P|372:286|370:233,1,110.499994941712,2|0,0:0|1:0,0:0:0:0:
294,64,77500,1,2,0:0:0:0:
162,223,77662,1,10,0:0:0:0:
44,48,77825,5,8,0:0:0:0:
44,48,77906,1,8,0:0:0:0:
44,48,77987,2,0,P|36:105|26:160,1,110.499994941712,6|0,1:2|0:0,0:0:0:0:
223,289,78311,2,0,P|255:216|202:149,1,165.749992412568,10|0,0:0|0:0,0:0:0:0:
143,122,78635,2,0,P|196:108|249:93,1,110.499994941712,0|0,1:0|0:0,0:0:0:0:
136,326,78960,2,0,P|87:303|72:252,1,110.499994941712,10|0,0:0|0:0,0:0:0:0:
326,92,79284,6,0,B|372:87|414:123|376:129|413:176|461:167,1,165.749992412568,2|0,1:2|0:0,0:0:0:0:
466,91,79608,1,8,0:0:0:0:
305,190,79770,2,0,P|282:238|304:287,1,110.499994941712,2|0,0:0|1:0,0:0:0:0:
491,347,80095,1,2,0:0:0:0:
491,347,80257,2,0,P|513:298|491:249,1,110.499994941712,8|0,0:0|0:0,0:0:0:0:
167,291,80581,6,0,B|107:270|107:270|67:292|67:292|10:277,1,165.749992412568,6|0,1:2|0:0,0:0:0:0:
2,188,80906,2,0,B|40:146|40:146|51:198,1,110.499994941712,8|0,0:0|0:0,0:0:0:0:
114,368,81230,1,0,1:0:0:0:
12,277,81392,1,0,1:0:0:0:
165,207,81554,1,10,0:0:0:0:
132,366,81716,1,2,1:2:0:0:
265,121,81879,5,12,0:0:0:0:
297,228,82041,1,0,1:0:0:0:
326,330,82203,1,0,1:0:0:0:
371,117,82365,5,10,0:0:0:0:
178,179,82527,1,2,1:2:0:0:
439,204,82689,5,8,0:0:0:0:
187,96,82852,1,10,0:0:0:0:
193,85,83176,5,6,1:2:0:0:
49,88,83338,2,0,B|91:85|134:126|95:132|127:183|179:178,1,170,2|2,0:0|1:2,0:0:0:0:
361,52,83825,1,8,0:0:0:0:
361,52,83987,2,0,L|269:32,1,85,2|0,0:0|0:0,0:0:0:0:
364,191,84311,5,8,0:0:0:0:
364,191,84392,1,8,0:0:0:0:
364,191,84473,1,2,1:2:0:0:
488,136,84635,1,8,0:0:0:0:
488,136,84797,2,0,L|499:237,1,85,2|0,1:2|1:0,0:0:0:0:
396,313,85122,6,0,P|335:310|306:256,1,127.5,10|0,0:0|0:0,0:0:0:0:
287,174,85446,6,0,P|335:136|364:191,1,140.25000428009,2|0,0:0|0:0,0:0:0:0:
307,257,85770,6,0,P|244:293|183:235,1,161.499995687485,6|0,1:2|0:0,0:0:0:0:
137,128,86257,1,2,1:2:0:0:
13,249,86419,2,0,B|-16:174|-16:174|4:128|54:148,1,161.499995687485,8|2,0:0|0:0,0:0:0:0:
112,273,86906,1,10,0:0:0:0:
112,273,86987,1,8,0:0:0:0:
112,273,87068,1,0,1:2:0:0:
13,337,87230,1,8,0:0:0:0:
122,383,87392,6,0,L|210:368,1,80.7499978437424,2|8,1:3|0:0,0:0:0:0:
213,359,87635,1,8,0:0:0:0:
224,346,87716,1,8,0:0:0:0:
268,249,87879,1,8,0:0:0:0:
182,169,88041,1,8,0:0:0:0:
86,234,88203,1,8,0:0:0:0:
323,341,88365,6,0,L|473:315,1,152.999995330811,4|0,1:2|0:0,0:0:0:0:
465,303,88689,2,0,L|357:322,1,101.999996887207,4|0,1:2|0:0,0:0:0:0:
512,137,89662,5,6,1:2:0:0:
421,2,89825,2,0,L|414:57,1,50.9999984436036,8|8,0:0|0:0,0:0:0:0:
324,159,89987,1,8,0:0:0:0:
324,159,90068,1,8,0:0:0:0:
324,159,90149,2,0,L|314:102,1,50.9999984436036,0|0,1:0|1:0,0:0:0:0:
257,17,90311,5,8,0:3:0:0:
222,8,90392,1,8,1:3:0:0:
186,15,90473,1,0,1:3:0:0:
159,39,90554,1,0,1:3:0:0:
146,66,90635,6,0,P|99:56|53:48,1,89.2499972763062,10|0,0:0|0:0,0:0:0:0:
40,35,90960,5,6,1:2:0:0:
62,244,91122,1,2,1:2:0:0:
229,112,91284,2,0,P|215:161|203:210,1,101.999996887207,10|0,0:0|0:0,0:0:0:0:
411,363,91608,1,2,1:2:0:0:
393,230,91770,1,2,1:2:0:0:
216,341,91933,1,8,0:0:0:0:
392,230,92095,6,0,P|448:240|496:249,1,101.999996887207,2|0,0:0|1:0,0:0:0:0:
321,380,92419,1,2,1:2:0:0:
202,210,92581,1,8,0:0:0:0:
216,341,92743,1,2,0:2:0:0:
337,170,92906,1,2,1:2:0:0:
146,105,93068,1,2,1:2:0:0:
337,170,93230,2,0,B|366:123|366:123|345:78,1,101.999996887207,8|0,0:0|0:0,0:0:0:0:
9,138,93554,5,2,1:2:0:0:
216,212,93716,1,2,1:2:0:0:
170,6,93879,2,0,L|146:107,1,101.999996887207,10|0,0:0|0:0,0:0:0:0:
78,311,94203,1,2,1:2:0:0:
78,311,94284,1,8,0:0:0:0:
78,311,94365,1,0,1:2:0:0:
9,138,94527,1,8,0:0:0:0:
217,227,94689,6,0,P|289:219|320:153,1,152.999995330811,6|0,1:2|0:0,0:0:0:0:
307,147,95014,2,0,P|277:186|285:235,1,101.999996887207,2|8,1:2|0:0,0:0:0:0:
448,364,95338,1,2,0:0:0:0:
398,208,95500,1,2,1:2:0:0:
304,351,95662,1,2,1:2:0:0:
512,258,95825,1,8,0:0:0:0:
505,225,95906,1,8,0:0:0:0:
498,193,95987,1,8,0:0:0:0:
491,161,96068,1,8,0:0:0:0:
482,130,96149,5,6,1:2:0:0:
388,297,96311,1,2,1:2:0:0:
248,127,96473,2,0,P|290:101|338:114,1,101.999996887207,10|0,0:0|0:0,0:0:0:0:
227,341,96797,1,2,1:2:0:0:
107,212,96960,1,2,1:2:0:0:
304,211,97122,1,8,0:0:0:0:
79,379,97284,6,0,B|51:335|51:335|70:289,1,101.999996887207,2|0,0:0|1:0,0:0:0:0:
154,133,97608,1,2,1:2:0:0:
312,300,97770,1,8,0:0:0:0:
386,185,97933,1,2,1:2:0:0:
183,261,98095,5,8,0:0:0:0:
321,66,98257,1,2,1:2:0:0:
392,278,98419,1,8,0:0:0:0:
209,181,98581,1,2,1:2:0:0:
415,32,98743,5,10,0:0:0:0:
492,255,98906,2,0,L|512:155,1,101.999996887207,10|0,0:0|1:0,0:0:0:0:
220,284,99230,1,10,0:0:0:0:
280,103,99392,2,0,L|300:202,1,101.999996887207,10|0,0:0|1:0,0:0:0:0:
77,30,99716,1,10,0:0:0:0:
111,223,99879,6,0,L|131:123,1,101.999996887207,6|0,1:2|1:0,0:0:0:0:
213,14,100365,1,8,0:0:0:0:
280,120,100527,1,8,0:0:0:0:
280,120,100608,1,8,0:0:0:0:
280,120,100689,1,8,0:0:0:0:
356,67,100852,1,8,0:3:0:0:
424,128,101014,1,4,0:3:0:0:
387,212,101176,1,4,0:3:0:0:
212,230,101338,6,0,L|294:208,1,85,6|8,1:2|0:0,0:0:0:0:
304,215,101581,1,8,0:0:0:0:
303,223,101662,1,8,0:0:0:0:
275,330,101825,1,2,1:3:0:0:
274,315,102149,1,8,0:0:0:0:
194,309,102311,1,8,0:3:0:0:
151,375,102473,1,4,0:3:0:0:
25,247,102635,6,0,L|38:330,1,85,2|8,1:3|0:0,0:0:0:0:
31,342,102879,1,8,0:0:0:0:
23,339,102960,1,8,0:0:0:0:
122,249,103122,1,2,1:3:0:0:
132,233,103608,1,8,0:0:0:0:
127,215,103689,1,8,0:0:0:0:
123,198,103770,1,8,0:0:0:0:
119,181,103852,1,8,0:0:0:0:
116,167,103933,6,0,L|205:150,1,85,2|8,1:3|0:0,0:0:0:0:
207,143,104176,1,8,0:0:0:0:
202,136,104257,1,8,0:0:0:0:
166,31,104419,1,2,1:3:0:0:
175,43,104743,2,0,L|85:59,2,85,8|8|4,0:0|0:3|0:3,0:0:0:0:
419,25,105230,5,2,1:3:0:0:
339,37,105392,1,8,0:0:0:0:
319,111,105554,1,8,0:0:0:0:
468,88,105716,1,2,1:3:0:0:
456,98,106203,1,8,0:0:0:0:
457,114,106284,1,8,0:0:0:0:
460,130,106365,1,8,0:0:0:0:
462,146,106446,1,8,0:0:0:0:
466,160,106527,6,0,L|382:176,1,85,2|8,1:3|0:0,0:0:0:0:
374,188,106770,1,8,0:0:0:0:
378,197,106852,1,8,0:0:0:0:
465,274,107014,1,2,1:3:0:0:
460,258,107338,1,8,0:0:0:0:
387,283,107500,1,8,0:3:0:0:
396,360,107662,1,4,0:3:0:0:
261,267,107825,6,0,L|272:358,1,85,2|8,1:3|0:0,0:0:0:0:
283,349,108068,1,8,0:0:0:0:
290,344,108149,1,8,0:0:0:0:
163,349,108311,1,2,1:3:0:0:
178,342,108635,1,8,0:0:0:0:
174,267,108797,1,4,0:3:0:0:
100,236,108960,1,8,0:3:0:0:
51,384,109122,6,0,P|35:326|20:269,1,118.999996368408,4|0,1:2|0:0,0:0:0:0:
27,180,109608,2,0,P|72:142|134:160,1,118.999996368408,4|0,1:2|0:0,0:0:0:0:
209,214,110095,1,4,1:2:0:0:
209,214,110473,6,0,L|206:242,3,19.8333327280681,2|2|2|2,0:0|0:0|0:0|0:0,0:0:0:0:
281,168,110743,1,2,0:3:0:0:
345,241,110906,1,8,0:0:0:0:
345,241,110987,1,8,0:0:0:0:
345,241,111068,1,8,0:0:0:0:
441,227,111230,1,4,0:3:0:0:
454,132,111392,1,8,0:3:0:0:
373,65,111554,5,8,0:3:0:0:
371,58,111635,1,8,0:3:0:0:
369,52,111716,2,0,P|300:57|222:68,1,144.500002756119,4|0,1:2|1:0,0:0:0:0:
124,37,112203,1,2,0:0:0:0:
51,140,112365,2,0,P|30:106|41:67,1,72.2500013780594,10|0,0:0|0:0,0:0:0:0:
161,165,112689,1,2,1:2:0:0:
80,221,112852,1,2,0:0:0:0:
161,165,113014,6,0,B|175:215|175:215|164:247|164:247|177:308,1,144.500002756119,2|0,1:2|1:0,0:0:0:0:
245,369,113500,1,2,0:0:0:0:
331,284,113662,1,8,0:0:0:0:
331,284,113825,2,0,L|247:265,1,72.2500013780594,2|0,0:0|1:0,0:0:0:0:
371,194,114149,1,10,0:0:0:0:
448,336,114311,6,0,P|447:263|513:238,2,144.500002756119,2|2|8,1:3|1:2|0:0,0:0:0:0:
463,340,115284,1,2,1:2:0:0:
413,264,115446,1,2,0:0:0:0:
314,352,115608,6,0,B|222:354|273:300|173:303,1,144.500002756119,2|0,1:2|1:2,0:0:0:0:
97,356,116095,1,2,0:0:0:0:
15,255,116257,1,8,0:0:0:0:
15,255,116419,2,0,L|-1:338,1,72.2500013780594,2|0,0:0|1:0,0:0:0:0:
116,224,116743,1,10,0:0:0:0:
8,134,116906,6,0,P|71:138|96:68,1,144.500002756119,2|0,1:3|1:0,0:0:0:0:
11,30,117392,1,2,0:0:0:0:
200,12,117554,2,0,P|188:93|180:158,1,144.500002756119,10|0,0:0|1:0,0:0:0:0:
250,246,118041,1,2,0:0:0:0:
107,331,118203,6,0,L|36:314,1,72.2500013780594,2|0,1:2|0:0,0:0:0:0:
151,234,118527,1,10,0:0:0:0:
205,340,118689,1,8,0:0:0:0:
205,340,118770,1,8,0:0:0:0:
205,340,118852,1,8,0:0:0:0:
333,341,119014,1,8,0:3:0:0:
369,241,119176,1,4,0:3:0:0:
311,183,119338,1,4,0:3:0:0:
250,225,119500,6,0,P|339:208|425:193,1,178.499994552612,4|0,1:2|1:0,0:0:0:0:
494,260,120149,2,0,P|525:209|512:153,1,118.999996368408,8|0,0:0|0:0,0:0:0:0:
455,82,120635,1,8,0:0:0:0:
455,82,120716,1,8,0:0:0:0:
455,82,120797,1,0,1:0:0:0:
369,113,120960,2,0,L|310:102,1,59.4999981842042,8|0,0:0|1:0,0:0:0:0:
141,100,121284,5,8,0:0:0:0:
144,82,121365,1,8,0:0:0:0:
146,66,121446,1,8,0:0:0:0:
248,11,121608,1,8,0:3:0:0:
225,177,121770,1,8,0:3:0:0:
0,0,121933,6,0,B|16:65|16:65|12:118|12:118|24:151|26:200,1,203.999993774414,6|0,1:2|1:0,0:0:0:0:
201,384,122419,2,0,L|219:271,1,101.999996887207,10|0,0:0|0:0,0:0:0:0:
144,109,122743,1,2,1:2:0:0:
96,254,122906,1,2,1:2:0:0:
257,192,123068,1,10,0:0:0:0:
125,349,123230,6,0,L|19:328,1,101.999996887207,2|0,0:0|1:0,0:0:0:0:
170,201,123554,1,2,1:2:0:0:
328,333,123716,2,0,B|423:333|368:269|457:269,1,152.999995330811,10|0,0:0|0:0,0:0:0:0:
474,285,124041,1,2,1:2:0:0:
352,104,124203,1,2,1:2:0:0:
473,119,124365,1,8,0:0:0:0:
262,159,124527,6,0,B|233:57|233:57|261:6|314:21,1,203.999993774414,6|0,1:2|1:0,0:0:0:0:
411,183,125014,2,0,P|399:253|387:354,1,152.999995330811,10|0,0:0|0:0,0:0:0:0:
379,357,125338,1,2,1:2:0:0:
321,224,125500,1,2,1:2:0:0:
483,227,125662,1,10,0:2:0:0:
300,306,125825,6,0,B|245:321|194:274|236:257|175:209|123:237,1,203.999993774414,2|0,0:0|1:0,0:0:0:0:
43,368,126311,2,0,P|3:337|0:288,1,101.999996887207,8|0,0:0|0:0,0:0:0:0:
95,151,126635,1,2,1:2:0:0:
153,320,126797,1,10,0:0:0:0:
153,320,126879,1,8,0:0:0:0:
153,320,126960,1,10,0:0:0:0:
262,111,127122,6,0,P|348:70|414:140,1,203.999993774414,6|0,1:2|1:0,0:0:0:0:
290,282,127608,1,10,0:0:0:0:
203,195,127770,1,2,1:2:0:0:
430,244,127933,1,10,0:0:0:0:
483,112,128095,1,2,1:2:0:0:
329,161,128257,1,10,0:0:0:0:
495,348,128419,6,0,B|531:311|531:311|512:264,1,101.999996887207,6|0,1:2|0:0,0:0:0:0:
414,140,128743,1,2,1:2:0:0:
285,301,128906,2,0,L|179:276,1,101.999996887207,10|8,0:0|0:0,0:0:0:0:
173,286,129149,1,8,0:0:0:0:
165,296,129230,1,10,0:0:0:0:
94,371,129392,1,8,0:3:0:0:
6,303,129554,1,4,0:3:0:0:
53,108,129716,6,0,B|82:87|107:52|107:52|110:109|123:187,1,203.999993774414,6|0,1:2|1:0,0:0:0:0:
258,351,130203,2,0,L|364:332,1,101.999996887207,10|0,0:0|1:0,0:0:0:0:
268,169,130527,1,10,0:0:0:0:
161,353,130689,1,10,0:0:0:0:
84,285,130852,1,2,1:2:0:0:
268,184,131014,6,0,P|357:201|490:231,1,203.999993774414,14|0,0:0|1:0,0:0:0:0:
415,47,131500,2,0,P|365:51|336:91,1,101.999996887207,8|0,0:0|1:0,0:0:0:0:
374,298,131825,1,10,0:0:0:0:
512,137,131987,1,10,1:2:0:0:
512,137,132311,6,0,P|504:199|491:299,1,152.999995330811,4|4,1:2|0:3,0:0:0:0:
438,359,132797,1,4,0:3:0:0:
374,298,132960,1,4,1:3:0:0:
295,384,133122,2,0,L|281:294,1,76.4999976654053,10|4,2:2|0:3,0:0:0:0:
205,261,133446,1,4,0:3:0:0:
128,314,133608,1,4,0:3:0:0:
44,249,133770,1,4,1:3:0:0:
44,249,133933,2,0,L|131:234,1,76.4999976654053,4|4,0:3|0:3,0:0:0:0:
166,30,134257,5,0,1:0:0:0:
166,30,134338,1,0,1:0:0:0:
166,30,134419,2,0,B|172:77|172:77|179:87|179:87|188:149,1,101.999996887207,12|0,0:0|1:0,0:0:0:0:
382,362,134743,2,0,B|388:314|388:314|395:304|395:304|404:242,1,101.999996887207,8|0,0:0|1:0,0:0:0:0:
276,49,135068,5,10,0:0:0:0:
228,253,135230,1,2,1:2:0:0:
404,157,135392,1,10,0:0:0:0:
185,128,135554,2,0,L|93:114,1,93.5000028533936,2|0,1:2|1:0,0:0:0:0:
211,332,135879,2,0,B|242:295|242:295|226:250,1,93.5000028533936,10|0,0:0|1:0,0:0:0:0:
45,227,136203,2,0,B|13:263|13:263|28:307,2,93.5000028533936,10|0|0,0:0|1:0|1:0,0:0:0:0:
227,252,136689,5,10,0:0:0:0:
125,301,136852,1,0,1:0:0:0:
30,147,137014,1,10,0:0:0:0:
137,206,137176,1,0,1:2:0:0:
250,50,137338,1,10,0:0:0:0:
239,9,137419,1,8,0:0:0:0:
197,0,137500,1,8,0:0:0:0:
171,38,137581,1,8,0:0:0:0:
202,73,137662,6,0,P|284:59|365:46,1,165.749992412568,4|0,1:0|0:0,0:0:0:0:
448,33,137987,2,0,B|488:71|488:71|466:121,1,110.499994941712,10|0,0:0|0:0,0:0:0:0:
350,318,138311,1,2,1:2:0:0:
374,139,138473,1,2,0:0:0:0:
512,279,138635,1,10,0:0:0:0:
374,139,138797,6,0,B|308:123|260:182|310:192|258:249|193:234,1,220.999989883423,2|0,0:0|0:0,0:0:0:0:
0,192,139284,1,10,0:0:0:0:
127,39,139446,2,0,P|174:63|191:114,1,110.499994941712,2|0,0:0|1:0,0:0:0:0:
83,314,139770,1,2,0:0:0:0:
87,132,139933,1,10,0:0:0:0:
198,235,140095,1,2,0:0:0:0:
391,101,140257,6,0,P|334:89|277:76,1,110.499994941712,4|0,1:2|0:0,0:0:0:0:
422,346,140581,2,0,P|475:286|446:211,1,165.749992412568,10|0,0:0|0:0,0:0:0:0:
378,186,140906,2,0,P|433:170|489:150,1,110.499994941712,0|0,1:0|0:0,0:0:0:0:
340,378,141230,1,10,0:0:0:0:
251,227,141392,1,2,0:0:0:0:
511,300,141554,5,2,1:2:0:0:
327,279,141716,1,2,0:0:0:0:
483,152,141879,1,10,0:0:0:0:
340,378,142041,2,0,L|219:351,1,110.499994941712,2|0,0:0|1:0,0:0:0:0:
115,239,142365,1,2,0:0:0:0:
268,150,142527,1,10,0:0:0:0:
24,52,142689,5,10,0:0:0:0:
24,52,142770,1,8,0:0:0:0:
24,52,142852,2,0,P|9:106|2:170,1,110.499994941712,4|0,1:2|0:0,0:0:0:0:
150,318,143176,2,0,P|197:254|169:180,1,165.749992412568,10|0,0:0|0:0,0:0:0:0:
99,144,143500,2,0,P|135:105|190:108,1,110.499994941712,0|0,1:0|0:0,0:0:0:0:
265,321,143825,1,10,0:2:0:0:
108,241,143987,1,2,0:0:0:0:
342,199,144149,5,2,1:2:0:0:
108,241,144311,1,2,0:0:0:0:
263,69,144473,1,10,0:0:0:0:
404,262,144635,2,0,P|432:216|422:162,1,110.499994941712,2|0,0:0|1:0,0:0:0:0:
207,8,144960,2,0,P|178:53|188:107,1,110.499994941712,2|8,0:0|0:0,0:0:0:0:
364,66,145284,1,2,0:0:0:0:
245,279,145446,6,0,B|182:262|182:262|163:224|163:224|108:204,1,165.749992412568,6|0,1:2|0:0,0:0:0:0:
60,137,145770,2,0,B|14:163|14:163|25:219,1,110.499994941712,8|0,0:0|0:0,0:0:0:0:
130,360,146095,1,0,1:0:0:0:
108,204,146257,1,2,1:2:0:0:
0,318,146419,1,10,0:0:0:0:
122,214,146581,1,2,1:2:0:0:
311,359,146743,5,12,0:0:0:0:
296,252,146906,1,0,1:0:0:0:
284,149,147068,1,0,1:0:0:0:
180,288,147230,5,10,0:0:0:0:
414,324,147392,1,2,1:2:0:0:
185,384,147554,5,8,0:0:0:0:
399,230,147716,1,10,0:0:0:0:
406,220,148041,5,6,1:2:0:0:
493,282,148203,2,0,B|491:227|522:176|522:176|474:136,1,170,2|2,0:0|1:2,0:0:0:0:
321,73,148689,1,8,0:0:0:0:
321,73,148852,2,0,L|418:52,1,85,2|0,0:0|0:0,0:0:0:0:
307,198,149176,5,10,0:0:0:0:
307,198,149257,1,8,0:0:0:0:
307,198,149338,1,2,1:2:0:0:
161,110,149500,1,8,0:0:0:0:
161,110,149662,2,0,L|179:209,1,85,2|0,0:0|1:0,0:0:0:0:
70,308,149987,6,0,P|16:279|14:218,1,127.5,10|0,0:0|0:0,0:0:0:0:
71,169,150311,6,0,P|25:217|44:282,1,140.25000428009,2|0,0:0|0:0,0:0:0:0:
149,308,150635,6,0,P|229:291|319:275,1,161.499995687485,6|0,1:2|0:0,0:0:0:0:
374,193,151122,1,2,1:2:0:0:
482,346,151284,2,0,B|516:272|516:272|495:215|438:234,1,161.499995687485,8|2,0:0|0:0,0:0:0:0:
387,356,151770,1,2,0:0:0:0:
387,356,151852,1,8,0:0:0:0:
387,356,151933,1,2,1:2:0:0:
307,276,152095,1,8,0:0:0:0:
191,361,152257,6,0,P|148:351|111:342,1,80.7499978437424,2|8,1:3|0:0,0:0:0:0:
99,352,152500,1,8,0:0:0:0:
88,363,152581,1,8,0:0:0:0:
0,301,152743,1,8,0:0:0:0:
40,193,152906,1,8,0:0:0:0:
154,204,153068,1,8,0:0:0:0:
275,363,153230,6,0,L|431:340,1,133.874995914459,4|0,1:2|0:0,0:0:0:0:
410,358,153554,2,0,L|317:371,1,89.2499972763062,4|0,1:2|0:0,0:0:0:0:
459,30,154527,6,0,L|455:129,1,76.4999976654053,10|8,2:2|0:3,0:0:0:0:
396,179,154852,1,4,0:3:0:0:
328,121,155014,1,8,0:3:0:0:
267,188,155176,2,0,L|281:272,1,76.4999976654053,2|8,0:2|0:3,0:0:0:0:
324,345,155500,1,4,0:3:0:0:
379,274,155662,1,8,0:3:0:0:
226,363,155825,6,0,P|172:298|84:330,1,178.499994552612,6|0,1:2|1:0,0:0:0:0:
19,381,156473,1,8,0:0:0:0:
80,176,156797,1,0,0:3:0:0:
80,176,156960,1,0,0:3:0:0:
17,67,157122,6,0,L|3:136,2,59.4999981842042,2|0|0,1:2|0:0|0:0,0:0:0:0:
92,3,157608,1,2,1:2:0:0:
180,99,157770,2,0,L|121:85,1,59.4999981842042,8|0,2:2|0:0,0:0:0:0:
116,93,158014,1,0,0:0:0:0:
111,102,158095,2,0,L|168:115,1,59.4999981842042,2|0,0:2|0:0,0:0:0:0:
273,123,158419,6,0,L|286:53,2,59.4999981842042,0|0|0,1:0|0:0|0:0,0:0:0:0:
332,205,158906,1,0,1:0:0:0:
425,144,159068,1,8,2:2:0:0:
421,158,159392,1,0,0:0:0:0:
503,247,159554,1,8,0:2:0:0:
503,247,159635,1,8,0:2:0:0:
503,247,159716,2,0,L|516:179,2,59.4999981842042,0|0|0,1:0|0:0|0:0,0:0:0:0:
475,372,160203,5,0,1:0:0:0:
475,372,160284,1,0,1:0:0:0:
475,372,160365,1,8,2:2:0:0:
368,300,160527,2,0,L|229:321,1,127.499996109009,12|0,2:2|2:0,0:0:0:0:
223,331,161014,6,0,P|244:277|203:220,1,127.500004863739,6|0,1:2|0:0,0:0:0:0:
101,187,161500,1,0,1:0:0:0:
47,294,161662,1,8,2:2:0:0:
65,298,161987,1,0,0:0:0:0:
0,208,162149,1,8,0:3:0:0:
69,97,162311,6,0,P|127:106|202:122,1,127.500004863739,2|0,1:2|0:0,0:0:0:0:
300,153,162797,1,0,1:0:0:0:
281,8,162960,2,0,L|265:76,2,63.7500024318696,8|0|0,2:2|0:0|0:0,0:0:0:0:
366,90,163446,5,8,0:2:0:0:
366,90,163527,1,8,0:2:0:0:
366,90,163608,2,0,P|422:64|477:92,1,127.500004863739,2|0,1:2|0:0,0:0:0:0:
421,165,164095,1,0,1:0:0:0:
495,253,164257,2,0,L|507:184,2,63.7500024318696,8|0|0,2:2|0:0|0:0,0:0:0:0:
471,337,164743,1,8,0:3:0:0:
375,232,164906,6,0,P|312:221|243:213,1,127.500004863739,2|0,1:2|0:0,0:0:0:0:
168,262,165392,1,0,1:0:0:0:
92,180,165554,2,0,L|79:247,1,63.7500024318696,8|0,2:2|0:0,0:0:0:0:
71,248,165797,1,0,0:0:0:0:
64,253,165879,2,0,L|76:190,1,63.7500024318696
13,333,166203,6,0,P|51:298|122:326,1,127.500004863739,6|0,1:2|1:0,0:0:0:0:
200,376,166689,1,0,1:0:0:0:
271,270,166852,2,0,L|286:351,2,63.7500024318696,8|0|0,2:2|0:0|0:0,0:0:0:0:
312,187,167338,1,8,0:3:0:0:
384,279,167500,6,0,P|448:265|523:254,1,127.500004863739,2|0,1:2|0:0,0:0:0:0:
508,159,167987,1,0,1:0:0:0:
405,114,168149,2,0,L|413:187,1,63.7500024318696,8|0,2:2|0:0,0:0:0:0:
420,183,168392,1,0,0:0:0:0:
428,188,168473,2,0,L|421:125,1,63.7500024318696
303,51,168797,6,0,P|241:43|177:37,1,127.500004863739,2|0,1:2|0:0,0:0:0:0:
73,66,169284,1,0,1:0:0:0:
122,218,169446,2,0,L|129:149,1,63.7500024318696,8|0,2:2|1:0,0:0:0:0:
20,139,169770,2,0,L|13:207,1,63.7500024318696,8|8,2:2|0:2,0:0:0:0:
13,202,170014,1,8,0:2:0:0:
13,202,170095,5,2,1:2:0:0:
128,154,170257,1,8,0:0:0:0:
218,231,170419,1,0,1:2:0:0:
227,236,170500,1,8,0:0:0:0:
236,232,170581,1,8,0:0:0:0:
234,223,170662,1,8,0:0:0:0:
223,223,170743,1,8,0:0:0:0:
427,366,171068,5,0,1:0:0:0:
506,297,171230,1,8,0:0:0:0:
427,366,171392,6,0,B|415:296|415:296|417:285|417:285|405:214,1,144.500002756119,6|2,1:2|1:3,0:0:0:0:
502,88,171879,1,2,0:3:0:0:
502,88,171960,1,2,0:3:0:0:
502,88,172041,2,0,L|490:172,1,72.2500013780594,2|0,1:3|0:3,0:0:0:0:
384,132,172365,2,0,L|395:60,1,72.2500013780594,2|0,1:3|0:3,0:0:0:0:
304,189,172689,6,0,B|215:179|279:128|185:123,1,144.500002756119,2|2,1:2|1:3,0:0:0:0:
98,235,173176,1,2,0:3:0:0:
98,235,173338,2,0,L|180:212,1,72.2500013780594,2|0,1:3|0:0,0:0:0:0:
55,145,173662,1,2,1:3:0:0:
0,232,173825,1,2,0:3:0:0:
55,145,173987,6,0,P|65:73|4:56,1,144.500002756119,2|2,1:2|1:3,0:0:0:0:
164,84,174473,1,2,0:3:0:0:
164,84,174554,1,2,0:3:0:0:
164,84,174635,2,0,L|236:62,1,72.2500013780594,2|0,1:3|0:0,0:0:0:0:
335,178,174960,2,0,L|254:158,1,72.2500013780594,2|0,1:3|0:0,0:0:0:0:
388,27,175284,5,14,0:0:0:0:
451,142,175446,1,8,0:0:0:0:
460,155,175527,1,8,0:0:0:0:
478,164,175608,1,8,0:0:0:0:
496,162,175689,1,8,0:0:0:0:
508,152,175770,2,0,L|506:97,1,40.3749989218712,8|8,0:0|0:0,0:0:0:0:
335,178,175933,5,8,1:2:0:0:
310,198,176014,1,8,0:0:0:0:
292,225,176095,1,8,0:0:0:0:
290,257,176176,1,8,0:0:0:0:
303,286,176257,1,4,1:3:0:0:
328,306,176338,1,4,1:3:0:0:
359,311,176419,1,8,1:3:0:0:
380,299,176500,1,8,1:3:0:0:
384,283,176581,6,0,B|343:273|280:288|328:315|274:342|230:328,1,170,6|4,1:2|1:3,0:0:0:0:
101,306,177068,1,4,0:3:0:0:
146,160,177230,2,0,B|181:187|181:187|175:229,1,85,4|4,1:3|0:3,0:0:0:0:
20,384,177554,2,0,L|-1:291,1,85,4|4,1:3|0:3,0:0:0:0:
303,168,177879,5,10,0:0:0:0:
270,263,178041,1,8,0:0:0:0:
174,227,178203,1,8,0:0:0:0:
208,131,178365,1,8,0:0:0:0:
351,241,178527,5,8,0:0:0:0:
124,154,178689,1,8,0:0:0:0:
284,88,178852,1,8,0:0:0:0:
196,315,179014,1,8,0:0:0:0:
24,71,179176,6,0,P|17:114|8:163,1,93.5000028533936,14|0,0:0|1:0,0:0:0:0:
92,270,179500,1,0,1:0:0:0:
193,53,179662,1,12,0:0:0:0:
124,154,179825,1,0,1:0:0:0:
226,237,179987,1,0,1:0:0:0:
328,72,180149,2,0,L|343:164,1,93.5000028533936,10|0,0:0|1:0,0:0:0:0:
507,120,180473,5,2,1:2:0:0:
493,353,180635,2,0,L|514:257,1,93.5000028533936,12|0,0:0|1:0,0:0:0:0:
343,164,180960,1,0,1:0:0:0:
238,378,181122,6,0,B|280:368|280:368|288:370|288:370|341:357,1,93.5000028533936,10|0,0:0|1:0,0:0:0:0:
98,217,181446,2,0,B|140:226|140:226|148:224|148:224|201:238,1,93.5000028533936,8|0,0:0|1:0,0:0:0:0:
193,249,181689,1,0,1:0:0:0:
198,263,181770,6,0,B|139:248|139:248|130:250|130:250|82:239,1,118.999996368408,14|0,0:0|1:0,0:0:0:0:
245,92,182095,1,10,0:0:0:0:
341,278,182257,1,2,1:2:0:0:
488,122,182419,2,0,B|476:70|476:70|478:55|478:55|465:6,1,118.999996368408,10|0,0:0|1:0,0:0:0:0:
246,188,182743,1,10,0:0:0:0:
484,308,182906,1,2,1:2:0:0:
246,188,183068,6,0,B|193:198|193:198|180:206|180:206|130:215,1,118.999996368408,14|0,0:0|1:2,0:0:0:0:
284,379,183392,1,10,0:0:0:0:
372,158,183554,1,2,1:2:0:0:
117,356,183716,5,10,1:2:0:0:
159,71,183879,1,10,0:0:0:0:
289,287,184041,1,10,0:0:0:0:
21,205,184203,1,10,0:0:0:0:
0,338,196041,6,0,P|53:328|104:322,1,93.5000028533936,0|0,1:0|1:0,0:0:0:0:
147,375,196527,2,0,P|193:368|239:360,1,93.5000028533936,2|0,0:0|0:0,0:0:0:0:
239,360,197176,2,0,P|314:368|342:374,1,93.5000028533936,0|0,1:0|0:0,0:0:0:0:
401,336,197662,1,0,1:2:0:0:
401,336,197987,2,0,P|454:327|496:319,1,93.5000028533936,2|0,3:2|0:0,0:0:0:0:
512,244,198473,1,0,0:0:0:0:
455,191,198635,6,0,P|406:199|353:206,1,93.5000028533936,0|0,1:0|1:0,0:0:0:0:
303,254,199122,2,0,B|256:252|260:236|207:236,1,93.5000028533936,2|0,0:0|0:0,0:0:0:0:
139,267,199608,2,0,L|143:321,1,46.7500014266968,2|0,0:0|1:0,0:0:0:0:
130,316,200257,6,0,L|126:261,1,46.7500014266968,0|0,1:0|0:0,0:0:0:0:
76,198,200581,2,0,P|40:189|10:202,1,70.1250021400452,2|0,3:2|0:0,0:0:0:0:
12,214,200906,6,0,P|48:222|81:208,1,72.2500013780594,2|0,2:2|0:0,0:0:0:0:
203,0,201230,5,12,0:0:0:0:
339,114,201392,1,8,0:0:0:0:
339,114,201473,1,8,0:0:0:0:
339,114,201554,2,0,L|348:52,1,48.8750009322167,8|8,0:0|0:0,0:0:0:0:
224,163,201716,2,0,L|233:225,1,48.8750009322167,8|8,0:0|0:0,0:0:0:0:
321,383,201879,5,8,0:0:0:0:
364,379,201960,1,8,0:0:0:0:
398,351,202041,1,8,0:0:0:0:
405,307,202122,1,8,0:0:0:0:
389,265,202203,1,8,0:0:0:0:
348,247,202284,1,8,0:0:0:0:
304,253,202365,1,8,0:0:0:0:
277,288,202446,1,8,0:0:0:0:
277,301,202527,2,0,L|214:291,3,48.8750009322167,8|8|8|8,0:0|0:0|0:0|0:0,0:0:0:0:
85,196,202852,5,10,0:0:0:0:
85,196,202933,1,8,0:0:0:0:
85,196,203014,2,8,L|149:206,1,48.8750009322167
303,120,203176,1,10,0:0:0:0:
303,120,203257,1,8,0:0:0:0:
303,120,203338,2,8,L|254:112,1,48.8750009322167
129,43,203500,6,0,B|140:12|140:12|158:32|159:72|126:97,1,114.749996498108,14|0,0:0|0:0,0:0:0:0:
129,98,203825,6,0,P|107:49|134:4,1,110.499994941712,4|0,1:1|0:0,0:0:0:0:
374,23,204149,1,10,0:0:0:0:
280,235,204311,1,2,0:0:0:0:
510,153,204473,1,2,1:2:0:0:
314,139,204635,1,2,0:0:0:0:
406,328,204797,1,10,0:0:0:0:
314,139,204960,6,0,B|196:113|196:113|134:132|142:202,1,220.999989883423,2|0,0:0|0:0,0:0:0:0:
279,332,205446,1,10,0:0:0:0:
69,384,205608,2,0,P|47:334|71:286,1,110.499994941712,2|0,0:0|1:0,0:0:0:0:
243,219,205933,1,2,0:0:0:0:
79,114,206095,1,10,0:0:0:0:
170,351,206257,5,8,0:0:0:0:
170,351,206338,1,8,0:0:0:0:
170,351,206419,2,0,P|226:339|291:330,1,110.499994941712,4|0,1:2|0:0,0:0:0:0:
502,227,206743,2,0,P|459:162|385:185,1,165.749992412568,10|0,0:0|0:0,0:0:0:0:
372,264,207068,2,0,P|410:301|463:295,1,110.499994941712,0|0,1:0|0:0,0:0:0:0:
403,84,207392,1,10,0:0:0:0:
284,221,207554,1,2,0:0:0:0:
139,63,207716,6,0,B|75:72|75:72|56:116|56:116|3:125,1,165.749992412568,2|0,1:2|0:0,0:0:0:0:
1,40,208041,1,10,0:0:0:0:
193,239,208203,2,0,L|214:127,1,110.499994941712,2|0,0:0|1:0,0:0:0:0:
46,203,208527,1,2,0:0:0:0:
225,320,208689,1,10,0:0:0:0:
24,384,208852,5,8,0:0:0:0:
24,384,208933,1,8,0:0:0:0:
24,384,209014,2,0,L|-1:259,1,110.499994941712,4|0,1:2|0:0,0:0:0:0:
213,130,209338,2,0,P|288:153|295:234,1,165.749992412568,10|0,0:0|0:0,0:0:0:0:
239,299,209662,2,0,P|185:295|151:253,1,110.499994941712,0|0,1:0|0:0,0:0:0:0:
428,321,209987,2,0,P|481:314|512:270,1,110.499994941712,10|0,0:0|0:0,0:0:0:0:
454,0,210311,6,0,P|443:61|436:185,1,165.749992412568,2|0,1:2|0:0,0:0:0:0:
438,242,210635,1,10,0:0:0:0:
226,146,210797,2,0,P|284:137|338:120,1,110.499994941712,2|0,0:0|1:0,0:0:0:0:
250,308,211122,1,2,1:2:0:0:
114,164,211284,1,8,0:0:0:0:
15,382,211446,5,0,1:0:0:0:
15,382,211527,1,0,1:0:0:0:
15,382,211608,2,0,B|7:336|7:336|10:324|10:324|0:273,1,110.499994941712,14|0,0:0|1:0,0:0:0:0:
240,37,211933,2,0,B|232:83|232:83|235:95|235:95|225:145,1,110.499994941712,8|0,0:0|1:0,0:0:0:0:
470,376,212257,2,0,B|462:330|462:330|465:318|465:318|455:267,1,110.499994941712,8|0,0:0|1:0,0:0:0:0:
426,61,212581,1,10,0:0:0:0:
304,249,212743,1,2,1:2:0:0:
130,50,212906,6,0,L|259:34,1,110.499994941712,12|8,0:0|0:0,0:0:0:0:
247,49,213149,1,8,0:0:0:0:
253,60,213230,1,8,0:0:0:0:
184,246,213392,1,8,0:0:0:0:
23,156,213554,1,8,0:0:0:0:
150,146,213716,1,8,0:3:0:0:
60,233,213879,1,4,0:3:0:0:
82,98,214041,1,4,0:3:0:0:
183,335,214203,6,0,B|273:301|273:301|311:306|351:338,1,170,4|0,1:2|0:0,0:0:0:0:
478,243,214689,1,2,1:2:0:0:
478,243,214852,2,0,L|461:341,1,85,8|2,0:0|0:0,0:0:0:0:
403,163,215176,5,0,1:0:0:0:
403,163,215338,2,0,P|361:154|306:140,1,85,2|0,1:2|0:0,0:0:0:0:
157,167,215662,1,8,0:0:0:0:
209,287,215825,2,0,P|254:270|299:259,1,85,2|0,0:0|1:0,0:0:0:0:
201,47,216149,6,0,P|180:107|158:167,1,127.5,10|0,0:0|0:0,0:0:0:0:
100,225,216473,6,0,B|62:238|36:209|36:209|48:165|78:157,1,140.25000428009,2|0,0:0|0:0,0:0:0:0:
158,167,216797,6,0,B|201:174|246:145|199:125|247:93|290:97,1,161.499995687485,6|0,1:2|0:0,0:0:0:0:
454,162,217284,1,2,1:2:0:0:
365,335,217446,2,0,B|340:316|329:288|329:288|351:173,1,161.499995687485,8|2,0:0|1:2,0:0:0:0:
385,99,217933,1,2,1:2:0:0:
385,99,218257,5,8,0:0:0:0:
267,131,218419,2,0,L|179:110,1,80.7499978437424,2|0,0:0|1:2,0:0:0:0:
21,186,218743,2,0,P|5:149|15:111,1,80.7499978437424,10|0,0:0|1:0,0:0:0:0:
203,260,219068,2,0,P|193:302|185:362,1,80.7499978437424,10|0,0:0|0:0,0:0:0:0:
378,99,219392,6,0,P|453:108|517:116,1,133.874995914459,4|0,1:2|0:0,0:0:0:0:
512,103,219716,2,0,L|412:90,1,89.2499972763062,4|0,1:2|0:0,0:0:0:0:
113,204,220689,5,12,0:0:0:0:
217,317,220852,2,0,L|206:258,1,44.6249986381531,8|8,0:0|0:0,0:0:0:0:
323,171,221014,1,8,0:0:0:0:
323,171,221095,1,8,0:0:0:0:
323,171,221176,2,0,L|312:230,1,44.6249986381531,0|0,1:0|1:0,0:0:0:0:
403,307,221338,5,8,1:3:0:0:
427,318,221419,1,8,1:3:0:0:
454,318,221500,1,0,1:0:0:0:
480,309,221581,1,0,1:0:0:0:
494,291,221662,6,0,L|479:180,1,95.6250036478044,10|0,0:0|0:0,0:0:0:0:
459,185,221987,5,6,1:2:0:0:
320,364,222149,1,2,1:2:0:0:
233,157,222311,2,0,B|283:140|283:140|322:170,1,101.999996887207,10|0,0:0|0:0,0:0:0:0:
172,343,222635,1,2,1:2:0:0:
95,177,222797,1,2,1:2:0:0:
272,262,222960,1,8,0:0:0:0:
25,343,223122,6,0,L|-4:232,1,101.999996887207,2|0,0:0|1:0,0:0:0:0:
79,62,223446,1,2,1:2:0:0:
189,206,223608,1,8,0:0:0:0:
286,128,223770,1,2,0:0:0:0:
213,334,223933,1,2,1:2:0:0:
95,177,224095,1,2,1:2:0:0:
213,334,224257,2,0,P|264:326|321:321,1,101.999996887207,8|0,0:0|0:0,0:0:0:0:
493,117,224581,5,2,1:2:0:0:
280,178,224743,1,2,1:2:0:0:
435,354,224906,2,0,L|410:244,1,101.999996887207,10|0,0:0|0:0,0:0:0:0:
374,91,225230,1,2,1:2:0:0:
374,91,225311,1,8,0:0:0:0:
374,91,225392,1,2,1:2:0:0:
507,192,225554,1,8,0:0:0:0:
249,262,225716,6,0,B|189:248|189:248|170:213|170:213|102:196,1,152.999995330811,6|0,1:2|0:0,0:0:0:0:
121,176,226041,2,0,L|103:277,1,101.999996887207,2|8,1:2|0:0,0:0:0:0:
250,384,226365,1,2,1:2:0:0:
371,279,226527,1,8,0:3:0:0:
367,246,226608,1,8,0:3:0:0:
361,213,226689,1,0,1:0:0:0:
357,181,226770,1,0,1:0:0:0:
352,153,226852,2,0,P|302:163|251:172,1,101.999996887207,8|0,0:0|0:0,0:0:0:0:
0,45,227176,5,6,1:2:0:0:
132,234,227338,1,2,1:2:0:0:
221,0,227500,2,0,B|266:22|266:22|265:85,1,101.999996887207,10|0,0:0|1:0,0:0:0:0:
5,291,227825,1,10,0:0:0:0:
78,85,227987,1,2,1:2:0:0:
276,206,228149,1,8,0:0:0:0:
137,339,228311,5,2,1:2:0:0:
137,339,228392,1,0,1:0:0:0:
137,339,228473,2,0,L|112:224,1,101.999996887207,8|0,0:0|1:2,0:0:0:0:
273,112,228797,1,2,1:2:0:0:
429,329,228960,2,0,L|450:209,1,101.999996887207,12|0,0:0|1:0,0:0:0:0:
378,75,229284,1,2,1:2:0:0:
196,214,229446,1,8,0:0:0:0:
112,78,229608,1,0,1:0:0:0:
112,78,229689,1,0,1:0:0:0:
112,78,229770,5,10,0:2:0:0:
28,349,229933,2,0,L|-1:242,1,101.999996887207,10|0,0:0|1:0,0:0:0:0:
299,305,230257,1,10,0:0:0:0:
223,116,230419,2,0,L|194:222,1,101.999996887207,10|0,0:0|1:0,0:0:0:0:
480,0,230743,1,10,0:0:0:0:
425,197,230906,6,0,L|391:74,1,127.5,6|0,1:2|0:0,0:0:0:0:
281,55,231554,1,8,0:3:0:0:
278,69,231635,1,8,0:3:0:0:
276,81,231716,1,8,0:0:0:0:
202,175,231987,5,8,0:3:0:0:
83,110,232257,5,4,0:3:0:0:
23,308,232473,5,4,1:2:0:0:
256,192,232527,12,0,241284,0:0:0:0:
