osu file format v14

[General]
AudioFilename: audio.mp3
AudioLeadIn: 0
PreviewTime: 35818
Countdown: 0
SampleSet: Soft
StackLeniency: 0.6
Mode: 0
LetterboxInBreaks: 0
WidescreenStoryboard: 1

[Editor]
Bookmarks: 9935,27795,70214,87516
DistanceSpacing: 1
BeatDivisor: 4
GridSize: 16
TimelineZoom: 2.5

[Metadata]
Title:KING & ASHLEY (TV Size)
TitleUnicode:KING & ASHLEY (TV Size)
Artist:MY FIRST STORY
ArtistUnicode:MY FIRST STORY
Creator:Maiev
Version:Normal
Source:ケンガンアシュラ
Tags:schoolboy komore airincat airin yuuma ex -_ex_- Sirmirai le mirai Cacturne kerupt and mfs rock j-rock japanese anime opening op kengan ashura
BeatmapID:3329964
BeatmapSetID:1587638

[Difficulty]
HPDrainRate:3
CircleSize:3
OverallDifficulty:4
ApproachRate:5.3
SliderMultiplier:1
SliderTickRate:1

[Events]
//Background and Video events
Video,0,"Video.mp4"
0,0,"BG-1.jpg",0,0
//Break Periods
2,58911,67981
//Storyboard Layer 0 (Background)
//Storyboard Layer 1 (Fail)
//Storyboard Layer 2 (Pass)
//Storyboard Layer 3 (Foreground)
//Storyboard Layer 4 (Overlay)
//Storyboard Sound Samples

[TimingPoints]
1005,279.06976744186,4,2,1,65,1,0
9935,-100,4,2,1,70,0,0
18865,-100,4,2,1,65,0,0
21098,-100,4,2,1,68,0,0
23330,-100,4,2,1,70,0,0
27795,-111.111111111111,4,2,1,55,0,0
34493,-125,4,2,1,55,0,0
35609,-111.111111111111,4,2,1,55,0,0
35748,-111.111111111111,4,2,1,60,0,0
36306,-111.111111111111,4,2,1,65,0,0
36586,-100,4,2,2,75,0,1
36656,-100,4,2,1,75,0,1
54586,-100,4,2,1,75,0,0
57098,-100,4,2,1,55,0,0
69656,-100,4,2,1,65,0,0
70214,-100,4,2,1,70,0,0
87516,-100,4,2,1,55,0,0

[Colours]
Combo1 : 255,185,185
Combo2 : 255,255,159
Combo3 : 160,225,151
Combo4 : 255,197,168

[HitObjects]
313,29,1005,5,4,3:2:0:0:
313,29,1144,2,0,B|274:28|246:52|254:63|235:92|183:92,1,150,2|10,2:0|2:0,2:0:0:0:
100,48,1842,1,2,2:0:0:0:
100,48,1981,1,2,2:0:0:0:
34,123,2260,2,0,L|49:272,1,150,2|10,2:0|2:0,2:0:0:0:
18,312,2818,2,0,L|25:369,1,50,2|2,2:0|2:0,2:0:0:0:
128,371,3237,5,6,3:2:0:0:
128,371,3377,2,0,P|180:319|259:320,1,150,2|10,2:0|2:0,2:0:0:0:
340,377,4074,1,2,2:0:0:0:
340,377,4214,1,2,2:0:0:0:
425,323,4493,1,2,2:0:0:0:
425,323,4632,2,0,L|413:223,1,100,2|10,2:0|2:0,2:0:0:0:
358,139,5191,1,2,3:2:0:0:
422,63,5470,5,4,3:2:0:0:
422,63,5609,2,0,P|372:10|301:18,1,150,2|10,2:0|2:0,2:0:0:0:
254,109,6307,1,2,2:0:0:0:
254,109,6446,1,2,2:0:0:0:
200,192,6725,2,0,L|51:171,1,150,2|10,2:0|2:0,2:0:0:0:
1,163,7284,2,0,L|13:221,1,50,2|2,2:0|2:0,2:0:0:0:
29,315,7702,5,6,3:2:0:0:
29,315,7842,2,0,P|63:350|111:357,1,100,2|2,2:0|3:2,2:0:0:0:
153,330,8260,2,0,L|202:339,1,50,10|2,2:0|3:2,2:0:0:0:
245,364,8539,2,0,L|294:354,1,50,10|0,2:0|2:0,2:0:0:0:
323,313,8818,2,0,P|371:320|405:355,1,100,2|2,3:2|3:2,2:0:0:0:
484,294,9377,2,0,L|475:244,1,50,10|2,2:0|3:2,2:0:0:0:
442,206,9656,2,0,L|450:156,1,50,0|0,1:2|1:2,2:0:0:0:
476,114,9935,6,0,L|468:64,2,50,6|10|2,3:2|2:0|3:2,2:0:0:0:
376,101,10493,2,0,L|279:126,1,100,10|10,2:0|2:0,2:0:0:0:
254,170,10911,1,8,2:0:0:0:
254,170,11051,2,0,B|192:167|165:216|189:223|157:269|93:268,1,200,10|10,2:0|2:0,2:0:0:0:
6,222,11888,1,0,3:2:0:0:
24,123,12167,6,0,L|13:74,2,50,10|10|2,2:0|2:0|3:2,2:0:0:0:
120,98,12725,2,0,L|109:49,2,50,10|2|10,2:0|3:2|2:0,2:0:0:0:
216,73,13284,2,0,L|321:93,1,100,10|0,2:0|3:2,2:0:0:0:
350,125,13702,1,2,1:2:0:0:
350,125,13842,2,0,L|448:106,1,100,2|8,3:2|2:0,2:0:0:0:
489,197,14400,6,0,L|482:296,1,100,6|8,3:2|2:0,2:0:0:0:
462,344,14818,1,0,3:2:0:0:
462,344,14958,2,0,P|424:311|375:307,1,100,2|10,2:0|2:0,2:0:0:0:
333,334,15377,1,2,2:0:0:0:
257,268,15656,1,2,3:2:0:0:
236,365,15935,2,0,L|87:347,1,150,2|10,3:2|2:0,2:0:0:0:
41,357,16493,1,2,2:0:0:0:
41,357,16632,6,0,P|9:319|14:270,1,100,2|10,3:2|2:0,2:0:0:0:
50,236,17051,1,2,3:2:0:0:
126,171,17330,1,2,3:2:0:0:
126,171,17470,1,8,2:0:0:0:
53,102,17749,2,0,L|55:52,1,50,0|0,3:2|3:2,2:0:0:0:
59,2,18028,1,8,2:0:0:0:
158,2,18307,2,0,P|206:9|237:46,1,100,8|0,2:0|3:2,2:0:0:0:
238,96,18725,5,0,3:2:0:0:
238,96,18865,2,0,P|269:133|317:140,1,100,6|2,3:2|2:0,2:0:0:0:
408,99,19423,1,10,2:0:0:0:
478,170,19702,2,0,L|472:219,1,50,2|0,3:2|3:2,2:0:0:0:
466,269,19981,2,0,L|366:280,1,100,2|2,2:0|2:0,2:0:0:0:
334,318,20400,1,2,3:2:0:0:
334,318,20539,2,0,L|234:307,1,100,10|8,2:0|2:0,2:0:0:0:
152,365,21098,6,0,L|147:302,1,50,10|2,2:0|2:0,2:0:0:0:
117,275,21377,1,10,3:2:0:0:
190,206,21656,1,10,3:2:0:0:
102,157,21935,2,0,L|107:94,1,50,2|0,3:2|3:2,2:0:0:0:
105,55,22214,5,10,2:0:0:0:
193,8,22493,1,2,3:2:0:0:
279,58,22772,1,2,3:2:0:0:
278,158,23051,1,10,2:0:0:0:
190,206,23330,6,0,B|249:189|287:230|265:243|306:280|368:265,1,200,6|2,3:2|2:0,2:0:0:0:
401,227,24028,1,2,3:2:0:0:
494,261,24307,2,0,L|497:211,1,50,2|0,2:0|2:0,2:0:0:0:
482,163,24586,2,0,L|479:60,1,100,2|2,3:2|3:2,2:0:0:0:
478,13,25004,1,0,3:2:0:0:
394,68,25284,2,0,P|369:62|349:48,1,50,10|2,2:0|2:0,2:0:0:0:
324,4,25563,6,0,L|226:25,1,100,2|10,3:2|2:0,2:0:0:0:
193,63,25981,1,2,3:2:0:0:
193,63,26121,2,0,L|95:41,1,100,0|8,2:0|2:0,2:0:0:0:
49,49,26539,1,2,2:0:0:0:
49,49,26679,2,0,L|41:0,2,50,0|0|8,3:2|3:2|2:0,2:0:0:0:
1,137,27237,1,2,3:2:0:0:
67,211,27516,1,2,3:2:0:0:
8,279,27795,6,0,B|108:217|199:276|199:276|141:310,1,269.999991760254,6|10,3:2|2:0,2:0:0:0:
265,364,29051,1,0,3:2:0:0:
330,302,29330,1,0,3:2:0:0:
330,302,29470,1,10,2:0:0:0:
405,351,29749,1,2,2:0:0:0:
474,293,30028,6,0,P|462:158|452:23,1,269.999991760254,2|10,3:2|2:0,2:0:0:0:
342,103,31284,1,0,3:2:0:0:
273,53,31563,1,0,3:2:0:0:
273,53,31702,1,10,2:0:0:0:
204,111,31981,1,2,2:0:0:0:
132,55,32260,6,0,P|19:112|38:237,1,269.999991760254,2|10,3:2|2:0,2:0:0:0:
67,322,33377,2,0,L|155:306,1,89.9999972534181,10|0,2:0|3:2,2:0:0:0:
197,335,33795,1,2,1:2:0:0:
197,335,33935,2,0,L|285:350,1,89.9999972534181,0|2,3:2|3:2,2:0:0:0:
366,325,34493,6,0,B|401:378|401:378|454:303|464:252|435:207|377:209,1,280,6|0,3:2|3:2,2:0:0:0:
340,221,35609,6,0,L|295:211,1,44.999998626709,8|10,2:0|2:0,2:0:0:0:
233,155,36028,1,0,3:2:0:0:
233,155,36167,2,0,L|188:164,1,44.999998626709,10|10,2:0|2:0,2:0:0:0:
80,189,36586,6,0,P|43:158|38:110,1,100,6|2,3:2|3:2,2:0:0:0:
66,69,37004,1,10,2:0:0:0:
147,10,37284,2,0,L|196:17,1,50,2|0,3:2|3:2,2:0:0:0:
238,42,37563,2,0,P|287:52|330:29,1,100,8|0,2:0|3:2,2:0:0:0:
430,27,38121,2,0,L|424:76,1,50,10|0,2:0|2:0,2:0:0:0:
394,117,38400,2,0,L|404:216,1,100,2|10,3:2|2:0,2:0:0:0:
444,245,38818,5,6,3:2:0:0:
370,376,39237,2,0,P|334:342|285:337,1,100,10|0,2:0|3:2,2:0:0:0:
248,370,39656,1,0,3:2:0:0:
248,370,39795,1,8,2:0:0:0:
186,290,40074,1,0,3:2:0:0:
95,332,40353,2,0,L|90:282,1,50,10|0,2:0|2:0,2:0:0:0:
57,244,40632,2,0,L|61:144,1,100,2|10,3:2|2:0,2:0:0:0:
29,105,41051,6,0,P|53:62|100:52,1,100,6|2,3:2|3:2,2:0:0:0:
140,82,41470,2,0,P|186:96|228:72,1,100,10|2,2:0|3:2,2:0:0:0:
256,32,41888,1,2,3:2:0:0:
405,13,42307,2,0,L|398:62,1,50,2|0,3:2|3:2,2:0:0:0:
419,107,42586,1,8,2:0:0:0:
398,208,42865,1,2,3:2:0:0:
398,208,43004,1,2,1:2:0:0:
477,269,43284,6,0,P|472:341|406:368,1,150,6|8,3:2|2:0,2:0:0:0:
314,329,43981,1,0,3:2:0:0:
229,381,44260,2,0,L|179:371,1,50,10|2,2:0|3:2,2:0:0:0:
130,361,44539,6,0,P|104:319|108:270,1,100,2|10,2:0|2:0,2:0:0:0:
148,238,44958,1,2,3:2:0:0:
148,238,45098,2,0,P|152:189|126:147,1,100,8|8,2:0|2:0,2:0:0:0:
99,105,45516,6,0,B|190:113|152:139|241:146,1,150,6|8,3:2|2:0,2:0:0:0:
281,54,46214,2,0,P|329:50|370:77,1,100,2|10,3:2|2:0,2:0:0:0:
388,124,46632,2,0,P|428:151|477:147,1,100,6|0,3:2|3:2,2:0:0:0:
512,111,47051,1,8,2:0:0:0:
473,205,47330,1,2,3:2:0:0:
473,205,47470,1,2,3:2:0:0:
507,298,47749,6,0,L|409:282,1,100,6|2,3:2|3:2,2:0:0:0:
364,259,48167,2,0,L|314:267,1,50,10|2,2:0|3:2,2:0:0:0:
269,280,48446,1,10,2:0:0:0:
269,280,48586,1,2,3:2:0:0:
194,346,48865,2,0,P|122:339|89:275,1,150,6|8,3:2|2:0,2:0:0:0:
131,181,49563,2,0,L|124:131,1,50,10|0,2:0|3:2,2:0:0:0:
87,97,49842,2,0,L|93:47,1,50,2|0,3:2|1:2,2:0:0:0:
121,6,50121,6,0,L|219:22,1,100,6|0,3:2|3:2,2:0:0:0:
250,61,50539,2,0,L|348:44,1,100,10|0,2:0|3:2,2:0:0:0:
396,31,50958,1,10,2:0:0:0:
474,92,51237,1,2,3:2:0:0:
474,92,51377,2,0,L|463:192,1,100,8|2,2:0|3:2,2:0:0:0:
432,230,51795,2,0,L|438:279,1,50,8|0,2:0|3:2,2:0:0:0:
448,328,52074,1,10,2:0:0:0:
351,303,52353,6,0,L|303:316,1,50,14|0,2:0|3:2,2:0:0:0:
268,352,52632,2,0,L|220:339,1,50,8|0,2:0|3:2,2:0:0:0:
172,323,52911,1,8,2:0:0:0:
220,235,53191,1,10,2:0:0:0:
177,144,53470,6,0,B|118:127|80:168|102:181|61:218|-1:203,1,200,10|10,2:0|2:0,2:0:0:0:
120,43,54586,1,6,3:2:0:0:
256,192,54725,12,0,57098,2:0:0:0:
291,144,69656,5,8,0:2:0:0:
448,267,70214,6,0,B|385:261|354:297|374:310|329:349|270:334,1,200,6|10,3:2|2:0,2:0:0:0:
233,301,70911,1,2,3:2:0:0:
147,354,71191,2,0,L|48:337,1,100,2|2,3:2|3:2,2:0:0:0:
4,254,71749,1,2,3:2:0:0:
4,254,71888,2,0,P|11:229|14:205,1,50,8|2,2:0|3:2,2:0:0:0:
11,155,72167,1,2,3:2:0:0:
67,72,72446,5,4,3:2:0:0:
67,72,72586,2,0,L|165:88,1,100,0|0,3:2|3:2,2:0:0:0:
203,121,73004,2,0,L|252:114,1,50,10|2,2:0|3:2,2:0:0:0:
306,109,73284,1,0,3:2:0:0:
306,109,73423,1,2,3:2:0:0:
367,30,73702,1,10,2:0:0:0:
443,102,73981,1,2,3:2:0:0:
443,102,74121,2,0,L|437:166,1,50,8|2,2:0|3:2,2:0:0:0:
407,191,74400,2,0,L|413:255,1,50,2|0,2:0|3:2,2:0:0:0:
421,288,74679,6,0,P|401:333|355:348,1,100,4|2,3:2|2:0,2:0:0:0:
314,330,75098,1,0,3:2:0:0:
314,330,75237,2,0,L|214:339,1,100,10|0,2:0|3:2,2:0:0:0:
164,343,75656,1,0,3:2:0:0:
85,291,75935,1,0,3:2:0:0:
85,291,76074,2,0,L|77:241,1,50,2|0,2:0|3:2,2:0:0:0:
103,198,76353,2,0,L|110:148,2,50,10|0|0,2:0|3:2|3:2,2:0:0:0:
206,190,76911,5,4,3:2:0:0:
206,190,77051,1,0,3:2:0:0:
270,113,77330,1,0,3:2:0:0:
270,113,77470,2,0,L|375:132,1,100,10|2,2:0|3:2,2:0:0:0:
416,142,77888,1,2,3:2:0:0:
499,87,78167,1,10,2:0:0:0:
448,0,78446,1,2,3:2:0:0:
448,0,78586,2,0,L|343:19,1,100,8|10,2:0|2:0,2:0:0:0:
304,31,79004,5,8,2:0:0:0:
304,31,79144,1,4,3:2:0:0:
244,111,79423,2,0,L|194:102,1,50,10|0,2:0|3:2,2:0:0:0:
153,73,79702,2,0,P|103:74|63:103,1,100,10|2,2:0|3:2,2:0:0:0:
51,152,80121,1,14,2:0:0:0:
117,234,80400,1,2,3:2:0:0:
117,234,80539,1,8,2:0:0:0:
31,285,80818,2,0,L|39:342,1,50,2|2,3:2|3:2,2:0:0:0:
45,384,81098,1,10,2:0:0:0:
132,336,81377,6,0,P|156:329|180:325,1,50,4|0,3:2|3:2,2:0:0:0:
228,342,81656,1,10,2:0:0:0:
316,296,81935,2,0,L|324:197,1,100,10|0,2:0|3:2,2:0:0:0:
303,150,82353,2,0,P|339:117|388:119,1,100,14|2,2:0|3:2,2:0:0:0:
421,157,82772,1,10,2:0:0:0:
503,100,83051,2,0,L|497:50,1,50,2|2,3:2|3:2,2:0:0:0:
487,1,83330,1,10,2:0:0:0:
389,24,83609,6,0,L|289:11,1,100,4|10,3:2|2:0,2:0:0:0:
219,83,84167,2,0,B|130:88|171:118|77:125,1,150,10|12,2:0|2:0,2:0:0:0:
135,214,84865,1,0,3:2:0:0:
135,214,85004,2,0,L|130:263,1,50,10|0,2:0|2:0,2:0:0:0:
161,303,85284,2,0,L|165:352,2,50,2|0|8,3:2|3:2|2:0,2:0:0:0:
240,241,85842,6,0,P|264:243|286:255,1,50,12|0,2:0|3:2,2:0:0:0:
308,300,86121,2,0,P|329:312|354:314,1,50,10|0,2:0|3:2,2:0:0:0:
402,302,86400,2,0,L|414:194,1,100,10|10,2:0|0:2,2:0:0:0:
404,153,86818,1,6,3:2:0:0:
484,92,87098,1,2,3:2:0:0:
484,92,87237,1,8,2:0:0:0:
410,24,87516,1,2,2:0:0:0:
