osu file format v14

[General]
AudioFilename: audio.mp3
AudioLeadIn: 0
PreviewTime: 35818
Countdown: 0
SampleSet: Soft
StackLeniency: 0.4
Mode: 0
LetterboxInBreaks: 0
WidescreenStoryboard: 0

[Editor]
Bookmarks: 9935,27795,58911,70214,79144
DistanceSpacing: 0.2
BeatDivisor: 4
GridSize: 16
TimelineZoom: 2.5

[Metadata]
Title:KING & ASHLEY (TV Size)
TitleUnicode:KING & ASHLEY (TV Size)
Artist:MY FIRST STORY
ArtistUnicode:MY FIRST STORY
Creator:Maiev
Version:Extra
Source:ケンガンアシュラ
Tags:schoolboy komore airincat airin yuuma ex -_ex_- Sirmirai le mirai Cacturne kerupt and mfs rock j-rock japanese anime opening op kengan ashura
BeatmapID:3242443
BeatmapSetID:1587638

[Difficulty]
HPDrainRate:5
CircleSize:4.2
OverallDifficulty:9
ApproachRate:9.3
SliderMultiplier:1.4
SliderTickRate:1

[Events]
//Background and Video events
Video,0,"Video.mp4"
0,0,"BG-1.jpg",0,0
//Break Periods
2,55563,58357
//Storyboard Layer 0 (Background)
//Storyboard Layer 1 (Fail)
//Storyboard Layer 2 (Pass)
//Storyboard Layer 3 (Foreground)
//Storyboard Layer 4 (Overlay)
//Storyboard Sound Samples

[TimingPoints]
1005,279.06976744186,4,2,1,65,1,0
1005,-111.111111111111,4,2,1,65,0,0
9935,-83.3333333333333,4,2,1,70,0,0
14400,-58.8235294117647,4,2,1,70,0,0
14609,-58.8235294117647,4,2,1,70,0,0
14679,-76.9230769230769,4,2,1,70,0,0
18865,-83.3333333333333,4,2,1,65,0,0
21098,-76.9230769230769,4,2,1,68,0,0
21307,-76.9230769230769,4,2,1,68,0,0
21377,-76.9230769230769,4,2,1,68,0,0
22493,-62.5,4,2,1,68,0,0
22772,-55.5555555555556,4,2,1,68,0,0
23330,-58.8235294117647,4,2,1,70,0,0
23539,-58.8235294117647,4,2,1,70,0,0
23609,-76.9230769230769,4,2,1,70,0,0
26191,-76.9230769230769,4,2,1,70,0,0
26260,-76.9230769230769,4,2,1,70,0,0
27795,-100,4,2,1,55,0,0
34493,-250,4,2,1,55,0,0
35609,-71.4285714285714,4,2,1,55,0,0
35749,-71.4285714285714,4,2,1,60,0,0
36307,-71.4285714285714,4,2,1,65,0,0
36586,-62.5,4,2,2,75,0,1
36656,-62.5,4,2,1,75,0,1
36795,-62.5,4,2,1,75,0,1
36865,-62.5,4,2,1,75,0,1
37004,-66.6666666666667,4,2,1,75,0,1
37284,-83.3333333333333,4,2,1,75,0,1
38051,-83.3333333333333,4,2,1,75,0,1
38121,-83.3333333333333,4,2,1,75,0,1
43284,-76.9230769230769,4,2,1,75,0,1
43702,-83.3333333333333,4,2,1,75,0,1
45725,-83.3333333333333,4,2,1,75,0,1
45795,-83.3333333333333,4,2,1,75,0,1
47958,-83.3333333333333,4,2,1,75,0,1
48028,-83.3333333333333,4,2,1,75,0,1
54586,-83.3333333333333,4,2,1,75,0,0
54656,-83.3333333333333,4,2,1,55,0,0
58911,-100,4,2,1,55,0,0
61284,-100,4,2,1,58,0,0
63516,-100,4,2,1,62,0,0
65749,-100,4,2,1,65,0,0
70214,-83.3333333333333,4,2,1,70,0,0
79144,-76.9230769230769,4,2,1,70,0,0
79632,-76.9230769230769,4,2,1,70,0,0
79702,-76.9230769230769,4,2,1,70,0,0
81865,-76.9230769230769,4,2,1,70,0,0
81935,-76.9230769230769,4,2,1,70,0,0
84586,-71.4285714285714,4,2,1,70,0,0
84865,-76.9230769230769,4,2,1,70,0,0
87516,-76.9230769230769,4,2,1,55,0,0

[Colours]
Combo1 : 255,185,185
Combo2 : 255,255,159
Combo3 : 160,225,151
Combo4 : 255,197,168

[HitObjects]
0,75,1005,5,4,3:2:0:0:
59,16,1144,2,0,P|116:34|126:93,1,125.999996154785,2|2,0:2|0:2,0:0:0:0:
182,166,1563,2,0,L|243:151,1,62.9999980773926,10|2,0:2|0:2,0:0:0:0:
93,204,1842,1,2,0:2:0:0:
93,204,1981,2,0,L|31:189,1,62.9999980773926,2|0,0:2|3:2,0:0:0:0:
151,380,2260,2,0,P|156:317|164:254,1,125.999996154785,2|2,0:2|0:2,0:0:0:0:
315,384,2679,1,10,0:2:0:0:
356,301,2818,1,2,0:2:0:0:
265,309,2958,2,0,L|326:323,1,62.9999980773926,2|0,0:2|0:0,0:0:0:0:
512,203,3237,5,2,3:2:0:0:
442,142,3377,2,0,B|374:150|407:185|329:189,1,125.999996154785,2|2,0:2|0:2,0:0:0:0:
239,140,3795,1,10,0:2:0:0:
232,132,3935,1,2,0:2:0:0:
165,214,4074,1,2,0:2:0:0:
29,129,4214,6,0,L|42:261,1,125.999996154785,2|2,0:2|0:2,0:0:0:0:
105,328,4632,2,0,P|89:355|55:367,1,62.9999980773926,2|0,0:2|3:2,0:0:0:0:
60,366,4842,1,0,3:2:0:0:
60,366,4911,1,10,0:2:0:0:
165,214,5051,1,2,3:2:0:0:
277,368,5191,1,2,3:2:0:0:
277,368,5330,1,2,3:2:0:0:
176,322,5470,5,4,3:2:0:0:
262,259,5609,2,0,B|335:265|302:292|379:299,1,125.999996154785,2|2,0:2|0:2,0:0:0:0:
474,261,6028,2,0,L|467:199,1,62.9999980773926,10|2,0:2|0:2,0:0:0:0:
512,67,6307,1,2,0:2:0:0:
451,11,6446,2,0,P|391:2|352:48,2,125.999996154785,2|2|2,0:2|0:2|0:2,0:0:0:0:
370,166,7144,1,10,0:2:0:0:
284,145,7284,1,2,0:2:0:0:
197,122,7423,2,0,L|204:184,1,62.9999980773926,2|0,0:2|0:0,0:0:0:0:
32,37,7702,5,6,3:2:0:0:
126,1,7842,2,0,L|111:126,1,125.999996154785,2|2,0:2|3:2,0:0:0:0:
213,333,8260,1,10,0:2:0:0:
284,145,8400,1,2,3:2:0:0:
384,271,8539,2,0,L|447:258,1,62.9999980773926,10|0,0:2|0:0,0:0:0:0:
445,258,8749,5,0,3:2:0:0:
445,258,8818,1,2,3:2:0:0:
204,184,8958,1,10,0:2:0:0:
315,337,9098,1,2,3:2:0:0:
412,108,9237,1,0,3:2:0:0:
410,101,9307,1,0,3:2:0:0:
409,94,9377,1,10,0:2:0:0:
363,188,9516,1,2,3:2:0:0:
503,84,9656,1,0,1:2:0:0:
345,19,9795,1,0,1:2:0:0:
445,258,9935,5,6,3:2:0:0:
445,258,10074,1,10,0:2:0:0:
368,325,10214,2,0,L|285:307,1,83.9999974365235,2|8,3:2|0:2,0:0:0:0:
117,334,10493,5,10,0:2:0:0:
64,267,10632,1,10,0:2:0:0:
132,217,10772,1,10,0:2:0:0:
184,283,10911,1,8,0:2:0:0:
37,345,11051,5,10,0:2:0:0:
213,205,11191,1,10,0:2:0:0:
12,130,11330,1,8,0:2:0:0:
184,283,11470,5,10,0:2:0:0:
0,207,11609,1,10,0:2:0:0:
169,74,11749,1,8,0:2:0:0:
125,184,11888,1,0,3:2:0:0:
368,0,12167,5,10,0:2:0:0:
366,12,12237,1,8,0:2:0:0:
364,24,12307,1,10,0:2:0:0:
295,127,12446,2,0,B|335:117|335:117|338:118|338:118|376:108,1,83.9999974365235,2|8,3:2|0:2,0:0:0:0:
376,108,12656,1,8,0:2:0:0:
376,108,12725,1,10,0:2:0:0:
476,174,12865,1,2,3:2:0:0:
463,170,12935,1,0,3:2:0:0:
450,167,13005,1,10,0:2:0:0:
383,225,13144,1,0,3:2:0:0:
469,328,13284,5,10,0:2:0:0:
470,317,13353,1,0,1:2:0:0:
471,307,13423,1,2,1:2:0:0:
473,296,13493,1,0,1:2:0:0:
474,286,13563,1,0,3:2:0:0:
391,377,13702,1,2,1:2:0:0:
390,366,13771,1,0,1:2:0:0:
389,356,13841,1,2,3:2:0:0:
387,345,13911,1,0,1:2:0:0:
386,335,13981,1,0,3:2:0:0:
298,217,14121,1,8,0:2:0:0:
127,334,14400,6,0,B|55:362|7:314|7:314|51:293,1,178.500003404617,6|0,3:2|0:0,0:0:0:0:
64,289,14679,2,0,L|53:379,1,90.9999958343508,8|0,0:2|3:2,0:0:0:0:
240,278,14958,1,2,0:2:0:0:
143,147,15098,2,0,L|153:237,1,90.9999958343508,0|10,3:2|0:2,0:0:0:0:
381,57,15377,6,0,P|358:18|316:4,1,90.9999958343508,2|0,0:2|0:0,0:0:0:0:
413,156,15656,2,0,P|457:155|491:126,1,90.9999958343508,2|8,3:2|0:2,0:0:0:0:
311,134,15935,2,0,P|288:172|297:216,2,90.9999958343508,2|0|0,3:2|3:2|3:2,0:0:0:0:
465,241,16353,1,10,0:2:0:0:
381,57,16493,1,2,0:2:0:0:
352,316,16632,6,0,B|394:326|394:326|398:324|398:324|441:333,1,90.9999958343508,2|0,3:2|3:2,0:0:0:0:
268,378,16911,1,10,0:2:0:0:
203,207,17051,2,0,B|161:217|161:217|156:215|156:215|113:224,1,90.9999958343508,2|0,3:2|0:0,0:0:0:0:
252,284,17330,1,2,3:2:0:0:
252,284,17470,2,0,P|288:258|296:214,1,90.9999958343508,8|0,0:2|0:2,0:0:0:0:
42,166,17749,5,0,3:2:0:0:
154,342,17888,1,0,3:2:0:0:
255,136,18028,2,0,L|245:45,1,90.9999958343508,8|0,0:2|3:2,0:0:0:0:
245,45,18237,1,0,3:2:0:0:
245,45,18307,1,8,0:2:0:0:
203,207,18446,1,0,1:2:0:0:
357,74,18586,1,0,3:2:0:0:
156,25,18725,1,0,3:2:0:0:
255,136,18865,5,6,3:2:0:0:
255,136,19004,1,2,3:2:0:0:
357,74,19144,2,0,B|394:80|394:80|398:84|398:84|439:90,1,83.9999974365235,2|0,0:2|3:2,0:0:0:0:
203,207,19423,2,0,B|166:213|166:213|162:217|162:217|120:223,1,83.9999974365235,10|2,0:2|0:2,0:0:0:0:
361,376,19702,1,2,3:2:0:0:
415,278,19842,1,0,3:2:0:0:
311,279,19981,5,2,0:2:0:0:
463,370,20121,1,10,0:2:0:0:
467,201,20260,1,2,0:2:0:0:
361,376,20400,5,2,3:2:0:0:
255,136,20539,1,10,0:2:0:0:
415,278,20679,1,0,3:2:0:0:
180,384,20818,2,0,L|164:301,1,83.9999974365235,8|0,0:2|3:2,0:0:0:0:
282,2,21098,6,0,L|254:135,1,136.499993751526,10|0,0:2|0:0,0:0:0:0:
256,150,21377,2,0,P|289:120|334:114,1,90.9999958343508,10|0,3:2|3:2,0:0:0:0:
334,114,21586,1,0,3:2:0:0:
334,114,21656,1,10,3:2:0:0:
182,208,21795,1,2,3:2:0:0:
173,206,21865,1,0,3:2:0:0:
164,204,21935,1,2,3:2:0:0:
89,246,22074,1,0,3:2:0:0:
11,104,22214,5,10,0:2:0:0:
27,98,22283,1,8,0:2:0:0:
46,93,22353,1,10,0:2:0:0:
65,88,22423,1,8,0:2:0:0:
78,81,22493,6,0,L|68:136,1,56,2|0,3:2|3:2,0:0:0:0:
173,259,22632,2,0,L|163:203,1,56,0|0,3:2|3:2,0:0:0:0:
39,219,22772,2,0,B|57:245|57:245|88:245,1,62.9999980773926,2|0,3:2|3:2,0:0:0:0:
223,146,22911,2,0,B|204:120|204:120|173:119,1,62.9999980773926,0|0,1:2|1:2,0:0:0:0:
67,136,23051,1,10,0:2:0:0:
260,339,23330,6,0,B|339:368|379:310|379:310|336:295,1,178.500003404617,6|0,3:2|0:0,0:0:0:0:
327,289,23609,2,0,P|304:250|309:206,1,90.9999958343508,8|0,0:2|3:2,0:0:0:0:
502,148,23888,1,2,0:2:0:0:
490,257,24028,2,0,L|401:234,1,90.9999958343508,2|8,3:2|0:2,0:0:0:0:
147,43,24307,6,0,P|191:44|221:77,1,90.9999958343508,2|0,0:2|0:0,0:0:0:0:
364,70,24586,2,0,P|340:107|296:117,1,90.9999958343508,2|8,3:2|0:2,0:0:0:0:
232,244,24865,2,0,P|211:204|224:162,2,90.9999958343508,2|0|0,3:2|3:2|3:2,0:0:0:0:
221,77,25284,5,10,0:2:0:0:
101,230,25423,1,2,0:2:0:0:
319,296,25563,2,0,L|309:206,1,90.9999958343508,2|0,3:2|3:2,0:0:0:0:
364,70,25842,1,10,0:2:0:0:
224,161,25981,2,0,B|159:153|159:153|159:149|159:149|92:138,1,136.499993751526,2|0,3:2|0:0,0:0:0:0:
92,138,26260,2,0,P|51:155|34:196,2,90.9999958343508,2|8|2,3:2|0:2|0:2,0:0:0:0:
232,244,26679,5,0,3:2:0:0:
103,47,26818,1,0,3:2:0:0:
37,274,26958,2,0,L|50:365,1,90.9999958343508,8|0,0:2|3:2,0:0:0:0:
49,364,27167,1,0,3:2:0:0:
49,364,27237,1,2,3:2:0:0:
140,299,27377,1,0,3:2:0:0:
244,376,27516,1,2,3:2:0:0:
247,368,27656,1,0,3:2:0:0:
316,318,27795,6,0,B|401:321|369:342|452:344,2,140,6|0|0,3:2|0:0|0:0,0:0:0:0:
247,368,28493,1,0,3:2:0:0:
140,299,28632,1,10,0:2:0:0:
364,70,29051,5,0,3:2:0:0:
364,70,29330,1,0,3:2:0:0:
264,25,29470,2,0,L|274:98,1,70,10|0,0:2|0:0,0:0:0:0:
355,139,29749,2,0,L|364:69,1,70,2|0,0:2|0:0,0:0:0:0:
228,185,30028,6,0,B|143:188|178:216|91:218,1,140,2|2,3:2|0:2,0:0:0:0:
37,166,30446,1,2,3:2:0:0:
37,166,30725,5,0,3:2:0:0:
213,267,30865,2,0,L|207:336,1,70,10|0,0:2|0:0,0:0:0:0:
294,244,31144,1,0,3:2:0:0:
294,244,31423,2,0,L|288:313,1,70,2|0,0:2|3:2,0:0:0:0:
351,365,31702,2,0,P|381:347|414:338,1,70,10|0,0:2|0:0,0:0:0:0:
213,267,31981,2,0,P|182:249|149:240,1,70,2|0,0:2|0:0,0:0:0:0:
392,63,32260,6,0,P|382:132|372:201,1,140,2|0,3:2|0:0,0:0:0:0:
441,254,32679,1,0,3:2:0:0:
303,97,32958,1,0,3:2:0:0:
303,97,33098,2,0,L|234:82,1,70,10|0,0:2|0:0,0:0:0:0:
134,162,33377,5,10,0:2:0:0:
149,248,33516,1,0,3:2:0:0:
167,330,33656,1,0,3:2:0:0:
214,191,33795,1,2,1:2:0:0:
86,307,33935,2,0,L|17:292,1,70,0|0,3:2|3:2,0:0:0:0:
241,348,34214,2,0,L|309:333,1,70,2|0,3:2|3:2,0:0:0:0:
464,303,34493,6,0,B|444:345|444:345|403:288|396:253|420:226|447:223,1,196,6|0,3:2|3:2,0:0:0:0:
452,226,35539,1,0,3:2:0:0:
457,230,35609,1,8,0:2:0:0:
319,138,35749,1,10,0:2:0:0:
310,136,36028,5,0,3:2:0:0:
303,139,36098,1,0,3:2:0:0:
296,142,36167,1,10,0:2:0:0:
466,43,36307,1,10,0:2:0:0:
472,41,36586,6,0,B|371:18|371:18|344:46|367:76,1,168,6|0,3:2|0:0,0:0:0:0:
366,75,36865,1,2,3:2:0:0:
305,245,37004,2,0,B|299:198|299:198|301:193|301:193|295:140,1,105.000004005432,10|2,0:2|0:2,0:0:0:0:
192,292,37284,6,0,B|90:301|143:336|36:347,1,167.999994873047,2|8,3:2|0:2,0:0:0:0:
41,86,37842,2,0,L|54:211,1,125.999996154785,0|0,3:2|0:0,0:0:0:0:
54,211,38121,2,0,P|75:176|115:164,1,83.9999974365235,10|0,0:2|0:0,0:0:0:0:
217,48,38400,2,0,L|208:139,1,83.9999974365235,2|0,3:2|3:2,0:0:0:0:
132,49,38679,1,10,0:2:0:0:
288,176,38818,6,0,B|340:138|416:164|416:164|395:191,1,167.999994873047,6|0,3:2|3:2,0:0:0:0:
472,307,39237,2,0,P|482:266|510:236,1,83.9999974365235,10|0,0:2|0:0,0:0:0:0:
413,384,39516,1,0,3:2:0:0:
311,370,39656,1,0,3:2:0:0:
206,352,39795,2,0,P|195:311|167:281,1,83.9999974365235,8|0,0:2|0:0,0:0:0:0:
286,229,40074,2,0,P|296:188|324:158,1,83.9999974365235,0|0,3:2|3:2,0:0:0:0:
0,79,40353,6,0,L|82:95,1,83.9999974365235,10|0,0:2|0:0,0:0:0:0:
167,281,40632,1,2,3:2:0:0:
30,196,40772,1,0,3:2:0:0:
180,125,40911,1,10,0:2:0:0:
168,292,41051,6,0,B|63:292|102:343|15:349,1,167.999994873047,6|2,3:2|3:2,0:0:0:0:
286,229,41470,2,0,L|278:312,1,83.9999974365235,10|0,0:2|0:0,0:0:0:0:
211,371,41749,1,2,3:2:0:0:
395,191,41888,2,0,L|387:107,1,83.9999974365235,2|8,3:2|0:2,0:0:0:0:
438,40,42167,1,2,0:2:0:0:
286,229,42307,5,2,3:2:0:0:
482,135,42446,1,0,3:2:0:0:
287,38,42586,2,0,L|205:56,1,83.9999974365235,8|0,0:2|0:0,0:0:0:0:
30,196,42865,1,2,3:2:0:0:
8,108,43004,2,0,L|89:126,1,83.9999974365235,2|8,1:2|0:2,0:0:0:0:
267,312,43284,6,0,B|323:327|361:292|347:282|378:250|435:271,1,181.999991668702,6|0,3:2|3:2,0:0:0:0:
273,145,43702,2,0,L|286:229,1,83.9999974365235,8|0,0:2|1:2,0:0:0:0:
409,357,43981,1,0,3:2:0:0:
202,256,44121,1,0,3:2:0:0:
382,106,44260,2,0,L|369:189,1,83.9999974365235,10|2,0:2|3:2,0:0:0:0:
152,371,44539,6,0,P|117:347|76:340,1,83.9999974365235,2|0,0:2|3:2,0:0:0:0:
267,312,44818,1,10,0:2:0:0:
110,139,44958,2,0,L|122:222,1,83.9999974365235,2|8,3:2|0:2,0:0:0:0:
202,256,45237,1,2,3:2:0:0:
38,94,45377,1,8,0:2:0:0:
264,15,45516,6,0,L|252:140,1,125.999996154785,6|0,3:2|0:0,0:0:0:0:
252,140,45795,1,0,3:2:0:0:
389,190,45935,2,0,P|429:181|451:146,1,83.9999974365235,8|0,0:2|0:0,0:0:0:0:
296,270,46214,2,0,L|308:353,1,83.9999974365235,2|0,3:2|3:2,0:0:0:0:
400,374,46493,1,10,0:2:0:0:
202,256,46632,6,0,B|103:257|140:300|43:299,1,167.999994873047,6|0,3:2|3:2,0:0:0:0:
77,124,47051,2,0,L|65:207,1,83.9999974365235,8|0,0:2|0:0,0:0:0:0:
191,349,47330,1,2,3:2:0:0:
295,270,47470,2,0,P|337:265|375:282,1,83.9999974365235,2|8,3:2|0:2,0:0:0:0:
174,160,47749,6,0,L|186:34,1,125.999996154785,6|0,3:2|0:0,0:0:0:0:
186,34,48028,1,2,3:2:0:0:
77,124,48167,1,10,0:2:0:0:
297,108,48307,1,2,3:2:0:0:
84,21,48446,1,10,0:2:0:0:
193,248,48586,1,2,3:2:0:0:
193,248,48865,6,0,B|305:227|305:227|320:251|307:278,1,167.999994873047,6|0,3:2|3:2,0:0:0:0:
398,380,49284,2,0,L|408:296,1,83.9999974365235,8|0,0:2|3:2,0:0:0:0:
483,185,49563,1,10,0:2:0:0:
484,195,49632,1,0,3:2:0:0:
485,205,49702,1,0,3:2:0:0:
486,216,49772,1,0,0:0:0:0:
487,226,49842,2,0,P|496:244|512:257,2,41.9999987182618,2|0|0,3:2|1:2|1:2,0:0:0:0:
297,108,50121,5,6,3:2:0:0:
193,248,50260,1,0,3:2:0:0:
369,258,50400,1,0,3:2:0:0:
192,135,50539,5,10,0:2:0:0:
275,327,50678,1,0,3:2:0:0:
391,150,50818,1,0,3:2:0:0:
193,248,50958,2,0,L|276:232,1,83.9999974365235,10|0,0:2|3:2,0:0:0:0:
82,106,51237,5,2,3:2:0:0:
192,135,51377,1,8,0:2:0:0:
0,189,51516,1,0,3:2:0:0:
50,1,51656,1,2,3:2:0:0:
82,106,51795,2,0,P|78:65|73:23,1,83.9999974365235,8|0,0:2|3:2,0:0:0:0:
275,232,52074,2,0,P|270:273|266:315,1,83.9999974365235,10|0,0:2|3:2,0:0:0:0:
407,32,52353,5,14,0:2:0:0:
192,135,52493,1,0,3:2:0:0:
457,145,52632,5,8,0:2:0:0:
219,57,52772,1,0,3:2:0:0:
486,65,52911,5,8,0:2:0:0:
274,154,53051,1,0,3:2:0:0:
430,291,53191,2,0,L|511:271,1,83.9999974365235,10|0,0:2|3:2,0:0:0:0:
313,382,53470,5,10,0:2:0:0:
293,343,53563,5,0,3:2:0:0:
265,315,53656,5,0,3:2:0:0:
228,298,53749,5,0,1:2:0:0:
188,293,53842,5,0,3:2:0:0:
150,303,53935,5,0,3:2:0:0:
117,327,54028,5,10,0:2:0:0:
117,327,54586,5,6,3:2:0:0:
484,29,58911,5,0,3:2:0:0:
479,36,58981,1,0,3:2:0:0:
474,43,59051,2,0,L|405:28,1,70,8|0,0:2|3:2,0:0:0:0:
298,119,59330,2,0,L|366:104,1,70,0|0,3:2|3:2,0:0:0:0:
487,182,59609,1,0,3:2:0:0:
482,189,59749,1,0,3:2:0:0:
477,196,59888,2,0,L|408:181,1,70,0|0,3:2|3:2,0:0:0:0:
313,289,60167,6,0,B|230:293|267:323|180:327,1,140,0|0,3:2|3:2,0:0:0:0:
102,299,60586,1,0,3:2:0:0:
93,304,60725,2,0,P|86:269|79:234,1,70,8|0,0:2|3:2,0:0:0:0:
228,89,61004,2,0,P|221:123|216:158,1,70,8|0,0:2|3:2,0:0:0:0:
216,158,61214,5,0,3:2:0:0:
216,158,61284,1,8,0:2:0:0:
149,120,61423,1,0,3:2:0:0:
79,158,61563,2,0,L|10:142,1,70,0|0,3:2|1:2,0:0:0:0:
228,89,61842,2,0,L|296:73,1,70,0|0,3:2|3:2,0:0:0:0:
118,0,62121,2,0,P|96:27|90:61,1,70,0|0,3:2|3:2,0:0:0:0:
218,168,62400,6,0,L|286:152,2,70,0|0|0,3:2|1:2|3:2,0:0:0:0:
79,235,62818,1,0,3:2:0:0:
175,233,62958,1,8,0:2:0:0:
25,145,63098,1,0,3:2:0:0:
18,321,63237,1,8,0:2:0:0:
175,233,63377,1,0,3:2:0:0:
177,242,63446,1,0,3:2:0:0:
179,252,63516,5,8,0:2:0:0:
218,168,63656,1,0,3:2:0:0:
278,233,63795,2,0,L|270:302,1,70,0|0,3:2|3:2,0:0:0:0:
331,367,64074,1,0,3:2:0:0:
341,375,64214,1,0,3:2:0:0:
350,384,64353,2,0,L|357:314,1,70,0|0,3:2|3:2,0:0:0:0:
445,224,64632,6,0,P|467:250|500:260,2,70,0|0|0,3:2|3:2|3:2,0:0:0:0:
444,209,65051,1,0,3:2:0:0:
372,147,65191,2,0,L|304:164,1,70,8|0,0:2|3:2,0:0:0:0:
433,59,65470,2,0,L|500:76,1,70,8|0,0:2|3:2,0:0:0:0:
504,82,65679,5,0,3:2:0:0:
508,87,65749,1,8,0:2:0:0:
444,209,65888,1,0,3:2:0:0:
347,63,66028,2,0,P|350:29|368:0,1,70,0|0,3:2|3:2,0:0:0:0:
304,164,66307,2,0,L|236:146,1,70,0|0,3:2|3:2,0:0:0:0:
141,205,66586,2,0,P|143:239|161:268,1,70,0|0,3:2|1:2,0:0:0:0:
168,271,66795,5,0,3:2:0:0:
174,272,66865,2,0,L|207:263,3,35,0|0|0|0,3:2|3:2|1:2|1:2,0:0:0:0:
168,286,67144,2,0,L|158:319,3,35,0|0|0|0,3:2|1:2|3:2|3:2,0:0:0:0:
158,260,67423,5,8,0:2:0:0:
348,372,67563,1,8,0:2:0:0:
460,182,67702,1,8,0:2:0:0:
270,70,67842,1,8,0:2:0:0:
256,192,67981,12,0,69586,0:0:0:0:
270,70,69656,5,8,0:2:0:0:
270,70,70214,6,0,B|229:62|182:80|224:105|176:108|214:78|201:125|182:80|201:125|172:143|128:136,1,167.999994873047,6|0,3:2|0:0,0:0:0:0:
126,60,70632,1,0,3:2:0:0:
260,158,70772,1,10,0:2:0:0:
247,254,70911,1,2,3:2:0:0:
234,344,71051,1,0,3:2:0:0:
332,218,71191,6,0,P|373:222|408:245,1,83.9999974365235,2|0,3:2|0:0,0:0:0:0:
250,75,71470,2,0,L|260:159,1,83.9999974365235,2|0,3:2|0:0,0:0:0:0:
166,286,71749,2,0,P|124:281|89:258,1,83.9999974365235,2|8,3:2|0:2,0:0:0:0:
43,177,72028,1,2,3:2:0:0:
161,38,72167,2,0,L|170:121,1,83.9999974365235,2|0,3:2|0:0,0:0:0:0:
243,368,72446,5,4,3:2:0:0:
317,303,72586,2,0,B|410:314|377:351|472:360,1,167.999994873047,0|0,3:2|3:2,0:0:0:0:
450,184,73004,2,0,L|455:268,1,83.9999974365235,10|2,0:2|3:2,0:0:0:0:
347,133,73284,1,0,3:2:0:0:
347,133,73423,2,0,L|352:217,1,83.9999974365235,2|0,3:2|0:0,0:0:0:0:
161,38,73702,6,0,P|189:8|230:1,1,83.9999974365235,10|0,0:2|0:0,0:0:0:0:
92,129,73981,2,0,L|8:117,1,83.9999974365235,2|8,3:2|0:2,0:0:0:0:
170,216,74260,1,2,3:2:0:0:
170,216,74400,2,0,L|257:203,1,83.9999974365235,2|0,0:2|3:2,0:0:0:0:
115,311,74679,6,0,B|6:300|6:300|-18:330|4:356,1,167.999994873047,4|2,3:2|0:2,0:0:0:0:
1,353,75098,1,0,3:2:0:0:
223,302,75237,2,0,P|226:343|204:377,1,83.9999974365235,10|0,0:2|3:2,0:0:0:0:
253,203,75516,1,0,3:2:0:0:
253,203,75656,2,0,P|230:168|234:127,2,83.9999974365235,0|0|0,3:2|0:0|3:2,0:0:0:0:
319,330,76074,6,0,P|347:301|388:294,1,83.9999974365235,2|0,0:2|3:2,0:0:0:0:
512,205,76353,1,10,0:2:0:0:
502,295,76493,1,0,3:2:0:0:
487,384,76632,1,0,3:2:0:0:
243,110,76911,5,4,3:2:0:0:
243,110,77051,2,0,B|333:113|300:167|398:167,1,167.999994873047,0|0,3:2|3:2,0:0:0:0:
392,0,77470,2,0,L|382:90,1,83.9999974365235,10|0,0:2|3:2,0:0:0:0:
253,203,77749,1,2,3:2:0:0:
253,203,77888,2,0,P|215:183|174:178,1,83.9999974365235,2|0,3:2|0:0,0:0:0:0:
59,97,78167,6,0,L|69:187,1,83.9999974365235,10|0,0:2|0:0,0:0:0:0:
173,352,78446,2,0,L|182:268,1,83.9999974365235,2|8,3:2|0:2,0:0:0:0:
78,294,78725,1,2,3:2:0:0:
70,296,78795,1,0,3:2:0:0:
62,298,78865,1,10,0:2:0:0:
247,203,79004,1,8,0:2:0:0:
259,384,79144,1,4,3:2:0:0:
259,384,79284,1,0,3:2:0:0:
318,306,79423,6,0,P|383:306|423:359,1,136.499993751526,10|0,0:2|0:0,0:0:0:0:
423,359,79702,2,0,L|436:269,1,90.9999958343508,10|0,0:2|3:2,0:0:0:0:
312,117,79981,1,2,3:2:0:0:
360,192,80121,2,0,P|404:190|439:162,1,90.9999958343508,14|0,0:2|0:0,0:0:0:0:
187,35,80400,5,2,3:2:0:0:
187,35,80539,2,0,L|196:125,1,90.9999958343508,8|0,0:2|0:0,0:0:0:0:
122,231,80818,1,2,3:2:0:0:
312,117,80958,1,2,3:2:0:0:
91,32,81098,2,0,P|49:45|22:81,1,90.9999958343508,10|0,0:2|0:0,0:0:0:0:
230,302,81377,5,4,3:2:0:0:
312,117,81516,1,0,3:2:0:0:
441,321,81656,2,0,B|357:326|402:357|313:361,1,136.499993751526,10|0,0:2|0:0,0:0:0:0:
313,361,81935,2,0,P|303:317|320:275,1,90.9999958343508,10|0,0:2|3:2,0:0:0:0:
449,88,82214,5,0,3:2:0:0:
381,165,82353,2,0,P|338:151|311:116,1,90.9999958343508,14|0,0:2|0:0,0:0:0:0:
206,302,82632,1,2,3:2:0:0:
206,302,82772,2,0,P|163:316|136:351,1,90.9999958343508,10|0,0:2|0:0,0:0:0:0:
13,156,83051,1,2,3:2:0:0:
35,159,83120,1,0,3:2:0:0:
57,163,83190,1,2,3:2:0:0:
80,166,83260,1,0,3:2:0:0:
101,170,83330,2,0,P|136:143|139:99,1,90.9999958343508,10|0,0:2|0:0,0:0:0:0:
79,38,83609,5,4,3:2:0:0:
79,38,83749,1,0,3:2:0:0:
214,190,83888,2,0,L|302:167,1,90.9999958343508,10|0,0:2|3:2,0:0:0:0:
302,167,84098,1,0,3:2:0:0:
302,167,84167,1,10,0:2:0:0:
156,366,84307,1,0,3:2:0:0:
33,242,84446,1,0,3:2:0:0:
139,99,84586,6,0,B|128:195|128:195|131:200|131:200|118:292,1,195.999994018555,12|0,0:2|3:2,0:0:0:0:
234,382,85004,2,0,P|263:348|306:339,1,90.9999958343508,10|0,0:2|0:0,0:0:0:0:
506,203,85284,1,2,3:2:0:0:
403,352,85423,1,0,3:2:0:0:
332,139,85563,1,8,0:2:0:0:
504,318,85702,1,0,3:2:0:0:
292,236,85842,5,12,0:2:0:0:
451,105,85981,1,0,3:2:0:0:
233,0,86121,2,0,L|245:91,1,90.9999958343508,10|0,0:2|3:2,0:0:0:0:
191,288,86400,2,0,P|156:259|111:254,1,90.9999958343508,10|0,0:2|3:2,0:0:0:0:
332,139,86679,1,10,0:2:0:0:
138,63,86818,6,0,L|150:154,1,90.9999958343508,6|0,3:2|0:0,0:0:0:0:
294,374,87098,1,2,3:2:0:0:
294,374,87237,2,0,P|328:345|373:340,1,90.9999958343508,8|0,0:2|0:0,0:0:0:0:
