osu file format v14

[General]
AudioFilename: MY FIRST STORY - Kyogen NEUROSE.mp3
AudioLeadIn: 0
PreviewTime: 82331
Countdown: 0
SampleSet: Soft
StackLeniency: 0.7
Mode: 0
LetterboxInBreaks: 0
WidescreenStoryboard: 0

[Editor]
DistanceSpacing: 1
BeatDivisor: 4
GridSize: 4
TimelineZoom: 1.2

[Metadata]
Title:Itsuwari NEUROSE
TitleUnicode:虚言NEUROSE
Artist:MY FIRST STORY
ArtistUnicode:MY FIRST STORY
Creator:Saut
Version:Normal
Source:
Tags:SkinnyJommy Broccoly
BeatmapID:822404
BeatmapSetID:365963

[Difficulty]
HPDrainRate:4
CircleSize:3.5
OverallDifficulty:4
ApproachRate:5
SliderMultiplier:1
SliderTickRate:2

[Events]
//Background and Video events
0,0,"v5.jpg",0,0
//Break Periods
2,36733,45546
2,98648,106184
2,119073,127248
2,175243,184056
//Storyboard Layer 0 (Background)
//Storyboard Layer 1 (Fail)
//Storyboard Layer 2 (Pass)
//Storyboard Layer 3 (Foreground)
//Storyboard Sound Samples

[TimingPoints]
150,319.148936170213,4,2,1,100,1,0
789,319.148936170213,4,1,9,80,1,0
16108,-100,4,1,9,80,0,1
16267,-100,4,2,1,70,0,0
36533,-100,4,2,2,50,0,0
46746,-100,4,2,1,40,0,0
55363,-100,4,2,1,65,0,0
56959,-100,4,2,1,60,0,0
67171,-100,4,2,1,60,0,0
77384,-100,4,2,2,50,0,0
79618,-100,4,2,1,60,0,0
83129,319.148936170213,4,2,9,85,1,1
83448,-100,4,2,1,75,0,1
97171,-100,4,2,1,50,0,0
98448,-100,4,2,2,50,0,0
107384,-100,4,2,1,50,0,0
108660,-100,4,2,1,55,0,0
116320,-100,4,2,1,60,0,0
118873,-100,4,2,2,50,0,0
128448,-100,4,2,1,65,0,0
129086,-100,4,2,1,60,0,0
136586,-100,4,2,1,65,0,0
139299,-100,4,2,1,55,0,0
141852,-100,4,2,1,65,0,0
144405,-100,4,2,9,85,0,1
144724,-100,4,2,1,75,0,1
159086,-100,4,2,1,70,0,0
159724,-100,4,2,9,90,0,1
160043,-100,4,2,1,80,0,1
172490,-100,4,2,1,70,0,0
175043,-100,4,2,2,50,0,0
185256,-100,4,2,1,55,0,0
200575,-100,4,2,1,60,0,0
205522,-100,4,2,1,65,0,1
205682,-100,4,2,1,65,0,0
226107,-100,4,2,2,50,0,0
229937,-100,4,2,1,65,0,0
231214,-100,4,1,9,90,0,1
231533,-100,4,2,1,80,0,1
240150,-100,4,2,1,75,0,0
241426,-100,4,2,9,95,0,1
241746,-100,4,2,1,85,0,1
251639,-100,4,2,1,100,0,1
251958,-100,4,2,1,85,0,1
254192,-100,4,2,1,75,0,0
254831,-100,4,2,2,30,0,0
257863,-100,4,2,2,15,0,0

[Colours]
Combo1 : 251,63,128
Combo2 : 160,146,218
Combo3 : 177,126,114
Combo4 : 214,194,228
SliderTrackOverride : 27,18,49

[HitObjects]
268,123,16108,6,0,P|319:123|389:96,1,100,4|10,0:0|0:1,0:0:0:0:
448,53,16746,2,0,L|444:169,1,100,2|8,1:0|0:1,0:0:0:0:
377,227,17384,1,0,1:0:0:0:
392,325,17703,2,0,P|448:333|511:310,2,100,10|2|8,0:1|1:0|0:1,0:0:0:0:
298,288,18661,6,0,L|182:298,1,100,4|10,1:0|0:1,0:0:0:0:
109,250,19299,2,0,L|-7:240,2,100,2|8|0,1:0|0:1|1:0,0:0:0:0:
195,199,20257,2,0,P|209:150|200:84,1,100,10|2,0:1|1:0,0:0:0:0:
150,17,20895,1,8,0:1:0:0:
55,49,21214,6,0,P|51:98|65:146,1,100,4|10,1:0|0:1,0:0:0:0:
102,239,21852,2,0,L|96:343,1,100,2|8,1:0|0:1,0:0:0:0:
186,381,22490,1,0,1:0:0:0:
249,303,22809,2,0,P|317:280|367:287,2,100,10|2|8,0:1|1:0|0:1,0:0:0:0:
198,216,23767,6,0,L|203:116,1,100,4|10,1:0|0:1,0:0:0:0:
259,32,24406,2,0,B|338:1|376:79|465:35,1,200,2|10,1:0|0:1,0:0:0:0:
471,138,25363,1,10,0:1:0:0:
395,203,25682,1,10,0:1:0:0:
296,186,26001,1,10,0:1:0:0:
224,116,26320,6,0,P|174:101|121:115,1,100,4|10,0:1|0:1,0:0:0:0:
75,195,26958,2,0,L|85:319,1,100,2|8,1:0|0:1,0:0:0:0:
136,378,27596,1,0,1:0:0:0:
179,287,27916,2,0,L|170:187,2,100,10|2|8,0:1|1:0|0:1,0:0:0:0:
256,350,28873,6,0,P|308:363|359:351,1,100,4|10,1:0|0:1,0:0:0:0:
412,273,29512,2,0,L|511:264,2,100,2|8|0,1:0|0:1|1:0,0:0:0:0:
338,205,30469,2,0,P|339:152|367:94,1,100,10|2,0:1|1:0,0:0:0:0:
429,41,31107,1,8,0:1:0:0:
333,12,31426,6,0,L|232:20,1,100,4|10,1:0|0:1,0:0:0:0:
181,105,32064,2,0,L|59:88,1,100,2|8,1:0|0:1,0:0:0:0:
5,155,32702,1,0,1:0:0:0:
52,242,33023,2,0,P|53:300|24:356,2,100,10|2|8,0:1|1:0|0:1,0:0:0:0:
146,207,33979,6,0,B|197:200|197:200|253:212,1,100,4|10,0:1|0:1,0:0:0:0:
294,297,34618,2,0,B|271:210|328:156|328:156|322:87,1,200,2|2,1:0|1:0,0:0:0:0:
355,14,35575,1,10,0:1:0:0:
443,60,35895,2,0,L|433:172,1,100,8|8,0:3|0:1,0:0:0:0:
469,252,36533,5,6,0:0:0:0:
473,190,46746,6,0,L|373:181,1,100,4|0,1:0|1:0,0:0:0:0:
287,233,47384,2,0,P|239:245|187:241,1,100,0|0,1:0|1:0,0:0:0:0:
104,189,48023,1,0,1:0:0:0:
47,271,48342,2,0,L|54:381,2,100,0|0|0,1:0|1:0|1:0,0:0:0:0:
6,179,49299,6,0,P|-7:141|-2:78,1,100,0|0,1:0|1:0,0:0:0:0:
81,29,49937,2,0,L|198:35,1,100,0|0,1:0|1:0,0:0:0:0:
258,97,50576,1,0,1:0:0:0:
227,192,50895,1,0,1:0:0:0:
275,279,51214,2,0,P|337:277|375:256,1,100,0|0,1:0|1:0,0:0:0:0:
440,188,51852,6,0,L|435:77,1,100,0|0,1:0|1:0,0:0:0:0:
338,64,52491,2,0,L|342:163,1,100,0|0,1:0|1:0,0:0:0:0:
369,260,53130,1,0,1:0:0:0:
314,344,53449,2,0,P|273:358|193:342,2,100,0|0|0,1:0|1:0|1:0,0:0:0:0:
253,264,54406,6,0,P|203:258|156:273,1,100,0|0,1:0|1:0,0:0:0:0:
60,303,55044,2,0,B|79:254|79:254|67:207,1,100,0|0,1:0|1:0,0:0:0:0:
29,174,55523,2,0,P|77:141|175:141,1,150,8|8,0:1|0:1,0:0:0:0:
218,223,56320,2,0,B|325:232|325:232|371:189,1,150,8|4,0:1|0:3,0:0:0:0:
386,162,56959,5,6,1:0:0:0:
457,231,57278,2,0,L|464:320,2,75,8|8|2,0:1|0:1|1:0,0:0:0:0:
499,140,58076,2,0,P|511:91|489:41,1,100,2|2,1:0|1:0,0:0:0:0:
445,34,58554,2,0,L|327:43,1,100,8|0,0:1|1:0,0:0:0:0:
274,112,59193,1,8,0:1:0:0:
303,207,59512,5,6,1:0:0:0:
239,284,59831,2,0,L|248:377,2,75,8|8|2,0:1|0:1|1:0,0:0:0:0:
213,186,60629,2,0,P|170:173|106:190,1,100,2|2,1:0|1:0,0:0:0:0:
83,221,61108,2,0,P|79:155|179:55,1,200,8|8,0:1|0:3,0:0:0:0:
260,81,62065,5,6,1:0:0:0:
353,45,62384,2,0,L|446:58,2,75,8|8|2,0:1|0:1|1:0,0:0:0:0:
331,142,63182,2,0,P|331:195|358:252,1,100,2|2,1:0|1:0,0:0:0:0:
375,280,63661,2,0,L|362:386,1,100,8|0,0:1|0:0,0:0:0:0:
273,334,64299,1,8,0:1:0:0:
273,334,64459,6,0,B|223:322|223:322|156:336,1,100,4|0,1:0|1:0,0:0:0:0:
133,305,64937,2,0,L|132:195,2,100,10|10|10,0:1|0:1|0:1,0:0:0:0:
88,327,65735,1,4,1:0:0:0:
32,243,66054,2,0,B|27:188|27:188|36:152|36:152|33:90,2,150,8|8|8,0:1|0:3|0:1,0:0:0:0:
11,288,67171,5,6,1:0:0:0:
86,353,67491,2,0,P|120:366|158:365,2,75,12|8|2,1:0|0:1|1:0,0:0:0:0:
140,268,68289,2,0,P|184:268|235:301,1,100,2|0,1:0|1:0,0:0:0:0:
265,332,68767,2,0,L|373:323,1,100,8|0,0:1|0:0,0:0:0:0:
453,277,69406,1,8,0:1:0:0:
470,178,69724,5,2,1:0:0:0:
411,96,70044,2,0,L|415:20,2,75,8|8|2,0:1|0:1|1:0,0:0:0:0:
351,176,70842,2,0,P|303:187|243:177,1,100,2|0,1:0|1:0,0:0:0:0:
184,108,71480,2,0,P|134:101|86:112,1,100,0|0,0:1|1:0,0:0:0:0:
48,145,71959,1,8,0:1:0:0:
25,242,72277,5,6,1:0:0:0:
104,303,72597,2,0,L|97:400,2,75,8|8|2,0:1|0:1|1:0,0:0:0:0:
159,219,73395,2,0,P|203:219|254:252,1,100,2|0,1:0|1:0,0:0:0:0:
291,274,73873,2,0,L|282:166,1,100,8|8,0:1|0:3,0:0:0:0:
312,78,74512,1,8,0:1:0:0:
406,46,74831,5,6,1:0:0:0:
479,114,75150,2,0,L|487:213,2,100,8|8|8,0:1|0:1|0:1,0:0:0:0:
503,70,75948,1,6,0:0:0:0:
406,46,76267,2,0,B|295:26|281:138|156:105,1,250,8|8,0:1|0:3,0:0:0:0:
74,84,77384,5,4,0:0:0:0:
350,350,79618,1,8,0:3:0:0:
317,255,79937,6,0,P|391:244|464:262,2,150,10|10|10,0:1|0:1|0:1,0:0:0:0:
279,287,81054,2,0,L|272:187,2,100,4|4|4,0:3|0:3|0:3,0:0:0:0:
91,328,83129,6,0,P|67:284|59:235,1,100,6|8,1:0|0:1,0:0:0:0:
114,152,83767,2,0,L|228:162,2,100,0|8|0,1:0|0:1|1:0,0:0:0:0:
49,75,84724,1,8,0:1:0:0:
133,20,85043,2,0,P|182:12|230:22,1,100,2|8,1:0|0:1,0:0:0:0:
293,100,85682,6,0,L|391:85,1,100,6|8,1:0|0:1,0:0:0:0:
354,178,86320,2,0,L|255:192,2,100,0|8|0,1:0|0:1|1:0,0:0:0:0:
429,243,87277,1,8,0:1:0:0:
497,169,87597,2,0,P|513:122|511:72,1,100,2|8,1:0|0:1,0:0:0:0:
470,45,88075,1,10,1:0:0:0:
470,45,88235,6,0,L|362:57,1,100,6|10,1:0|0:1,0:0:0:0:
303,130,88873,1,2,1:0:0:0:
206,102,89192,1,10,0:1:0:0:
111,68,89511,2,0,L|-10:86,2,100,0|8|0,1:0|0:1|1:0,0:0:0:0:
127,166,90469,2,0,P|123:190|118:215,1,50,10|0,0:1|0:0,0:0:0:0:
88,255,90788,6,0,P|139:255|189:280,1,100,4|10,1:0|0:1,0:0:0:0:
264,332,91426,2,0,L|258:418,2,50,2|8|2,1:0|0:1|1:0,0:0:0:0:
270,231,92065,2,0,P|317:216|366:226,1,100,8|8,0:1|0:1,0:0:0:0:
430,302,92703,2,0,P|409:234|467:164,1,150,8|8,0:1|0:1,0:0:0:0:
495,147,93341,5,0,1:0:0:0:
422,77,93660,2,0,B|372:68|372:68|307:80,1,100,14|0,1:0|1:0,0:0:0:0:
232,118,94299,2,0,L|235:236,1,100,10|0,0:1|1:0,0:0:0:0:
264,313,94937,2,0,P|219:332|161:334,1,100,10|0,0:1|1:0,0:0:0:0:
71,311,95575,1,10,0:1:0:0:
107,218,95894,6,0,P|129:143|98:67,1,150,4|0,1:0|1:0,0:0:0:0:
66,46,96533,2,0,B|166:36|166:36|234:69,1,150,8|12,0:1|0:3,0:0:0:0:
251,86,97171,5,10,1:0:0:0:
258,335,98448,5,4,0:0:0:0:
66,324,107384,6,0,L|59:224,2,100,8|8|8,0:1|0:3|0:1,0:0:0:0:
152,373,108341,1,12,1:0:0:0:
212,293,108660,6,0,P|255:270|303:279,1,100,2|8,1:0|0:1,0:0:0:0:
433,204,109458,2,0,L|439:105,2,100,2|2|0,1:0|1:0|1:0,0:0:0:0:
467,240,110256,2,0,P|457:289|424:332,1,100,10|0,0:1|0:0,0:0:0:0:
329,308,110894,1,8,0:1:0:0:
260,234,111214,6,0,L|140:245,1,100,2|8,1:0|0:1,0:0:0:0:
46,146,112011,2,0,P|37:96|49:43,2,100,2|2|0,1:0|1:0|1:0,0:0:0:0:
92,164,112809,2,0,L|191:154,1,100,10|0,0:1|1:0,0:0:0:0:
255,78,113447,1,10,0:1:0:0:
353,98,113767,6,0,P|407:88|447:57,1,100,6|8,1:0|0:1,0:0:0:0:
487,151,114405,2,0,L|469:284,1,100,0|8,1:0|0:1,0:0:0:0:
489,297,114884,2,0,B|421:266|417:325|340:293,1,150,2|8,1:0|0:1,0:0:0:0:
272,224,115682,2,0,L|173:243,1,100,0|8,1:0|0:1,0:0:0:0:
77,268,116320,5,6,1:0:0:0:
111,174,116639,2,0,P|115:124|100:71,1,100,10|10,0:1|0:1,0:0:0:0:
194,36,117277,1,0,1:0:0:0:
194,36,117437,2,0,B|292:31|292:31|348:59,1,150,10|10,0:1|0:1,0:0:0:0:
391,139,118235,2,0,L|377:270,1,100,8|8,1:0|0:3,0:0:0:0:
437,320,118873,5,4,0:0:0:0:
76,132,128448,6,0,P|105:65|174:71,1,150,8|8,0:1|0:1,0:0:0:0:
185,119,129086,5,6,1:0:0:0:
269,66,129405,2,0,L|358:59,2,75,8|8|2,0:1|0:1|1:0,0:0:0:0:
312,156,130203,2,0,L|415:147,1,100,2|2,1:0|1:0,0:0:0:0:
460,141,130681,2,0,P|480:187|478:237,1,100,8|0,0:1|1:0,0:0:0:0:
421,320,131320,1,8,0:1:0:0:
326,286,131639,5,6,1:0:0:0:
228,306,131958,2,0,B|225:344|225:344|237:382,2,75,8|8|2,0:1|0:1|1:0,0:0:0:0:
269,214,132756,2,0,P|283:163|265:107,1,100,2|8,1:0|0:3,0:0:0:0:
237,82,133235,1,8,0:1:0:0:
143,47,133554,2,0,L|43:59,1,100,8|8,0:1|0:3,0:0:0:0:
83,150,134192,5,6,1:0:0:0:
51,244,134511,2,0,P|48:282|65:330,2,75,8|8|2,0:1|0:1|1:0,0:0:0:0:
148,269,135309,2,0,B|211:272|211:272|251:255,1,100,2|2,1:0|1:0,0:0:0:0:
285,234,135788,2,0,L|279:342,1,100,8|0,0:1|0:0,0:0:0:0:
373,300,136426,1,8,0:1:0:0:
373,300,136586,6,0,L|378:200,1,100,6|0,1:0|1:0,0:0:0:0:
404,157,137064,2,0,P|452:166|503:194,2,100,10|10|10,0:1|0:1|0:1,0:0:0:0:
364,125,137862,1,4,1:0:0:0:
293,53,138182,2,0,P|244:62|155:132,2,150,8|8|8,0:1|0:3|1:0,0:0:0:0:
333,22,139299,6,0,L|440:30,1,100,4|8,1:0|0:1,0:0:0:0:
486,113,139937,2,0,L|379:121,1,100,0|8,1:0|0:1,0:0:0:0:
330,203,140575,2,0,L|437:211,1,100,0|8,1:0|0:1,0:0:0:0:
478,297,141213,2,0,L|371:305,1,100,0|0,1:0|1:0,0:0:0:0:
279,286,141852,5,8,0:1:0:0:
195,340,142171,1,8,0:1:0:0:
99,311,142490,1,8,0:1:0:0:
61,218,142809,1,8,0:1:0:0:
120,136,143129,2,0,P|112:85|81:48,1,100,8|4,0:1|0:3,0:0:0:0:
21,129,143767,1,4,0:3:0:0:
61,218,144086,2,0,L|58:267,1,50,8|4,0:1|0:3,0:0:0:0:
49,317,144405,6,0,P|93:293|143:290,1,100,4|8,1:0|0:1,0:0:0:0:
229,338,145043,2,0,L|343:348,2,100,0|8|0,1:0|0:1|1:0,0:0:0:0:
223,238,146000,1,8,0:1:0:0:
286,160,146319,2,0,P|296:111|288:62,1,100,2|8,1:0|0:1,0:0:0:0:
387,45,146958,6,0,L|487:63,1,100,6|8,1:0|0:1,0:0:0:0:
509,160,147597,2,0,L|410:142,2,100,0|8|0,1:0|0:1|1:0,0:0:0:0:
481,255,148553,1,8,0:1:0:0:
433,343,148873,2,0,P|386:359|336:357,1,100,2|8,1:0|0:1,0:0:0:0:
289,340,149351,1,10,1:0:0:0:
289,340,149511,6,0,L|298:240,1,100,6|10,1:0|0:1,0:0:0:0:
281,141,150149,1,2,1:0:0:0:
195,88,150468,1,0,0:0:0:0:
96,107,150788,2,0,L|105:7,2,100,0|8|0,1:0|0:1|1:0,0:0:0:0:
35,186,151745,2,0,L|38:235,1,50,10|0,0:1|0:0,0:0:0:0:
39,285,152064,6,0,B|85:295|85:295|149:280,1,100,6|10,1:0|0:1,0:0:0:0:
216,222,152703,2,0,L|219:172,2,50,2|8|2,1:0|0:1|1:0,0:0:0:0:
273,304,153341,2,0,P|320:319|369:309,1,100,10|10,0:1|0:1,0:0:0:0:
447,248,153979,2,0,B|426:153|426:153|449:84,1,150,10|8,0:1|0:1,0:0:0:0:
466,58,154617,5,0,1:0:0:0:
367,39,154936,2,0,P|317:39|270:56,1,100,14|0,0:1|1:0,0:0:0:0:
226,146,155575,2,0,P|179:162|129:163,1,100,10|0,0:1|1:0,0:0:0:0:
33,133,156213,2,0,L|45:232,1,100,10|0,0:1|1:0,0:0:0:0:
58,331,156851,1,10,0:1:0:0:
146,283,157171,6,0,P|189:265|251:264,1,100,6|8,1:0|0:1,0:0:0:0:
331,307,157809,1,0,1:0:0:0:
418,258,158129,1,8,0:1:0:0:
448,162,158448,2,0,P|452:105|425:45,1,100,2|8,1:0|0:1,0:0:0:0:
339,80,159086,2,0,B|266:93|266:93|193:67,1,150,8|8,0:1|0:1,0:0:0:0:
153,38,159724,6,0,P|141:87|148:136,1,100,4|8,1:0|0:1,0:0:0:0:
188,228,160362,2,0,L|74:238,2,100,0|8|0,1:0|0:1|1:0,0:0:0:0:
273,176,161319,1,8,0:1:0:0:
366,212,161638,2,0,P|374:261|364:309,1,100,0|8,1:0|0:1,0:0:0:0:
279,363,162277,6,0,L|179:371,1,100,6|8,1:0|0:1,0:0:0:0:
113,296,162916,2,0,B|66:281|66:281|13:287,2,100,0|8|0,1:0|0:1|1:0,0:0:0:0:
190,233,163872,1,8,0:1:0:0:
128,154,164192,2,0,P|124:104|139:56,1,100,2|8,1:0|0:1,0:0:0:0:
167,15,164670,1,10,1:0:0:0:
167,15,164830,6,0,L|275:27,1,100,6|10,1:0|0:1,0:0:0:0:
344,88,165468,1,2,1:0:0:0:
340,187,165787,1,0,0:0:0:0:
391,272,166107,2,0,L|373:393,2,100,0|8|0,1:0|0:1|1:0,0:0:0:0:
473,214,167064,2,0,L|467:163,1,50,10|0,0:1|0:0,0:0:0:0:
459,114,167383,6,0,B|412:102|412:102|350:120,1,100,0|10,0:0|1:0,0:0:0:0:
274,69,168022,2,0,L|268:-17,2,50,2|8|2,1:0|0:1|1:0,0:0:0:0:
242,164,168660,2,0,P|252:212|238:260,1,100,8|8,3:0|3:0,0:0:0:0:
174,336,169298,2,0,B|74:320|74:320|60:257,1,150,8|8,0:3|0:1,0:0:0:0:
53,223,169936,5,0,1:0:0:0:
127,155,170255,2,0,B|116:55,1,100,0|0,0:0|1:0,0:0:0:0:
215,71,170894,2,0,B|225:170,1,100,10|0,0:1|1:0,0:0:0:0:
229,270,171532,2,0,P|271:291|332:291,1,100,10|0,0:1|1:0,0:0:0:0:
397,226,172170,1,10,0:1:0:0:
435,133,172490,6,0,B|475:122|475:122|524:134,2,75,12|8|8,1:0|1:0|1:0,0:0:0:0:
92,269,175043,5,4,0:0:0:0:
379,333,185256,6,0,L|372:273,1,50,4|0,1:0|1:0,0:0:0:0:
301,213,185735,2,0,L|308:153,1,50,0|8,1:0|0:1,0:0:0:0:
327,65,186214,2,0,P|375:52|423:62,2,100,0|2|0,0:0|0:0|1:0,0:0:0:0:
236,108,187171,2,0,L|136:93,1,100,8|0,0:1|0:0,0:0:0:0:
51,144,187809,6,0,P|52:168|63:203,1,50,0|0,1:0|1:0,0:0:0:0:
61,293,188288,2,0,P|74:313|101:338,1,50,0|8,1:0|0:1,0:0:0:0:
188,303,188767,1,0,0:0:0:0:
273,355,189086,2,0,L|379:348,2,100,0|0|0,2:0|1:0|2:0,0:0:0:0:
188,303,190043,1,8,0:1:0:0:
235,214,190363,6,0,L|228:154,1,50,0|0,1:0|1:0,0:0:0:0:
150,103,190841,2,0,L|155:53,1,50,0|8,1:0|0:1,0:0:0:0:
250,19,191321,2,0,P|294:7|348:17,2,100,0|0|0,0:0|0:0|0:0,0:0:0:0:
298,106,192277,2,0,P|346:115|395:104,1,100,8|0,0:1|0:0,0:0:0:0:
476,46,192916,6,0,L|483:106,1,50,0|0,1:0|1:0,0:0:0:0:
442,187,193394,2,0,L|449:247,1,50,0|8,1:0|0:1,0:0:0:0:
408,328,193873,2,0,L|415:388,1,50,0|8,0:0|0:1,0:0:0:0:
307,272,194511,1,0,1:0:0:0:
221,220,194831,2,0,P|202:173|201:123,1,100,8|0,0:1|1:0,0:0:0:0:
243,33,195469,5,0,1:0:0:0:
144,16,195788,2,0,B|83:21|83:21|34:33,1,100,12|0,0:1|1:0,0:0:0:0:
8,64,196267,1,0,1:0:0:0:
81,131,196586,2,0,L|71:233,1,100,8|2,0:1|0:0,0:0:0:0:
42,271,197065,2,0,P|103:262|152:282,1,100,8|0,0:1|1:0,0:0:0:0:
217,334,197703,1,8,0:1:0:0:
300,278,198022,5,0,1:0:0:0:
221,215,198341,2,0,B|211:153|211:153|225:105,1,100,8|0,0:1|1:0,0:0:0:0:
247,74,198820,1,0,1:0:0:0:
337,31,199139,2,0,P|383:53|456:53,1,100,10|0,0:1|1:0,0:0:0:0:
477,37,199618,2,0,L|493:93,1,50,8|0,0:1|0:0,0:0:0:0:
421,157,200097,2,0,P|413:206|426:253,1,100,8|8,0:1|0:1,0:0:0:0:
459,292,200575,5,2,1:0:0:0:
385,359,200894,2,0,L|268:346,1,100,8|8,0:1|0:1,0:0:0:0:
184,347,201533,1,0,1:0:0:0:
184,347,201693,2,0,P|226:288|207:193,1,150,8|8,0:1|0:1,0:0:0:0:
144,147,202491,2,0,L|152:43,1,100,8|0,0:1|0:0,0:0:0:0:
246,17,203129,5,8,0:1:0:0:
343,40,203448,1,8,0:1:0:0:
399,122,203767,1,8,0:1:0:0:
388,221,204086,1,8,0:1:0:0:
343,310,204405,2,0,P|251:280|166:327,1,200,8|2,0:1|0:3,0:0:0:0:
26,271,205522,6,0,L|17:153,1,100,6|0,1:0|1:0,0:0:0:0:
43,130,206001,2,0,B|138:126|138:126|202:156,2,150,10|10|10,0:1|0:1|0:1,0:0:0:0:
2,38,207277,1,4,0:3:0:0:
2,38,207437,2,0,P|79:24|133:46,1,100,10|4,0:1|0:3,0:0:0:0:
193,61,208075,6,0,L|311:52,1,100,4|0,1:0|1:0,0:0:0:0:
332,83,208554,2,0,B|336:130|336:130|303:236,2,150,10|10|14,0:1|0:1|0:1,0:0:0:0:
397,7,209831,1,4,0:3:0:0:
397,7,209991,2,0,P|452:62|451:147,1,150,10|8,0:1|0:1,0:0:0:0:
397,210,210788,6,0,P|403:283|457:333,1,150,6|2,1:0|1:0,0:0:0:0:
500,359,211426,2,0,L|289:361,1,200,6|8,1:0|0:1,0:0:0:0:
208,320,212384,1,8,0:1:0:0:
180,223,212703,1,8,0:1:0:0:
211,127,213022,2,0,P|206:95|201:68,1,50,8|8,0:1|0:3,0:0:0:0:
211,28,213341,6,0,P|150:66|68:44,1,150,6|2,1:0|1:0,0:0:0:0:
34,24,213979,2,0,B|71:152|71:152|61:245,1,200,6|8,1:0|0:1,0:0:0:0:
37,315,214937,1,8,0:1:0:0:
123,364,215256,2,0,P|171:360|225:347,1,100,8|8,0:1|0:1,0:0:0:0:
261,317,215735,6,0,L|252:199,1,100,6|0,1:0|1:0,0:0:0:0:
279,174,216214,2,0,P|371:170|414:202,2,150,8|8|8,1:0|1:0|1:0,0:0:0:0:
183,144,217490,1,4,0:3:0:0:
183,144,217650,2,0,P|169:94|181:43,1,100,8|4,1:0|0:3,0:0:0:0:
278,32,218288,6,0,B|329:38|329:38|396:23,1,100,6|0,1:0|1:0,0:0:0:0:
423,45,218767,2,0,L|407:207,2,150,8|8|8,1:0|1:0|1:0,0:0:0:0:
499,109,220044,1,4,0:3:0:0:
499,109,220204,2,0,P|513:180|477:244,1,150,8|8,1:0|0:1,0:0:0:0:
391,294,221001,6,0,B|289:283|289:283|248:310,1,150,6|2,1:0|1:0,0:0:0:0:
212,342,221639,2,0,P|157:343|105:322,1,100,6|0,1:0|0:0,0:0:0:0:
66,240,222277,2,0,L|60:90,2,150,8|8|8,0:1|0:3|0:1,0:0:0:0:
148,183,223554,6,0,P|214:143|292:153,1,150,6|2,1:0|1:0,0:0:0:0:
321,182,224192,2,0,B|378:224|445:198|445:198|454:128,1,200,6|8,1:0|0:1,0:0:0:0:
424,33,225150,1,8,0:1:0:0:
329,66,225469,2,0,L|205:51,1,100,8|8,0:1|0:1,0:0:0:0:
140,98,226107,5,4,0:0:0:0:
16,110,229937,6,0,L|122:105,1,100,8|0,0:1|1:0,0:0:0:0:
154,74,230416,2,0,P|228:44|311:59,1,150,8|8,0:1|0:1,0:0:0:0:
348,138,231214,6,0,L|339:251,1,100,6|10,1:0|0:1,0:0:0:0:
286,321,231852,1,2,1:0:0:0:
186,314,232171,1,10,0:1:0:0:
103,257,232490,2,0,L|-18:275,2,100,0|8|0,1:0|0:1|1:0,0:0:0:0:
166,179,233448,2,0,P|191:180|215:188,1,50,10|0,0:1|0:0,0:0:0:0:
255,217,233767,6,0,P|255:166|280:116,1,100,2|10,1:0|0:1,0:0:0:0:
348,54,234405,2,0,L|342:4,2,50,2|2|10,1:0|0:0|0:1,0:0:0:0:
426,116,235044,2,0,L|419:215,1,100,0|8,1:0|0:1,0:0:0:0:
445,312,235682,2,0,P|382:290|302:353,1,150,8|8,0:1|0:1,0:0:0:0:
297,377,236320,5,6,1:0:0:0:
228,303,236639,2,0,B|128:311,1,100,10|0,0:1|1:0,0:0:0:0:
72,227,237277,2,0,B|171:218,1,100,10|0,0:1|1:0,0:0:0:0:
271,214,237916,2,0,P|290:169|292:111,1,100,10|0,0:1|1:0,0:0:0:0:
257,24,238554,1,8,0:1:0:0:
356,36,238873,5,0,1:0:0:0:
391,128,239192,2,0,P|385:202|355:273,2,150,10|10|10,0:1|0:1|0:1,0:0:0:0:
356,36,240469,1,10,0:1:0:0:
257,24,240788,2,0,B|172:45|172:45|104:38,1,150,10|10,0:1|0:1,0:0:0:0:
60,28,241426,6,0,P|48:77|55:126,1,100,6|8,1:0|0:1,0:0:0:0:
109,208,242064,2,0,L|99:322,2,100,0|8|0,1:0|0:1|1:0,0:0:0:0:
193,155,243021,1,8,0:1:0:0:
275,98,243340,2,0,P|324:102|368:125,1,100,2|8,1:0|0:1,0:0:0:0:
417,213,243979,6,0,L|409:313,1,100,6|8,1:0|0:1,0:0:0:0:
310,332,244618,2,0,L|318:232,2,100,0|8|0,1:0|0:1|1:0,0:0:0:0:
213,355,245574,1,8,0:1:0:0:
131,296,245894,2,0,P|110:252|114:194,1,100,2|8,1:0|0:1,0:0:0:0:
145,165,246372,1,10,0:1:0:0:
145,165,246532,6,0,B|156:117|156:117|146:56,1,100,6|10,1:0|0:1,0:0:0:0:
233,15,247170,1,2,1:0:0:0:
324,56,247489,1,10,0:1:0:0:
373,142,247809,2,0,L|494:124,2,100,0|8|0,1:0|0:1|1:0,0:0:0:0:
274,160,248766,2,0,P|269:182|268:211,1,50,10|0,0:1|1:0,0:0:0:0:
285,256,249086,6,0,L|164:238,1,100,2|10,1:0|1:0,0:0:0:0:
97,287,249724,2,0,L|33:293,2,50,6|8|6,1:0|0:1|1:2,0:0:0:0:
183,337,250362,2,0,B|240:329|240:329|291:335,1,100,6|6,1:0|1:2,0:0:0:0:
378,308,251001,2,0,P|414:259|408:150,1,150,6|8,1:0|0:1,0:0:0:0:
397,126,251638,5,4,1:0:0:0:
308,172,251957,2,0,P|261:178|208:161,1,100,10|0,0:1|1:0,0:0:0:0:
131,101,252597,2,0,P|83:86|34:91,1,100,10|0,0:1|1:0,0:0:0:0:
71,184,253234,2,0,L|50:287,1,100,10|0,0:1|1:0,0:0:0:0:
103,367,253872,1,8,0:1:0:0:
193,323,254192,6,0,B|229:317|229:317|286:327,2,75,12|8|8,1:0|0:1|0:1,0:0:0:0:
256,192,254831,12,0,257863,0:0:0:0:
