osu file format v14

[General]
AudioFilename: MY FIRST STORY - Kyogen NEUROSE.mp3
AudioLeadIn: 0
PreviewTime: 82331
Countdown: 0
SampleSet: Soft
StackLeniency: 0.2
Mode: 0
LetterboxInBreaks: 0
WidescreenStoryboard: 0

[Editor]
DistanceSpacing: 0.9
BeatDivisor: 4
GridSize: 4
TimelineZoom: 1.8

[Metadata]
Title:Itsuwari NEUROSE
TitleUnicode:虚言NEUROSE
Artist:MY FIRST STORY
ArtistUnicode:MY FIRST STORY
Creator:Saut
Version:Madness
Source:
Tags:SkinnyJommy Broccoly
BeatmapID:803199
BeatmapSetID:365963

[Difficulty]
HPDrainRate:6.5
CircleSize:4.2
OverallDifficulty:8.8
ApproachRate:9.4
SliderMultiplier:1.9
SliderTickRate:2

[Events]
//Background and Video events
0,0,"v5.jpg",0,0
//Break Periods
2,98648,106844
2,175244,184397
//Storyboard Layer 0 (Background)
//Storyboard Layer 1 (Fail)
//Storyboard Layer 2 (Pass)
//Storyboard Layer 3 (Foreground)
//Storyboard Sound Samples

[TimingPoints]
150,319.148936170213,4,2,1,100,1,0
789,319.148936170213,4,1,9,65,1,0
789,-200,4,1,9,65,0,0
1108,-200,4,2,2,50,0,0
16108,-100,4,1,9,80,0,1
16267,-100,4,2,1,70,0,0
36533,-200,4,2,2,50,0,0
46746,-142.857142857143,4,2,1,40,0,0
55203,-125,4,2,1,65,0,0
56959,-111.111111111111,4,2,1,60,0,0
67171,-105.263157894737,4,2,1,60,0,0
77384,-200,4,2,2,50,0,0
79618,-166.666666666667,4,2,1,60,0,0
79937,-90.9090909090909,4,2,1,60,0,0
82491,-360,4,2,2,50,0,0
83129,319.148936170213,4,2,9,85,1,1
83129,-95.2380952380952,4,2,9,85,0,1
83368,-95.2380952380952,4,2,1,75,0,1
97171,-100,4,2,1,50,0,0
97490,-100,4,2,2,50,0,0
107384,-90.9090909090909,4,2,1,50,0,0
108660,-125,4,2,1,55,0,0
116320,-111.111111111111,4,2,1,60,0,0
118873,-166.666666666667,4,2,2,50,0,0
127490,-90.9090909090909,4,2,2,65,0,0
127730,-90.9090909090909,4,2,2,15,0,0
127809,-90.9090909090909,4,2,2,65,0,0
128049,-90.9090909090909,4,2,2,15,0,0
128129,-90.9090909090909,4,2,2,65,0,0
128448,-105.263157894737,4,2,1,65,0,0
129086,-111.111111111111,4,2,1,60,0,0
136746,-111.111111111111,4,2,1,65,0,0
139299,-125,4,2,1,55,0,0
141852,-105.263157894737,4,2,1,65,0,0
144405,-95.2380952380952,4,2,9,85,0,1
144644,-95.2380952380952,4,2,1,75,0,1
159086,-95.2380952380952,4,2,1,70,0,0
159724,-95.2380952380952,4,2,9,90,0,1
159964,-95.2380952380952,4,2,1,80,0,1
172490,-74.0740740740741,4,2,1,70,0,0
173129,-100,4,2,2,50,0,0
185256,-166.666666666667,4,2,1,55,0,0
195469,-142.857142857143,4,2,1,55,0,0
200575,-125,4,2,1,60,0,0
205203,-200,4,2,1,50,0,0
205442,-200,4,2,1,15,0,0
205522,-105.263157894737,4,2,1,65,0,1
205682,-105.263157894737,4,2,1,65,0,0
222277,-133.333333333334,4,2,1,65,0,0
223554,-105.263157894737,4,2,1,65,0,0
226107,-166.666666666667,4,2,2,50,0,0
229937,-105.263157894737,4,2,1,65,0,0
231214,-95.2380952380952,4,1,9,90,0,1
231373,-95.2380952380952,4,2,1,80,0,1
240150,-95.2380952380952,4,2,1,75,0,0
241426,-90.9090909090909,4,2,9,95,0,1
241586,-90.9090909090909,4,2,1,85,0,1
250043,-90.9090909090909,4,2,0,85,0,1
250203,-90.9090909090909,4,2,1,85,0,1
250682,-90.9090909090909,4,2,0,85,0,1
250761,-90.9090909090909,4,2,1,85,0,1
251639,-90.9090909090909,4,2,1,100,0,1
251879,-90.9090909090909,4,2,1,85,0,1
254192,-74.0740740740741,4,2,1,75,0,0
254831,-166.666666666667,4,2,2,50,0,0
256746,-300,4,2,2,50,0,0
256905,-300,4,2,2,20,0,0

[Colours]
Combo1 : 254,221,120
Combo2 : 134,128,217
Combo3 : 177,126,114
Combo4 : 214,194,228
Combo5 : 251,63,128
SliderTrackOverride : 27,18,49

[HitObjects]
156,58,789,21,4,0:0:0:0:
156,58,1108,1,0,0:0:0:0:
113,131,1267,2,0,L|0:135,2,95
120,138,2225,5,0,0:0:0:0:
199,149,2384,1,0,0:0:0:0:
278,162,2544,1,0,0:0:0:0:
357,174,2703,2,0,L|442:170,2,71.25
225,223,3342,53,2,0:0:0:0:
225,223,3661,1,0,0:0:0:0:
180,295,3820,2,0,L|67:299,2,95
187,302,4778,5,0,0:0:0:0:
227,232,4937,1,0,0:0:0:0:
212,152,5097,1,0,0:0:0:0:
150,99,5257,2,0,L|102:102,2,47.5
263,41,5735,53,2,0:0:0:0:
263,41,6054,1,0,0:0:0:0:
317,107,6214,2,0,L|423:101,1,95
477,157,6693,2,0,P|478:180|466:207,1,47.5
309,258,7012,6,0,L|415:252,2,95,2|0|0,0:0|0:0|0:0,0:0:0:0:
305,264,7969,1,0,0:0:0:0:
249,322,8129,2,0,L|190:318,1,47.5
74,231,8448,53,2,0:0:0:0:
74,231,8767,1,0,0:0:0:0:
121,159,8927,2,0,L|234:163,1,95
301,165,9406,1,0,0:0:0:0:
173,62,9565,6,0,L|67:68,2,95,2|0|0,0:0|0:0|0:0,0:0:0:0:
179,69,10523,1,0,0:0:0:0:
253,27,10682,2,0,L|304:28,1,47.5
413,132,11001,53,2,0:0:0:0:
413,132,11320,1,0,0:0:0:0:
482,182,11480,2,0,P|493:229|475:285,1,95
431,343,11959,1,0,0:0:0:0:
313,245,12118,6,0,L|209:254,1,95,2|0,0:0|0:0,0:0:0:0:
153,309,12597,1,0,0:0:0:0:
88,365,12757,2,0,L|40:368,1,47.5
26,283,13076,2,0,L|73:279,1,47.5
105,122,13395,53,2,0:0:0:0:
105,122,13714,1,0,0:0:0:0:
176,73,13874,2,0,L|243:77,1,47.5
303,45,14193,2,0,P|259:108|287:175,1,142.5
327,238,14831,37,0,0:0:0:0:
241,244,15150,1,0,0:0:0:0:
155,249,15469,1,0,0:0:0:0:
69,255,15789,1,0,0:0:0:0:
359,257,16108,6,0,L|245:267,1,95,4|0,0:0|0:0,0:0:0:0:
478,334,16427,2,0,L|484:234,1,95,10|0,0:1|0:0,0:0:0:0:
369,52,16746,2,0,L|375:152,1,95,2|0,1:0|0:0,0:0:0:0:
304,347,17065,1,8,0:1:0:0:
387,233,17225,1,0,0:0:0:0:
186,224,17384,54,0,P|240:228|296:246,1,95,0|0,1:0|0:0,0:0:0:0:
76,339,17703,2,0,L|70:239,1,95,10|0,0:1|0:0,0:0:0:0:
203,42,18023,2,0,L|197:142,1,95,2|0,1:0|0:0,0:0:0:0:
19,179,18342,1,8,0:1:0:0:
186,224,18501,1,0,0:0:0:0:
105,73,18661,6,0,L|111:173,1,95,4|0,1:0|0:0,0:0:0:0:
350,90,18980,1,10,0:1:0:0:
394,192,19140,1,0,0:0:0:0:
231,60,19299,1,2,1:0:0:0:
193,186,19459,1,0,0:0:0:0:
422,41,19618,53,8,0:1:0:0:
273,140,19777,1,0,0:0:0:0:
423,218,19937,6,0,L|415:313,1,95,0|0,1:0|0:0,0:0:0:0:
209,264,20257,1,10,0:1:0:0:
227,380,20417,1,0,0:0:0:0:
79,227,20576,1,2,1:0:0:0:
50,347,20736,1,0,0:0:0:0:
106,109,20895,53,8,0:1:0:0:
216,279,21054,1,8,0:1:0:0:
216,279,21134,1,8,0:1:0:0:
216,279,21214,6,0,L|328:274,1,95,4|0,1:0|0:0,0:0:0:0:
240,98,21533,2,0,P|246:145|264:189,1,95,10|0,0:1|0:0,0:0:0:0:
420,347,21852,2,0,P|437:303|444:256,1,95,2|0,1:0|0:0,0:0:0:0:
272,201,22171,1,8,0:1:0:0:
382,135,22331,1,0,0:0:0:0:
218,72,22491,54,0,L|123:76,1,95,0|0,1:0|0:0,0:0:0:0:
99,346,22810,2,0,P|120:297|126:247,1,95,10|0,0:1|0:0,0:0:0:0:
16,84,23129,2,0,P|23:130|42:173,1,95,2|0,1:0|0:0,0:0:0:0:
250,185,23448,1,8,0:1:0:0:
123,240,23608,1,0,0:0:0:0:
359,299,23767,6,0,P|290:310|229:275,1,142.5,4|0,1:0|2:0,0:0:0:0:
215,263,24086,2,0,L|223:365,1,95,10|0,0:1|0:0,0:0:0:0:
301,118,24406,37,2,1:0:0:0:
368,290,24565,1,8,0:1:0:0:
388,52,24725,5,0,1:0:0:0:
297,218,24884,1,8,0:1:0:0:
89,77,25044,54,0,L|147:88,1,47.5,10|8,0:1|0:1,0:0:0:0:
256,147,25203,2,0,L|198:136,1,47.5,0|0,1:0|1:0,0:0:0:0:
45,102,25363,6,0,L|103:113,1,47.5,10|8,0:1|0:1,0:0:0:0:
224,184,25523,2,0,L|166:173,1,47.5,0|0,1:0|1:0,0:0:0:0:
149,42,25683,53,10,0:1:0:0:
175,82,25763,1,8,0:1:0:0:
178,129,25843,1,8,0:1:0:0:
157,170,25921,1,8,0:1:0:0:
117,195,26001,1,10,0:1:0:0:
87,229,26081,1,8,0:1:0:0:
77,275,26161,1,8,0:1:0:0:
92,320,26241,1,8,0:1:0:0:
118,359,26320,22,0,B|175:338|175:338|222:347,1,95,4|0,0:1|0:0,0:0:0:0:
409,208,26640,1,10,0:1:0:0:
430,334,26799,1,0,0:0:0:0:
278,159,26959,1,2,1:0:0:0:
299,285,27118,1,0,0:0:0:0:
421,87,27278,2,0,P|376:58|327:52,1,95,8|0,0:1|0:0,0:0:0:0:
193,152,27597,54,0,P|234:147|290:129,1,95,0|0,1:0|0:0,0:0:0:0:
32,99,27916,1,10,0:1:0:0:
69,242,28076,1,0,0:0:0:0:
174,36,28235,1,2,1:0:0:0:
161,164,28395,1,0,0:0:0:0:
313,57,28554,2,0,L|408:66,1,95,8|0,0:1|0:0,0:0:0:0:
473,274,28874,6,0,L|378:283,1,95,4|0,1:0|0:0,0:0:0:0:
157,239,29193,1,10,0:1:0:0:
186,373,29352,1,0,0:0:0:0:
312,189,29512,1,2,1:0:0:0:
288,334,29671,1,0,0:0:0:0:
203,137,29831,2,0,P|163:121|107:123,1,95,8|0,0:1|0:0,0:0:0:0:
65,355,30150,54,0,L|60:261,1,95,0|0,1:0|0:0,0:0:0:0:
174,43,30469,1,10,0:1:0:0:
211,170,30628,1,0,0:0:0:0:
362,65,30789,1,2,1:0:0:0:
386,202,30948,1,0,0:0:0:0:
435,22,31108,5,8,0:1:0:0:
295,198,31267,1,8,0:1:0:0:
294,207,31347,1,8,0:1:0:0:
294,216,31427,54,0,L|304:325,1,95,4|0,1:0|0:0,0:0:0:0:
452,353,31746,1,10,0:1:0:0:
308,337,31906,1,0,0:0:0:0:
486,244,32065,1,2,1:0:0:0:
337,326,32225,1,0,0:0:0:0:
349,81,32384,5,8,0:1:0:0:
391,245,32544,1,0,0:0:0:0:
223,159,32703,54,0,P|174:162|111:174,1,95,0|0,1:0|0:0,0:0:0:0:
175,311,33023,1,10,0:1:0:0:
118,184,33183,1,0,0:0:0:0:
68,349,33342,1,2,1:0:0:0:
111,200,33501,1,0,0:0:0:0:
237,374,33661,5,8,0:1:0:0:
58,265,33820,1,0,0:0:0:0:
343,331,33980,53,4,0:1:0:0:
343,331,34299,2,0,L|457:338,1,95,10|0,0:1|0:0,0:0:0:0:
261,249,34618,53,2,1:0:0:0:
463,156,34778,1,8,0:1:0:0:
284,156,34938,5,0,1:0:0:0:
503,243,35097,1,8,0:1:0:0:
366,86,35257,53,2,1:0:0:0:
409,232,35416,1,0,1:0:0:0:
196,182,35576,1,10,0:1:0:0:
182,332,35735,1,0,1:0:0:0:
33,244,35895,53,8,0:3:0:0:
60,240,35975,1,8,0:3:0:0:
88,236,36054,1,4,0:3:0:0:
116,232,36134,1,4,0:3:0:0:
148,254,36214,5,8,0:1:0:0:
71,49,36533,38,0,L|76:154,1,95,6|0,0:0|0:0,0:0:0:0:
196,182,37012,2,0,L|191:77,1,95,0|0,0:0|0:0,0:0:0:0:
191,87,37491,1,0,0:0:0:0:
171,283,37810,6,0,P|221:279|267:255,1,95,2|0,0:0|0:0,0:0:0:0:
388,356,38289,2,0,P|338:352|292:328,1,95,0|0,0:0|0:0,0:0:0:0:
298,332,38767,1,0,0:0:0:0:
435,75,39086,54,0,B|444:139|444:139|433:178,1,95,2|0,0:0|0:0,0:0:0:0:
331,129,39565,2,0,B|322:65|322:65|333:26,1,95,0|0,0:0|0:0,0:0:0:0:
330,35,40044,1,0,0:0:0:0:
71,74,40363,5,2,0:0:0:0:
51,80,40523,1,0,0:0:0:0:
181,131,40682,1,2,0:0:0:0:
201,137,40842,1,0,0:0:0:0:
53,188,41001,1,2,0:0:0:0:
33,194,41161,2,0,L|41:254,1,47.5
58,322,41480,1,0,0:0:0:0:
244,298,41640,54,0,P|184:261|113:260,2,142.5,2|0|0,0:0|0:0|0:0,0:0:0:0:
332,190,42916,6,0,P|391:153|462:152,2,142.5,2|0|0,0:0|0:0|0:0,0:0:0:0:
244,81,44193,54,0,P|184:44|113:43,2,142.5,2|0|0,0:0|0:0|0:0,0:0:0:0:
248,87,45469,6,0,L|311:82,1,47.5,2|0,0:0|0:0,0:0:0:0:
430,47,45789,2,0,L|383:43,1,47.5,2|0,0:0|0:0,0:0:0:0:
343,210,46108,53,2,0:0:0:0:
370,131,46267,1,0,0:0:0:0:
452,289,46427,1,2,0:0:0:0:
434,206,46586,1,0,0:0:0:0:
364,356,46746,54,0,L|276:349,1,66.4999979705811,4|0,1:0|0:0,0:0:0:0:
161,304,47065,2,0,P|193:298|226:296,1,66.4999979705811,0|0,1:0|0:0,0:0:0:0:
253,183,47384,2,0,L|244:97,2,66.4999979705811,0|0|0,1:0|0:0|1:0,0:0:0:0:
290,264,47863,1,0,0:0:0:0:
126,163,48023,21,0,1:0:0:0:
86,247,48182,1,0,0:0:0:0:
36,130,48342,2,0,L|43:58,1,66.4999979705811,0|0,1:0|0:0,0:0:0:0:
167,19,48661,2,0,L|174:91,1,66.4999979705811,0|0,1:0|0:0,0:0:0:0:
223,171,48980,1,0,1:0:0:0:
126,163,49140,1,0,0:0:0:0:
268,82,49299,38,0,P|309:88|342:97,1,66.4999979705811,0|0,1:0|0:0,0:0:0:0:
474,147,49618,2,0,P|433:153|400:162,1,66.4999979705811,0|0,1:0|0:0,0:0:0:0:
297,237,49937,2,0,L|304:317,2,66.4999979705811,0|0|0,1:0|0:0|1:0,0:0:0:0:
328,153,50416,1,0,0:0:0:0:
402,317,50576,21,0,1:0:0:0:
423,223,50735,1,0,0:0:0:0:
412,331,50895,1,0,1:0:0:0:
412,207,51054,1,0,0:0:0:0:
305,342,51214,2,0,P|273:357|227:351,2,66.4999979705811,0|0|0,1:0|0:0|1:0,0:0:0:0:
343,256,51693,1,0,0:0:0:0:
252,139,51852,38,0,L|260:272,1,132.999995941162,0|0,1:0|1:0,0:0:0:0:
118,257,52331,2,0,P|148:244|189:242,1,66.4999979705811,0|0,0:0|1:0,0:0:0:0:
43,321,52650,2,0,L|37:233,1,66.4999979705811,0|0,0:0|1:0,0:0:0:0:
113,177,52969,1,0,0:0:0:0:
10,70,53129,22,0,P|64:84|147:57,1,132.999995941162,0|0,1:0|1:0,0:0:0:0:
255,34,53608,2,0,P|296:40|336:54,1,66.4999979705811,0|0,0:0|1:0,0:0:0:0:
366,209,53927,2,0,P|351:173|341:122,1,66.4999979705811,0|0,0:0|1:0,0:0:0:0:
412,77,54246,1,0,0:0:0:0:
454,216,54406,38,0,L|450:361,1,132.999995941162,0|0,1:0|1:0,0:0:0:0:
329,381,54884,2,0,P|287:376|254:359,1,66.4999979705811,0|0,0:0|1:0,0:0:0:0:
138,230,55203,22,0,L|131:280,1,38
115,354,55363,1,0,1:0:0:0:
48,186,55523,1,8,0:1:0:0:
220,274,55682,5,0,1:0:0:0:
254,173,55842,1,8,0:3:0:0:
301,345,56001,1,8,0:1:0:0:
351,107,56161,1,8,0:1:0:0:
386,93,56240,1,8,0:1:0:0:
422,101,56320,1,8,0:1:0:0:
449,127,56400,1,8,0:1:0:0:
458,163,56480,1,8,0:1:0:0:
447,199,56559,1,8,0:1:0:0:
422,224,56640,54,0,L|426:268,1,38,8|8,0:3|0:3,0:0:0:0:
380,368,56799,2,0,L|383:330,1,38,4|4,0:3|0:3,0:0:0:0:
339,186,56959,22,0,P|300:166|231:196,1,85.4999973907472,6|2,1:0|1:0,0:0:0:0:
53,275,57278,2,0,L|143:266,1,85.4999973907472,8|0,0:1|2:0,0:0:0:0:
176,294,57517,1,8,0:1:0:0:
182,299,57597,2,0,L|224:302,1,42.7499986953736,0|0,0:0|2:0,0:0:0:0:
312,255,57757,38,2,P|319:298|310:341,1,85.4999973907472,2|0,1:0|0:0,0:0:0:0:
112,190,58076,2,2,P|105:147|114:104,1,85.4999973907472,2|0,1:0|0:0,0:0:0:0:
318,45,58395,21,2,1:0:0:0:
373,177,58554,2,0,L|472:170,1,85.4999973907472,8|0,0:1|2:0,0:0:0:0:
465,175,58794,1,8,0:1:0:0:
471,180,58874,1,0,1:0:0:0:
387,95,59033,1,0,1:0:0:0:
426,289,59193,2,0,P|365:275|304:317,1,128.249996086121,8|0,0:1|2:0,0:0:0:0:
307,320,59512,38,2,L|213:315,1,85.4999973907472,6|2,1:0|1:0,0:0:0:0:
41,197,59831,2,0,P|82:187|125:186,1,85.4999973907472,8|0,0:1|2:0,0:0:0:0:
167,207,60070,1,8,0:1:0:0:
173,212,60150,2,0,L|168:154,1,42.7499986953736,0|0,0:0|2:0,0:0:0:0:
94,20,60310,22,2,P|90:64|104:118,1,85.4999973907472,2|0,1:0|0:0,0:0:0:0:
352,170,60629,2,2,P|356:126|342:72,1,85.4999973907472,2|0,1:0|0:0,0:0:0:0:
125,186,60948,53,2,1:0:0:0:
290,221,61108,2,0,L|300:319,1,85.4999973907472,8|0,0:1|0:0,0:0:0:0:
291,344,61347,1,8,0:1:0:0:
309,314,61427,1,8,0:1:0:0:
343,297,61507,1,8,0:1:0:0:
381,292,61586,1,8,0:1:0:0:
417,301,61666,1,8,0:1:0:0:
449,322,61746,53,8,0:3:0:0:
465,302,61826,1,8,0:3:0:0:
471,277,61906,1,4,0:3:0:0:
469,251,61985,1,4,0:3:0:0:
455,228,62065,22,2,L|459:139,1,85.4999973907472,6|2,1:0|1:0,0:0:0:0:
239,81,62384,2,0,P|277:93|331:84,1,85.4999973907472,8|0,0:1|2:0,0:0:0:0:
360,60,62624,1,8,0:1:0:0:
366,54,62703,2,0,L|370:118,1,42.7499986953736,0|0,0:0|2:0,0:0:0:0:
307,256,62863,38,2,L|311:170,1,85.4999973907472,2|0,1:0|0:0,0:0:0:0:
142,48,63182,2,2,L|147:134,1,85.4999973907472,2|0,1:0|0:0,0:0:0:0:
158,343,63501,21,2,1:0:0:0:
327,241,63661,2,0,L|413:247,1,85.4999973907472,8|0,0:1|0:0,0:0:0:0:
360,332,63980,1,0,0:0:0:0:
377,113,64140,1,0,1:0:0:0:
378,104,64219,1,0,1:0:0:0:
379,95,64299,2,0,L|383:38,1,42.7499986953736,8|0,0:1|2:0,0:0:0:0:
217,76,64459,54,0,P|269:116|336:99,1,128.249996086121,4|0,1:0|2:0,0:0:0:0:
382,52,64778,5,0,1:0:0:0:
347,233,64937,1,10,0:1:0:0:
293,20,65096,53,0,1:0:0:0:
334,260,65257,1,10,0:1:0:0:
142,163,65416,5,0,1:0:0:0:
412,278,65576,1,10,0:1:0:0:
52,330,65735,53,4,1:0:0:0:
52,330,66054,1,8,0:1:0:0:
69,291,66133,1,8,0:1:0:0:
80,249,66213,1,8,0:1:0:0:
83,207,66293,1,8,0:1:0:0:
78,164,66373,1,8,0:1:0:0:
67,123,66452,1,8,0:1:0:0:
40,88,66533,54,0,L|93:66,1,42.7499986953736,8|8,0:3|0:3,0:0:0:0:
207,9,66693,2,0,L|168:25,1,42.7499986953736,4|4,0:3|0:3,0:0:0:0:
154,130,66852,6,0,L|207:108,1,42.7499986953736,8|8,0:1|0:1,0:0:0:0:
321,51,67012,2,0,L|282:67,1,42.7499986953736,8|8,0:1|0:1,0:0:0:0:
167,224,67171,6,0,B|258:187|258:187|249:235,1,135.374996385098,6|0,1:0|2:0,0:0:0:0:
352,296,67491,2,0,L|340:205,1,90.2499975900651,12|0,1:0|2:0,0:0:0:0:
347,189,67730,1,8,0:1:0:0:
351,180,67810,1,0,0:0:0:0:
503,256,67969,2,0,P|511:208|507:148,1,90.2499975900651,2|0,1:0|0:0,0:0:0:0:
291,48,68289,21,2,1:0:0:0:
427,116,68448,1,0,0:0:0:0:
253,177,68608,1,0,1:0:0:0:
102,62,68767,2,0,L|111:157,1,90.2499975900651,8|0,0:1|2:0,0:0:0:0:
102,168,69006,1,8,0:1:0:0:
97,175,69086,1,0,0:0:0:0:
218,95,69246,1,0,1:0:0:0:
188,313,69406,2,0,L|179:218,1,90.2499975900651,8|0,0:1|2:0,0:0:0:0:
304,107,69725,37,2,1:0:0:0:
185,215,69884,1,0,1:0:0:0:
380,284,70044,2,0,L|371:189,1,90.2499975900651,8|0,0:1|2:0,0:0:0:0:
381,178,70283,1,8,0:1:0:0:
387,171,70363,1,0,0:0:0:0:
215,130,70523,1,2,1:0:0:0:
415,84,70682,1,0,0:0:0:0:
356,361,70842,22,0,L|247:351,1,90.2499975900651,2|0,1:0|0:0,0:0:0:0:
40,293,71161,2,0,L|149:283,1,90.2499975900651,0|8,1:0|0:1,0:0:0:0:
362,210,71480,2,0,L|253:200,1,90.2499975900651,0|0,0:1|1:0,0:0:0:0:
0,140,71799,2,0,L|109:130,1,90.2499975900651,0|8,1:0|0:1,0:0:0:0:
248,225,72118,1,0,0:0:0:0:
77,49,72278,37,6,1:0:0:0:
106,216,72437,1,0,1:0:0:0:
293,106,72597,2,0,P|246:100|195:116,1,90.2499975900651,8|0,0:1|2:0,0:0:0:0:
169,146,72836,1,8,0:1:0:0:
165,154,72916,2,0,L|155:44,1,90.2499975900651,0|2,0:0|1:0,0:0:0:0:
178,255,73235,1,0,0:0:0:0:
363,61,73395,21,2,1:0:0:0:
337,210,73554,1,0,0:0:0:0:
347,42,73714,1,0,1:0:0:0:
485,150,73874,2,0,L|485:260,1,90.2499975900651,8|0,0:1|0:0,0:0:0:0:
309,354,74193,1,8,0:3:0:0:
325,338,74273,1,8,0:3:0:0:
345,329,74352,1,4,0:3:0:0:
367,327,74432,1,4,0:3:0:0:
388,333,74512,2,0,L|388:223,1,90.2499975900651,8|0,0:1|0:0,0:0:0:0:
92,116,74831,38,0,P|155:139|220:115,1,135.374996385098,6|0,1:0|0:0,0:0:0:0:
220,114,75150,1,8,0:1:0:0:
101,262,75310,53,2,1:0:0:0:
155,47,75469,1,8,0:1:0:0:
308,244,75629,5,2,1:0:0:0:
76,139,75789,1,8,0:1:0:0:
382,77,75948,54,0,L|379:167,1,90.2499975900651,6|0,0:0|0:0,0:0:0:0:
43,304,76267,1,8,0:1:0:0:
81,272,76347,1,8,0:1:0:0:
129,262,76427,1,8,0:1:0:0:
177,274,76507,1,8,0:1:0:0:
213,306,76586,5,8,0:1:0:0:
258,326,76666,1,8,0:1:0:0:
307,321,76746,1,8,0:1:0:0:
347,291,76826,1,8,0:1:0:0:
342,241,76906,53,8,0:1:0:0:
335,192,76985,1,8,0:1:0:0:
329,142,77065,2,0,L|340:73,1,45.1249987950325,8|8,0:3|0:3,0:0:0:0:
447,75,77225,2,0,L|437:132,1,45.1249987950325,4|4,0:3|0:3,0:0:0:0:
413,205,77384,5,4,0:0:0:0:
413,205,77703,1,0,0:0:0:0:
486,269,77863,2,0,P|419:251|352:274,1,142.5
325,349,78501,2,0,L|311:195,1,142.5
312,207,79299,1,0,0:0:0:0:
35,123,79618,37,8,0:3:0:0:
40,156,79698,1,8,0:3:0:0:
46,189,79778,1,4,0:3:0:0:
50,222,79858,1,4,0:3:0:0:
57,256,79937,5,10,0:1:0:0:
263,195,80097,1,0,1:0:0:0:
113,128,80257,1,0,1:0:0:0:
373,91,80416,21,10,0:1:0:0:
187,163,80576,1,0,1:0:0:0:
338,228,80735,1,0,1:0:0:0:
54,275,80895,37,10,0:1:0:0:
43,90,81054,2,0,L|71:244,1,156.750004783631,4|0,0:3|0:0,0:0:0:0:
106,314,81374,2,0,L|102:158,1,156.750004783631,4|0,0:3|0:0,0:0:0:0:
144,242,81693,2,0,L|129:346,1,104.500003189087,4|0,0:3|2:0,0:0:0:0:
386,146,82491,54,0,P|396:190|385:234,1,92.3611111111111
484,248,83129,38,0,P|432:248|342:308,1,149.624995433808,6|0,1:0|2:0,0:0:0:0:
309,369,83448,1,8,0:1:0:0:
70,337,83607,2,0,L|62:237,1,99.7499969558717,2|0,0:1|1:0,0:0:0:0:
187,102,83926,2,0,L|182:201,1,99.7499969558717,2|8,0:1|0:1,0:0:0:0:
47,42,84246,1,2,0:1:0:0:
257,44,84405,53,0,1:0:0:0:
101,108,84565,1,2,0:0:0:0:
339,199,84724,1,8,0:1:0:0:
334,164,84804,1,2,0:0:0:0:
329,129,84884,1,2,0:0:0:0:
508,201,85043,6,0,P|460:201|412:180,1,99.7499969558717,2|0,1:0|2:0,0:0:0:0:
315,118,85283,1,2,0:0:0:0:
310,114,85363,2,0,L|318:169,1,49.8749984779358,8|0,0:1|2:0,0:0:0:0:
398,312,85522,2,0,L|390:257,1,49.8749984779358,2|0,0:0|2:0,0:0:0:0:
165,268,85682,54,0,P|238:257|308:282,1,149.624995433808,6|0,1:0|2:0,0:0:0:0:
326,362,86001,1,8,0:1:0:0:
82,350,86160,2,0,P|73:299|73:245,1,99.7499969558717,2|0,0:1|1:0,0:0:0:0:
227,65,86480,2,0,P|226:114|217:163,1,99.7499969558717,2|8,0:1|0:1,0:0:0:0:
31,182,86799,1,2,0:1:0:0:
165,268,86958,6,0,L|269:266,1,99.7499969558717,0|0,1:0|0:0,0:0:0:0:
355,66,87277,1,8,0:1:0:0:
402,207,87437,1,0,0:0:0:0:
135,69,87597,53,2,1:0:0:0:
270,139,87756,1,2,0:0:0:0:
62,185,87916,1,8,0:1:0:0:
372,107,88075,1,10,1:0:0:0:
372,112,88155,1,8,1:0:0:0:
372,116,88235,53,6,1:0:0:0:
336,315,88394,1,2,0:0:0:0:
142,153,88554,1,10,0:1:0:0:
181,364,88714,1,2,0:0:0:0:
433,168,88873,5,2,1:0:0:0:
247,260,89033,1,2,0:0:0:0:
464,337,89193,1,10,0:1:0:0:
263,51,89352,54,0,P|259:100|267:149,1,99.7499969558717,2|0,0:1|1:0,0:0:0:0:
461,225,89671,2,0,P|468:175|464:126,1,99.7499969558717,2|8,0:1|0:1,0:0:0:0:
168,100,89990,2,0,P|172:143|190:201,1,99.7499969558717,2|0,0:1|1:0,0:0:0:0:
271,322,90309,1,2,0:1:0:0:
48,320,90469,2,0,P|119:285|196:284,1,149.624995433808,10|0,0:1|0:0,0:0:0:0:
271,322,90788,6,0,B|280:278|280:278|267:214,1,99.7499969558717,4|0,1:0|0:1,0:0:0:0:
141,72,91107,1,10,0:1:0:0:
116,205,91267,1,2,0:0:0:0:
371,182,91427,53,2,1:0:0:0:
172,146,91586,1,8,0:1:0:0:
422,53,91746,5,2,1:0:0:0:
224,83,91906,1,8,0:1:0:0:
482,125,92065,54,0,L|478:188,1,49.8749984779358,8|8,0:1|0:1,0:0:0:0:
349,214,92224,2,0,L|354:163,1,49.8749984779358,0|0,1:0|1:0,0:0:0:0:
500,111,92384,6,0,L|496:174,1,49.8749984779358,8|8,0:1|0:1,0:0:0:0:
366,231,92543,2,0,L|371:180,1,49.8749984779358,0|0,1:0|1:0,0:0:0:0:
512,307,92703,53,8,0:1:0:0:
468,332,92783,1,8,0:1:0:0:
419,343,92863,1,8,0:1:0:0:
369,338,92943,1,8,0:1:0:0:
324,314,93023,1,8,0:1:0:0:
277,298,93102,1,8,0:1:0:0:
226,298,93182,1,8,0:1:0:0:
179,317,93262,1,8,0:1:0:0:
137,343,93341,54,0,B|125:289|143:236|143:236|158:249|146:288,1,149.624995433808,0|0,1:0|2:0,0:0:0:0:
54,342,93661,37,14,1:0:0:0:
156,151,93820,2,0,P|149:97|132:44,2,99.7499969558717,2|0|0,0:1|1:0|0:0,0:0:0:0:
26,261,94299,53,10,0:1:0:0:
243,200,94458,2,0,P|250:146|247:90,2,99.7499969558717,2|0|0,0:1|1:0|0:0,0:0:0:0:
41,176,94937,5,10,0:1:0:0:
311,272,95097,2,0,P|331:221|343:167,2,99.7499969558717,2|0|0,0:1|1:0|0:0,0:0:0:0:
140,115,95576,53,10,0:1:0:0:
174,337,95735,1,2,0:1:0:0:
390,211,95894,6,0,B|243:174|243:174|249:221,1,199.499993911743,4|0,1:0|1:0,0:0:0:0:
268,352,96374,1,0,1:0:0:0:
334,149,96533,1,8,0:1:0:0:
123,74,96692,21,8,0:3:0:0:
132,204,96852,1,4,0:3:0:0:
141,329,97011,1,12,0:3:0:0:
123,74,97171,21,10,1:0:0:0:
183,135,97490,1,0,0:0:0:0:
132,204,97809,1,0,0:0:0:0:
80,271,98129,1,0,0:0:0:0:
141,329,98448,53,4,0:0:0:0:
138,66,107384,69,8,0:1:0:0:
97,58,107464,1,8,0:1:0:0:
56,54,107543,2,0,B|62:121,1,52.2500015945435,4|4,0:3|0:3,0:0:0:0:
13,209,107703,1,8,0:3:0:0:
12,214,107783,1,8,0:3:0:0:
11,219,107862,2,0,P|16:249|26:273,1,52.2500015945435,4|4,0:3|0:3,0:0:0:0:
164,181,108022,1,8,0:1:0:0:
208,195,108102,1,8,0:1:0:0:
234,233,108182,1,8,0:1:0:0:
239,279,108261,1,8,0:1:0:0:
222,323,108341,5,12,1:0:0:0:
449,206,108660,53,2,1:0:0:0:
432,100,108820,1,2,1:0:0:0:
370,276,108980,1,8,0:1:0:0:
437,126,109458,53,2,1:0:0:0:
494,317,109618,1,8,0:1:0:0:
280,249,109777,6,0,B|237:246|237:246|186:258,1,76,2|0,1:0|0:0,0:0:0:0:
205,253,110097,1,0,1:0:0:0:
75,165,110256,2,0,L|0:169,2,76,10|0|0,0:1|0:0|0:0,0:0:0:0:
188,238,110735,1,2,1:0:0:0:
144,31,110894,2,0,P|134:67|141:104,1,76,8|0,0:1|0:0,0:0:0:0:
335,58,111214,53,2,1:0:0:0:
229,72,111374,1,2,1:0:0:0:
403,140,111533,1,8,0:1:0:0:
252,84,112010,5,2,1:0:0:0:
443,39,112170,1,8,0:1:0:0:
367,219,112331,54,0,P|367:258|378:302,1,76,2|0,1:0|0:0,0:0:0:0:
375,293,112650,1,0,1:0:0:0:
488,197,112809,2,0,L|494:121,1,76,10|2,0:1|0:1,0:0:0:0:
335,59,113129,1,0,1:0:0:0:
313,52,113208,1,0,1:0:0:0:
290,52,113288,1,0,1:0:0:0:
267,56,113368,1,0,1:0:0:0:
247,67,113448,1,10,0:1:0:0:
301,146,113607,1,0,0:0:0:0:
156,80,113767,54,0,P|120:67|76:71,1,76,6|0,1:0|0:0,0:0:0:0:
49,251,114086,1,8,0:1:0:0:
176,191,114246,2,0,P|145:167|110:156,1,76,2|0,0:1|1:0,0:0:0:0:
212,272,114565,1,2,1:0:0:0:
263,111,114724,1,8,0:1:0:0:
289,319,114884,6,0,P|214:312|144:338,1,152,2|0,1:0|1:0,0:0:0:0:
366,360,115363,1,8,0:1:0:0:
428,253,115522,2,0,L|423:172,1,76,2|0,0:1|1:0,0:0:0:0:
415,70,115841,1,2,1:0:0:0:
237,138,116001,1,8,0:1:0:0:
395,167,116160,1,2,1:0:0:0:
235,35,116320,6,0,P|193:23|151:24,1,85.4999973907472,6|0,1:0|1:0,0:0:0:0:
98,213,116639,1,10,0:1:0:0:
47,68,116799,1,0,1:0:0:0:
228,161,116958,5,10,0:1:0:0:
131,328,117118,1,0,1:0:0:0:
129,332,117277,1,0,1:0:0:0:
125,107,117437,53,10,0:1:0:0:
150,304,117597,1,0,1:0:0:0:
150,308,117756,1,0,1:0:0:0:
223,62,117916,5,10,0:1:0:0:
95,211,118075,1,0,1:0:0:0:
367,137,118235,38,0,L|423:142,2,56.9999982604981,8|8|8,1:0|1:0|1:0,0:0:0:0:
293,150,118554,1,8,0:3:0:0:
258,215,118660,1,4,0:3:0:0:
262,289,118767,1,12,0:3:0:0:
303,353,118873,54,0,L|431:349,1,113.999996520996,4|0,0:0|0:0,0:0:0:0:
446,239,119511,2,0,L|318:243,1,113.999996520996
332,242,120469,1,0,0:0:0:0:
428,363,121426,5,2,0:0:0:0:
319,227,123022,1,0,0:0:0:0:
467,226,123341,1,0,0:0:0:0:
467,226,123501,1,0,0:0:0:0:
416,349,123980,54,0,L|444:238,1,113.999996520996
331,242,124618,2,0,L|303:353,1,113.999996520996
303,353,125575,1,0,0:0:0:0:
462,224,126533,5,0,0:0:0:0:
286,371,126852,1,0,0:0:0:0:
397,111,127490,6,0,L|235:117,1,156.750004783631,0|0,2:0|2:0,2:0:0:0:
165,150,127809,2,0,L|327:144,1,156.750004783631,0|0,2:0|2:0,2:0:0:0:
472,138,128129,5,2,0:0:0:0:
389,30,128288,1,2,0:0:0:0:
378,212,128448,53,8,0:1:0:0:
385,256,128527,1,8,0:1:0:0:
393,300,128607,1,8,0:1:0:0:
399,344,128687,1,8,0:1:0:0:
439,363,128767,1,8,0:1:0:0:
433,319,128847,1,8,0:1:0:0:
425,275,128927,1,8,0:1:0:0:
418,231,129006,1,8,0:1:0:0:
411,188,129086,6,2,P|370:176|305:187,1,85.4999973907472,6|2,1:0|1:0,0:0:0:0:
161,326,129405,2,0,P|203:328|244:316,1,85.4999973907472,8|0,0:1|2:0,0:0:0:0:
274,299,129644,1,8,0:1:0:0:
280,293,129724,2,0,L|278:340,1,42.7499986953736,0|0,0:0|2:0,0:0:0:0:
185,225,129884,38,2,L|178:140,1,85.4999973907472,2|0,1:0|0:0,0:0:0:0:
343,47,130203,2,2,L|336:132,1,85.4999973907472,2|0,1:0|0:0,0:0:0:0:
136,69,130522,21,2,1:0:0:0:
327,153,130682,2,0,P|364:153|423:139,1,85.4999973907472,8|0,0:1|2:0,0:0:0:0:
424,133,130921,1,8,0:1:0:0:
430,127,131001,1,0,1:0:0:0:
373,256,131160,1,0,1:0:0:0:
248,119,131320,2,0,B|241:159|241:159|257:202|257:202|249:246,1,128.249996086121,8|0,0:1|2:0,0:0:0:0:
244,260,131639,38,2,P|204:274|155:275,1,85.4999973907472,6|2,1:0|1:0,0:0:0:0:
56,125,131958,2,0,L|60:222,1,85.4999973907472,8|0,0:1|0:0,0:0:0:0:
86,246,132198,1,8,0:1:0:0:
90,253,132277,2,0,L|83:312,1,42.7499986953736,0|0,0:0|2:0,0:0:0:0:
238,349,132437,22,2,P|280:351|320:337,1,85.4999973907472,2|0,1:0|0:0,0:0:0:0:
450,223,132756,2,2,P|407:220|367:234,1,85.4999973907472,2|0,1:0|0:0,0:0:0:0:
476,339,133075,53,8,0:3:0:0:
429,143,133235,2,0,L|435:54,1,85.4999973907472,8|0,0:1|0:0,0:0:0:0:
457,26,133474,1,8,0:1:0:0:
419,15,133554,1,8,0:1:0:0:
380,17,133634,1,8,0:1:0:0:
343,26,133713,1,8,0:1:0:0:
309,44,133793,1,8,0:1:0:0:
292,78,133873,53,8,0:3:0:0:
292,103,133953,1,8,0:3:0:0:
294,128,134033,1,4,0:3:0:0:
296,153,134113,1,4,0:3:0:0:
296,178,134192,22,2,P|256:193|214:190,1,85.4999973907472,6|2,1:0|1:0,0:0:0:0:
42,97,134511,2,0,L|136:88,1,85.4999973907472,8|0,0:1|2:0,0:0:0:0:
165,60,134751,1,8,0:1:0:0:
171,54,134830,2,0,L|165:112,1,42.7499986953736,0|0,0:0|2:0,0:0:0:0:
51,188,134990,38,2,P|41:229|47:271,1,85.4999973907472,2|0,1:0|0:0,0:0:0:0:
252,351,135309,2,2,P|261:309|255:267,1,85.4999973907472,2|0,1:0|0:0,0:0:0:0:
86,113,135629,21,2,1:0:0:0:
256,171,135788,2,0,L|342:165,1,85.4999973907472,8|0,0:1|0:0,0:0:0:0:
422,83,136107,1,0,0:0:0:0:
459,260,136267,1,0,1:0:0:0:
460,265,136347,1,0,1:0:0:0:
461,270,136426,2,0,L|413:276,1,42.7499986953736,8|0,0:1|2:0,0:0:0:0:
235,203,136586,54,0,B|321:198|321:198|365:223,1,128.249996086121,6|0,1:0|2:0,0:0:0:0:
418,275,136905,5,0,1:0:0:0:
384,69,137065,1,10,0:1:0:0:
219,281,137224,53,0,1:0:0:0:
436,186,137384,1,10,0:1:0:0:
176,142,137542,5,0,1:0:0:0:
405,219,137703,1,10,0:1:0:0:
130,332,137863,53,4,1:0:0:0:
130,332,138182,1,8,0:1:0:0:
171,339,138261,1,8,0:1:0:0:
209,319,138341,1,8,0:1:0:0:
231,282,138421,1,8,0:1:0:0:
223,239,138501,1,8,0:1:0:0:
194,207,138580,1,8,0:1:0:0:
151,211,138660,54,0,L|144:168,1,42.7499986953736,8|8,0:3|0:3,0:0:0:0:
172,74,138820,2,0,L|178:31,1,42.7499986953736,8|8,0:3|0:3,0:0:0:0:
43,180,138980,5,8,1:0:0:0:
48,230,139059,1,8,1:0:0:0:
55,280,139139,1,8,1:0:0:0:
60,331,139219,1,8,1:0:0:0:
65,381,139299,53,4,1:0:0:0:
17,105,139618,1,8,0:1:0:0:
184,349,139937,37,0,1:0:0:0:
160,67,140256,1,8,0:1:0:0:
290,349,140575,21,0,1:0:0:0:
314,67,140894,1,8,0:1:0:0:
408,384,141214,37,0,1:0:0:0:
457,105,141533,1,0,1:0:0:0:
425,363,141852,37,8,0:1:0:0:
474,84,142011,1,8,0:1:0:0:
293,327,142171,5,8,0:1:0:0:
317,45,142331,1,8,0:1:0:0:
177,332,142490,53,8,0:1:0:0:
153,50,142650,1,8,0:1:0:0:
61,366,142809,5,8,0:1:0:0:
12,87,142969,1,8,0:1:0:0:
306,226,143129,37,8,0:1:0:0:
162,235,143288,1,4,0:3:0:0:
17,241,143448,1,4,0:3:0:0:
230,181,143607,21,8,0:3:0:0:
162,235,143766,1,4,0:3:0:0:
92,288,143926,1,4,0:3:0:0:
152,155,144086,37,8,0:1:0:0:
157,195,144166,1,8,0:3:0:0:
162,235,144246,1,4,0:3:0:0:
168,274,144325,1,4,0:3:0:0:
176,318,144405,38,0,P|239:292|333:345,1,149.624995433808,4|0,1:0|2:0,0:0:0:0:
365,380,144724,1,8,0:1:0:0:
484,224,144884,2,0,L|473:119,1,99.7499969558717,2|0,0:1|1:0,0:0:0:0:
248,52,145203,2,0,L|259:158,1,99.7499969558717,2|8,0:1|0:1,0:0:0:0:
399,279,145522,1,2,0:1:0:0:
206,219,145682,53,0,1:0:0:0:
399,188,145842,1,2,0:0:0:0:
249,358,146001,1,8,0:1:0:0:
251,323,146081,1,2,0:0:0:0:
254,288,146161,1,2,0:0:0:0:
41,98,146320,6,0,L|51:213,1,99.7499969558717,2|0,1:0|0:0,0:0:0:0:
54,284,146559,1,2,0:0:0:0:
55,289,146639,2,0,P|30:288|7:280,1,49.8749984779358,8|0,0:1|2:0,0:0:0:0:
126,142,146799,2,0,P|151:143|175:152,1,49.8749984779358,2|0,0:0|2:0,0:0:0:0:
146,384,146958,54,0,L|131:216,1,149.624995433808,6|0,1:0|2:0,0:0:0:0:
126,142,147278,1,8,0:1:0:0:
310,243,147437,2,0,P|261:249|215:233,1,99.7499969558717,2|0,0:1|1:0,0:0:0:0:
70,72,147756,2,0,P|116:55|165:61,1,99.7499969558717,2|8,0:1|0:1,0:0:0:0:
132,234,148076,1,2,0:1:0:0:
302,153,148235,6,0,L|287:53,1,99.7499969558717,0|0,1:0|0:0,0:0:0:0:
475,111,148554,1,8,0:1:0:0:
296,40,148714,1,2,0:0:0:0:
404,180,148873,53,2,1:0:0:0:
448,31,149033,1,2,0:0:0:0:
471,241,149193,1,8,0:1:0:0:
229,102,149352,1,10,1:0:0:0:
230,106,149432,1,8,1:0:0:0:
231,110,149511,53,6,1:0:0:0:
197,317,149672,1,2,0:0:0:0:
375,85,149831,1,10,0:1:0:0:
340,289,149990,1,2,0:0:0:0:
177,27,150150,5,2,1:0:0:0:
234,282,150309,1,2,0:0:0:0:
365,51,150470,1,10,0:1:0:0:
66,86,150629,53,2,0:1:0:0:
223,114,150788,1,0,1:0:0:0:
42,176,150948,5,2,0:1:0:0:
226,141,151107,1,8,0:1:0:0:
19,266,151267,53,2,0:1:0:0:
229,167,151426,1,0,1:0:0:0:
18,162,151586,5,2,0:1:0:0:
183,332,151746,2,0,P|255:344|320:309,1,149.624995433808,10|0,0:1|0:0,0:0:0:0:
348,238,152065,54,0,B|336:130,1,99.7499969558717,6|2,1:0|0:0,0:0:0:0:
499,68,152384,1,10,0:1:0:0:
479,186,152544,1,2,0:0:0:0:
262,48,152703,5,2,1:0:0:0:
428,120,152863,1,8,0:1:0:0:
184,201,153022,53,2,1:0:0:0:
399,130,153182,1,8,0:1:0:0:
140,72,153341,5,10,0:1:0:0:
139,76,153421,1,8,0:1:0:0:
138,80,153501,2,0,L|144:133,1,49.8749984779358,8|0,0:1|0:0,0:0:0:0:
305,243,153660,1,10,0:1:0:0:
306,247,153740,1,8,0:1:0:0:
307,251,153820,2,0,L|301:304,1,49.8749984779358,8|0,0:1|0:0,0:0:0:0:
108,355,153980,53,10,0:1:0:0:
85,316,154059,1,8,0:1:0:0:
73,272,154139,1,8,0:1:0:0:
75,227,154219,1,8,0:1:0:0:
85,183,154299,1,8,0:1:0:0:
101,143,154379,1,8,0:1:0:0:
109,99,154458,1,8,0:1:0:0:
97,55,154538,1,8,0:1:0:0:
68,19,154618,54,0,B|172:61|172:61|223:52,1,149.624995433808,0|0,1:0|2:0,0:0:0:0:
302,26,154937,37,14,0:1:0:0:
264,154,155097,2,0,L|276:255,1,99.7499969558717,2|0,0:1|1:0,0:0:0:0:
411,332,155417,1,0,0:0:0:0:
255,277,155576,53,10,0:1:0:0:
470,154,155735,2,0,L|458:255,1,99.7499969558717,2|0,0:1|1:0,0:0:0:0:
323,332,156055,1,0,0:0:0:0:
479,277,156214,5,10,0:1:0:0:
250,146,156373,2,0,L|262:247,1,99.7499969558717,2|0,0:1|1:0,0:0:0:0:
411,332,156693,1,0,0:0:0:0:
241,269,156852,53,10,0:1:0:0:
396,221,157011,1,2,0:1:0:0:
210,364,157171,6,0,P|139:346|56:374,1,149.624995433808,6|0,1:0|0:0,0:0:0:0:
50,381,157490,2,0,L|40:271,1,99.7499969558717,8|0,0:1|0:0,0:0:0:0:
169,160,157809,2,0,P|156:212|127:259,1,99.7499969558717,0|0,1:0|0:0,0:0:0:0:
34,62,158129,1,8,0:1:0:0:
68,189,158288,1,0,0:0:0:0:
222,54,158448,54,0,P|301:54|379:83,1,149.624995433808,2|0,1:0|0:0,0:0:0:0:
389,95,158767,2,0,L|383:35,1,49.8749984779358,8|0,0:1|0:0,0:0:0:0:
475,170,158926,2,0,L|481:110,1,49.8749984779358,8|0,0:3|0:0,0:0:0:0:
426,279,159086,53,8,0:1:0:0:
389,246,159166,1,8,0:1:0:0:
342,229,159245,1,8,0:1:0:0:
293,231,159325,1,8,0:1:0:0:
248,252,159405,53,8,0:1:0:0:
264,277,159485,1,8,0:1:0:0:
270,306,159565,1,8,0:1:0:0:
264,335,159644,1,8,0:1:0:0:
194,306,159724,38,0,B|92:280|92:280|104:332,1,149.624995433808,4|0,1:0|2:0,0:0:0:0:
31,359,160043,1,8,0:1:0:0:
0,160,160203,2,0,L|107:148,1,99.7499969558717,2|0,0:1|1:0,0:0:0:0:
342,84,160522,2,0,L|235:72,1,99.7499969558717,2|8,0:1|0:1,0:0:0:0:
55,50,160841,1,2,0:1:0:0:
113,250,161001,53,0,1:0:0:0:
150,60,161161,1,2,0:0:0:0:
333,211,161320,1,8,0:1:0:0:
298,216,161400,1,2,0:0:0:0:
263,221,161480,1,2,0:0:0:0:
438,38,161639,6,0,P|415:86|428:141,1,99.7499969558717,0|0,1:0|2:0,0:0:0:0:
458,211,161879,1,2,0:0:0:0:
461,215,161959,2,0,B|467:239|467:239|453:270,1,49.8749984779358,8|0,0:1|2:0,0:0:0:0:
272,352,162118,2,0,B|266:328|266:328|280:297,1,49.8749984779358,2|0,0:0|2:0,0:0:0:0:
496,342,162277,54,0,L|324:333,1,149.624995433808,6|0,1:0|2:0,0:0:0:0:
272,352,162597,1,8,0:1:0:0:
358,207,162756,2,0,P|369:154|365:95,1,99.7499969558717,2|0,0:1|1:0,0:0:0:0:
138,41,163075,2,0,P|136:90|147:139,1,99.7499969558717,2|8,0:1|0:1,0:0:0:0:
316,278,163395,1,2,0:1:0:0:
130,237,163554,6,0,L|23:245,1,99.7499969558717,0|0,1:0|0:0,0:0:0:0:
237,146,163873,1,8,0:1:0:0:
272,352,164033,1,0,0:0:0:0:
405,176,164193,53,2,1:0:0:0:
214,226,164352,1,2,0:0:0:0:
424,168,164512,1,8,0:1:0:0:
144,115,164671,1,10,1:0:0:0:
145,119,164751,1,8,1:0:0:0:
146,123,164831,53,6,1:0:0:0:
196,328,164991,1,2,0:0:0:0:
248,54,165150,1,10,0:1:0:0:
201,303,165310,1,2,0:0:0:0:
438,145,165469,5,2,1:0:0:0:
217,188,165629,1,2,0:0:0:0:
409,153,165789,1,10,0:1:0:0:
168,72,165948,54,0,L|68:82,1,99.7499969558717,2|0,0:1|1:0,0:0:0:0:
316,140,166267,2,0,P|345:98|350:37,1,99.7499969558717,2|8,0:1|0:1,0:0:0:0:
255,270,166586,2,0,P|263:320|311:375,1,99.7499969558717,2|0,0:1|1:0,0:0:0:0:
310,149,166905,1,2,0:1:0:0:
97,198,167065,2,0,B|203:208|203:208|247:187,1,149.624995433808,10|0,0:1|0:0,0:0:0:0:
310,149,167385,6,0,L|409:159,1,99.7499969558717,6|0,1:0|2:0,0:0:0:0:
337,320,167703,1,10,1:0:0:0:
354,189,167863,1,2,0:0:0:0:
151,301,168022,53,2,1:0:0:0:
332,208,168182,1,8,0:1:0:0:
70,209,168341,5,2,1:0:0:0:
307,228,168501,1,8,0:1:0:0:
121,73,168660,37,8,3:0:0:0:
146,273,168820,2,0,L|154:211,1,49.8749984779358,8|8,0:1|0:1,0:0:0:0:
210,88,168980,5,8,3:0:0:0:
165,305,169139,2,0,L|171:255,1,49.8749984779358,8|8,0:1|0:1,0:0:0:0:
296,59,169299,54,0,P|282:30|268:17,1,49.8749984779358,8|8,0:3|0:3,0:0:0:0:
143,29,169458,2,0,P|125:54|120:73,1,49.8749984779358,8|8,0:3|0:3,0:0:0:0:
271,158,169618,5,8,0:1:0:0:
320,152,169698,1,8,0:1:0:0:
369,146,169777,1,8,0:1:0:0:
418,141,169857,1,8,0:1:0:0:
467,137,169937,54,0,B|479:185|459:222|459:222|430:243|426:274,1,149.624995433808,0|0,1:0|2:0,0:0:0:0:
504,293,170257,37,14,0:1:0:0:
331,247,170416,2,0,L|223:254,1,99.7499969558717,2|0,0:1|1:0,0:0:0:0:
181,355,170736,1,0,0:0:0:0:
103,135,170894,53,10,0:1:0:0:
303,165,171054,2,0,P|335:118|344:69,1,99.7499969558717,2|0,0:1|1:0,0:0:0:0:
278,0,171374,1,0,0:0:0:0:
414,168,171533,5,10,0:1:0:0:
188,99,171692,2,0,L|80:106,1,99.7499969558717,2|0,0:1|1:0,0:0:0:0:
157,219,172012,1,0,0:0:0:0:
132,12,172171,53,10,0:1:0:0:
0,116,172331,1,2,0:1:0:0:
295,35,172490,54,0,P|313:88|281:175,1,128.250000489235,12|0,1:0|0:0,0:0:0:0:
267,239,172730,6,0,P|304:196|396:181,1,128.250000489235,8|0,1:0|0:0,0:0:0:0:
457,155,172969,6,0,P|395:140|351:94,1,128.250000489235,8|0,1:0|0:0,0:0:0:0:
351,94,173767,53,0,0:0:0:0:
322,185,174086,1,0,0:0:0:0:
414,207,174405,1,0,0:0:0:0:
385,298,174724,1,0,0:0:0:0:
477,320,175044,53,4,0:0:0:0:
464,376,184937,54,0,L|456:323,3,47.5
471,291,185256,53,4,1:0:0:0:
353,342,185416,2,0,L|362:270,1,56.9999982604981,0|0,1:0|0:0,0:0:0:0:
329,199,185735,1,0,1:0:0:0:
157,271,185894,2,0,P|213:278|269:267,1,113.999996520996,8|0,0:1|0:0,0:0:0:0:
269,267,186533,5,2,0:0:0:0:
53,158,186852,2,0,L|44:86,1,56.9999982604981,0|0,1:0|0:0,0:0:0:0:
248,87,187171,2,0,P|191:94|136:82,1,113.999996520996,8|0,0:1|0:0,0:0:0:0:
136,82,187809,53,0,1:0:0:0:
162,169,187969,2,0,L|158:239,1,56.9999982604981,0|0,1:0|0:0,0:0:0:0:
92,289,188288,1,0,1:0:0:0:
184,146,188448,2,0,L|172:259,1,113.999996520996,8|0,0:1|0:0,0:0:0:0:
172,259,189086,6,0,P|206:257|234:252,1,56.9999982604981,0|0,2:0|0:0,0:0:0:0:
347,335,189405,2,0,P|319:326|273:319,1,56.9999982604981,0|0,1:0|0:0,0:0:0:0:
241,244,189724,1,0,2:0:0:0:
278,327,189884,1,0,1:0:0:0:
311,185,190043,2,0,P|351:176|406:188,1,85.4999973907472,8|0,0:1|0:0,0:0:0:0:
396,185,190363,53,0,1:0:0:0:
476,144,190522,2,0,L|483:84,1,56.9999982604981,0|0,1:0|0:0,0:0:0:0:
422,18,190841,1,0,1:0:0:0:
488,178,191001,2,0,L|505:50,1,113.999996520996,8|0,0:1|0:0,0:0:0:0:
503,64,191639,5,2,2:0:0:0:
292,114,191958,2,0,P|257:107|233:94,1,56.9999982604981,0|0,1:0|0:0,0:0:0:0:
60,89,192277,2,0,P|115:80|168:53,1,113.999996520996,8|0,0:1|0:0,0:0:0:0:
166,53,192916,53,0,1:0:0:0:
202,136,193075,2,0,L|194:204,1,56.9999982604981,0|0,1:0|0:0,0:0:0:0:
143,268,193394,1,0,1:0:0:0:
318,184,193554,2,0,P|370:186|440:203,1,113.999996520996,8|0,0:1|0:0,0:0:0:0:
250,280,194033,6,0,P|301:272|373:277,1,113.999996520996,8|0,0:1|0:0,0:0:0:0:
449,305,194511,1,0,1:0:0:0:
126,355,194831,2,0,L|113:235,1,113.999996520996,8|0,0:1|1:0,0:0:0:0:
186,101,195309,1,8,0:1:0:0:
121,222,195469,38,0,L|36:229,1,66.4999979705811,0|0,1:0|0:0,0:0:0:0:
226,181,195788,2,0,P|256:185|290:199,1,66.4999979705811,12|0,0:1|0:0,0:0:0:0:
323,294,196107,1,0,1:0:0:0:
323,294,196267,2,0,L|413:293,1,66.4999979705811,0|0,1:0|0:0,0:0:0:0:
417,78,196586,22,0,P|387:144|400:202,1,132.999995941162,8|2,0:1|0:0,0:0:0:0:
473,362,197065,2,0,L|479:288,1,66.4999979705811,8|0,0:1|0:0,0:0:0:0:
486,196,197384,1,0,1:0:0:0:
486,196,197543,1,0,1:0:0:0:
318,303,197703,2,0,P|279:303|235:293,1,66.4999979705811,8|0,0:1|0:0,0:0:0:0:
87,259,198022,38,0,P|126:259|170:249,1,66.4999979705811,0|0,1:0|0:0,0:0:0:0:
206,64,198341,2,0,L|197:144,1,66.4999979705811,8|0,0:1|0:0,0:0:0:0:
231,224,198660,1,0,1:0:0:0:
231,224,198820,2,0,P|263:229|296:228,1,66.4999979705811,0|0,1:0|0:0,0:0:0:0:
121,166,199139,22,0,P|88:160|55:161,1,66.4999979705811,10|0,0:1|0:0,0:0:0:0:
55,161,199458,1,0,1:0:0:0:
204,82,199618,2,0,P|173:68|141:60,1,66.4999979705811,8|0,0:1|0:0,0:0:0:0:
141,60,199937,1,0,1:0:0:0:
44,249,200097,1,8,0:1:0:0:
42,265,200176,1,8,0:1:0:0:
43,281,200256,1,8,0:1:0:0:
45,297,200336,1,8,0:1:0:0:
49,313,200416,1,8,0:1:0:0:
55,328,200496,1,8,0:1:0:0:
63,341,200575,38,0,L|147:341,1,76,2|0,1:0|0:0,0:0:0:0:
334,269,200894,1,8,0:1:0:0:
206,231,201054,1,0,1:0:0:0:
406,187,201214,5,8,0:1:0:0:
388,355,201373,1,0,1:0:0:0:
387,359,201533,1,0,1:0:0:0:
308,111,201692,53,8,0:1:0:0:
310,298,201852,1,0,1:0:0:0:
311,302,202011,1,0,1:0:0:0:
221,57,202171,6,0,P|242:26|277:10,1,76,8|0,0:1|1:0,0:0:0:0:
305,217,202490,2,0,P|262:207|232:179,1,76,8|0,0:1|1:0,0:0:0:0:
399,64,202809,2,0,P|411:105|402:145,1,76,8|0,0:1|1:0,0:0:0:0:
150,172,203129,53,8,0:1:0:0:
308,111,203288,1,0,1:0:0:0:
156,72,203448,5,8,0:1:0:0:
293,214,203607,1,0,1:0:0:0:
111,191,203767,53,8,0:1:0:0:
346,88,203926,1,0,1:0:0:0:
123,37,204086,5,8,0:1:0:0:
324,250,204246,1,0,1:0:0:0:
60,135,204405,5,8,0:1:0:0:
50,147,204485,1,8,0:1:0:0:
43,160,204565,1,8,0:1:0:0:
38,174,204644,1,8,0:1:0:0:
36,189,204724,1,8,0:1:0:0:
37,204,204804,1,8,0:1:0:0:
41,218,204884,1,8,0:1:0:0:
47,231,204964,1,8,0:1:0:0:
56,242,205043,6,0,L|56:279,1,38,2|0,0:3|2:0,0:0:0:0:
100,363,205203,54,0,P|131:339|145:303,1,71.25,0|0,0:0|2:0,0:0:0:0:
149,204,205522,22,0,P|162:290|241:326,1,180.49999518013,6|0,1:0|1:0,0:0:0:0:
432,272,206001,5,10,0:1:0:0:
238,233,206160,1,4,0:3:0:0:
234,235,206320,1,4,0:3:0:0:
491,166,206480,37,10,0:1:0:0:
311,218,206639,1,4,0:3:0:0:
468,288,206799,1,4,0:3:0:0:
279,124,206958,21,10,0:1:0:0:
343,321,207118,1,4,0:3:0:0:
343,326,207277,1,4,0:3:0:0:
420,62,207437,37,10,0:1:0:0:
391,247,207597,1,4,0:3:0:0:
258,108,207756,1,4,0:3:0:0:
322,346,207916,1,8,0:1:0:0:
90,253,208075,6,0,B|73:317|97:381|97:381|114:334,1,180.49999518013,4|0,1:0|1:0,0:0:0:0:
232,67,208554,5,10,0:1:0:0:
35,153,208714,1,4,0:3:0:0:
32,155,208873,1,4,0:3:0:0:
290,187,209033,37,10,0:1:0:0:
112,71,209193,1,4,0:3:0:0:
109,69,209352,1,4,0:3:0:0:
384,66,209511,21,14,0:1:0:0:
334,264,209671,1,4,0:3:0:0:
425,149,209830,1,4,0:3:0:0:
120,158,209990,37,10,0:1:0:0:
169,351,210150,1,4,0:3:0:0:
82,243,210309,1,4,0:3:0:0:
398,268,210469,54,0,P|401:290|395:311,1,45.1249987950325,8|8,0:1|0:1,0:0:0:0:
308,356,210629,2,0,P|304:333|310:312,1,45.1249987950325,8|8,0:3|0:3,0:0:0:0:
421,246,210788,54,0,P|430:287|420:335,1,90.2499975900651,6|0,1:0|2:0,0:0:0:0:
283,376,211027,2,0,P|273:334|283:286,1,90.2499975900651,2|0,1:0|2:0,0:0:0:0:
341,217,211267,1,2,1:0:0:0:
188,123,211426,2,0,B|210:182|191:248|191:248|206:224|228:208,1,180.49999518013,6|0,1:0|2:0,0:0:0:0:
365,65,211905,1,0,1:0:0:0:
395,71,211985,1,0,1:0:0:0:
426,77,212065,37,8,0:1:0:0:
421,246,212224,1,0,1:0:0:0:
242,46,212384,21,8,0:1:0:0:
263,239,212543,1,0,1:0:0:0:
73,89,212703,37,8,0:1:0:0:
139,275,212863,1,0,1:0:0:0:
135,280,212942,1,0,1:0:0:0:
131,285,213022,2,0,P|103:277|79:254,1,45.1249987950325,8|8,0:1|0:1,0:0:0:0:
33,207,213182,2,0,P|25:178|33:146,1,45.1249987950325,8|8,0:3|0:3,0:0:0:0:
73,89,213341,22,0,P|117:97|176:83,1,90.2499975900651,6|0,1:0|2:0,0:0:0:0:
268,21,213581,2,0,L|258:112,1,90.2499975900651,2|0,1:0|2:0,0:0:0:0:
192,176,213820,1,2,1:0:0:0:
355,68,213980,2,0,B|418:40|481:75|481:75|470:132,1,180.49999518013,6|0,1:0|2:0,0:0:0:0:
431,256,214458,1,0,1:0:0:0:
281,155,214618,37,8,0:1:0:0:
445,245,214777,1,0,1:0:0:0:
266,329,214937,21,8,0:1:0:0:
382,163,215097,1,0,1:0:0:0:
144,247,215256,5,8,0:1:0:0:
128,280,215336,1,8,0:1:0:0:
149,310,215416,1,8,0:3:0:0:
185,307,215496,1,8,0:3:0:0:
201,273,215575,1,8,0:1:0:0:
191,74,215735,22,0,B|156:196|156:196|179:243,1,180.49999518013,6|0,1:0|1:0,0:0:0:0:
400,273,216214,5,8,1:0:0:0:
239,188,216373,1,4,0:3:0:0:
387,127,216533,1,4,0:3:0:0:
184,103,216692,37,8,1:0:0:0:
343,204,216851,1,4,0:3:0:0:
167,270,217011,1,4,0:3:0:0:
377,352,217171,21,8,1:0:0:0:
368,170,217330,1,4,0:3:0:0:
376,328,217490,1,4,0:3:0:0:
292,130,217650,37,8,1:0:0:0:
472,241,217809,1,4,0:3:0:0:
263,265,217969,1,4,0:3:0:0:
480,114,218129,1,8,1:0:0:0:
196,32,218288,6,0,B|327:22|327:22|393:43,1,180.49999518013,6|0,1:0|1:0,0:0:0:0:
161,173,218767,5,8,1:0:0:0:
314,103,218926,1,4,0:3:0:0:
318,100,219086,1,4,0:3:0:0:
80,104,219245,37,8,1:0:0:0:
169,322,219404,1,4,0:3:0:0:
170,326,219564,1,4,0:3:0:0:
198,51,219724,21,8,1:0:0:0:
176,287,219884,1,4,0:3:0:0:
175,291,220043,1,4,0:3:0:0:
332,72,220203,37,8,1:0:0:0:
98,280,220362,1,4,0:3:0:0:
95,284,220522,1,4,0:3:0:0:
128,7,220682,54,0,L|133:64,1,45.1249987950325,8|8,0:1|0:1,0:0:0:0:
168,167,220841,2,0,L|173:110,1,45.1249987950325,8|8,0:3|0:3,0:0:0:0:
3,112,221001,54,0,P|44:125|106:114,1,90.2499975900651,6|0,1:0|2:0,0:0:0:0:
207,46,221240,2,0,P|248:33|310:44,1,90.2499975900651,2|0,1:0|2:0,0:0:0:0:
366,98,221480,1,2,1:0:0:0:
238,239,221639,2,0,B|226:124|226:124|250:103|292:119,1,180.49999518013,6|0,1:0|0:0,0:0:0:0:
358,197,222118,1,0,1:0:0:0:
467,67,222277,6,0,L|455:223,1,142.500005435944,8|0,0:1|2:0,0:0:0:0:
464,313,222756,2,0,L|470:234,1,71.2500027179719,8|0,0:3|2:0,0:0:0:0:
388,355,223075,1,0,1:0:0:0:
394,362,223155,1,0,1:0:0:0:
392,363,223235,2,0,P|347:356|319:343,1,71.2500027179719,8|0,0:1|2:0,0:0:0:0:
230,197,223554,54,0,B|238:294,1,90.2499975900651,6|0,1:0|2:0,0:0:0:0:
121,366,223793,2,0,B|129:269,1,90.2499975900651,2|0,1:0|2:0,0:0:0:0:
218,186,224033,1,2,1:0:0:0:
112,380,224192,2,0,B|87:328|87:328|99:197,1,180.49999518013,6|0,1:0|0:0,0:0:0:0:
56,103,224671,1,0,1:0:0:0:
226,250,224831,37,8,0:1:0:0:
225,254,224990,1,0,1:0:0:0:
160,50,225150,1,8,0:1:0:0:
162,46,225309,1,0,1:0:0:0:
360,117,225469,53,8,0:1:0:0:
276,347,225629,1,8,0:1:0:0:
257,93,225788,1,8,0:1:0:0:
274,51,225868,1,8,0:1:0:0:
309,22,225948,1,8,0:1:0:0:
352,10,226027,1,8,0:1:0:0:
395,14,226107,6,0,L|388:147,1,113.999996520996,4|0,0:0|0:0,0:0:0:0:
444,196,226586,2,0,P|459:245|457:322,2,113.999996520996
389,127,227384,37,2,0:0:0:0:
254,334,228022,2,0,L|140:328,1,113.999996520996
56,322,228660,21,2,0:0:0:0:
296,56,229937,53,8,0:1:0:0:
272,278,230097,1,0,1:0:0:0:
460,169,230256,1,0,1:0:0:0:
130,118,230416,1,8,0:1:0:0:
114,150,230496,1,8,0:1:0:0:
109,185,230575,1,8,0:1:0:0:
110,221,230655,1,8,0:1:0:0:
119,255,230735,54,0,L|165:244,1,45.1249987950325,0|0,1:0|1:0,0:0:0:0:
311,204,230894,2,0,L|267:193,1,45.1249987950325,8|8,0:1|0:1,0:0:0:0:
49,190,231054,2,0,L|95:179,1,45.1249987950325,8|8,0:3|0:3,0:0:0:0:
365,104,231214,5,6,1:0:0:0:
327,294,231373,1,2,0:0:0:0:
205,67,231533,5,10,0:1:0:0:
456,37,231692,1,2,0:0:0:0:
235,195,231852,53,2,1:0:0:0:
409,240,232011,1,2,0:0:0:0:
172,329,232171,1,10,0:1:0:0:
278,116,232331,5,2,0:1:0:0:
279,277,232490,1,0,1:0:0:0:
176,96,232650,53,2,0:1:0:0:
180,296,232809,1,8,0:1:0:0:
74,76,232969,5,2,0:1:0:0:
81,315,233128,1,0,1:0:0:0:
185,195,233288,1,2,0:1:0:0:
201,373,233448,2,0,L|193:274,1,99.7499969558717,10|0,0:1|0:0,0:0:0:0:
223,43,233767,53,2,1:0:0:0:
28,75,233926,1,2,0:0:0:0:
267,177,234086,5,10,0:1:0:0:
104,110,234246,1,2,0:0:0:0:
379,79,234405,53,2,1:0:0:0:
350,280,234565,1,2,0:0:0:0:
377,103,234724,1,10,0:1:0:0:
437,313,234884,6,0,P|388:310|349:279,1,99.7499969558717,2|0,0:1|1:0,0:0:0:0:
475,38,235203,2,0,L|470:143,1,99.7499969558717,2|8,0:1|0:1,0:0:0:0:
261,112,235522,1,2,0:1:0:0:
270,342,235682,53,8,0:1:0:0:
222,356,235761,1,8,0:1:0:0:
171,356,235841,1,8,0:1:0:0:
128,329,235921,1,8,0:1:0:0:
133,279,236001,1,8,0:1:0:0:
141,229,236081,1,8,0:1:0:0:
149,180,236160,1,8,0:1:0:0:
157,130,236240,1,8,0:1:0:0:
168,81,236320,54,0,P|114:53|19:75,1,149.624995433808,6|0,1:0|0:0,0:0:0:0:
0,138,236639,37,10,0:1:0:0:
228,217,236799,2,0,B|276:222|276:222|328:203,1,99.7499969558717,2|0,0:1|1:0,0:0:0:0:
258,110,237118,1,0,0:0:0:0:
296,326,237277,53,10,0:1:0:0:
448,221,237437,2,0,L|455:121,1,99.7499969558717,2|0,0:1|1:0,0:0:0:0:
369,31,237756,1,0,0:0:0:0:
312,235,237915,5,10,0:1:0:0:
238,67,238075,2,0,P|194:43|145:45,1,99.7499969558717,2|0,0:1|1:0,0:0:0:0:
53,285,238394,2,0,L|45:180,1,99.7499969558717,2|8,0:1|0:1,0:0:0:0:
264,148,238714,53,2,0:1:0:0:
109,121,238873,1,0,1:0:0:0:
106,120,239033,1,0,1:0:0:0:
346,74,239192,5,10,0:1:0:0:
330,268,239352,1,0,1:0:0:0:
330,272,239511,1,0,1:0:0:0:
440,40,239671,53,10,0:1:0:0:
395,217,239831,1,0,1:0:0:0:
396,222,239990,1,0,1:0:0:0:
200,53,240150,5,10,0:1:0:0:
427,76,240309,1,8,1:0:0:0:
130,152,240469,37,10,0:1:0:0:
410,110,240628,1,8,0:1:0:0:
85,270,240788,1,10,0:1:0:0:
92,319,240868,1,8,0:1:0:0:
122,358,240948,1,10,0:1:0:0:
168,374,241027,1,8,0:1:0:0:
216,363,241107,5,10,0:1:0:0:
212,303,241187,1,8,0:1:0:0:
208,243,241267,1,10,0:1:0:0:
205,183,241346,1,8,0:1:0:0:
203,124,241426,6,0,P|243:100|303:108,1,104.500003189087,6|0,1:0|1:0,0:0:0:0:
303,300,241746,1,8,0:1:0:0:
441,160,241905,2,0,L|430:53,1,104.500003189087,2|0,1:0|1:0,0:0:0:0:
207,38,242224,1,2,1:0:0:0:
332,125,242384,1,8,0:1:0:0:
98,159,242543,1,2,1:0:0:0:
272,82,242703,53,0,1:0:0:0:
254,241,242863,1,0,1:0:0:0:
68,145,243022,1,8,0:1:0:0:
100,316,243182,1,0,1:0:0:0:
313,162,243341,6,0,P|368:159|421:183,1,104.500003189087,2|0,1:0|1:0,0:0:0:0:
485,233,243581,1,2,1:0:0:0:
488,237,243660,2,0,L|495:183,1,52.2500015945435,8|0,0:1|0:0,0:0:0:0:
446,51,243820,2,0,L|455:120,1,52.2500015945435,2|0,1:0|0:0,0:0:0:0:
455,310,243980,54,0,P|400:313|347:289,1,104.500003189087,6|0,1:0|1:0,0:0:0:0:
376,110,244299,1,8,0:1:0:0:
245,254,244458,2,0,L|257:364,1,104.500003189087,2|0,1:0|1:0,0:0:0:0:
70,291,244777,1,2,1:0:0:0:
221,234,244937,1,8,0:1:0:0:
18,182,245097,1,2,1:0:0:0:
206,99,245256,6,0,L|194:209,1,104.500003189087,0|0,1:0|1:0,0:0:0:0:
399,133,245575,1,8,0:1:0:0:
230,74,245735,1,0,1:0:0:0:
455,50,245894,53,2,1:0:0:0:
424,231,246053,1,0,1:0:0:0:
307,99,246213,1,8,0:1:0:0:
488,141,246373,2,0,L|421:145,1,52.2500015945435,10|8,0:1|0:1,0:0:0:0:
210,237,246533,53,6,1:0:0:0:
436,321,246692,1,0,1:0:0:0:
142,343,246852,1,10,0:1:0:0:
351,226,247011,1,0,1:0:0:0:
70,127,247171,5,2,1:0:0:0:
319,215,247331,1,0,1:0:0:0:
29,334,247490,1,10,0:1:0:0:
209,68,247650,53,2,1:0:0:0:
161,258,247809,1,0,1:0:0:0:
397,126,247969,5,2,1:0:0:0:
440,332,248128,1,8,1:0:0:0:
148,151,248288,53,2,1:0:0:0:
105,357,248447,1,0,1:0:0:0:
64,92,248607,5,2,1:0:0:0:
214,333,248767,2,0,P|265:341|314:326,1,104.500003189087,10|0,0:1|1:0,0:0:0:0:
385,73,249086,53,2,1:0:0:0:
368,229,249246,1,0,1:0:0:0:
157,107,249405,1,10,1:0:0:0:
140,263,249565,1,0,1:0:0:0:
443,147,249724,5,6,1:0:0:0:
82,184,249884,1,8,0:1:0:0:
426,306,250043,53,6,1:2:0:0:
75,344,250203,1,0,1:0:0:0:
234,92,250363,6,0,L|243:155,1,52.2500015945435,6|0,1:0|0:0,0:0:0:0:
291,291,250522,2,0,L|282:228,1,52.2500015945435,8|8,0:1|0:1,0:0:0:0:
271,23,250682,54,0,L|263:74,1,52.2500015945435,6|0,1:2|0:0,0:0:0:0:
265,360,250841,2,0,L|272:308,1,52.2500015945435,8|8,0:1|0:1,0:0:0:0:
95,61,251001,5,6,1:0:0:0:
74,114,251081,1,0,0:0:0:0:
64,170,251160,1,8,0:1:0:0:
73,226,251240,1,8,0:1:0:0:
130,218,251320,1,10,0:1:0:0:
187,209,251400,1,8,0:1:0:0:
243,198,251480,1,8,0:1:0:0:
298,187,251559,1,8,0:1:0:0:
353,171,251639,38,0,P|357:255|333:329,1,156.750004783631,4|0,1:0|0:0,0:0:0:0:
292,384,251958,37,10,0:1:0:0:
206,173,252118,2,0,L|214:68,1,104.500003189087,2|0,0:1|1:0,0:0:0:0:
300,0,252437,1,0,1:0:0:0:
116,137,252597,53,10,0:1:0:0:
302,87,252756,2,0,P|357:85|409:117,1,104.500003189087,2|0,0:1|1:0,0:0:0:0:
427,212,253075,1,0,1:0:0:0:
468,31,253235,5,10,0:1:0:0:
329,181,253394,2,0,L|337:285,1,104.500003189087,2|0,0:1|1:0,0:0:0:0:
417,371,253714,1,0,1:0:0:0:
234,283,253873,37,8,0:1:0:0:
192,289,253953,1,8,0:1:0:0:
155,309,254033,1,8,0:1:0:0:
126,339,254113,1,8,0:1:0:0:
101,375,254192,6,0,L|108:236,1,128.250000489235,12|0,1:0|0:0,0:0:0:0:
70,36,254432,6,0,L|63:175,1,128.250000489235,8|0,0:1|0:0,0:0:0:0:
5,375,254671,38,0,L|12:236,1,128.250000489235,8|0,0:1|0:0,0:0:0:0:
11,246,255469,53,0,0:0:0:0:
105,206,255788,1,0,0:0:0:0:
105,103,256107,1,0,0:0:0:0:
207,115,256426,1,0,0:0:0:0:
276,192,256746,54,0,B|361:213|431:158|431:158|422:220,1,221.666666666667,2|0,0:0|0:0,0:0:0:0:
