osu file format v14

[General]
AudioFilename: MY FIRST STORY - Kyogen NEUROSE.mp3
AudioLeadIn: 0
PreviewTime: 82331
Countdown: 0
SampleSet: Soft
StackLeniency: 0.7
Mode: 0
LetterboxInBreaks: 0
WidescreenStoryboard: 0

[Editor]
Bookmarks: 170256
DistanceSpacing: 0.6
BeatDivisor: 4
GridSize: 4
TimelineZoom: 2.1

[Metadata]
Title:Itsuwari NEUROSE
TitleUnicode:虚言NEUROSE
Artist:MY FIRST STORY
ArtistUnicode:MY FIRST STORY
Creator:Saut
Version:Insane
Source:
Tags:SkinnyJommy Broccoly
BeatmapID:822403
BeatmapSetID:365963

[Difficulty]
HPDrainRate:6
CircleSize:4
OverallDifficulty:7.8
ApproachRate:9
SliderMultiplier:1.6
SliderTickRate:2

[Events]
//Background and Video events
0,0,"v5.jpg",0,0
//Break Periods
2,98648,106784
2,175244,184656
//Storyboard Layer 0 (Background)
//Storyboard Layer 1 (Fail)
//Storyboard Layer 2 (Pass)
//Storyboard Layer 3 (Foreground)
//Storyboard Sound Samples

[TimingPoints]
150,319.148936170213,4,2,1,100,1,0
789,319.148936170213,4,1,9,65,1,0
789,-200,4,1,9,65,0,0
1108,-200,4,2,2,50,0,0
16108,-100,4,1,9,80,0,1
16267,-100,4,2,1,70,0,0
36533,-200,4,2,2,50,0,0
46746,-142.857142857143,4,2,1,40,0,0
55203,-125,4,2,1,65,0,0
56959,-111.111111111111,4,2,1,60,0,0
67171,-105.263157894737,4,2,1,60,0,0
77384,-200,4,2,2,50,0,0
79618,-125,4,2,1,60,0,0
79937,-100,4,2,1,60,0,0
82491,-200,4,2,2,50,0,0
83129,319.148936170213,4,2,9,85,1,1
83129,-95.2380952380952,4,2,9,85,0,1
83368,-95.2380952380952,4,2,1,75,0,1
97171,-100,4,2,1,50,0,0
97490,-100,4,2,2,50,0,0
107384,-90.9090909090909,4,2,1,50,0,0
108660,-125,4,2,1,55,0,0
116320,-111.111111111111,4,2,1,60,0,0
118873,-166.666666666667,4,2,2,50,0,0
128448,-105.263157894737,4,2,1,65,0,0
129086,-111.111111111111,4,2,1,60,0,0
136746,-111.111111111111,4,2,1,65,0,0
139299,-125,4,2,1,55,0,0
141852,-105.263157894737,4,2,1,65,0,0
144405,-95.2380952380952,4,2,9,85,0,1
144644,-95.2380952380952,4,2,1,75,0,1
159086,-95.2380952380952,4,2,1,70,0,0
159724,-95.2380952380952,4,2,9,90,0,1
159964,-95.2380952380952,4,2,1,80,0,1
172490,-74.0740740740741,4,2,1,70,0,0
173129,-100,4,2,2,50,0,0
185256,-166.666666666667,4,2,1,55,0,0
195469,-142.857142857143,4,2,1,55,0,0
200575,-125,4,2,1,60,0,0
205522,-105.263157894737,4,2,1,65,0,1
205682,-105.263157894737,4,2,1,65,0,0
222277,-133.333333333334,4,2,1,65,0,0
223554,-105.263157894737,4,2,1,65,0,0
226107,-166.666666666667,4,2,2,50,0,0
229937,-105.263157894737,4,2,1,65,0,0
231214,-95.2380952380952,4,1,9,90,0,1
231373,-95.2380952380952,4,2,1,80,0,1
240150,-95.2380952380952,4,2,1,75,0,0
241426,-90.9090909090909,4,2,1,95,0,1
241586,-90.9090909090909,4,2,1,85,0,1
251639,-90.9090909090909,4,2,1,100,0,1
251879,-90.9090909090909,4,2,1,85,0,1
254192,-74.0740740740741,4,2,1,75,0,0
254831,-166.666666666667,4,2,2,50,0,0
256746,-300,4,2,2,50,0,0
256905,-300,4,2,2,20,0,0

[Colours]
Combo1 : 251,63,128
Combo2 : 160,146,218
Combo3 : 177,126,114
Combo4 : 214,194,228
SliderTrackOverride : 27,18,49

[HitObjects]
297,42,789,5,4,0:0:0:0:
418,116,1108,1,0,0:0:0:0:
418,116,1267,2,0,L|506:122,2,80,0|0|0,0:0|0:0|0:0,0:0:0:0:
296,169,2225,6,0,L|247:176,2,40,0|0|0,0:0|0:0|0:0,0:0:0:0:
366,224,2703,2,0,P|383:279|360:345,1,120,0|0,0:0|0:0,0:0:0:0:
282,372,3342,5,2,0:0:0:0:
158,301,3661,1,0,0:0:0:0:
158,301,3820,2,0,L|76:306,2,80,0|0|0,0:0|0:0|0:0,0:0:0:0:
264,202,4778,6,0,L|268:155,2,40,0|0|0,0:0|0:0|0:0,0:0:0:0:
171,153,5257,2,0,L|167:106,2,40,0|0|0,0:0|0:0|0:0,0:0:0:0:
182,243,5735,5,2,0:0:0:0:
64,172,6054,1,0,0:0:0:0:
64,172,6214,2,0,B|58:118|58:118|62:78,1,80,0|0,0:0|0:0,0:0:0:0:
129,41,6693,2,0,L|171:46,1,40,0|0,0:0|0:0,0:0:0:0:
254,82,7012,6,0,P|260:42|251:2,2,80,2|0|0,0:0|0:0|0:0,0:0:0:0:
224,217,7969,1,0,0:0:0:0:
224,217,8129,2,0,L|276:210,1,40,0|0,0:0|0:0,0:0:0:0:
359,226,8448,5,2,0:0:0:0:
459,146,8767,1,0,0:0:0:0:
459,146,8927,2,0,B|450:198|450:198|453:238,1,80,0|0,0:0|0:0,0:0:0:0:
477,301,9406,1,0,0:0:0:0:
387,358,9565,6,0,L|305:364,2,80,2|0|0,0:0|0:0|0:0,0:0:0:0:
293,254,10523,1,0,0:0:0:0:
293,254,10682,2,0,B|267:257|267:257|238:263,1,40
152,299,11001,6,0,P|136:260|138:214,1,80,2|0,0:0|0:0,0:0:0:0:
161,141,11480,2,0,L|67:146,1,80,0|0,0:0|0:0,0:0:0:0:
0,147,11959,1,0,0:0:0:0:
52,50,12118,6,0,L|131:55,1,80,2|0,0:0|0:0,0:0:0:0:
217,39,12597,1,0,0:0:0:0:
271,111,12757,2,0,P|299:108|324:99,1,40,0|0,0:0|0:0,0:0:0:0:
403,48,13076,2,0,P|383:43|363:41,1,40,0|0,0:0|0:0,0:0:0:0:
320,187,13395,5,2,0:0:0:0:
464,251,13714,1,0,0:0:0:0:
464,251,13874,2,0,L|459:309,1,40,0|0,0:0|0:0,0:0:0:0:
399,361,14193,2,0,P|352:326|278:329,1,120,0|0,0:0|0:0,0:0:0:0:
279,333,14831,5,0,0:0:0:0:
159,321,15150,1,0,0:0:0:0:
278,310,15469,1,0,0:0:0:0:
161,340,15789,1,0,0:0:0:0:
76,66,16108,6,0,L|85:159,1,80,4|0,0:0|0:0,0:0:0:0:
252,169,16427,2,0,P|219:154|159:149,1,80,10|0,0:1|0:0,0:0:0:0:
53,250,16746,2,0,P|92:244|129:228,1,80,2|0,1:0|0:0,0:0:0:0:
166,63,17065,1,8,0:1:0:0:
166,63,17225,1,0,0:0:0:0:
258,160,17384,6,0,L|346:147,1,80,0|0,1:0|0:0,0:0:0:0:
472,107,17703,2,0,P|481:70|477:16,1,80,10|0,0:1|0:0,0:0:0:0:
344,69,18023,2,0,P|335:106|339:160,1,80,2|0,1:0|0:0,0:0:0:0:
480,198,18342,1,8,0:1:0:0:
480,198,18501,1,0,0:0:0:0:
372,324,18661,6,0,L|383:238,1,80,4|0,1:0|0:0,0:0:0:0:
200,312,18980,2,0,P|239:313|277:292,1,80,10|0,0:1|0:0,0:0:0:0:
446,341,19299,2,0,P|406:342|368:321,1,80,2|0,1:0|0:0,0:0:0:0:
270,196,19618,1,8,0:1:0:0:
282,281,19777,1,0,0:0:0:0:
193,152,19937,6,0,P|152:153|102:161,1,80,0|0,1:0|0:0,0:0:0:0:
101,330,20257,2,0,L|116:242,1,80,10|0,0:1|0:0,0:0:0:0:
15,123,20576,2,0,L|30:211,1,80,2|0,1:0|0:0,0:0:0:0:
94,47,20895,1,8,0:1:0:0:
193,152,21054,1,8,0:1:0:0:
193,152,21134,1,8,0:1:0:0:
193,152,21214,6,0,P|245:149|288:144,1,80,4|0,1:0|0:0,0:0:0:0:
387,41,21533,2,0,P|427:45|467:61,1,80,10|0,0:1|0:0,0:0:0:0:
380,217,21852,2,0,B|370:165|370:165|372:117,1,80,2|0,1:0|0:0,0:0:0:0:
488,158,22171,1,8,0:1:0:0:
488,158,22331,1,0,0:0:0:0:
449,267,22491,6,0,L|452:348,1,80,0|0,1:0|0:0,0:0:0:0:
372,210,22810,2,0,P|326:214|282:236,1,80,10|0,0:1|0:0,0:0:0:0:
168,335,23129,2,0,P|204:350|244:352,1,80,2|0,1:0|0:0,0:0:0:0:
178,218,23448,1,8,0:1:0:0:
178,218,23608,1,0,0:0:0:0:
66,355,23767,6,0,L|57:252,1,80,4|0,1:0|0:0,0:0:0:0:
38,110,24086,2,0,P|80:108|128:120,1,80,10|0,0:1|0:0,0:0:0:0:
261,115,24406,1,2,1:0:0:0:
192,236,24565,1,8,0:1:0:0:
342,183,24725,1,0,1:0:0:0:
351,320,24884,1,8,0:1:0:0:
461,230,25044,6,0,L|471:187,3,40,10|8|0|0,0:1|0:1|1:0|1:0,0:0:0:0:
427,117,25363,2,0,L|437:74,3,40,10|8|0|0,0:1|0:1|1:0|1:0,0:0:0:0:
344,50,25683,1,10,0:1:0:0:
312,44,25763,1,8,0:1:0:0:
280,46,25843,1,8,0:1:0:0:
250,55,25921,1,8,0:1:0:0:
220,67,26001,2,0,L|169:59,3,40,10|8|8|8,0:1|0:1|0:1|0:1,0:0:0:0:
90,43,26320,6,0,P|107:85|99:143,1,80,4|0,0:1|0:0,0:0:0:0:
43,249,26640,2,0,L|61:333,1,80,10|0,0:1|0:0,0:0:0:0:
229,220,26959,1,2,1:0:0:0:
124,210,27118,1,0,0:0:0:0:
249,318,27278,2,0,P|289:313|339:298,1,80,8|0,0:1|0:0,0:0:0:0:
444,241,27597,6,0,P|404:236|354:221,1,80,0|0,1:0|0:0,0:0:0:0:
424,63,27916,2,0,L|422:163,1,80,10|0,0:1|0:0,0:0:0:0:
254,130,28235,1,2,1:0:0:0:
280,227,28395,1,0,0:0:0:0:
154,120,28554,2,0,P|113:108|58:112,1,80,8|0,0:1|0:0,0:0:0:0:
9,297,28874,6,0,P|54:289|94:273,1,80,4|0,1:0|0:0,0:0:0:0:
198,200,29193,1,10,0:1:0:0:
198,200,29352,1,0,0:0:0:0:
158,324,29512,1,2,1:0:0:0:
158,324,29671,1,0,0:0:0:0:
283,245,29831,2,0,P|320:231|366:234,1,80,8|0,0:1|0:0,0:0:0:0:
468,295,30150,6,0,L|459:207,1,80,0|0,1:0|0:0,0:0:0:0:
355,119,30469,1,10,0:1:0:0:
355,119,30628,1,0,0:0:0:0:
486,73,30789,1,2,1:0:0:0:
486,73,30948,1,0,0:0:0:0:
334,31,31108,1,8,0:1:0:0:
321,204,31267,1,8,0:1:0:0:
321,204,31347,1,8,0:1:0:0:
321,204,31427,6,0,B|281:213|281:213|226:212,1,80,4|0,1:0|0:0,0:0:0:0:
84,148,31746,2,0,P|90:191|101:231,1,80,10|0,0:1|0:0,0:0:0:0:
165,367,32065,2,0,P|175:328|180:288,1,80,2|0,1:0|0:0,0:0:0:0:
198,134,32384,1,8,0:1:0:0:
249,221,32544,1,0,0:0:0:0:
350,144,32703,6,0,L|442:148,1,80,0|0,1:0|0:0,0:0:0:0:
338,30,33023,2,0,P|292:35|237:51,1,80,10|0,0:1|0:0,0:0:0:0:
198,198,33342,2,0,P|152:193|97:177,1,80,2|0,1:0|0:0,0:0:0:0:
54,51,33661,1,8,0:1:0:0:
145,95,33820,1,0,0:0:0:0:
22,208,33980,6,0,L|31:309,1,80,4|0,0:1|0:0,0:0:0:0:
188,350,34299,2,0,P|227:347|286:322,1,80,10|0,0:1|0:0,0:0:0:0:
353,220,34618,1,2,1:0:0:0:
386,365,34778,1,8,0:1:0:0:
466,165,34938,1,0,1:0:0:0:
449,310,35097,1,8,0:1:0:0:
385,137,35257,5,2,1:0:0:0:
376,245,35416,1,0,1:0:0:0:
260,172,35576,2,0,P|222:173|179:184,1,80,10|0,0:1|1:0,0:0:0:0:
108,272,35895,1,8,0:3:0:0:
109,287,35975,1,8,0:3:0:0:
110,302,36054,1,4,0:3:0:0:
112,318,36134,1,4,0:3:0:0:
113,334,36214,5,8,0:1:0:0:
52,74,36533,6,0,P|103:93|182:81,1,120,6|0,0:0|0:0,0:0:0:0:
167,87,37491,1,0,0:0:0:0:
333,139,37810,6,0,P|282:158|203:146,1,120,2|0,0:0|0:0,0:0:0:0:
217,152,38768,1,0,0:0:0:0:
62,213,39086,6,0,P|113:232|192:220,1,120,2|0,0:0|0:0,0:0:0:0:
178,226,40044,1,0,0:0:0:0:
303,256,40363,6,0,L|299:305,1,40,2|0,0:0|0:0,0:0:0:0:
388,338,40682,2,0,L|384:289,1,40,2|0,0:0|0:0,0:0:0:0:
429,219,41001,1,2,0:0:0:0:
429,219,41161,2,0,L|432:169,1,40,0|0,0:0|0:0,0:0:0:0:
435,97,41480,1,0,0:0:0:0:
317,173,41640,6,0,P|258:188|195:178,2,120,2|0|0,0:0|0:0|0:0,0:0:0:0:
127,157,42916,6,0,P|169:200|192:260,2,120,2|0|0,0:0|0:0|0:0,0:0:0:0:
207,329,44193,6,0,P|223:270|263:220,2,120,2|0|0,0:0|0:0|0:0,0:0:0:0:
52,328,45469,6,0,L|48:284,1,40,2|0,0:0|0:0,0:0:0:0:
128,228,45789,2,0,L|130:187,1,40,2|0,0:0|0:0,0:0:0:0:
62,57,46108,6,0,L|65:96,1,40,2|0,0:0|0:0,0:0:0:0:
141,174,46427,2,0,L|139:213,1,40,2|0,0:0|0:0,0:0:0:0:
200,348,46746,6,0,P|255:354|321:331,1,111.999996582031,4|0,1:0|1:0,0:0:0:0:
377,280,47225,1,0,0:0:0:0:
428,207,47384,2,0,L|508:215,2,55.9999982910157,0|0|0,1:0|0:0|1:0,0:0:0:0:
339,194,47863,1,0,0:0:0:0:
401,20,48023,6,0,P|413:80|396:132,1,111.999996582031,0|0,1:0|1:0,0:0:0:0:
331,186,48502,1,0,0:0:0:0:
244,164,48661,2,0,P|211:169|173:178,1,55.9999982910157,0|0,1:0|0:0,0:0:0:0:
99,169,48980,2,0,P|76:191|54:220,1,55.9999982910157,0|0,1:0|0:0,0:0:0:0:
146,361,49299,6,0,L|140:226,1,111.999996582031,0|0,1:0|1:0,0:0:0:0:
188,173,49778,1,0,0:0:0:0:
231,95,49937,2,0,L|233:39,2,55.9999982910157,0|0|0,1:0|0:0|1:0,0:0:0:0:
274,173,50416,1,0,0:0:0:0:
351,65,50576,6,0,P|379:59|418:58,1,55.9999982910157,0|0,1:0|0:0,0:0:0:0:
464,161,50895,2,0,P|436:155|397:154,1,55.9999982910157,0|0,1:0|0:0,0:0:0:0:
339,236,51214,2,0,L|343:294,2,55.9999982910157,0|0|0,1:0|0:0|1:0,0:0:0:0:
400,170,51693,1,0,0:0:0:0:
400,349,51852,6,0,P|347:334|270:354,1,111.999996582031,0|0,1:0|1:0,0:0:0:0:
205,369,52331,2,0,L|145:354,1,55.9999982910157,0|0,0:0|1:0,0:0:0:0:
61,341,52650,2,0,P|47:308|45:273,1,55.9999982910157,0|0,0:0|1:0,0:0:0:0:
71,202,52969,1,0,0:0:0:0:
208,282,53129,6,0,P|233:230|219:154,1,111.999996582031,0|0,1:0|1:0,0:0:0:0:
178,102,53608,2,0,L|179:43,1,55.9999982910157,0|0,0:0|1:0,0:0:0:0:
263,16,53927,2,0,L|263:71,1,55.9999982910157,0|0,0:0|1:0,0:0:0:0:
321,141,54246,1,0,0:0:0:0:
455,70,54406,6,0,B|464:149|464:149|450:205,1,111.999996582031,0|0,1:0|1:0,0:0:0:0:
401,251,54884,2,0,P|407:283|417:311,1,55.9999982910157,0|0,0:0|1:0,0:0:0:0:
241,246,55203,6,0,B|206:246|206:246|172:256,1,64,0|0,0:0|1:0,0:0:0:0:
301,328,55523,1,8,0:1:0:0:
324,183,55682,5,0,1:0:0:0:
238,152,55842,1,8,0:3:0:0:
150,169,56001,1,8,0:1:0:0:
79,263,56161,5,8,0:1:0:0:
61,245,56240,1,8,0:1:0:0:
46,223,56320,1,8,0:1:0:0:
37,198,56400,1,8,0:1:0:0:
33,172,56480,1,8,0:1:0:0:
35,146,56559,1,8,0:1:0:0:
44,121,56640,2,0,L|36:63,3,32,8|8|4|4,0:3|0:3|0:3|0:3,0:0:0:0:
108,41,56959,6,0,B|140:49|140:49|196:46,1,71.9999978027344,6|2,1:0|1:0,0:0:0:0:
321,14,57278,2,0,L|318:99,1,71.9999978027344,8|0,0:1|2:0,0:0:0:0:
326,106,57517,1,8,0:1:0:0:
335,125,57597,1,0,0:0:0:0:
471,64,57757,2,0,P|435:59|399:61,1,71.9999978027344,2|0,1:0|0:0,0:0:0:0:
261,204,58076,2,0,P|296:208|332:206,1,71.9999978027344,2|0,1:0|0:0,0:0:0:0:
477,149,58395,5,2,1:0:0:0:
407,248,58554,2,0,L|412:327,1,71.9999978027344,8|0,0:1|2:0,0:0:0:0:
420,339,58794,1,8,0:1:0:0:
431,357,58874,1,0,1:0:0:0:
493,289,59033,1,0,1:0:0:0:
330,274,59193,2,0,P|277:266|222:282,1,107.999996704102,8|0,0:1|2:0,0:0:0:0:
212,299,59512,6,0,L|120:295,1,71.9999978027344,6|2,1:0|1:0,0:0:0:0:
22,220,59831,2,0,L|114:216,1,71.9999978027344,8|0,0:1|2:0,0:0:0:0:
113,207,60070,1,8,0:1:0:0:
131,195,60150,1,0,0:0:0:0:
56,67,60310,2,2,B|57:108|57:108|68:150,1,71.9999978027344,2|0,1:0|0:0,0:0:0:0:
205,45,60629,2,2,L|287:54,1,71.9999978027344,2|0,1:0|0:0,0:0:0:0:
406,67,60948,5,2,1:0:0:0:
286,134,61108,2,0,P|281:168|296:219,1,71.9999978027344,8|0,0:1|0:0,0:0:0:0:
301,222,61347,1,8,0:1:0:0:
313,239,61427,1,8,0:1:0:0:
322,258,61507,1,8,0:1:0:0:
326,278,61586,1,8,0:1:0:0:
323,299,61666,1,8,0:1:0:0:
315,319,61746,2,0,L|325:375,3,35.9999989013672,8|8|4|4,0:3|0:3|0:3|0:3,0:0:0:0:
396,327,62065,6,2,P|432:318|479:323,1,71.9999978027344,6|2,1:0|1:0,0:0:0:0:
512,220,62384,2,2,P|476:211|429:216,1,71.9999978027344,8|0,0:1|2:0,0:0:0:0:
420,220,62624,1,8,0:1:0:0:
401,230,62703,1,0,0:0:0:0:
319,119,62863,2,2,L|326:32,1,71.9999978027344,2|0,1:0|0:0,0:0:0:0:
248,196,63182,2,2,L|253:267,1,71.9999978027344,2|0,1:0|0:0,0:0:0:0:
339,351,63501,5,2,1:0:0:0:
245,286,63661,2,0,P|207:287|173:303,1,71.9999978027344,8|0,0:1|0:0,0:0:0:0:
116,376,63980,1,0,0:0:0:0:
73,242,64140,1,0,1:0:0:0:
73,242,64219,1,0,1:0:0:0:
73,242,64299,1,8,0:1:0:0:
253,267,64459,6,0,P|261:231|247:176,1,71.9999978027344,4|0,1:0|0:0,0:0:0:0:
144,96,64778,1,0,1:0:0:0:
176,222,64937,1,10,0:1:0:0:
246,41,65096,5,0,1:0:0:0:
241,172,65257,1,10,0:1:0:0:
351,69,65416,5,0,1:0:0:0:
244,145,65576,1,10,0:1:0:0:
409,156,65735,5,4,1:0:0:0:
297,333,66054,1,8,0:1:0:0:
316,341,66133,1,8,0:1:0:0:
337,343,66213,1,8,0:1:0:0:
358,340,66293,1,8,0:1:0:0:
378,333,66373,1,8,0:1:0:0:
396,323,66452,1,8,0:1:0:0:
409,305,66533,2,0,L|458:311,3,35.9999989013672,8|8|4|4,0:3|0:3|0:3|0:3,0:0:0:0:
448,222,66852,2,0,L|483:217,3,35.9999989013672,8|8|8|8,0:1|0:1|0:1|0:1,0:0:0:0:
466,131,67171,6,0,P|463:90|449:52,1,75.9999979705811,6|0,1:0|0:0,0:0:0:0:
325,205,67491,2,0,B|284:206|284:206|247:196,1,75.9999979705811,12|0,1:0|2:0,0:0:0:0:
229,187,67730,1,8,0:1:0:0:
209,175,67810,1,0,0:0:0:0:
263,34,67969,2,0,L|274:126,1,75.9999979705811,2|0,1:0|0:0,0:0:0:0:
331,215,68289,6,0,L|322:303,2,75.9999979705811,2|0|0,1:0|0:0|1:0,0:0:0:0:
221,298,68767,2,0,P|176:304|136:288,1,75.9999979705811,8|0,0:1|2:0,0:0:0:0:
127,283,69006,1,8,0:1:0:0:
109,267,69086,1,0,0:0:0:0:
190,214,69246,1,0,1:0:0:0:
75,151,69406,2,0,L|-7:163,1,75.9999979705811,8|0,0:1|2:0,0:0:0:0:
99,51,69725,5,2,1:0:0:0:
99,51,69884,1,0,1:0:0:0:
215,134,70044,2,0,L|297:122,1,75.9999979705811,8|0,0:1|2:0,0:0:0:0:
311,129,70283,1,8,0:1:0:0:
332,137,70363,1,0,0:0:0:0:
427,177,70523,2,0,P|434:136|418:88,1,75.9999979705811,2|0,1:0|0:0,0:0:0:0:
350,223,70842,6,0,L|357:313,1,75.9999979705811,2|0,1:0|0:0,0:0:0:0:
247,276,71161,2,0,L|254:366,1,75.9999979705811,0|8,1:0|0:1,0:0:0:0:
136,198,71480,2,0,L|143:288,1,75.9999979705811,0|0,0:1|1:0,0:0:0:0:
33,251,71799,2,0,L|40:341,1,75.9999979705811,0|8,1:0|0:1,0:0:0:0:
151,355,72118,1,0,0:0:0:0:
136,198,72278,5,6,1:0:0:0:
136,198,72437,1,0,1:0:0:0:
236,298,72597,2,0,P|283:304|313:296,1,75.9999979705811,8|0,0:1|2:0,0:0:0:0:
326,281,72836,1,8,0:1:0:0:
341,264,72916,2,0,L|430:271,1,75.9999979705811,0|2,0:0|1:0,0:0:0:0:
470,351,73235,1,0,0:0:0:0:
504,225,73395,6,0,L|498:149,2,75.9999979705811,2|0|0,1:0|0:0|1:0,0:0:0:0:
368,186,73874,2,0,P|345:148|340:96,1,75.9999979705811,8|0,0:1|0:0,0:0:0:0:
435,56,74193,2,0,L|431:110,3,37.9999989852906,8|8|4|4,0:3|0:3|0:3|0:3,0:0:0:0:
498,149,74512,2,0,L|504:225,1,75.9999979705811,8|0,0:1|0:0,0:0:0:0:
369,342,74831,6,0,P|328:340|281:322,1,75.9999979705811,6|0,1:0|0:0,0:0:0:0:
156,210,75150,1,8,0:1:0:0:
306,246,75310,5,2,1:0:0:0:
131,290,75469,1,8,0:1:0:0:
294,329,75629,5,2,1:0:0:0:
104,371,75789,1,8,0:1:0:0:
306,246,75948,5,6,0:0:0:0:
64,221,76267,1,8,0:1:0:0:
55,199,76347,1,8,0:1:0:0:
55,176,76427,1,8,0:1:0:0:
64,155,76507,1,8,0:1:0:0:
77,137,76586,2,0,L|126:134,3,37.9999989852906,8|8|8|8,0:1|0:1|0:1|0:1,0:0:0:0:
152,65,76906,1,8,0:1:0:0:
160,44,76985,1,8,0:1:0:0:
169,23,77065,2,0,L|219:28,3,37.9999989852906,8|8|4|4,0:3|0:3|0:3|0:3,0:0:0:0:
283,40,77384,5,4,0:0:0:0:
321,152,77703,1,0,0:0:0:0:
321,152,77863,2,0,L|322:283,1,120
239,320,78501,2,0,L|238:189,1,120
238,200,79299,1,0,0:0:0:0:
422,147,79618,6,0,L|412:104,3,32,8|8|4|4,0:3|0:3|0:3|0:3,0:0:0:0:
372,42,79937,6,0,B|413:31|413:31|465:45,2,80,10|0|0,0:1|1:0|1:0,0:0:0:0:
346,184,80416,1,10,0:1:0:0:
256,126,80576,1,0,1:0:0:0:
152,149,80736,1,0,1:0:0:0:
281,238,80895,5,10,0:1:0:0:
338,96,81054,2,0,B|410:76|410:76|508:106,2,160,4|4|4,0:3|0:3|0:3,0:0:0:0:
79,93,82491,6,0,L|85:248,1,140,0|0,0:0|0:0,0:0:0:0:
41,294,83129,6,0,P|88:272|207:320,1,167.999994873047,6|8,1:0|0:1,0:0:0:0:
365,357,83607,2,0,L|357:270,1,83.9999974365235,2|0,0:1|1:0,0:0:0:0:
252,141,83926,2,0,L|260:228,1,83.9999974365235,2|8,0:1|0:1,0:0:0:0:
278,338,84246,1,2,0:1:0:0:
436,270,84405,6,0,P|447:225|431:177,1,83.9999974365235,0|2,1:0|0:0,0:0:0:0:
352,94,84724,1,8,0:1:0:0:
352,94,84804,1,2,0:0:0:0:
352,94,84884,1,2,0:0:0:0:
260,224,85043,2,0,L|171:216,1,83.9999974365235,2|0,1:0|2:0,0:0:0:0:
156,200,85283,1,2,0:0:0:0:
134,186,85363,2,0,P|84:189|36:208,1,83.9999974365235,8|2,0:1|0:0,0:0:0:0:
168,40,85682,6,0,P|248:44|342:83,1,167.999994873047,6|8,1:0|0:1,0:0:0:0:
441,189,86160,2,0,L|434:283,1,83.9999974365235,2|0,0:1|1:0,0:0:0:0:
323,374,86480,2,0,L|316:290,1,83.9999974365235,2|8,0:1|0:1,0:0:0:0:
370,146,86799,1,2,0:1:0:0:
244,222,86958,6,0,P|200:214|163:186,1,83.9999974365235,0|0,1:0|0:0,0:0:0:0:
228,29,87277,1,8,0:1:0:0:
238,124,87437,1,0,0:0:0:0:
119,57,87597,2,0,B|20:64,1,83.9999974365235,2|2,1:0|0:0,0:0:0:0:
10,234,87916,1,8,0:1:0:0:
142,165,88075,1,10,1:0:0:0:
142,165,88155,1,8,1:0:0:0:
142,165,88235,6,0,L|230:168,1,83.9999974365235,6|2,1:0|0:0,0:0:0:0:
377,217,88554,1,10,0:1:0:0:
274,255,88714,1,2,0:0:0:0:
216,73,88873,2,0,L|303:83,1,83.9999974365235,2|2,1:0|0:0,0:0:0:0:
458,142,89193,1,10,0:1:0:0:
322,202,89352,6,0,P|321:243|337:293,1,83.9999974365235,2|0,0:1|1:0,0:0:0:0:
459,353,89671,2,0,P|470:312|469:270,1,83.9999974365235,2|8,0:1|0:1,0:0:0:0:
236,277,89990,2,0,P|245:316|274:361,1,83.9999974365235,2|0,0:1|1:0,0:0:0:0:
410,209,90309,1,2,0:1:0:0:
239,169,90469,2,0,B|158:164|158:164|104:181,1,125.999996154785,10|0,0:1|0:0,0:0:0:0:
95,192,90788,6,0,P|100:126|92:93,1,83.9999974365235,4|0,1:0|0:1,0:0:0:0:
18,264,91107,2,0,L|27:355,1,83.9999974365235,10|2,0:1|0:0,0:0:0:0:
193,226,91427,5,2,1:0:0:0:
156,371,91586,1,8,0:1:0:0:
303,197,91746,5,2,1:0:0:0:
218,305,91906,1,8,0:1:0:0:
354,334,92065,6,0,L|340:277,3,41.9999987182618,8|8|0|0,0:1|0:1|1:0|1:0,0:0:0:0:
417,245,92384,2,0,L|416:188,3,41.9999987182618,8|8|0|0,0:1|0:1|1:0|1:0,0:0:0:0:
478,138,92703,1,8,0:1:0:0:
462,112,92783,1,8,0:1:0:0:
441,90,92863,1,8,0:1:0:0:
413,79,92943,1,8,0:1:0:0:
383,80,93022,2,0,L|377:24,3,41.9999987182618,8|8|8|8,0:1|0:1|0:1|0:1,0:0:0:0:
310,110,93341,6,0,P|246:111|176:85,1,125.999996154785,0|0,1:0|2:0,0:0:0:0:
187,91,93661,5,14,1:0:0:0:
80,190,93820,2,0,L|93:286,2,83.9999974365235,2|0|0,0:1|1:0|0:0,0:0:0:0:
167,73,94299,5,10,0:1:0:0:
195,201,94458,2,0,L|208:297,2,83.9999974365235,2|0|0,0:1|1:0|0:0,0:0:0:0:
282,84,94937,5,10,0:1:0:0:
310,212,95097,2,0,L|323:308,2,83.9999974365235,2|0|0,0:1|1:0|0:0,0:0:0:0:
397,95,95576,1,10,0:1:0:0:
420,192,95735,1,2,0:1:0:0:
282,84,95894,6,0,P|213:68|112:112,1,167.999994873047,4|0,1:0|1:0,0:0:0:0:
82,196,96374,1,0,1:0:0:0:
227,155,96533,5,8,0:1:0:0:
217,238,96692,1,8,0:3:0:0:
283,289,96852,1,4,0:3:0:0:
271,371,97011,1,12,0:3:0:0:
84,330,97171,5,8,1:0:0:0:
204,318,97490,1,0,0:0:0:0:
85,307,97809,1,0,0:0:0:0:
202,337,98129,1,0,0:0:0:0:
56,225,98448,5,4,0:0:0:0:
86,133,107384,6,0,L|80:83,3,44.0000013427735,8|8|4|4,0:1|0:1|0:3|0:3,0:0:0:0:
167,82,107703,2,0,L|169:31,3,44.0000013427735,8|8|4|4,0:3|0:3|0:3|0:3,0:0:0:0:
252,51,108022,1,8,0:1:0:0:
277,45,108102,1,8,0:1:0:0:
303,47,108182,1,8,0:1:0:0:
327,57,108261,1,8,0:1:0:0:
348,72,108341,5,12,1:0:0:0:
284,220,108660,5,2,1:0:0:0:
366,170,108820,1,2,1:0:0:0:
325,309,108980,1,8,0:1:0:0:
325,309,109299,1,0,0:0:0:0:
269,211,109458,2,0,L|192:218,1,64,2|8,1:0|0:1,0:0:0:0:
211,362,109777,6,0,P|222:322|218:285,1,64,2|0,1:0|0:0,0:0:0:0:
198,212,110097,1,0,1:0:0:0:
63,264,110256,2,0,L|-3:260,2,64,10|0|0,0:1|0:0|0:0,0:0:0:0:
137,313,110735,1,2,1:0:0:0:
80,182,110894,2,0,P|79:139|89:106,1,64,8|0,0:1|0:0,0:0:0:0:
209,75,111214,5,2,1:0:0:0:
200,164,111374,1,2,1:0:0:0:
298,47,111534,1,8,0:1:0:0:
298,47,111852,1,0,0:0:0:0:
336,165,112011,2,0,P|372:166|412:152,1,64,2|8,1:0|0:1,0:0:0:0:
485,263,112331,6,0,P|449:264|409:250,1,64,2|0,1:0|0:0,0:0:0:0:
361,322,112650,1,0,1:0:0:0:
267,223,112809,2,0,P|231:227|193:240,1,64,10|2,0:1|0:1,0:0:0:0:
142,300,113129,2,0,L|146:352,3,32,0|0|0|0,1:0|1:0|1:0|1:0,0:0:0:0:
137,361,113448,2,0,P|173:365|211:378,1,64,10|0,0:1|0:0,0:0:0:0:
56,318,113767,6,0,L|51:252,1,64,6|0,1:0|0:0,0:0:0:0:
164,153,114086,1,8,0:1:0:0:
222,243,114246,2,0,P|252:233|278:215,1,64,2|0,0:1|1:0,0:0:0:0:
318,135,114565,1,2,1:0:0:0:
358,255,114724,1,8,0:1:0:0:
450,135,114884,6,0,P|388:123|325:147,1,128,2|0,1:0|1:0,0:0:0:0:
351,271,115363,1,8,0:1:0:0:
274,335,115522,2,0,P|240:333|204:326,1,64,2|0,0:1|1:0,0:0:0:0:
148,263,115841,1,2,1:0:0:0:
112,381,116001,1,8,0:1:0:0:
190,337,116160,1,2,1:0:0:0:
45,315,116320,6,0,L|33:233,1,71.9999978027344,6|0,1:0|1:0,0:0:0:0:
81,91,116639,2,0,L|93:173,1,71.9999978027344,10|0,0:1|1:0,0:0:0:0:
260,210,116958,5,10,0:1:0:0:
133,240,117118,1,0,1:0:0:0:
133,240,117277,1,0,1:0:0:0:
324,305,117437,5,10,0:1:0:0:
200,292,117597,1,0,1:0:0:0:
200,292,117756,1,0,1:0:0:0:
348,218,117916,2,0,L|425:228,1,71.9999978027344,10|0,0:1|1:0,0:0:0:0:
459,146,118235,6,0,L|452:81,2,47.9999985351563,8|8|8,1:0|1:0|1:0,0:0:0:0:
432,238,118554,2,0,L|439:303,2,47.9999985351563,8|4|12,0:3|0:3|0:3,0:0:0:0:
376,140,118873,6,0,P|302:114|276:121,1,95.9999970703126,4|0,0:0|0:0,0:0:0:0:
230,168,119511,2,0,P|151:175|131:193,1,95.9999970703126,0|0,0:0|0:0,0:0:0:0:
140,184,120469,1,0,0:0:0:0:
60,66,121426,5,2,0:0:0:0:
58,301,123022,1,0,0:0:0:0:
122,343,123341,1,0,0:0:0:0:
122,343,123501,2,0,L|220:339,1,95.9999970703126,0|0,0:0|0:0,0:0:0:0:
244,336,123980,6,0,P|262:284|248:232,1,95.9999970703126,0|0,0:0|0:0,0:0:0:0:
213,179,124618,2,0,P|206:132|223:87,1,95.9999970703126,0|0,0:0|0:0,0:0:0:0:
223,87,125575,1,0,0:0:0:0:
460,144,126533,5,0,0:0:0:0:
460,144,126852,1,0,0:0:0:0:
75,270,128129,5,0,0:0:0:0:
253,241,128448,5,8,0:1:0:0:
261,269,128527,1,8,0:1:0:0:
265,299,128607,1,8,0:1:0:0:
266,329,128687,1,8,0:1:0:0:
262,359,128767,2,0,L|316:335,3,37.9999989852906,8|8|8|8,0:1|0:1|0:1|0:1,0:0:0:0:
373,348,129086,6,0,P|385:314|378:260,1,71.9999978027344,6|2,1:0|1:0,0:0:0:0:
265,196,129405,2,0,L|350:199,1,71.9999978027344,8|0,0:1|2:0,0:0:0:0:
357,191,129644,1,8,0:1:0:0:
376,182,129724,1,0,0:0:0:0:
463,77,129884,2,0,L|460:149,1,71.9999978027344,2|0,1:0|0:0,0:0:0:0:
312,115,130203,2,0,L|315:43,1,71.9999978027344,2|0,1:0|0:0,0:0:0:0:
169,100,130522,5,2,1:0:0:0:
259,185,130681,2,0,P|270:215|264:264,1,71.9999978027344,8|0,0:1|2:0,0:0:0:0:
257,274,130921,1,8,0:1:0:0:
242,289,131001,1,0,1:0:0:0:
178,223,131160,1,0,1:0:0:0:
157,348,131320,2,0,L|49:340,1,107.999996704102,8|0,0:1|2:0,0:0:0:0:
29,348,131639,6,0,P|42:307|33:256,1,71.9999978027344,6|2,1:0|1:0,0:0:0:0:
0,158,131958,2,0,P|38:150|87:157,1,71.9999978027344,8|0,0:1|0:0,0:0:0:0:
87,165,132197,1,8,0:1:0:0:
102,179,132277,1,0,0:0:0:0:
177,267,132437,2,2,B|256:249,1,71.9999978027344,2|0,1:0|0:0,0:0:0:0:
200,104,132756,2,2,P|190:143|191:186,1,71.9999978027344,2|0,1:0|0:0,0:0:0:0:
335,219,133075,5,8,0:3:0:0:
300,345,133235,2,0,L|385:335,1,71.9999978027344,8|0,0:1|0:0,0:0:0:0:
422,255,133554,1,8,0:1:0:0:
304,206,133713,1,8,0:1:0:0:
304,206,133793,1,8,0:1:0:0:
304,206,133873,2,0,P|284:152|293:84,1,107.999996704102,8|4,0:3|0:3,0:0:0:0:
293,81,134192,6,2,L|205:89,1,71.9999978027344,6|2,1:0|1:0,0:0:0:0:
103,135,134511,2,2,P|94:99|99:52,1,71.9999978027344,8|0,0:1|2:0,0:0:0:0:
103,43,134751,1,8,0:1:0:0:
115,25,134830,1,0,0:0:0:0:
183,167,134990,2,2,B|185:205|185:205|176:257,1,71.9999978027344,2|0,1:0|0:0,0:0:0:0:
38,230,135309,2,2,B|36:268|36:268|45:320,1,71.9999978027344,2|0,1:0|0:0,0:0:0:0:
142,358,135628,5,2,1:0:0:0:
192,251,135788,2,0,P|230:252|264:268,1,71.9999978027344,8|0,0:1|0:0,0:0:0:0:
324,336,136107,1,0,0:0:0:0:
347,203,136267,1,0,1:0:0:0:
347,203,136346,1,0,1:0:0:0:
347,203,136426,1,8,0:1:0:0:
414,353,136586,6,0,P|450:348|494:326,1,71.9999978027344,6|0,1:0|0:0,0:0:0:0:
431,158,136905,1,0,1:0:0:0:
418,264,137064,1,10,0:1:0:0:
327,117,137223,5,0,1:0:0:0:
336,238,137384,1,10,0:1:0:0:
222,102,137543,5,0,1:0:0:0:
249,227,137703,1,10,0:1:0:0:
284,38,137862,5,4,1:0:0:0:
77,61,138181,1,8,0:1:0:0:
74,82,138260,1,8,0:1:0:0:
75,103,138340,1,8,0:1:0:0:
79,124,138420,1,8,0:1:0:0:
87,143,138500,1,8,0:1:0:0:
97,161,138581,1,8,0:1:0:0:
110,177,138660,2,0,L|109:228,3,35.9999989013672,8|8|8|8,0:3|0:3|0:3|0:3,0:0:0:0:
51,270,138980,2,0,L|52:321,3,35.9999989013672,8|8|8|8,1:0|1:0|1:0|1:0,0:0:0:0:
111,361,139299,5,4,1:0:0:0:
355,342,139618,1,8,0:1:0:0:
75,252,139937,5,0,1:0:0:0:
290,281,140256,1,8,0:1:0:0:
117,139,140575,5,0,1:0:0:0:
204,305,140894,1,8,0:1:0:0:
221,67,141213,5,0,1:0:0:0:
266,366,141532,1,0,1:0:0:0:
442,93,141852,5,8,0:1:0:0:
442,93,142011,1,8,0:1:0:0:
295,153,142171,1,8,0:1:0:0:
295,153,142330,1,8,0:1:0:0:
455,197,142490,5,8,0:1:0:0:
455,197,142650,1,8,0:1:0:0:
308,257,142809,1,8,0:1:0:0:
308,257,142969,1,8,0:1:0:0:
421,287,143129,6,0,L|498:295,2,75.9999979705811,8|4|4,0:1|0:3|0:3,0:0:0:0:
280,337,143607,2,0,L|203:345,2,75.9999979705811,8|4|4,0:3|0:3|0:3,0:0:0:0:
381,215,144086,2,0,L|380:169,3,37.9999989852906,8|8|4|4,0:1|0:3|0:3|0:3,0:0:0:0:
421,110,144405,6,0,P|374:132|255:84,1,167.999994873047,4|8,1:0|0:1,0:0:0:0:
106,50,144883,2,0,P|59:55|10:76,1,83.9999974365235,2|0,0:1|1:0,0:0:0:0:
73,242,145203,2,0,L|81:153,1,83.9999974365235,2|8,0:1|0:1,0:0:0:0:
187,76,145522,1,2,0:1:0:0:
231,202,145682,6,0,P|278:197|327:176,1,83.9999974365235,0|2,1:0|0:0,0:0:0:0:
376,93,146000,1,8,0:1:0:0:
376,93,146080,1,2,0:0:0:0:
376,93,146160,1,2,0:0:0:0:
469,192,146320,2,0,L|461:281,1,83.9999974365235,2|0,1:0|0:0,0:0:0:0:
468,300,146559,1,2,0:0:0:0:
478,322,146639,2,0,P|428:325|380:344,1,83.9999974365235,8|2,0:1|0:0,0:0:0:0:
226,218,146958,6,0,P|307:219|400:261,1,167.999994873047,6|8,1:0|0:1,0:0:0:0:
488,144,147437,2,0,L|482:45,1,83.9999974365235,2|0,0:1|1:0,0:0:0:0:
316,26,147756,2,0,L|322:125,1,83.9999974365235,2|8,0:1|0:1,0:0:0:0:
442,204,148075,1,2,0:1:0:0:
330,302,148234,6,0,P|289:300|240:283,1,83.9999974365235,0|0,1:0|0:0,0:0:0:0:
140,186,148553,1,8,0:1:0:0:
151,281,148713,1,2,0:0:0:0:
48,164,148873,2,0,P|35:113|35:67,1,83.9999974365235,2|2,1:0|0:0,0:0:0:0:
206,103,149192,1,8,0:1:0:0:
138,209,149351,1,10,1:0:0:0:
138,209,149431,1,8,1:0:0:0:
138,209,149511,6,0,L|135:297,1,83.9999974365235,6|2,1:0|0:0,0:0:0:0:
299,352,149830,1,10,0:1:0:0:
203,358,149990,1,2,0:0:0:0:
354,280,150150,2,0,L|356:196,1,83.9999974365235,2|2,1:0|0:0,0:0:0:0:
300,55,150469,1,10,0:1:0:0:
452,124,150628,6,0,P|411:125|361:109,1,83.9999974365235,2|0,0:1|1:0,0:0:0:0:
208,85,150948,2,0,P|249:86|299:70,1,83.9999974365235,2|8,0:1|0:1,0:0:0:0:
356,196,151266,2,0,L|355:294,1,83.9999974365235,2|0,0:1|1:0,0:0:0:0:
416,356,151585,1,2,0:1:0:0:
268,259,151745,2,0,P|226:249|133:271,1,125.999996154785,10|0,0:1|0:0,0:0:0:0:
128,282,152064,6,0,L|34:266,1,83.9999974365235,6|2,1:0|0:0,0:0:0:0:
0,124,152384,2,0,L|94:108,1,83.9999974365235,10|2,0:1|0:0,0:0:0:0:
232,164,152703,5,2,1:0:0:0:
99,196,152862,1,8,0:1:0:0:
199,87,153022,5,2,1:0:0:0:
208,247,153182,1,8,0:1:0:0:
314,164,153341,6,0,L|378:169,3,41.9999987182618,10|8|8|0,0:1|0:1|0:1|0:0,0:0:0:0:
386,241,153660,2,0,L|450:246,3,41.9999987182618,10|8|8|0,0:1|0:1|0:1|0:0,0:0:0:0:
481,174,153979,1,10,0:1:0:0:
487,145,154059,1,8,0:1:0:0:
483,115,154139,1,8,0:1:0:0:
470,88,154219,1,8,0:1:0:0:
446,70,154299,2,0,L|404:66,3,41.9999987182618,8|8|8|8,0:1|0:1|0:1|0:1,0:0:0:0:
361,134,154617,6,0,P|298:145|227:109,1,125.999996154785,0|0,1:0|2:0,0:0:0:0:
241,122,154937,5,14,0:1:0:0:
131,69,155096,2,0,P|88:66|35:82,2,83.9999974365235,2|0|0,0:1|1:0|0:0,0:0:0:0:
202,197,155575,5,10,0:1:0:0:
96,154,155735,2,0,P|53:162|6:191,2,83.9999974365235,2|0|0,0:1|1:0|0:0,0:0:0:0:
204,282,156214,5,10,0:1:0:0:
87,247,156374,2,0,P|48:265|10:306,2,83.9999974365235,2|0|0,0:1|1:0|0:0,0:0:0:0:
206,367,156852,1,10,0:1:0:0:
193,254,157011,1,2,0:1:0:0:
335,340,157170,6,0,P|404:356|493:303,1,167.999994873047,6|8,1:0|0:1,0:0:0:0:
395,245,157650,1,0,0:0:0:0:
510,201,157809,2,0,L|505:117,1,83.9999974365235,0|0,1:0|0:0,0:0:0:0:
356,65,158129,2,0,L|361:149,1,83.9999974365235,8|0,0:1|0:0,0:0:0:0:
232,246,158448,6,0,B|303:211|323:276|394:243,1,167.999994873047,2|8,1:0|0:1,0:0:0:0:
445,147,158926,1,8,0:3:0:0:
467,293,159086,2,0,L|457:338,3,41.9999987182618,8|8|8|8,0:1|0:1|0:1|0:1,0:0:0:0:
374,326,159405,2,0,L|352:366,3,41.9999987182618,8|8|8|8,0:1|0:1|0:1|0:1,0:0:0:0:
282,324,159724,6,0,B|163:302|163:302|116:350,1,167.999994873047,4|8,1:0|0:1,0:0:0:0:
283,238,160203,2,0,P|296:193|291:147,1,83.9999974365235,2|0,0:1|1:0,0:0:0:0:
205,31,160522,2,0,P|203:72|215:112,1,83.9999974365235,2|8,0:1|0:1,0:0:0:0:
379,191,160841,1,2,0:1:0:0:
262,259,161000,6,0,L|169:264,1,83.9999974365235,0|2,1:0|0:0,0:0:0:0:
83,182,161319,1,8,0:1:0:0:
83,182,161399,1,2,0:0:0:0:
83,182,161479,1,2,0:0:0:0:
46,357,161639,2,0,P|92:361|135:345,1,83.9999974365235,0|0,1:0|2:0,0:0:0:0:
146,332,161878,1,2,0:0:0:0:
160,311,161958,2,0,L|243:306,1,83.9999974365235,8|2,0:1|0:0,0:0:0:0:
397,356,162277,6,0,P|335:301|330:207,1,167.999994873047,6|8,1:0|0:1,0:0:0:0:
415,83,162756,2,0,L|408:177,1,83.9999974365235,2|0,0:1|1:0,0:0:0:0:
231,274,163075,2,0,P|232:223|245:177,1,83.9999974365235,2|8,0:1|0:1,0:0:0:0:
400,252,163394,1,2,0:1:0:0:
305,350,163554,6,0,B|253:362|253:362|206:358,1,83.9999974365235,0|0,1:0|0:0,0:0:0:0:
133,234,163872,1,8,0:1:0:0:
40,284,164032,1,0,0:0:0:0:
220,272,164192,2,0,P|239:235|243:192,1,83.9999974365235,2|2,1:0|0:0,0:0:0:0:
177,69,164511,1,8,0:1:0:0:
315,130,164670,1,10,1:0:0:0:
315,130,164750,1,8,1:0:0:0:
315,130,164830,6,0,L|403:133,1,83.9999974365235,6|2,1:0|0:0,0:0:0:0:
426,271,165149,1,10,0:1:0:0:
406,163,165309,1,2,0:0:0:0:
344,336,165469,2,0,P|326:298|324:257,1,83.9999974365235,2|2,1:0|0:0,0:0:0:0:
492,201,165788,1,10,0:1:0:0:
389,94,165948,6,0,L|300:90,1,83.9999974365235,2|0,0:1|1:0,0:0:0:0:
215,293,166267,2,0,L|261:217,1,83.9999974365235,2|8,0:1|0:1,0:0:0:0:
128,42,166586,2,0,L|168:119,1,83.9999974365235,2|0,0:1|1:0,0:0:0:0:
276,198,166904,1,2,0:1:0:0:
109,205,167064,2,0,P|84:258|87:333,1,125.999996154785,10|0,0:1|0:0,0:0:0:0:
90,347,167384,6,0,P|133:336|189:344,1,83.9999974365235,6|0,1:0|2:0,0:0:0:0:
316,380,167703,2,0,L|325:289,1,83.9999974365235,10|2,1:0|0:0,0:0:0:0:
214,199,168022,5,2,1:0:0:0:
395,226,168181,1,8,0:1:0:0:
239,284,168341,5,2,1:0:0:0:
408,241,168501,1,8,0:1:0:0:
309,212,168660,6,0,L|297:151,3,41.9999987182618,8|0|8|8,3:0|0:0|0:1|0:1,0:0:0:0:
381,145,168979,2,0,L|380:88,3,41.9999987182618,8|0|8|8,3:0|0:0|0:1|0:1,0:0:0:0:
301,86,169298,1,8,0:3:0:0:
274,72,169378,1,8,0:3:0:0:
244,68,169458,1,4,0:3:0:0:
214,71,169538,1,4,0:3:0:0:
187,83,169618,2,0,L|137:72,3,41.9999987182618,8|8|8|8,0:1|0:1|0:1|0:1,0:0:0:0:
67,125,169936,6,0,L|77:262,1,125.999996154785,0|0,1:0|2:0,0:0:0:0:
76,250,170256,5,14,0:1:0:0:
196,319,170415,2,0,B|184:280|184:280|195:230,2,83.9999974365235,2|0|0,0:1|1:0|0:0,0:0:0:0:
221,161,170894,5,10,0:1:0:0:
310,255,171054,2,0,B|322:216|322:216|311:166,2,83.9999974365235,2|0|0,0:1|1:0|0:0,0:0:0:0:
285,97,171533,5,10,0:1:0:0:
200,190,171692,2,0,B|188:151|188:151|199:101,2,83.9999974365235,2|0|0,0:1|1:0|0:0,0:0:0:0:
225,32,172171,1,10,0:1:0:0:
109,98,172330,1,2,0:1:0:0:
285,97,172490,6,0,L|454:102,2,162.000000617981,12|8|8,1:0|1:0|1:0,0:0:0:0:
273,217,173767,5,0,0:0:0:0:
285,97,174086,1,0,0:0:0:0:
296,216,174405,1,0,0:0:0:0:
266,99,174725,1,0,0:0:0:0:
219,283,175044,5,4,0:0:0:0:
89,77,185256,5,4,1:0:0:0:
161,124,185416,2,0,P|203:125|268:106,1,95.9999970703126,0|0,1:0|1:0,0:0:0:0:
346,41,185894,2,0,L|339:153,1,95.9999970703126,8|0,0:1|0:0,0:0:0:0:
340,136,186533,5,2,0:0:0:0:
227,209,186852,2,0,L|235:267,1,47.9999985351563,0|0,1:0|0:0,0:0:0:0:
268,344,187171,2,0,P|233:332|160:349,1,95.9999970703126,8|0,0:1|0:0,0:0:0:0:
50,290,187809,5,0,1:0:0:0:
99,218,187969,2,0,L|91:109,1,95.9999970703126,0|0,1:0|1:0,0:0:0:0:
167,42,188448,2,0,P|216:35|262:49,1,95.9999970703126,8|0,0:1|0:0,0:0:0:0:
260,47,189086,6,0,L|309:40,1,47.9999985351563,0|0,2:0|0:0,0:0:0:0:
358,110,189405,2,0,P|382:99|410:80,1,47.9999985351563,0|0,1:0|0:0,0:0:0:0:
458,23,189724,1,0,2:0:0:0:
487,104,189884,1,0,1:0:0:0:
406,182,190043,2,0,L|407:252,1,47.9999985351563,8|0,0:1|0:0,0:0:0:0:
444,308,190363,5,0,1:0:0:0:
377,363,190522,2,0,P|330:370|266:355,1,95.9999970703126,0|0,1:0|1:0,0:0:0:0:
215,287,191001,2,0,L|227:180,1,95.9999970703126,8|0,0:1|0:0,0:0:0:0:
225,191,191639,5,2,2:0:0:0:
316,91,191958,2,0,L|324:151,1,47.9999985351563,0|0,1:0|0:0,0:0:0:0:
229,86,192277,2,0,P|183:75|118:95,1,95.9999970703126,8|0,0:1|0:0,0:0:0:0:
12,154,192916,5,0,1:0:0:0:
89,190,193075,2,0,L|97:301,1,95.9999970703126,0|0,1:0|1:0,0:0:0:0:
186,220,193554,2,0,P|234:216|282:233,1,95.9999970703126,8|0,0:1|0:0,0:0:0:0:
335,319,194033,6,0,P|376:295|427:290,1,95.9999970703126,8|0,0:1|0:0,0:0:0:0:
506,314,194511,1,0,1:0:0:0:
351,195,194831,2,0,P|345:143|360:87,1,95.9999970703126,8|0,0:1|1:0,0:0:0:0:
397,26,195309,1,8,0:1:0:0:
272,70,195469,6,0,P|234:68|202:59,1,55.9999982910157,0|0,1:0|0:0,0:0:0:0:
109,28,195788,2,0,L|121:140,1,111.999996582031,12|0,0:1|1:0,0:0:0:0:
195,189,196267,2,0,L|189:259,1,55.9999982910157,0|0,1:0|0:0,0:0:0:0:
85,267,196586,6,0,P|134:242|194:246,1,111.999996582031,8|2,0:1|0:0,0:0:0:0:
266,332,197065,2,0,P|217:357|157:353,1,111.999996582031,8|0,0:1|1:0,0:0:0:0:
91,299,197543,1,0,1:0:0:0:
190,244,197703,2,0,L|195:189,1,55.9999982910157,8|0,0:1|0:0,0:0:0:0:
264,131,198022,6,0,P|257:93|245:66,1,55.9999982910157,0|0,1:0|0:0,0:0:0:0:
357,42,198341,2,0,P|412:44|464:70,1,111.999996582031,8|0,0:1|1:0,0:0:0:0:
486,155,198820,2,0,L|476:213,1,55.9999982910157,0|0,1:0|0:0,0:0:0:0:
480,320,199139,6,0,P|432:296|375:301,1,111.999996582031,10|0,0:1|1:0,0:0:0:0:
259,370,199618,2,0,L|325:372,1,55.9999982910157,8|0,0:1|0:0,0:0:0:0:
364,296,199937,1,0,1:0:0:0:
317,219,200097,1,8,0:1:0:0:
307,202,200176,1,8,0:1:0:0:
297,184,200256,2,0,L|304:149,3,27.9999991455078,8|8|8|8,0:1|0:1|0:1|0:1,0:0:0:0:
307,131,200575,6,0,P|276:126|244:128,1,64,2|0,1:0|0:0,0:0:0:0:
136,95,200894,2,0,P|100:114|70:142,1,64,8|0,0:1|1:0,0:0:0:0:
59,234,201214,5,8,0:1:0:0:
171,194,201373,1,0,1:0:0:0:
171,194,201533,1,0,1:0:0:0:
203,327,201692,5,8,0:1:0:0:
259,228,201852,1,0,1:0:0:0:
259,228,202011,1,0,1:0:0:0:
327,350,202171,6,0,P|358:349|389:342,1,64,8|0,0:1|1:0,0:0:0:0:
493,271,202490,2,0,P|461:270|431:262,1,64,8|0,0:1|1:0,0:0:0:0:
299,214,202809,2,0,P|330:213|360:205,1,64,8|0,0:1|1:0,0:0:0:0:
449,101,203129,6,0,L|453:177,1,64,8|0,0:1|1:0,0:0:0:0:
363,44,203448,1,8,0:1:0:0:
265,75,203607,1,0,1:0:0:0:
340,195,203767,6,0,P|341:159|336:131,1,64,8|0,0:1|1:0,0:0:0:0:
178,51,204086,1,8,0:1:0:0:
102,120,204245,1,0,1:0:0:0:
204,155,204405,5,8,0:1:0:0:
214,174,204485,1,8,0:1:0:0:
220,195,204565,1,8,0:1:0:0:
221,217,204644,1,8,0:1:0:0:
217,239,204724,2,0,L|224:277,3,32,8|8|8|8,0:1|0:1|0:1|0:1,0:0:0:0:
142,279,205043,5,2,0:3:0:0:
363,329,205522,6,0,B|466:342|466:342|448:290,1,151.999995941162,6|0,1:0|1:0,0:0:0:0:
278,273,206001,6,0,L|186:287,2,75.9999979705811,10|4|4,0:1|0:3|0:3,0:0:0:0:
397,206,206480,2,0,L|489:220,2,75.9999979705811,10|4|4,0:1|0:3|0:3,0:0:0:0:
245,193,206958,6,0,L|153:207,2,75.9999979705811,10|4|4,0:1|0:3|0:3,0:0:0:0:
434,130,207437,2,0,L|526:144,2,75.9999979705811,10|4|4,0:1|0:3|0:3,0:0:0:0:
304,102,207916,1,8,0:1:0:0:
397,206,208075,6,0,P|407:281|359:358,1,151.999995941162,4|0,1:0|1:0,0:0:0:0:
268,235,208554,5,10,0:1:0:0:
178,217,208713,1,4,0:3:0:0:
101,267,208873,1,4,0:3:0:0:
259,258,209033,2,0,L|358:248,2,75.9999979705811,10|4|4,0:1|0:3|0:3,0:0:0:0:
103,183,209511,5,14,0:1:0:0:
27,234,209670,1,4,0:3:0:0:
42,324,209830,1,4,0:3:0:0:
124,200,209990,2,0,L|223:190,2,75.9999979705811,10|4|4,0:1|0:3|0:3,0:0:0:0:
61,129,210469,2,0,L|16:124,3,37.9999989852906,8|8|8|8,0:1|0:1|0:3|0:3,0:0:0:0:
59,57,210788,6,0,P|106:95|170:86,2,113.999996955872,6|2|2,1:0|1:0|1:0,0:0:0:0:
193,24,211426,2,0,L|199:177,1,151.999995941162,6|0,1:0|2:0,0:0:0:0:
323,232,211905,1,0,1:0:0:0:
323,232,211985,1,0,1:0:0:0:
323,232,212065,6,0,L|319:310,1,75.9999979705811,8|0,0:1|1:0,0:0:0:0:
446,152,212384,2,0,L|448:230,1,75.9999979705811,8|0,0:1|1:0,0:0:0:0:
345,39,212703,2,0,L|345:117,1,75.9999979705811,8|0,0:1|1:0,0:0:0:0:
335,135,212942,1,0,1:0:0:0:
324,155,213022,2,0,L|286:150,3,37.9999989852906,8|8|8|8,0:1|0:1|0:3|0:3,0:0:0:0:
228,105,213341,6,0,P|244:146|224:220,2,113.999996955872,6|2|2,1:0|1:0|1:0,0:0:0:0:
158,233,213980,2,0,P|228:245|299:311,1,151.999995941162,6|0,1:0|2:0,0:0:0:0:
324,376,214458,1,0,1:0:0:0:
193,355,214618,6,0,L|98:362,1,75.9999979705811,8|0,0:1|1:0,0:0:0:0:
296,266,214937,2,0,L|201:259,1,75.9999979705811,8|0,0:1|1:0,0:0:0:0:
349,355,215256,2,0,L|411:345,3,37.9999989852906,8|8|8|8,0:1|0:1|0:3|0:3,0:0:0:0:
421,342,215575,1,8,0:1:0:0:
489,219,215735,6,0,P|502:139|467:63,1,151.999995941162,6|0,1:0|1:0,0:0:0:0:
305,102,216214,6,0,L|295:3,2,75.9999979705811,10|4|4,0:1|0:3|0:3,0:0:0:0:
350,219,216692,2,0,L|342:294,2,75.9999979705811,10|4|4,0:1|0:3|0:3,0:0:0:0:
222,112,217171,6,0,L|123:122,2,75.9999979705811,10|4|4,0:1|0:3|0:3,0:0:0:0:
430,230,217649,2,0,L|505:237,2,75.9999979705811,10|4|4,0:1|0:3|0:3,0:0:0:0:
305,102,218129,1,8,0:1:0:0:
323,274,218288,6,0,B|317:225|317:225|330:172|330:172|325:118,1,151.999995941162,6|0,1:0|1:0,0:0:0:0:
178,53,218767,5,10,0:1:0:0:
169,143,218926,1,4,0:3:0:0:
193,231,219086,1,4,0:3:0:0:
250,99,219246,2,0,P|287:91|324:92,2,75.9999979705811,10|4|4,0:1|0:3|0:3,0:0:0:0:
109,213,219724,5,10,0:1:0:0:
137,299,219883,1,4,0:3:0:0:
205,359,220043,1,4,0:3:0:0:
222,207,220203,2,0,P|255:189|292:180,2,75.9999979705811,10|4|4,0:1|0:3|0:3,0:0:0:0:
281,308,220682,2,0,L|335:314,3,37.9999989852906,8|8|8|8,0:1|0:1|0:3|0:3,0:0:0:0:
372,364,221001,6,0,L|362:248,2,113.999996955872,6|2|2,1:0|1:0|1:0,0:0:0:0:
483,276,221639,2,0,P|499:203|480:127,1,151.999995941162,6|0,1:0|0:0,0:0:0:0:
414,66,222118,1,0,1:0:0:0:
335,142,222277,6,0,L|202:131,1,120.000004577637,8|0,0:1|2:0,0:0:0:0:
126,60,222756,2,0,L|185:53,1,60.0000022888184,8|0,0:3|2:0,0:0:0:0:
240,209,223075,1,0,1:0:0:0:
240,209,223155,1,0,1:0:0:0:
240,209,223235,2,0,P|233:254|224:275,1,60.0000022888184,8|0,0:1|2:0,0:0:0:0:
159,357,223554,6,0,L|43:347,2,113.999996955872,6|2|2,1:0|1:0|1:0,0:0:0:0:
57,270,224192,2,0,P|28:201|45:104,1,151.999995941162,6|0,1:0|0:0,0:0:0:0:
87,50,224671,1,0,1:0:0:0:
169,151,224831,6,0,L|169:234,1,75.9999979705811,8|0,0:1|1:0,0:0:0:0:
278,88,225150,2,0,L|269:165,1,75.9999979705811,8|0,0:1|1:0,0:0:0:0:
395,49,225469,1,8,0:1:0:0:
359,195,225629,1,8,0:1:0:0:
476,114,225788,1,8,0:1:0:0:
485,134,225868,1,8,0:1:0:0:
492,155,225948,1,8,0:1:0:0:
495,177,226027,1,8,0:1:0:0:
495,197,226107,6,0,P|478:241|474:305,1,95.9999970703126,4|0,0:0|0:0,0:0:0:0:
389,243,226586,2,0,P|383:289|396:352,2,95.9999970703126,0|0|0,0:0|0:0|0:0,0:0:0:0:
389,243,227384,5,2,0:0:0:0:
309,136,228022,2,0,L|195:147,1,95.9999970703126,0|0,0:0|0:0,0:0:0:0:
59,160,228660,5,2,0:0:0:0:
374,329,229937,6,0,L|455:318,2,75.9999979705811,8|0|0,0:1|1:0|1:0,0:0:0:0:
242,254,230416,1,8,0:1:0:0:
211,249,230496,1,8,0:1:0:0:
181,255,230575,1,8,0:1:0:0:
152,265,230655,1,8,0:1:0:0:
127,283,230735,1,0,1:0:0:0:
111,308,230815,1,0,1:0:0:0:
98,335,230894,2,0,L|71:303,3,37.9999989852906,8|8|8|8,0:1|0:1|0:3|0:3,0:0:0:0:
71,228,231214,6,0,P|74:184|60:147,1,83.9999974365235,6|2,1:0|0:0,0:0:0:0:
175,39,231533,1,10,0:1:0:0:
151,128,231693,1,2,0:0:0:0:
275,76,231852,2,0,L|363:79,1,83.9999974365235,2|2,1:0|0:0,0:0:0:0:
435,181,232172,1,10,0:1:0:0:
307,170,232331,6,0,P|266:169|216:185,1,83.9999974365235,2|0,0:1|1:0,0:0:0:0:
83,257,232650,2,0,P|115:229|153:212,1,83.9999974365235,2|8,0:1|0:1,0:0:0:0:
346,263,232969,2,0,P|306:251|254:253,1,83.9999974365235,2|0,0:1|1:0,0:0:0:0:
152,315,233288,1,2,0:1:0:0:
224,180,233448,2,0,B|229:96|229:96|212:45,1,125.999996154785,10|0,0:1|0:0,0:0:0:0:
203,34,233767,6,0,P|253:44|302:31,1,83.9999974365235,2|2,1:0|0:0,0:0:0:0:
447,69,234086,2,0,L|438:160,1,83.9999974365235,10|2,0:1|0:0,0:0:0:0:
424,273,234405,2,0,P|463:272|509:251,1,83.9999974365235,2|2,1:0|0:0,0:0:0:0:
352,199,234725,1,10,0:1:0:0:
352,199,234885,1,2,0:1:0:0:
384,356,235043,6,0,P|421:365|472:362,1,83.9999974365235,0|2,1:0|0:1,0:0:0:0:
314,291,235363,1,8,0:1:0:0:
314,291,235523,1,2,0:1:0:0:
434,227,235682,1,8,0:1:0:0:
438,202,235762,1,8,0:1:0:0:
436,176,235842,1,8,0:1:0:0:
425,153,235922,1,8,0:1:0:0:
413,131,236001,2,0,L|421:78,3,41.9999987182618,8|8|8|8,0:1|0:1|0:1|0:1,0:0:0:0:
339,84,236320,6,0,B|256:92|256:92|205:59,1,125.999996154785,6|0,1:0|0:0,0:0:0:0:
220,68,236640,5,10,0:1:0:0:
124,149,236799,2,0,L|28:162,2,83.9999974365235,2|0|0,0:1|1:0|0:0,0:0:0:0:
254,219,237278,5,10,0:1:0:0:
162,278,237437,2,0,L|66:291,2,83.9999974365235,2|0|0,0:1|1:0|0:0,0:0:0:0:
266,165,237916,5,10,0:1:0:0:
143,164,238076,2,0,L|47:177,2,83.9999974365235,2|0|0,0:1|1:0|0:0,0:0:0:0:
297,247,238555,1,8,0:1:0:0:
278,332,238714,1,2,0:1:0:0:
393,267,238873,6,0,P|414:224|410:173,1,83.9999974365235,0|0,1:0|1:0,0:0:0:0:
310,97,239192,1,10,0:1:0:0:
457,117,239352,1,0,1:0:0:0:
457,117,239511,1,0,1:0:0:0:
270,182,239671,5,10,0:1:0:0:
425,100,239831,1,0,1:0:0:0:
425,100,239990,1,0,1:0:0:0:
283,67,240150,6,0,P|239:71|201:80,1,83.9999974365235,10|0,0:1|1:0,0:0:0:0:
118,214,240469,2,0,P|158:223|200:227,1,83.9999974365235,10|8,0:1|0:1,0:0:0:0:
356,157,240788,1,10,0:1:0:0:
377,182,240868,1,8,0:1:0:0:
386,214,240948,1,10,0:1:0:0:
385,247,241027,1,8,0:1:0:0:
374,278,241107,2,0,L|415:265,3,41.9999987182618,10|8|10|8,0:1|0:1|0:1|0:1,0:0:0:0:
414,348,241426,6,0,P|357:318|245:333,1,176.000005371094,6|8,1:0|0:1,0:0:0:0:
85,271,241905,2,0,P|128:274|170:288,1,88.000002685547,2|0,1:0|1:0,0:0:0:0:
314,237,242224,2,0,L|304:149,1,88.000002685547,2|8,1:0|0:1,0:0:0:0:
197,73,242544,1,2,1:0:0:0:
330,31,242703,6,0,P|369:31|424:41,1,88.000002685547,0|0,1:0|1:0,0:0:0:0:
503,122,243022,1,8,0:1:0:0:
503,122,243102,1,0,0:0:0:0:
503,122,243182,1,0,1:0:0:0:
354,119,243341,2,0,P|314:119|260:129,1,88.000002685547,2|0,1:0|1:0,0:0:0:0:
243,141,243581,1,2,1:0:0:0:
223,159,243661,2,0,L|226:68,1,88.000002685547,8|2,0:1|1:0,0:0:0:0:
58,37,243980,6,0,B|62:161|62:161|94:209,1,176.000005371094,6|8,1:0|0:1,0:0:0:0:
234,299,244458,2,0,L|232:211,1,88.000002685547,2|0,1:0|1:0,0:0:0:0:
59,290,244778,2,0,P|101:293|149:269,1,88.000002685547,2|8,1:0|0:1,0:0:0:0:
230,131,245097,1,2,1:0:0:0:
310,236,245256,6,0,P|349:253|393:251,1,88.000002685547,0|0,1:0|1:0,0:0:0:0:
464,113,245575,1,8,0:1:0:0:
410,226,245735,1,0,1:0:0:0:
363,48,245895,2,0,L|375:157,1,88.000002685547,2|0,1:0|0:0,0:0:0:0:
509,198,246214,1,8,0:1:0:0:
407,326,246373,1,10,0:1:0:0:
407,326,246453,1,8,0:1:0:0:
407,326,246533,6,0,P|355:323|321:312,1,88.000002685547,6|0,1:0|1:0,0:0:0:0:
219,201,246852,1,10,0:1:0:0:
241,329,247012,1,0,1:0:0:0:
81,259,247171,2,0,P|133:262|167:273,1,88.000002685547,2|0,1:0|1:0,0:0:0:0:
25,339,247491,1,10,0:1:0:0:
113,177,247651,6,0,P|111:132|100:89,1,88.000002685547,2|0,1:0|0:0,0:0:0:0:
259,38,247969,2,0,P|263:81|259:125,1,88.000002685547,2|8,1:0|0:1,0:0:0:0:
399,184,248288,2,0,P|410:141|412:97,1,88.000002685547,2|0,1:0|1:0,0:0:0:0:
277,25,248607,1,2,1:0:0:0:
311,196,248767,2,0,B|318:265|318:265|302:331,1,132.00000402832,10|0,0:1|0:0,0:0:0:0:
292,349,249086,6,0,P|335:338|393:347,1,88.000002685547,2|0,1:0|1:0,0:0:0:0:
489,240,249405,2,0,L|480:144,1,88.000002685547,10|0,0:1|1:0,0:0:0:0:
289,158,249725,5,6,1:0:0:0:
436,85,249884,1,8,0:1:0:0:
261,74,250044,5,6,1:0:0:0:
455,169,250204,1,0,1:0:0:0:
324,241,250363,6,0,L|262:254,3,44.0000013427735,6|0|8|8,1:0|0:0|0:1|0:1,0:0:0:0:
266,171,250682,2,0,L|222:163,3,44.0000013427735,6|0|8|8,1:0|0:0|0:1|0:1,0:0:0:0:
197,244,251001,1,6,1:0:0:0:
173,232,251081,1,0,0:0:0:0:
154,213,251161,1,8,0:1:0:0:
143,188,251240,1,8,0:1:0:0:
138,161,251320,2,0,L|73:172,3,44.0000013427735,10|8|8|8,0:1|0:1|0:1|0:1,0:0:0:0:
52,235,251639,6,0,L|62:98,1,132.00000402832,4|0,1:0|0:0,0:0:0:0:
61,103,251959,1,10,0:1:0:0:
194,43,252118,6,0,P|236:50|291:43,1,88.000002685547,2|0,0:1|1:0,0:0:0:0:
281,45,252437,1,0,1:0:0:0:
172,147,252597,5,10,0:1:0:0:
291,146,252756,2,0,P|330:131|375:97,1,88.000002685547,2|0,0:1|1:0,0:0:0:0:
367,104,253075,1,0,1:0:0:0:
323,247,253235,5,10,0:1:0:0:
425,192,253394,2,0,P|452:159|473:107,1,88.000002685547,2|0,0:1|1:0,0:0:0:0:
470,118,253714,1,0,1:0:0:0:
509,267,253873,2,0,L|501:313,3,44.0000013427735,8|8|8|8,0:1|0:1|0:1|0:1,0:0:0:0:
415,286,254192,6,0,P|341:279|262:322,2,162.000000617981,12|8|8,1:0|0:1|0:1,0:0:0:0:
403,166,255469,5,0,0:0:0:0:
415,286,255788,1,0,0:0:0:0:
426,167,256107,1,0,0:0:0:0:
396,284,256427,1,0,0:0:0:0:
440,177,256746,6,0,B|355:139|335:207|249:166,1,186.666666666667,0|0,0:0|0:0,0:0:0:0:
