osu file format v14

[General]
AudioFilename: MY FIRST STORY - Kyogen NEUROSE.mp3
AudioLeadIn: 0
PreviewTime: 82331
Countdown: 0
SampleSet: Soft
StackLeniency: 0.7
Mode: 0
LetterboxInBreaks: 0
WidescreenStoryboard: 1

[Editor]
DistanceSpacing: 1.3
BeatDivisor: 2
GridSize: 4
TimelineZoom: 1.5

[Metadata]
Title:Itsuwari NEUROSE
TitleUnicode:虚言NEUROSE
Artist:MY FIRST STORY
ArtistUnicode:MY FIRST STORY
Creator:Saut
Version:Hard
Source:
Tags:SkinnyJommy Broccoly
BeatmapID:836267
BeatmapSetID:365963

[Difficulty]
HPDrainRate:5
CircleSize:3.8
OverallDifficulty:7
ApproachRate:8
SliderMultiplier:1.3
SliderTickRate:2

[Events]
//Background and Video events
0,0,"v5.jpg",0,0
//Break Periods
2,98648,106634
2,119073,127698
2,175244,184506
//Storyboard Layer 0 (Background)
//Storyboard Layer 1 (Fail)
//Storyboard Layer 2 (Pass)
//Storyboard Layer 3 (Foreground)
//Storyboard Sound Samples

[TimingPoints]
150,319.148936170213,4,2,1,100,1,0
789,319.148936170213,4,1,9,65,1,0
789,-125,4,1,9,65,0,0
1108,-125,4,2,2,50,0,0
16108,-100,4,1,9,80,0,1
16267,-100,4,2,1,70,0,0
36533,-125,4,2,2,50,0,0
46746,-125,4,2,1,40,0,0
55203,-125,4,2,1,65,0,0
56959,-111.111111111111,4,2,1,60,0,0
67171,-111.111111111111,4,2,1,60,0,0
77384,-125,4,2,2,50,0,0
79618,-125,4,2,1,60,0,0
79937,-100,4,2,1,60,0,0
82491,-142.857142857143,4,2,2,50,0,0
83129,319.148936170213,4,2,9,85,1,1
83448,-100,4,2,1,75,0,1
97171,-125,4,2,1,50,0,0
97490,-125,4,2,2,50,0,0
107384,-100,4,2,1,50,0,0
108660,-111.111111111111,4,2,1,55,0,0
116320,-111.111111111111,4,2,1,60,0,0
118873,-125,4,2,2,50,0,0
128448,-125,4,2,1,65,0,0
129086,-111.111111111111,4,2,1,60,0,0
136746,-111.111111111111,4,2,1,65,0,0
139299,-125,4,2,1,55,0,0
141852,-100,4,2,1,65,0,0
144405,-100,4,2,9,85,0,1
144724,-100,4,2,1,75,0,1
159086,-100,4,2,1,70,0,0
159724,-100,4,2,9,90,0,1
160043,-100,4,2,1,80,0,1
172490,-100,4,2,1,70,0,0
173767,-125,4,2,2,50,0,0
185256,-125,4,2,1,55,0,0
195469,-125,4,2,1,55,0,0
200575,-125,4,2,1,60,0,0
205522,-100,4,2,1,65,0,1
205682,-100,4,2,1,65,0,0
226107,-142.857142857143,4,2,2,50,0,0
229937,-111.111111111111,4,2,1,65,0,0
231214,-100,4,1,9,90,0,1
231373,-100,4,2,1,80,0,1
240150,-100,4,2,1,75,0,0
241426,-100,4,2,9,95,0,1
241746,-100,4,2,1,85,0,1
251639,-100,4,2,1,100,0,1
251958,-100,4,2,1,85,0,1
254192,-100,4,2,1,75,0,0
255469,-125,4,2,2,50,0,0
256746,-300,4,2,2,50,0,0
256905,-300,4,2,2,20,0,0

[Colours]
Combo1 : 251,63,128
Combo2 : 160,146,218
Combo3 : 177,126,114
Combo4 : 214,194,228
SliderTrackOverride : 27,18,49

[HitObjects]
47,84,789,6,0,P|96:70|148:74,1,104,4|0,0:0|0:0,0:0:0:0:
197,140,1267,2,0,L|188:243,2,104,0|0|0,0:0|0:0|0:0,0:0:0:0:
327,35,2225,2,0,L|336:103,1,52,0|0,0:0|0:0,0:0:0:0:
479,167,2703,2,0,P|472:115|447:69,1,104,0|0,0:0|0:0,0:0:0:0:
349,205,3342,6,0,L|245:194,1,104,2|0,0:0|0:0,0:0:0:0:
172,154,3820,2,0,P|121:160|65:184,2,104,0|0|0,0:0|0:0|0:0,0:0:0:0:
283,278,4778,2,0,L|281:341,1,52,0|0,0:0|0:0,0:0:0:0:
407,221,5257,2,0,L|405:272,1,52,0|0,0:0|0:0,0:0:0:0:
492,131,5735,6,0,P|448:101|393:100,1,104,2|0,0:0|0:0,0:0:0:0:
327,142,6214,2,0,L|223:139,1,104,0|0,0:0|0:0,0:0:0:0:
139,134,6693,1,0,0:0:0:0:
62,281,7012,2,0,P|115:272|174:239,1,104,2|0,0:0|0:0,0:0:0:0:
25,151,7650,2,0,L|34:47,1,104,0|0,0:0|0:0,0:0:0:0:
106,4,8129,1,0,0:0:0:0:
225,119,8448,6,0,P|275:119|342:79,1,104,2|0,0:0|0:0,0:0:0:0:
397,58,8927,2,0,L|390:180,1,104,0|0,0:0|0:0,0:0:0:0:
470,308,9565,2,0,L|463:186,1,104,2|0,0:0|0:0,0:0:0:0:
338,313,10203,2,0,P|282:305|234:278,1,104,0|0,0:0|0:0,0:0:0:0:
189,217,10682,1,0,0:0:0:0:
54,314,11001,6,0,L|43:210,1,104,2|0,0:0|0:0,0:0:0:0:
12,133,11480,2,0,P|18:80|54:31,1,104,0|0,0:0|0:0,0:0:0:0:
123,9,11959,1,0,0:0:0:0:
123,9,12118,2,0,L|237:19,1,104,2|0,0:0|0:0,0:0:0:0:
270,88,12597,1,0,0:0:0:0:
270,88,12757,2,0,L|376:77,1,104,0|0,0:0|0:0,0:0:0:0:
455,221,13395,6,0,P|403:222|336:201,1,104,2|0,0:0|0:0,0:0:0:0:
280,168,13874,1,0,0:0:0:0:
175,297,14193,2,0,L|164:118,1,156,0|0,0:0|0:0,0:0:0:0:
135,63,14831,6,0,P|81:45|11:50,1,104,0|0,0:0|0:0,0:0:0:0:
209,8,15469,2,0,L|330:21,1,104,0|0,0:0|0:0,0:0:0:0:
149,148,16108,6,0,L|155:212,1,65,4|0,0:0|0:0,0:0:0:0:
155,317,16427,2,0,P|99:328|16:304,2,130,10|2|8,0:1|1:0|0:1,0:0:0:0:
223,266,17225,1,0,0:0:0:0:
265,193,17384,6,0,L|333:195,1,65,0|0,1:0|0:0,0:0:0:0:
408,126,17703,2,0,P|420:90|420:55,1,65,10|0,0:1|0:0,0:0:0:0:
505,146,18023,2,0,L|499:282,1,130,2|8,1:0|0:1,0:0:0:0:
460,350,18501,1,0,0:0:0:0:
381,248,18661,6,0,P|351:234|294:238,1,65,4|0,1:0|0:0,0:0:0:0:
227,280,18980,2,0,L|78:274,2,130,10|2|8,0:1|1:0|0:1,0:0:0:0:
303,245,19777,1,0,0:0:0:0:
377,204,19937,6,0,P|383:165|368:113,1,65,0|0,1:0|0:0,0:0:0:0:
334,45,20257,2,0,B|244:35|244:35|186:44,1,130,10|2,0:1|1:0,0:0:0:0:
130,79,20735,1,0,0:0:0:0:
202,122,20895,2,0,L|198:206,1,65,8|8,0:1|0:1,0:0:0:0:
210,217,21134,1,8,0:1:0:0:
225,245,21214,6,0,P|199:264|167:267,1,65,4|0,1:0|0:0,0:0:0:0:
52,221,21533,2,0,L|56:305,1,65,10|0,0:1|0:0,0:0:0:0:
112,373,21852,2,0,P|144:375|176:370,1,65,2|0,1:0|0:0,0:0:0:0:
245,321,22171,2,0,L|309:329,1,65,8|0,0:1|0:0,0:0:0:0:
375,271,22491,6,0,P|404:277|446:298,1,65,0|0,1:0|0:0,0:0:0:0:
480,196,22810,2,0,L|473:121,1,65,10|0,0:1|0:0,0:0:0:0:
383,78,23129,2,0,L|376:153,1,65,2|0,1:0|0:0,0:0:0:0:
315,201,23448,2,0,P|279:210|234:199,1,65,8|0,0:1|0:0,0:0:0:0:
174,84,23767,6,0,L|85:93,1,65,4|0,1:0|0:0,0:0:0:0:
28,156,24086,2,0,P|15:195|18:233,1,65,10|0,0:1|0:0,0:0:0:0:
62,312,24406,2,0,L|56:387,1,65,2|8,1:0|0:1,0:0:0:0:
157,319,24725,2,0,L|150:255,1,65,0|8,1:0|0:1,0:0:0:0:
255,341,25044,6,0,L|358:330,1,97.5,10|0,0:1|1:0,0:0:0:0:
382,320,25363,2,0,P|394:262|371:217,1,97.5,10|0,0:1|1:0,0:0:0:0:
357,204,25682,6,0,L|362:161,3,32.5,10|8|8|8,0:1|0:1|0:1|0:1,0:0:0:0:
343,144,26001,2,0,L|348:101,3,32.5,10|8|8|8,0:1|0:1|0:1|0:1,0:0:0:0:
337,80,26320,6,0,P|368:62|414:67,1,65,4|0,0:1|0:0,0:0:0:0:
474,155,26640,2,0,L|462:284,2,130,10|2|8,0:1|1:0|0:1,0:0:0:0:
483,71,27437,1,0,0:0:0:0:
415,17,27597,6,0,P|383:17|352:25,1,65,0|0,1:0|0:0,0:0:0:0:
299,115,27916,2,0,L|215:105,1,65,10|0,0:1|0:0,0:0:0:0:
158,18,28235,2,0,B|73:49|73:49|48:89,1,130,2|8,1:0|0:1,0:0:0:0:
20,161,28714,1,0,0:0:0:0:
133,209,28874,6,0,P|143:240|143:282,1,65,4|0,1:0|0:0,0:0:0:0:
129,375,29193,2,0,L|-4:358,2,130,10|2|8,0:1|1:0|0:1,0:0:0:0:
202,333,29991,1,0,0:0:0:0:
253,266,30150,6,0,P|285:270|316:282,1,65,0|0,1:0|0:0,0:0:0:0:
355,377,30469,2,0,P|352:313|385:258,1,130,10|2,0:1|1:0,0:0:0:0:
447,199,30948,1,0,0:0:0:0:
395,131,31108,2,0,L|389:65,1,65,8|8,0:1|0:1,0:0:0:0:
370,39,31347,1,8,0:1:0:0:
351,11,31427,6,0,P|312:6|269:14,1,65,4|0,1:0|0:0,0:0:0:0:
203,72,31746,2,0,L|208:147,1,65,10|0,0:1|0:0,0:0:0:0:
135,212,32065,2,0,P|143:244|159:283,1,65,2|0,1:0|0:0,0:0:0:0:
206,341,32384,2,0,L|288:336,1,65,8|0,0:1|0:0,0:0:0:0:
343,292,32703,6,0,L|412:300,1,65,0|0,1:0|0:0,0:0:0:0:
481,225,33023,2,0,P|488:183|472:143,1,65,10|0,0:1|0:0,0:0:0:0:
392,109,33342,2,0,P|385:67|401:27,1,65,2|0,1:0|0:0,0:0:0:0:
308,24,33661,2,0,L|232:35,1,65,8|0,0:1|0:0,0:0:0:0:
122,95,33980,6,0,L|191:105,1,65,4|0,0:1|0:0,0:0:0:0:
254,183,34299,2,0,P|255:216|231:267,1,65,10|0,0:1|0:0,0:0:0:0:
170,319,34618,2,0,L|178:396,1,65,2|8,1:0|0:1,0:0:0:0:
69,336,34937,2,0,L|75:271,1,65,0|8,1:0|0:1,0:0:0:0:
16,210,35257,6,0,P|5:173|13:126,1,65,2|0,1:0|1:0,0:0:0:0:
103,107,35576,2,0,L|93:23,1,65,10|0,0:1|1:0,0:0:0:0:
215,61,35895,2,0,L|210:104,4,32.5,8|8|4|4|8,0:3|0:3|0:3|0:3|0:1,0:0:0:0:
215,61,36533,6,0,P|288:78|350:35,1,156,6|0,0:0|0:0,0:0:0:0:
351,34,37810,2,0,L|338:203,1,156,2|0,0:0|0:0,0:0:0:0:
339,190,39086,2,0,P|401:146|474:164,1,156,2|0,0:0|0:0,0:0:0:0:
474,164,40044,1,0,0:0:0:0:
420,277,40363,6,0,L|416:342,1,52,2|0,0:0|0:0,0:0:0:0:
323,362,40682,2,0,L|326:310,1,52,2|0,0:0|0:0,0:0:0:0:
238,263,41001,1,2,0:0:0:0:
238,263,41161,2,0,L|234:314,2,52,0|0|0,0:0|0:0|0:0,0:0:0:0:
187,177,41640,6,0,P|108:175|55:235,1,156,2|0,0:0|0:0,0:0:0:0:
57,227,42916,2,0,P|98:159|72:83,1,156,2|0,0:0|0:0,0:0:0:0:
78,89,44193,2,0,P|115:158|194:174,1,156,2|0,0:0|0:0,0:0:0:0:
186,175,45150,1,0,0:0:0:0:
253,53,45469,6,0,L|318:57,1,52,2|0,0:0|0:0,0:0:0:0:
372,128,45788,2,0,L|423:124,1,52,2|0,0:0|0:0,0:0:0:0:
443,27,46108,6,0,L|391:30,1,52,2|0,0:0|0:0,0:0:0:0:
280,146,46427,2,0,L|228:142,1,52,2|0,0:0|0:0,0:0:0:0:
146,43,46746,6,0,P|98:28|38:43,1,104,4|0,1:0|1:0,0:0:0:0:
20,117,47225,1,0,0:0:0:0:
3,198,47384,2,0,L|13:303,1,104,0|0,1:0|1:0,0:0:0:0:
75,356,47863,1,0,0:0:0:0:
144,309,48023,6,0,P|152:281|154:258,1,52,0|0,1:0|0:0,0:0:0:0:
210,197,48342,2,0,P|207:167|201:145,1,52,0|0,1:0|0:0,0:0:0:0:
267,93,48661,2,0,P|257:65|245:45,1,52,0|0,1:0|0:0,0:0:0:0:
326,22,48980,2,0,L|383:27,1,52,0|0,1:0|0:0,0:0:0:0:
455,56,49299,6,0,P|471:110|462:171,1,104,0|0,1:0|1:0,0:0:0:0:
435,234,49778,1,0,0:0:0:0:
395,306,49937,2,0,L|283:309,1,104,0|0,1:0|1:0,0:0:0:0:
213,338,50416,1,0,0:0:0:0:
139,299,50576,6,0,L|82:305,1,52,0|0,1:0|0:0,0:0:0:0:
48,219,50895,2,0,L|105:225,1,52,0|0,1:0|0:0,0:0:0:0:
140,140,51214,2,0,L|83:146,1,52,0|0,1:0|0:0,0:0:0:0:
33,82,51533,1,0,1:0:0:0:
33,82,51693,1,0,0:0:0:0:
97,30,51852,6,0,P|150:15|208:32,1,104,0|0,1:0|1:0,0:0:0:0:
250,89,52331,2,0,L|304:83,1,52,0|0,0:0|1:0,0:0:0:0:
369,131,52650,2,0,P|395:123|421:107,1,52,0|0,0:0|1:0,0:0:0:0:
472,48,52969,1,0,0:0:0:0:
503,125,53129,6,0,L|487:251,1,104,0|0,1:0|1:0,0:0:0:0:
463,307,53608,2,0,P|436:312|404:306,1,52,0|0,0:0|1:0,0:0:0:0:
333,279,53927,2,0,P|305:281|276:295,1,52,0|0,0:0|1:0,0:0:0:0:
227,352,54246,1,0,0:0:0:0:
159,303,54406,6,0,B|93:282|93:282|45:298,1,104,0|0,1:0|1:0,0:0:0:0:
7,228,54884,2,0,L|16:169,1,52,0|0,0:0|1:0,0:0:0:0:
26,83,55203,5,0,0:0:0:0:
109,40,55363,2,0,P|143:42|179:55,1,52,0|8,1:0|0:1,0:0:0:0:
228,125,55682,6,0,P|262:123|298:110,1,52,0|8,1:0|0:3,0:0:0:0:
344,66,56001,1,8,0:1:0:0:
423,41,56161,1,8,0:1:0:0:
449,51,56240,1,8,0:1:0:0:
472,67,56320,2,0,L|471:112,3,26,8|8|8|8,0:1|0:1|0:1|0:1,0:0:0:0:
482,119,56640,2,0,P|487:156|478:205,1,78,8|4,0:3|0:3,0:0:0:0:
462,222,56959,6,0,B|467:280,1,58.4999982147217,6|2,1:0|1:0,0:0:0:0:
409,338,57278,2,0,P|362:340|309:327,1,87.7499973220826,8|8,0:1|0:1,0:0:0:0:
226,255,57757,2,0,L|236:386,1,116.999996429443,2|2,1:0|1:0,0:0:0:0:
78,323,58395,5,2,1:0:0:0:
34,253,58554,2,0,P|25:222|22:186,1,58.4999982147217,8|0,0:1|2:0,0:0:0:0:
35,166,58794,1,8,0:1:0:0:
46,135,58874,2,0,L|39:72,1,58.4999982147217,0|0,1:0|1:0,0:0:0:0:
91,13,59193,2,0,P|122:16|158:31,1,58.4999982147217,8|0,0:1|0:0,0:0:0:0:
188,128,59512,6,0,B|247:122,1,58.4999982147217,6|2,1:0|1:0,0:0:0:0:
324,148,59831,2,0,P|367:133|401:106,1,87.7499973220826,8|8,0:1|0:1,0:0:0:0:
488,22,60310,2,0,L|478:153,1,116.999996429443,2|2,1:0|1:0,0:0:0:0:
343,229,60948,6,0,L|350:304,1,58.4999982147217,2|8,1:0|0:1,0:0:0:0:
323,365,61267,1,0,0:0:0:0:
291,356,61347,1,8,0:1:0:0:
259,348,61427,2,0,L|211:357,3,29.2499991073609,8|8|8|8,0:1|0:1|0:1|0:1,0:0:0:0:
199,361,61746,2,0,P|171:319|173:265,1,87.7499973220826,8|4,0:3|0:3,0:0:0:0:
187,256,62065,6,2,L|180:185,1,58.4999982147217,6|2,1:0|1:0,0:0:0:0:
170,116,62384,2,0,P|130:97|68:112,1,87.7499973220826,8|8,0:1|0:1,0:0:0:0:
29,210,62863,2,0,L|39:341,1,116.999996429443,2|2,1:0|1:0,0:0:0:0:
117,179,63501,5,2,1:0:0:0:
170,116,63660,2,0,P|198:106|237:104,1,58.4999982147217,8|0,0:1|0:0,0:0:0:0:
299,142,63980,2,0,L|296:211,1,58.4999982147217,0|0,0:0|1:0,0:0:0:0:
308,230,64219,1,0,1:0:0:0:
322,259,64299,1,8,0:1:0:0:
399,181,64459,6,0,L|403:103,1,58.4999982147217,4|0,1:0|0:0,0:0:0:0:
405,40,64778,1,0,1:0:0:0:
492,99,64937,2,0,P|501:132|494:167,1,58.4999982147217,10|0,0:1|1:0,0:0:0:0:
455,253,65257,2,0,L|464:310,1,58.4999982147217,10|0,0:1|1:0,0:0:0:0:
379,374,65576,1,10,0:1:0:0:
328,274,65735,6,0,P|300:263|271:262,1,58.4999982147217,4|0,1:0|0:0,0:0:0:0:
214,321,66054,1,8,0:1:0:0:
182,326,66134,1,8,0:1:0:0:
150,330,66214,2,0,L|106:320,3,29.2499991073609,8|8|8|0,0:1|0:1|0:1|0:0,0:0:0:0:
90,331,66533,2,0,P|65:302|67:248,1,87.7499973220826,8|4,0:3|0:3,0:0:0:0:
74,223,66852,2,0,L|66:180,3,29.2499991073609,8|8|8|8,0:1|0:1|0:1|0:1,0:0:0:0:
47,170,67171,6,0,L|55:100,1,58.4999982147217,6|0,1:0|0:0,0:0:0:0:
170,86,67491,2,0,P|175:37|153:-17,2,87.7499973220826,12|8|2,1:0|0:1|1:0,0:0:0:0:
127,155,68129,1,0,0:0:0:0:
168,225,68289,6,0,P|198:223|242:215,1,58.4999982147217,2|0,1:0|0:0,0:0:0:0:
291,168,68608,1,0,1:0:0:0:
291,168,68767,2,0,L|393:177,2,87.7499973220826,8|8|0,0:1|0:1|1:0,0:0:0:0:
228,113,69406,2,0,P|214:76|216:31,1,58.4999982147217,8|0,0:1|2:0,0:0:0:0:
273,1,69725,5,2,1:0:0:0:
273,1,69884,1,0,1:0:0:0:
347,36,70044,2,0,P|376:33|403:22,1,58.4999982147217,8|0,0:1|2:0,0:0:0:0:
422,10,70283,2,0,L|415:117,1,87.7499973220826,8|2,0:1|1:0,0:0:0:0:
407,179,70682,1,0,0:0:0:0:
505,229,70842,6,0,L|499:308,1,58.4999982147217,2|0,1:0|0:0,0:0:0:0:
424,360,71161,2,0,L|418:281,1,58.4999982147217,0|8,1:0|0:1,0:0:0:0:
342,229,71480,2,0,L|336:308,1,58.4999982147217,0|0,0:1|1:0,0:0:0:0:
261,360,71799,2,0,L|255:281,1,58.4999982147217,0|8,1:0|0:1,0:0:0:0:
250,219,72118,1,0,0:0:0:0:
157,293,72278,6,0,P|123:303|81:301,1,58.4999982147217,6|0,1:0|1:0,0:0:0:0:
26,267,72597,2,0,L|18:172,2,87.7499973220826,8|8|2,0:1|0:1|1:0,0:0:0:0:
35,348,73235,1,0,0:0:0:0:
110,380,73395,6,0,P|139:379|167:373,1,58.4999982147217,2|0,1:0|0:0,0:0:0:0:
231,322,73714,1,0,1:0:0:0:
231,322,73874,2,0,L|302:328,1,58.4999982147217,8|0,0:1|0:0,0:0:0:0:
366,355,74193,2,0,P|390:307|392:259,1,87.7499973220826,8|4,0:3|0:3,0:0:0:0:
380,254,74512,2,0,L|446:245,1,58.4999982147217,8|0,0:1|0:0,0:0:0:0:
450,125,74831,6,0,P|421:128|393:138,1,58.4999982147217,6|0,1:0|0:0,0:0:0:0:
323,181,75150,1,8,0:1:0:0:
267,105,75310,2,0,P|245:128|231:170,1,58.4999982147217,2|8,1:0|0:1,0:0:0:0:
166,71,75629,2,0,P|149:102|146:142,1,58.4999982147217,2|8,1:0|0:1,0:0:0:0:
48,197,75948,6,0,L|57:270,1,58.4999982147217,6|0,0:0|0:0,0:0:0:0:
148,268,76267,2,0,L|141:315,3,29.2499991073609,8|8|8|8,0:1|0:1|0:1|0:1,0:0:0:0:
128,325,76586,2,0,L|132:372,3,29.2499991073609,8|8|8|8,0:1|0:1|0:1|0:1,0:0:0:0:
153,377,76906,2,0,L|298:364,1,146.249995536804,8|4,0:1|0:3,0:0:0:0:
326,370,77384,5,4,0:0:0:0:
462,319,77703,1,0,0:0:0:0:
462,319,77863,2,0,L|454:201,1,104,0|0,0:0|0:0,0:0:0:0:
448,142,78342,1,0,0:0:0:0:
448,142,78501,2,0,P|405:118|334:127,1,104,0|0,0:0|0:0,0:0:0:0:
282,302,79299,5,0,0:0:0:0:
175,237,79618,2,0,L|144:243,3,26,8|8|4|4,0:3|0:3|0:3|0:3,0:0:0:0:
116,227,79937,6,0,B|106:145,2,65,10|0|0,0:1|1:0|1:0,0:0:0:0:
61,316,80416,2,0,B|58:397,2,65,10|0|0,0:1|1:0|1:0,0:0:0:0:
20,219,80895,5,10,0:1:0:0:
160,320,81054,2,0,B|223:333|223:333|285:313,2,130,4|4|4,0:3|0:3|0:3,0:0:0:0:
120,65,82491,6,0,L|40:75,2,68.2499979171754,0|0|0,0:0|0:0|0:0,0:0:0:0:
247,109,83129,6,0,P|301:68|382:77,1,130,6|8,1:0|0:1,0:0:0:0:
446,126,83607,2,0,L|441:202,1,65,2|0,0:1|1:0,0:0:0:0:
497,278,83926,2,0,P|484:316|459:353,1,65,2|8,0:1|0:1,0:0:0:0:
372,369,84246,1,2,0:1:0:0:
326,297,84405,6,0,L|254:303,1,65,0|2,1:0|0:0,0:0:0:0:
160,273,84724,2,0,L|111:265,2,32.5,8|2|2,0:1|0:0|0:0,0:0:0:0:
238,204,85043,2,0,P|249:169|245:126,1,65,2|0,1:0|2:0,0:0:0:0:
197,49,85363,2,0,L|118:55,1,65,8|2,0:1|0:0,0:0:0:0:
244,134,85682,6,0,P|293:145|374:121,1,130,6|8,1:0|0:1,0:0:0:0:
459,74,86160,2,0,L|455:141,1,65,2|0,0:1|1:0,0:0:0:0:
411,234,86480,2,0,L|407:301,1,65,2|8,0:1|0:1,0:0:0:0:
333,372,86799,1,2,0:1:0:0:
267,319,86958,6,0,P|234:319|204:332,1,65,0|0,1:0|0:0,0:0:0:0:
104,357,87277,2,0,L|97:283,1,65,8|0,0:1|0:0,0:0:0:0:
149,200,87597,2,0,B|159:169|159:169|144:113,1,65,2|2,1:0|0:0,0:0:0:0:
49,165,87916,1,8,0:1:0:0:
76,65,88075,1,10,1:0:0:0:
100,43,88155,1,8,1:0:0:0:
124,21,88235,6,0,L|200:26,1,65,6|2,1:0|0:0,0:0:0:0:
266,94,88554,2,0,L|343:89,1,65,10|2,0:1|0:0,0:0:0:0:
423,41,88873,2,0,P|460:60|485:83,1,65,2|2,1:0|0:0,0:0:0:0:
470,179,89193,1,10,0:1:0:0:
333,235,89352,6,0,L|336:299,1,65,2|0,0:1|1:0,0:0:0:0:
461,354,89671,2,0,L|464:289,1,65,2|8,0:1|0:1,0:0:0:0:
374,149,89990,2,0,P|343:140|311:143,1,65,2|0,0:1|1:0,0:0:0:0:
244,195,90309,1,2,0:1:0:0:
178,249,90469,2,0,B|183:320,1,65,10|0,0:1|0:0,0:0:0:0:
38,261,90788,6,0,P|23:207|41:162,1,97.5,4|0,1:0|0:0,0:0:0:0:
57,145,91107,2,0,L|50:68,1,65,10|2,0:1|0:0,0:0:0:0:
140,14,91426,2,0,L|136:97,1,65,2|8,1:0|0:1,0:0:0:0:
226,152,91746,2,0,L|220:72,1,65,2|8,1:0|0:1,0:0:0:0:
309,31,92065,6,0,L|317:-6,2,32.5,8|8|0,0:1|0:1|1:0,0:0:0:0:
345,128,92384,2,0,L|340:167,2,32.5,8|8|0,0:1|0:1|1:0,0:0:0:0:
413,50,92703,6,0,L|452:55,3,32.5,8|8|8|8,0:1|0:1|0:1|0:1,0:0:0:0:
474,68,93022,2,0,L|504:104,3,32.5,8|8|8|8,0:1|0:1|0:1|0:1,0:0:0:0:
511,121,93341,6,0,L|506:185,1,65,0|0,1:0|0:0,0:0:0:0:
460,286,93660,5,14,1:0:0:0:
291,299,93980,1,0,1:0:0:0:
402,131,94299,5,10,0:1:0:0:
236,166,94619,1,0,1:0:0:0:
446,216,94937,5,10,0:1:0:0:
263,179,95257,1,0,1:0:0:0:
490,131,95575,2,0,P|500:96|485:49,1,65,10|2,0:1|0:1,0:0:0:0:
348,70,95894,6,0,L|353:215,1,130,4|0,1:0|1:0,0:0:0:0:
357,285,96374,1,0,1:0:0:0:
235,239,96533,1,8,0:1:0:0:
163,314,96692,2,0,L|164:378,2,65,8|4|12,0:3|0:3|0:3,0:0:0:0:
159,181,97171,6,0,P|141:127|105:95,1,104,10|0,1:0|0:0,0:0:0:0:
56,265,97809,2,2,L|59:370,1,104,0|0,0:0|0:0,0:0:0:0:
255,295,98448,5,4,0:0:0:0:
408,32,107384,6,0,L|414:77,3,32.5,8|8|4|4,0:1|0:1|0:3|0:3,0:0:0:0:
430,90,107703,2,0,L|424:140,3,32.5,8|8|4|4,0:3|0:3|0:3|0:3,0:0:0:0:
411,151,108022,2,0,P|409:204|422:250,1,97.5,8|0,0:1|2:0,0:0:0:0:
437,274,108341,1,12,1:0:0:0:
252,347,108660,6,0,L|193:341,1,58.4999982147217,2|2,1:0|1:0,0:0:0:0:
112,327,108980,1,8,0:1:0:0:
253,245,109299,1,0,0:0:0:0:
312,189,109458,2,0,P|318:155|317:123,1,58.4999982147217,2|8,1:0|0:1,0:0:0:0:
292,52,109777,6,0,L|161:61,1,116.999996429443,2|0,1:0|1:0,0:0:0:0:
97,32,110256,2,0,P|138:80|125:153,1,116.999996429443,10|0,0:1|0:0,0:0:0:0:
97,203,110735,1,2,1:0:0:0:
54,272,110894,2,0,L|62:339,1,58.4999982147217,8|0,0:1|0:0,0:0:0:0:
130,374,111214,6,0,P|161:374|194:366,1,58.4999982147217,2|2,1:0|1:0,0:0:0:0:
261,331,111533,1,8,0:1:0:0:
233,169,111852,1,0,0:0:0:0:
308,199,112011,2,0,L|371:191,1,58.4999982147217,2|8,1:0|0:1,0:0:0:0:
424,134,112330,6,0,B|414:191|414:191|433:265,1,116.999996429443,2|0,1:0|1:0,0:0:0:0:
452,326,112809,2,0,L|375:320,1,58.4999982147217,10|2,0:1|0:1,0:0:0:0:
316,293,113129,2,0,P|272:291|231:306,1,87.7499973220826,0|0,1:0|2:0,0:0:0:0:
210,331,113448,2,0,L|203:272,1,58.4999982147217,10|0,0:1|0:0,0:0:0:0:
253,159,113767,6,0,P|263:123|263:84,1,58.4999982147217,6|0,1:0|0:0,0:0:0:0:
237,24,114086,1,8,0:1:0:0:
237,24,114246,2,0,L|113:31,1,116.999996429443,2|2,0:1|1:0,0:0:0:0:
54,78,114724,1,8,0:1:0:0:
54,78,114884,6,0,P|52:136|75:192,1,116.999996429443,2|0,1:0|1:0,0:0:0:0:
138,240,115363,2,0,L|132:323,1,58.4999982147217,8|2,0:1|0:1,0:0:0:0:
203,342,115682,2,0,P|234:342|265:335,1,58.4999982147217,0|2,1:0|1:0,0:0:0:0:
329,290,116001,2,0,L|402:309,1,58.4999982147217,8|2,0:1|1:0,0:0:0:0:
459,200,116320,6,0,L|390:207,1,58.4999982147217,6|0,1:0|1:0,0:0:0:0:
318,149,116639,1,10,0:1:0:0:
252,199,116799,1,0,1:0:0:0:
201,114,116958,6,0,L|210:36,2,58.4999982147217,10|0|0,0:1|1:0|1:0,0:0:0:0:
149,219,117437,2,0,L|158:297,2,58.4999982147217,10|0|0,0:1|1:0|1:0,0:0:0:0:
105,129,117916,1,10,0:1:0:0:
292,63,118235,6,0,B|351:56|351:56|425:74,2,116.999996429443,8|8|4,1:0|0:3|0:0,0:0:0:0:
87,321,128448,6,0,L|84:286,3,26,8|8|8|8,0:1|0:1|0:1|0:1,0:0:0:0:
70,273,128767,2,0,L|76:226,3,26,8|8|8|8,0:1|0:1|0:1|0:1,0:0:0:0:
94,226,129086,6,0,P|105:191|97:143,1,58.4999982147217,6|2,1:0|1:0,0:0:0:0:
90,88,129405,2,0,L|193:99,1,87.7499973220826,8|8,0:1|0:1,0:0:0:0:
279,29,129884,2,0,P|260:83|284:144,1,116.999996429443,2|2,1:0|1:0,0:0:0:0:
432,192,130522,5,2,1:0:0:0:
379,254,130681,2,0,L|383:316,1,58.4999982147217,8|0,0:1|2:0,0:0:0:0:
396,338,130921,1,8,0:1:0:0:
410,363,131001,2,0,P|382:377|348:380,1,58.4999982147217,0|0,1:0|1:0,0:0:0:0:
300,319,131320,2,0,P|272:305|238:302,1,58.4999982147217,8|0,0:1|0:0,0:0:0:0:
135,362,131639,6,0,B|67:366,1,58.4999982147217,6|2,1:0|1:0,0:0:0:0:
12,313,131958,2,0,P|1:273|7:220,1,87.7499973220826,8|8,0:1|0:1,0:0:0:0:
96,144,132437,2,0,L|85:260,1,116.999996429443,2|2,1:0|1:0,0:0:0:0:
219,167,133075,6,0,L|212:92,1,58.4999982147217,8|8,0:3|0:1,0:0:0:0:
257,39,133394,1,0,0:0:0:0:
280,56,133474,1,8,0:1:0:0:
304,72,133554,2,0,L|352:65,3,29.2499991073609,8|8|8|8,0:1|0:1|0:1|0:1,0:0:0:0:
362,63,133873,2,0,P|390:105|388:159,1,87.7499973220826,8|4,0:3|0:3,0:0:0:0:
379,167,134192,6,2,L|382:237,1,58.4999982147217,6|2,1:0|1:0,0:0:0:0:
383,307,134511,2,0,B|343:326|343:326|281:311,1,87.7499973220826,8|8,0:1|0:1,0:0:0:0:
206,236,134990,2,0,L|216:367,1,116.999996429443,2|2,1:0|1:0,0:0:0:0:
92,243,135628,5,2,1:0:0:0:
140,176,135788,2,0,P|149:149|152:120,1,58.4999982147217,8|0,0:1|0:0,0:0:0:0:
149,37,136107,2,0,L|80:34,1,58.4999982147217,0|0,0:0|1:0,0:0:0:0:
68,53,136346,1,0,1:0:0:0:
46,73,136426,1,8,0:1:0:0:
152,120,136586,6,0,L|210:122,1,58.4999982147217,6|0,1:0|0:0,0:0:0:0:
281,81,136905,1,0,1:0:0:0:
353,157,137065,2,0,P|388:141|407:121,1,58.4999982147217,10|0,0:1|1:0,0:0:0:0:
471,206,137384,2,0,L|466:281,1,58.4999982147217,10|0,0:1|0:0,0:0:0:0:
456,370,137704,1,10,0:1:0:0:
358,285,137863,6,0,P|320:277|293:277,1,58.4999982147217,4|0,1:0|0:0,0:0:0:0:
240,332,138182,1,8,0:1:0:0:
211,340,138262,1,8,0:1:0:0:
182,346,138342,2,0,L|138:336,3,29.2499991073609,8|8|8|0,0:1|0:1|0:1|0:0,0:0:0:0:
132,319,138661,2,0,P|145:272|132:212,1,87.7499973220826,8|8,0:3|0:3,0:0:0:0:
118,214,138980,2,0,P|105:167|118:107,1,87.7499973220826,8|8,1:0|1:0,0:0:0:0:
122,106,139299,6,0,L|244:113,1,104,4|8,1:0|0:1,0:0:0:0:
407,67,139937,2,0,L|285:74,1,104,0|8,1:0|0:1,0:0:0:0:
157,190,140575,2,0,L|260:195,1,104,0|8,1:0|0:1,0:0:0:0:
443,151,141214,1,0,1:0:0:0:
396,332,141533,1,0,1:0:0:0:
260,195,141852,6,0,L|256:268,1,65,8|8,0:1|0:1,0:0:0:0:
192,368,142171,2,0,L|188:296,1,65,8|8,0:1|0:1,0:0:0:0:
134,163,142490,6,0,L|130:236,1,65,8|8,0:1|0:1,0:0:0:0:
76,382,142809,2,0,L|72:310,1,65,8|8,0:1|0:1,0:0:0:0:
42,230,143129,6,0,L|45:165,2,65,8|4|4,0:1|0:3|0:3,0:0:0:0:
130,227,143607,2,0,L|133:162,2,65,8|4|4,0:3|0:3|0:3,0:0:0:0:
221,228,144086,2,0,L|223:194,3,32.5,8|8|4|4,0:1|0:3|0:3|0:3,0:0:0:0:
207,149,144405,6,0,P|264:151|335:96,1,130,4|8,1:0|0:1,0:0:0:0:
409,55,144883,2,0,L|404:131,1,65,2|0,0:1|1:0,0:0:0:0:
356,212,145203,2,0,P|365:250|387:290,1,65,2|8,0:1|0:1,0:0:0:0:
434,360,145522,1,2,0:1:0:0:
350,349,145681,6,0,L|271:351,1,65,0|2,1:0|0:0,0:0:0:0:
236,258,146001,2,0,L|241:207,2,32.5,8|2|2,0:1|0:0|0:0,0:0:0:0:
166,335,146320,2,0,P|133:334|102:324,1,65,2|0,1:0|0:0,0:0:0:0:
19,260,146639,2,0,P|51:259|82:249,1,65,8|2,0:1|0:0,0:0:0:0:
23,96,146958,6,0,P|-7:146|52:172,1,130,6|8,1:0|0:1,0:0:0:0:
147,160,147437,2,0,P|175:161|213:171,1,65,2|0,0:1|1:0,0:0:0:0:
301,119,147756,2,0,P|329:137|351:167,1,65,2|8,0:1|0:1,0:0:0:0:
432,223,148075,1,2,0:1:0:0:
382,291,148234,6,0,L|392:361,1,65,0|0,1:0|0:0,0:0:0:0:
481,302,148554,2,0,L|471:237,1,65,8|2,0:1|0:0,0:0:0:0:
435,141,148873,2,0,L|445:71,1,65,2|2,1:0|0:0,0:0:0:0:
352,26,149192,1,8,0:1:0:0:
292,111,149351,1,10,1:0:0:0:
260,117,149431,1,8,1:0:0:0:
227,121,149511,6,0,P|187:119|144:100,1,65,6|2,1:0|0:0,0:0:0:0:
74,57,149830,2,0,L|79:134,1,65,10|2,0:1|0:0,0:0:0:0:
32,216,150150,2,0,P|72:218|115:237,1,65,2|2,1:0|0:0,0:0:0:0:
185,280,150469,1,10,0:1:0:0:
248,172,150628,6,0,L|312:169,1,65,2|0,0:1|1:0,0:0:0:0:
321,311,150948,2,0,L|291:254,1,65,2|8,0:1|0:1,0:0:0:0:
410,177,151267,2,0,L|375:230,1,65,2|0,0:1|1:0,0:0:0:0:
411,307,151585,1,2,0:1:0:0:
486,235,151745,2,0,P|502:203|500:163,1,65,10|0,0:1|0:0,0:0:0:0:
426,69,152064,6,0,L|324:77,1,97.5,6|0,1:0|0:0,0:0:0:0:
303,96,152383,2,0,P|269:97|226:89,1,65,10|2,0:1|0:0,0:0:0:0:
139,57,152703,2,0,L|65:64,1,65,2|8,1:0|0:1,0:0:0:0:
1,155,153022,2,0,L|75:162,1,65,2|8,1:0|0:1,0:0:0:0:
152,218,153341,6,0,L|189:210,2,32.5,10|8|8,0:1|0:1|0:1,0:0:0:0:
55,253,153660,2,0,L|16:248,2,32.5,10|8|8,0:1|0:1|0:1,0:0:0:0:
132,322,153980,6,0,L|174:313,3,32.5,10|8|8|8,0:1|0:1|0:1|0:1,0:0:0:0:
186,338,154299,2,0,L|235:332,3,32.5,8|8|8|8,0:1|0:1|0:1|0:1,0:0:0:0:
247,349,154617,6,0,L|314:353,1,65,0|0,1:0|0:0,0:0:0:0:
416,357,154936,5,14,0:1:0:0:
463,184,155256,1,0,1:0:0:0:
269,258,155575,5,10,0:1:0:0:
451,270,155895,1,0,1:0:0:0:
234,160,156213,5,10,0:1:0:0:
419,252,156533,1,0,1:0:0:0:
183,316,156852,1,10,0:1:0:0:
208,58,157171,5,6,1:0:0:0:
233,247,157491,1,8,0:1:0:0:
71,116,157810,5,0,1:0:0:0:
65,311,158130,1,8,0:1:0:0:
188,159,158448,2,0,P|250:149|307:179,1,130,2|8,1:0|0:1,0:0:0:0:
414,357,159086,6,0,L|409:238,1,97.5,8|8,0:1|0:1,0:0:0:0:
392,231,159405,2,0,L|401:189,3,32.5,8|8|8|8,0:1|0:1|0:1|0:1,0:0:0:0:
428,186,159724,6,0,P|450:120|440:51,1,130,4|8,1:0|0:1,0:0:0:0:
345,27,160203,2,0,L|269:32,1,65,2|0,0:1|1:0,0:0:0:0:
217,115,160522,2,0,L|141:120,1,65,2|8,0:1|0:1,0:0:0:0:
61,67,160841,1,2,0:1:0:0:
13,136,161000,6,0,P|16:171|28:213,1,65,0|2,1:0|0:0,0:0:0:0:
115,248,161320,2,0,L|119:200,2,32.5,8|2|2,0:1|0:0|0:0,0:0:0:0:
137,349,161639,2,0,P|170:349|201:338,1,65,0|0,1:0|2:0,0:0:0:0:
292,289,161958,2,0,L|377:303,1,65,8|2,0:1|0:0,0:0:0:0:
206,330,162277,6,0,L|199:177,1,130,6|8,1:0|0:1,0:0:0:0:
138,116,162756,2,0,P|152:85|172:59,1,65,2|0,0:1|1:0,0:0:0:0:
270,92,163075,2,0,L|350:85,1,65,2|8,0:1|0:1,0:0:0:0:
422,27,163394,1,2,0:1:0:0:
472,94,163554,6,0,P|469:125|462:164,1,65,0|0,1:0|0:0,0:0:0:0:
369,204,163873,2,0,L|383:286,1,65,8|0,0:1|0:0,0:0:0:0:
402,369,164192,2,0,L|332:359,1,65,2|2,1:0|0:0,0:0:0:0:
233,361,164511,1,8,0:1:0:0:
270,264,164670,1,10,1:0:0:0:
275,231,164750,1,8,1:0:0:0:
280,198,164830,6,0,P|272:159|258:128,1,65,6|2,1:0|0:0,0:0:0:0:
190,59,165150,2,0,P|182:98|168:129,1,65,10|2,0:1|0:0,0:0:0:0:
109,204,165469,2,0,P|101:165|87:134,1,65,2|2,1:0|0:0,0:0:0:0:
19,65,165788,1,10,0:1:0:0:
0,188,165948,6,0,L|4:270,1,65,2|0,0:1|1:0,0:0:0:0:
106,306,166267,2,0,L|102:388,1,65,2|8,0:1|0:1,0:0:0:0:
204,193,166586,2,0,L|208:275,1,65,2|0,0:1|1:0,0:0:0:0:
210,342,166904,1,2,0:1:0:0:
290,276,167064,2,0,P|322:277|350:292,1,65,10|0,0:1|0:0,0:0:0:0:
446,376,167383,6,0,L|438:274,1,97.5,0|0,0:0|0:0,0:0:0:0:
452,249,167703,2,0,P|480:233|512:232,1,65,10|2,1:0|0:0,0:0:0:0:
485,131,168022,2,0,L|488:64,1,65,2|8,1:0|0:1,0:0:0:0:
376,103,168341,2,0,L|383:169,1,65,2|8,1:0|0:1,0:0:0:0:
312,62,168660,6,0,L|266:67,2,32.5,8|0|8,3:0|0:0|0:1,0:0:0:0:
272,159,168980,2,0,L|226:164,2,32.5,8|0|8,3:0|0:0|0:1,0:0:0:0:
228,253,169299,6,0,L|182:258,3,32.5,8|8|8|8,0:3|0:3|0:3|0:3,0:0:0:0:
164,237,169618,2,0,L|118:242,3,32.5,8|8|8|8,0:1|0:1|0:1|0:1,0:0:0:0:
100,233,169937,6,0,P|86:192|85:170,1,65,0|0,1:0|0:0,0:0:0:0:
112,70,170256,5,14,0:1:0:0:
10,205,170576,1,0,1:0:0:0:
210,148,170895,5,10,0:1:0:0:
29,118,171215,1,0,1:0:0:0:
252,53,171533,5,10,0:1:0:0:
117,155,171853,1,0,1:0:0:0:
348,190,172171,2,0,L|344:261,1,65,10|2,0:1|0:1,0:0:0:0:
251,345,172490,6,0,L|243:238,2,97.5,12|8|8,1:0|1:0|1:0,0:0:0:0:
154,81,173767,6,0,P|101:66|40:76,1,104,0|0,0:0|0:0,0:0:0:0:
199,170,174405,2,2,L|304:165,1,104,0|0,0:0|0:0,0:0:0:0:
124,267,175044,5,4,0:0:0:0:
446,102,185256,5,4,1:0:0:0:
446,102,185416,2,0,P|395:107|331:78,1,104,0|0,1:0|1:0,0:0:0:0:
269,56,185894,2,0,L|275:181,2,104,8|0|2,0:1|0:0|0:0,0:0:0:0:
366,191,186852,1,0,1:0:0:0:
201,215,187171,2,0,B|134:221|134:221|82:207,1,104,8|0,0:1|0:0,0:0:0:0:
237,315,187809,5,0,1:0:0:0:
237,315,187969,2,0,P|288:320|352:291,1,104,0|0,1:0|1:0,0:0:0:0:
414,269,188447,2,0,L|408:394,1,104,8|0,0:1|0:0,0:0:0:0:
483,223,189086,6,0,L|477:98,2,104,0|0|0,2:0|1:0|2:0,0:0:0:0:
414,269,189884,1,0,1:0:0:0:
342,227,190043,2,0,P|306:231|270:243,1,52,8|0,0:1|0:0,0:0:0:0:
224,287,190363,5,0,1:0:0:0:
224,287,190522,2,0,P|237:238|218:172,1,104,0|0,1:0|1:0,0:0:0:0:
175,120,191001,2,0,L|182:6,2,104,8|0|2,0:1|0:0|2:0,0:0:0:0:
15,71,191958,1,0,1:0:0:0:
41,235,192277,2,0,B|92:245|92:245|159:223,1,104,8|0,0:1|0:0,0:0:0:0:
250,103,192916,5,0,1:0:0:0:
250,103,193075,2,0,L|371:111,1,104,0|0,1:0|1:0,0:0:0:0:
436,121,193554,2,0,P|460:165|454:216,1,104,8|0,0:1|0:0,0:0:0:0:
388,268,194033,6,0,L|394:379,1,104,8|0,0:1|0:0,0:0:0:0:
393,371,194511,1,0,1:0:0:0:
264,264,194831,2,0,P|211:266|158:291,1,104,8|0,0:1|1:0,0:0:0:0:
105,344,195309,1,8,0:1:0:0:
35,297,195469,6,0,P|25:264|25:225,1,52,0|0,1:0|0:0,0:0:0:0:
44,133,195788,2,0,L|152:138,1,104,12|0,0:1|1:0,0:0:0:0:
229,122,196267,2,0,P|243:85|242:50,1,52,0|0,1:0|0:0,0:0:0:0:
317,33,196586,6,0,B|389:28|389:28|434:46,1,104,8|2,0:1|0:0,0:0:0:0:
482,93,197065,2,0,L|480:205,1,104,8|0,0:1|1:0,0:0:0:0:
476,279,197543,1,0,1:0:0:0:
406,233,197703,2,0,P|373:238|345:250,1,52,8|0,0:1|0:0,0:0:0:0:
280,208,198022,6,0,P|259:230|238:264,1,52,0|0,1:0|0:0,0:0:0:0:
190,309,198341,2,0,L|185:192,1,104,8|0,0:1|1:0,0:0:0:0:
232,136,198820,2,0,L|235:74,1,52,0|0,1:0|0:0,0:0:0:0:
174,26,199139,6,0,P|123:8|75:19,1,104,10|0,0:1|1:0,0:0:0:0:
39,94,199618,2,0,L|44:156,1,52,8|0,0:1|0:0,0:0:0:0:
113,191,199937,1,0,1:0:0:0:
70,262,200097,1,8,0:1:0:0:
66,290,200176,1,8,0:1:0:0:
62,318,200256,2,0,L|79:358,3,26,8|8|8|8,0:1|0:1|0:1|0:1,0:0:0:0:
88,365,200575,6,0,L|144:363,1,52,2|0,1:0|0:0,0:0:0:0:
211,302,200894,2,0,L|262:303,1,52,8|0,0:1|1:0,0:0:0:0:
335,243,201214,2,0,L|325:183,2,52,8|0|0,0:1|1:0|1:0,0:0:0:0:
373,328,201692,2,0,L|363:388,2,52,8|0|0,0:1|1:0|1:0,0:0:0:0:
426,250,202171,6,0,P|453:251|484:261,1,52,8|0,0:1|1:0,0:0:0:0:
454,164,202490,2,0,P|428:165|404:173,1,52,8|0,0:1|1:0,0:0:0:0:
356,108,202809,2,0,P|378:92|409:82,1,52,8|0,0:1|1:0,0:0:0:0:
321,28,203129,6,0,L|251:32,1,52,8|0,0:1|1:0,0:0:0:0:
188,78,203448,1,8,0:1:0:0:
188,78,203607,1,0,1:0:0:0:
234,159,203767,2,0,P|236:194|230:223,1,52,8|0,0:1|1:0,0:0:0:0:
184,290,204086,1,8,0:1:0:0:
184,290,204245,1,0,1:0:0:0:
90,285,204405,6,0,L|84:243,3,26,8|8|8|8,0:1|0:1|0:1|0:1,0:0:0:0:
66,238,204724,2,0,L|69:189,3,26,8|8|8|8,0:1|0:1|0:1|0:1,0:0:0:0:
74,184,205043,5,2,0:3:0:0:
238,45,205522,6,0,P|301:38|357:70,1,130,6|0,1:0|1:0,0:0:0:0:
404,148,206001,2,0,L|487:144,2,65,10|4|4,0:1|0:3|0:3,0:0:0:0:
316,175,206480,2,0,L|233:171,2,65,10|4|4,0:1|0:3|0:3,0:0:0:0:
387,230,206958,6,0,L|470:226,2,65,10|4|4,0:1|0:3|0:3,0:0:0:0:
299,257,207437,2,0,L|216:253,2,65,10|4|4,0:1|0:3|0:3,0:0:0:0:
371,311,207916,1,8,0:1:0:0:
245,351,208075,6,0,B|163:360|163:360|109:322,1,130,4|0,1:0|1:0,0:0:0:0:
56,270,208554,2,0,L|41:189,2,65,10|4|4,0:1|0:3|0:3,0:0:0:0:
126,212,209033,2,0,L|123:129,2,65,10|4|4,0:1|0:3|0:3,0:0:0:0:
207,171,209511,6,0,L|217:89,2,65,14|4|4,0:1|0:3|0:3,0:0:0:0:
292,138,209990,2,0,L|315:59,2,65,10|4|4,0:1|0:3|0:3,0:0:0:0:
287,229,210469,2,0,L|296:286,3,32.5,8|8|8|8,0:1|0:1|0:3|0:3,0:0:0:0:
308,289,210788,6,0,B|241:275|241:275|196:284,2,97.5,6|2|2,1:0|1:0|1:0,0:0:0:0:
419,342,211426,2,0,P|461:294|463:231,1,130,6|0,1:0|2:0,0:0:0:0:
400,148,211905,1,0,1:0:0:0:
405,115,211985,1,0,1:0:0:0:
412,83,212065,6,0,L|410:13,1,65,8|0,0:1|1:0,0:0:0:0:
313,56,212384,2,0,L|315:126,1,65,8|0,0:1|1:0,0:0:0:0:
214,149,212703,2,0,L|212:79,1,65,8|0,0:1|1:0,0:0:0:0:
198,54,212942,1,0,1:0:0:0:
175,30,213022,2,0,P|129:14|62:29,1,97.5,8|8,0:1|0:3,0:0:0:0:
55,39,213341,6,0,L|60:140,2,97.5,6|2|2,1:0|1:0|1:0,0:0:0:0:
132,177,213980,2,0,L|120:306,1,130,6|0,1:0|2:0,0:0:0:0:
164,378,214458,1,0,1:0:0:0:
243,311,214618,6,0,P|275:303|307:306,1,65,8|0,0:1|1:0,0:0:0:0:
377,228,214937,2,0,P|347:214|315:212,1,65,8|0,0:1|1:0,0:0:0:0:
230,221,215256,2,0,P|188:170|216:88,1,130,8|8,0:1|0:1,0:0:0:0:
272,12,215735,6,0,L|401:20,1,130,6|0,1:0|1:0,0:0:0:0:
482,86,216214,2,0,P|498:56|506:24,2,65,8|4|4,1:0|0:3|0:3,0:0:0:0:
406,157,216692,2,0,P|390:127|382:95,2,65,8|4|4,1:0|0:3|0:3,0:0:0:0:
482,227,217171,6,0,P|498:197|506:165,2,65,8|4|4,1:0|0:3|0:3,0:0:0:0:
406,298,217649,2,0,P|390:268|382:236,2,65,8|4|4,1:0|0:3|0:3,0:0:0:0:
475,377,218129,1,8,1:0:0:0:
338,356,218288,6,0,B|253:342|253:342|199:354,1,130,6|0,1:0|1:0,0:0:0:0:
106,365,218767,2,0,L|34:357,2,65,8|4|4,1:0|0:3|0:3,0:0:0:0:
159,276,219246,2,0,L|233:258,2,65,8|0|0,1:0|0:0|0:0,0:0:0:0:
63,233,219724,6,0,L|-9:225,2,65,8|4|4,1:0|0:3|0:3,0:0:0:0:
116,144,220203,2,0,L|190:126,2,65,8|4|4,1:0|0:3|0:3,0:0:0:0:
12,125,220682,2,0,P|10:79|35:31,1,97.5,8|8,0:1|0:3,0:0:0:0:
61,19,221001,6,0,L|159:27,2,97.5,6|2|2,1:0|1:0|1:0,0:0:0:0:
116,144,221639,2,0,P|178:152|248:114,1,130,6|0,1:0|0:0,0:0:0:0:
285,54,222118,1,0,1:0:0:0:
319,151,222277,6,0,L|315:285,1,130,8|0,0:1|2:0,0:0:0:0:
341,361,222756,2,0,P|370:361|415:351,1,65,8|0,0:3|2:0,0:0:0:0:
454,262,223075,1,0,1:0:0:0:
447,230,223155,1,0,1:0:0:0:
439,197,223235,2,0,P|443:165|455:135,1,65,8|0,0:1|2:0,0:0:0:0:
424,35,223554,6,0,L|317:25,2,97.5,6|2|2,1:0|1:0|1:0,0:0:0:0:
344,143,224192,2,0,P|291:141|224:86,1,130,6|0,1:0|0:0,0:0:0:0:
182,26,224671,1,0,1:0:0:0:
113,104,224831,6,0,L|119:177,1,65,8|0,0:1|1:0,0:0:0:0:
74,263,225150,2,0,P|78:294|92:329,1,65,8|0,0:1|1:0,0:0:0:0:
189,355,225469,1,8,0:1:0:0:
189,355,225629,1,8,0:1:0:0:
260,279,225788,2,0,L|262:238,3,32.5,8|8|8|8,0:1|0:1|0:1|0:1,0:0:0:0:
272,223,226107,5,4,0:0:0:0:
83,124,229937,6,0,L|77:60,2,58.4999982147217,8|0|0,0:1|1:0|1:0,0:0:0:0:
130,205,230416,1,8,0:1:0:0:
121,236,230496,1,8,0:1:0:0:
112,266,230575,2,0,L|115:306,3,29.2499991073609,8|8|0|0,0:1|0:1|1:0|1:0,0:0:0:0:
113,327,230894,2,0,P|145:342|207:332,1,87.7499973220826,8|8,0:1|0:3,0:0:0:0:
228,321,231214,6,0,L|306:325,1,65,6|2,1:0|0:0,0:0:0:0:
387,281,231533,2,0,P|399:242|393:193,1,65,10|2,0:1|0:0,0:0:0:0:
314,157,231852,2,0,P|303:126|302:94,1,65,2|2,1:0|0:0,0:0:0:0:
361,7,232172,1,10,0:1:0:0:
231,33,232331,6,0,L|167:30,1,65,2|0,0:1|1:0,0:0:0:0:
110,137,232650,2,0,L|174:140,1,65,2|8,0:1|0:1,0:0:0:0:
204,250,232969,2,0,L|140:247,1,65,2|0,0:1|1:0,0:0:0:0:
54,240,233288,1,2,0:1:0:0:
97,334,233448,2,0,P|128:350|166:349,1,65,10|0,0:1|0:0,0:0:0:0:
278,312,233767,6,0,B|345:313|345:313|385:330,1,97.5,2|0,1:0|0:0,0:0:0:0:
397,346,234086,2,0,P|423:328|445:291,1,65,10|2,0:1|0:0,0:0:0:0:
461,197,234406,2,0,L|454:123,1,65,2|2,1:0|0:0,0:0:0:0:
361,86,234724,2,0,L|367:150,1,65,10|2,0:1|0:1,0:0:0:0:
290,221,235043,6,0,P|253:223|219:212,1,65,0|2,1:0|0:1,0:0:0:0:
138,157,235363,2,0,L|72:162,1,65,8|2,0:1|0:1,0:0:0:0:
43,261,235682,2,0,L|84:257,3,32.5,8|8|8|8,0:1|0:1|0:1|0:1,0:0:0:0:
103,274,236001,2,0,L|144:270,3,32.5,8|8|8|8,0:1|0:1|0:1|0:1,0:0:0:0:
165,282,236320,6,0,L|161:349,1,65,6|0,1:0|0:0,0:0:0:0:
268,373,236639,5,10,0:1:0:0:
233,207,236959,1,0,1:0:0:0:
356,373,237277,5,10,0:1:0:0:
321,207,237597,1,0,1:0:0:0:
180,377,237916,5,10,0:1:0:0:
136,213,238236,1,0,1:0:0:0:
357,286,238555,1,8,0:1:0:0:
175,295,238873,6,0,L|93:286,1,65,0|0,1:0|1:0,0:0:0:0:
28,222,239192,2,0,P|17:185|17:137,1,65,10|0,0:1|1:0,0:0:0:0:
34,76,239511,1,0,1:0:0:0:
114,143,239671,2,0,L|178:150,1,65,10|0,0:1|1:0,0:0:0:0:
262,161,239990,1,0,1:0:0:0:
314,70,240151,6,0,P|373:43|447:59,1,130,10|0,0:1|0:0,0:0:0:0:
501,132,240629,1,8,0:1:0:0:
427,204,240788,6,0,P|427:230|434:257,3,32.5,10|8|10|8,0:1|0:1|0:1|0:1,0:0:0:0:
440,266,241107,2,0,P|450:289|468:311,3,32.5,10|8|10|8,0:1|0:1|0:1|0:1,0:0:0:0:
477,320,241426,6,0,P|423:361|342:352,1,130,6|8,1:0|0:1,0:0:0:0:
270,313,241905,2,0,L|276:382,1,65,2|0,1:0|1:0,0:0:0:0:
176,343,242224,2,0,L|170:254,1,65,2|8,1:0|0:1,0:0:0:0:
246,205,242543,1,2,1:0:0:0:
201,133,242703,6,0,P|174:112|143:102,1,65,0|0,1:0|1:0,0:0:0:0:
50,145,243022,2,0,L|0:142,2,32.5,8|0|0,0:1|0:0|1:0,0:0:0:0:
70,42,243341,2,0,P|96:22|141:9,1,65,2|0,1:0|1:0,0:0:0:0:
221,54,243660,2,0,L|285:51,1,65,8|2,0:1|1:0,0:0:0:0:
378,171,243979,6,0,P|353:108|391:41,1,130,6|8,1:0|0:1,0:0:0:0:
475,23,244458,2,0,L|471:90,1,65,2|0,1:0|1:0,0:0:0:0:
461,192,244777,2,0,L|457:259,1,65,2|8,1:0|0:1,0:0:0:0:
445,360,245096,1,2,1:0:0:0:
384,301,245256,6,0,P|351:301|321:314,1,65,0|0,1:0|1:0,0:0:0:0:
237,374,245575,2,0,L|167:366,1,65,8|0,0:1|1:0,0:0:0:0:
243,289,245894,2,0,P|252:256|238:202,1,65,2|0,1:0|1:0,0:0:0:0:
198,134,246213,1,8,0:1:0:0:
301,136,246372,1,10,0:1:0:0:
332,126,246452,1,8,0:1:0:0:
362,114,246532,6,0,L|438:119,1,65,6|0,1:0|1:0,0:0:0:0:
397,17,246852,2,0,L|321:22,1,65,10|0,0:1|1:0,0:0:0:0:
231,47,247171,2,0,L|166:42,1,65,2|0,1:0|1:0,0:0:0:0:
62,32,247490,1,10,0:1:0:0:
150,130,247649,6,0,P|157:158|153:194,1,65,2|0,1:0|1:0,0:0:0:0:
36,195,247969,2,0,P|29:167|33:131,1,65,2|8,1:0|0:1,0:0:0:0:
92,265,248288,2,0,L|92:334,1,65,2|0,1:0|1:0,0:0:0:0:
161,377,248606,1,2,1:0:0:0:
224,294,248766,2,0,P|254:283|293:282,1,65,10|0,0:1|1:0,0:0:0:0:
364,351,249086,6,0,P|359:318|371:274,1,65,2|0,1:0|1:0,0:0:0:0:
426,203,249405,2,0,P|431:170|419:126,1,65,10|0,1:0|1:0,0:0:0:0:
288,136,249724,2,0,P|314:156|358:168,1,65,6|8,1:0|0:1,0:0:0:0:
414,49,250043,2,0,P|382:61|350:93,1,65,6|0,1:2|1:0,0:0:0:0:
267,31,250363,6,0,L|260:-1,2,32.5,6|0|8,1:0|0:0|0:1,0:0:0:0:
199,110,250682,2,0,L|192:141,2,32.5,6|0|8,1:2|0:0|0:1,0:0:0:0:
121,40,251001,2,0,P|56:41|4:100,1,130,6|10,1:0|0:1,0:0:0:0:
63,174,251480,1,8,0:1:0:0:
56,205,251559,1,8,0:1:0:0:
47,236,251639,6,0,L|47:300,1,65,4|0,1:0|0:0,0:0:0:0:
152,375,251958,2,0,P|228:379|301:354,1,130,10|0,0:1|1:0,0:0:0:0:
346,313,252437,1,0,1:0:0:0:
223,248,252597,6,0,L|214:108,1,130,10|0,0:1|1:0,0:0:0:0:
239,37,253076,1,0,1:0:0:0:
309,151,253235,6,0,P|362:174|442:149,1,130,10|0,0:1|1:0,0:0:0:0:
478,88,253714,1,0,1:0:0:0:
510,185,253873,2,0,L|502:267,1,65,8|8,0:1|0:1,0:0:0:0:
425,353,254192,6,0,L|416:242,2,97.5,12|8|8,1:0|0:1|0:1,0:0:0:0:
169,137,255469,6,0,P|117:134|66:145,1,104,0|0,0:0|0:0,0:0:0:0:
255,141,256107,2,0,P|282:97|299:47,1,104,0|0,0:0|0:0,0:0:0:0:
209,216,256746,6,0,P|229:269|301:332,1,151.666666666667,2|0,0:0|0:0,0:0:0:0:
