osu file format v14

[General]
AudioFilename: audio.mp3
AudioLeadIn: 0
PreviewTime: 47509
Countdown: 0
SampleSet: Soft
StackLeniency: 0.4
Mode: 0
LetterboxInBreaks: 0
WidescreenStoryboard: 0

[Editor]
DistanceSpacing: 2.5
BeatDivisor: 4
GridSize: 8
TimelineZoom: 2

[Metadata]
Title:Itazura Fiction
TitleUnicode:悪戯フィクション
Artist:MY FIRST STORY
ArtistUnicode:MY FIRST STORY
Creator:Saut
Version:Extreme
Source:
Tags:milan- pishifat dailycare antithese emo rock alternative post-hardcore
BeatmapID:1019570
BeatmapSetID:477343

[Difficulty]
HPDrainRate:6
CircleSize:4.2
OverallDifficulty:9
ApproachRate:9.4
SliderMultiplier:1
SliderTickRate:1

[Events]
//Background and Video events
0,0,"xys.png",0,0
//Break Periods
//Storyboard Layer 0 (Background)
//Storyboard Layer 1 (Fail)
//Storyboard Layer 2 (Pass)
//Storyboard Layer 3 (Foreground)
//Storyboard Sound Samples

[TimingPoints]
993,327.868852459016,4,2,1,50,1,0
3615,-100,4,2,1,50,0,0
5173,-100,4,2,1,5,0,0
5255,-100,4,2,1,50,0,0
5583,-66.6666666666667,4,2,1,50,0,0
5911,-50,4,2,1,50,0,0
6238,-100,4,2,1,50,0,0
12796,-74.0740740740741,4,2,1,60,0,0
13288,-74.0740740740741,4,2,1,70,0,0
13779,-74.0740740740741,4,2,1,55,0,0
14107,-172.413793103448,4,2,1,75,0,0
14189,-172.413793103448,4,2,1,15,0,0
15911,-172.413793103448,4,2,1,40,0,0
16238,-172.413793103448,4,2,1,55,0,0
16730,-166.666666666667,4,2,1,75,0,0
16812,-166.666666666667,4,2,1,15,0,0
17878,-166.666666666667,4,2,1,40,0,0
18697,-100,4,2,1,55,0,0
19271,-100,4,2,1,5,0,0
19353,-80,4,2,1,75,0,0
19681,-80,4,2,1,55,0,0
21320,-80,4,2,1,60,0,0
21812,-57.1428571428571,4,2,1,75,0,0
22140,-57.1428571428571,4,2,1,65,0,0
23124,-57.1428571428571,4,2,1,75,0,0
23370,-57.1428571428571,4,2,1,5,0,0
23452,-57.1428571428571,4,2,1,65,0,0
23943,-57.1428571428571,4,2,1,55,0,0
24599,-100,4,2,1,45,0,0
33615,-100,4,2,1,55,0,0
34271,-100,4,2,1,45,0,0
34763,-100,4,2,1,40,0,0
35091,-90.9090909090909,4,2,1,45,0,0
36402,-90.9090909090909,4,2,1,55,0,0
37714,-90.9090909090909,4,2,1,45,0,0
39025,-90.9090909090909,4,2,1,55,0,0
40337,-90.9090909090909,4,2,1,45,0,0
40992,-90.9090909090909,4,2,1,55,0,0
41648,-90.9090909090909,4,2,1,45,0,0
42304,-90.9090909090909,4,2,1,55,0,0
42960,-90.9090909090909,4,2,1,60,0,0
44107,-62.5,4,2,1,65,0,0
45009,-62.5,4,2,1,50,0,0
45583,-111.111111111111,4,2,1,60,0,0
46074,-111.111111111111,4,2,1,65,0,0
46566,-111.111111111111,4,2,1,70,0,0
47058,-111.111111111111,4,2,1,75,0,0
47550,-111.111111111111,4,2,1,30,0,0
50501,-90.9090909090908,4,2,0,50,0,0
50829,-54.9450549450549,4,2,1,65,0,1
54599,-54.9450549450549,4,2,1,75,0,1
55747,-54.9450549450549,4,2,1,65,0,1
60992,-54.9450549450549,4,2,1,65,0,0
61320,-54.9450549450549,4,2,1,65,0,1
70337,-54.9450549450549,4,2,1,75,0,1
71812,-100,4,2,1,50,0,0
73615,-100,4,2,1,45,0,0
77058,-80,4,2,1,50,0,0
79517,-60.6060606060606,4,2,1,60,0,0
80829,-60.6060606060606,4,2,1,70,0,0
81156,-60.6060606060606,4,2,1,45,0,0
82304,-60.6060606060606,4,2,1,60,0,0
82796,-60.6060606060606,4,2,1,65,0,0
83288,-60.6060606060606,4,2,1,70,0,0
83779,-60.6060606060606,4,2,1,75,0,0
84271,-60.6060606060606,4,2,1,30,0,0
84927,-100,4,2,1,65,0,0
85419,-100,4,2,1,50,0,0
86238,-100,4,2,1,40,0,0
87550,-500,4,2,1,50,0,0
88779,-76.9230769230769,4,2,1,50,0,0
90173,-54.9450549450549,4,2,1,65,0,1
93943,-54.9450549450549,4,2,1,75,0,1
95091,-54.9450549450549,4,2,1,65,0,1
100337,-54.9450549450549,4,2,1,65,0,0
100665,-54.9450549450549,4,2,1,65,0,1
104435,-54.9450549450549,4,2,1,75,0,1
105583,-54.9450549450549,4,2,1,65,0,1
110829,-54.9450549450549,4,2,1,65,0,0
111156,-54.9450549450549,4,2,1,65,0,1
114927,-54.9450549450549,4,2,1,75,0,1
116074,-54.9450549450549,4,2,1,65,0,1
120992,-54.9450549450549,4,2,1,50,0,1
121320,-54.9450549450549,4,2,1,50,0,0
121648,-58.8235294117647,4,2,1,65,0,1
126894,-58.8235294117647,4,2,1,75,0,1
128206,-58.8235294117647,4,2,1,80,0,1
129517,-58.8235294117647,4,2,1,85,0,0
129681,-58.8235294117647,4,2,1,60,0,0
130009,-58.8235294117647,4,2,1,65,0,0
130501,-58.8235294117647,4,2,1,70,0,0
130992,-58.8235294117647,4,2,1,75,0,0
131484,-58.8235294117647,4,2,1,35,0,0
132140,-58.8235294117647,4,2,1,25,0,0

[Colours]
Combo1 : 236,153,62
Combo2 : 222,211,213
Combo3 : 242,193,145
Combo4 : 175,158,158

[HitObjects]
59,56,3615,5,2,0:0:0:0:
192,73,3779,1,0,0:0:0:0:
126,174,3943,2,0,L|135:223,1,50
161,347,4271,2,0,L|151:297,1,50
117,124,4599,6,0,L|126:173,1,50,2|2,0:0|0:0,0:0:0:0:
210,189,4845,1,0,0:0:0:0:
224,191,4927,6,0,P|258:176|283:149,1,75,2|0,0:0|0:0,0:0:0:0:
297,71,5255,2,0,L|289:43,3,25,2|0|0|0,0:0|0:0|0:0|0:0,0:0:0:0:
386,99,5583,2,0,L|377:60,3,37.5000014305115,2|0|0|0,0:0|0:0|0:0|0:0,0:0:0:0:
475,127,5911,2,0,L|462:78,3,50,2|0|0|0,0:0|0:0|0:0|0:0,0:0:0:0:
499,222,6238,5,2,0:0:0:0:
403,195,6402,1,0,0:0:0:0:
302,296,6566,2,0,L|242:300,1,50
126,311,6894,2,0,L|175:307,1,50
386,288,7222,5,2,0:0:0:0:
272,377,7386,1,2,0:0:0:0:
306,195,7550,5,2,0:0:0:0:
313,233,7714,1,0,0:0:0:0:
109,248,7878,5,2,0:0:0:0:
102,286,8042,1,0,0:0:0:0:
196,81,8206,5,2,0:0:0:0:
203,119,8370,1,0,0:0:0:0:
64,161,8533,2,0,L|14:153,1,50,2|0,0:0|0:0,0:0:0:0:
306,31,8861,6,0,L|299:81,1,50,2|0,0:0|0:0,0:0:0:0:
341,218,9189,2,0,L|291:211,1,50
154,253,9517,2,0,L|161:203,1,50
119,66,9845,2,0,L|169:73,1,50
445,95,10173,6,0,P|437:118|424:139,1,50,2|0,0:0|0:0,0:0:0:0:
422,256,10501,2,0,P|400:269|376:275,1,50
297,360,10829,2,0,P|272:355|250:344,1,50
134,353,11156,2,0,P|118:333|109:310,1,50
171,40,11484,6,0,P|189:62|200:90,1,50,2|0,0:0|0:0,0:0:0:0:
168,239,11812,2,0,P|178:209|196:186,1,50
342,139,12140,2,0,P|311:143|281:139,1,50,2|0,0:0|0:0,0:0:0:0:
151,21,12468,5,0,0:0:0:0:
95,158,12631,1,0,1:0:0:0:
72,147,12713,1,0,1:0:0:0:
49,136,12795,5,8,0:0:0:0:
201,104,12960,1,0,1:0:0:0:
351,64,13124,1,0,1:0:0:0:
20,221,13288,5,8,0:0:0:0:
186,250,13452,1,0,1:0:0:0:
352,273,13615,1,0,1:0:0:0:
69,357,13779,5,8,0:0:0:0:
83,311,13861,1,8,0:3:0:0:
127,293,13943,1,8,0:3:0:0:
173,301,14025,1,8,0:3:0:0:
207,333,14107,6,0,B|260:375|329:343|303:328|371:297|425:333,1,232.000007080078,4|0,1:0|0:0,0:0:0:0:
425,333,15911,5,2,0:0:0:0:
383,190,16074,1,2,0:0:0:0:
510,256,16238,1,0,1:0:0:0:
489,251,16320,1,0,1:0:0:0:
466,245,16402,5,10,0:0:0:0:
313,292,16566,1,2,1:0:0:0:
362,102,16730,6,0,P|420:108|461:149,1,119.999996337891,6|0,1:0|0:0,0:0:0:0:
392,24,17878,5,2,0:0:0:0:
512,73,18042,1,2,0:0:0:0:
376,20,18206,1,2,0:0:0:0:
421,166,18370,5,2,0:0:0:0:
303,203,18533,1,2,0:0:0:0:
416,321,18697,5,10,0:0:0:0:
339,118,18861,1,0,1:0:0:0:
307,111,18943,1,0,1:0:0:0:
275,115,19025,2,0,P|241:130|221:162,1,75,4|0,0:3|0:0,0:0:0:0:
314,321,19353,6,0,B|325:237|325:237|303:203,1,125,6|0,1:0|0:0,0:0:0:0:
33,197,19845,1,2,1:0:0:0:
41,230,19927,1,0,1:0:0:0:
49,263,20009,1,8,0:0:0:0:
175,294,20173,1,2,0:0:0:0:
38,360,20337,1,0,1:0:0:0:
200,281,20501,6,0,P|222:236|216:192,1,93.75,6|0,0:3|0:0,0:0:0:0:
179,116,20829,2,0,B|91:131|91:131|61:104,1,125,8|2,0:0|1:0,0:0:0:0:
235,36,21320,5,8,0:0:0:0:
131,207,21484,1,6,0:3:0:0:
7,49,21648,1,8,0:0:0:0:
194,278,21812,6,0,P|273:277|241:219,1,175.00000166893,6|0,1:0|1:0,0:0:0:0:
98,125,22304,1,8,0:0:0:0:
316,158,22468,1,0,1:0:0:0:
40,258,22632,5,10,0:0:0:0:
229,193,22796,1,4,0:3:0:0:
173,384,22960,1,8,0:0:0:0:
46,124,23124,6,0,B|128:136|128:136|146:182,1,131.250001251698,6|0,1:0|0:0,0:0:0:0:
169,271,23452,1,8,0:0:0:0:
348,143,23615,2,0,L|356:44,1,87.500000834465,6|0,0:3|0:0,0:0:0:0:
286,4,23861,1,8,0:0:0:0:
271,13,23943,5,8,0:0:0:0:
476,113,24107,1,8,0:3:0:0:
228,203,24271,1,4,0:3:0:0:
450,296,24435,1,12,0:3:0:0:
129,363,24599,6,0,L|79:359,7,50,6|0|0|0|0|0|0|0,1:0|0:0|0:0|0:0|0:0|0:0|0:0|0:0,0:0:0:0:
228,309,25911,2,0,L|277:313,1,50
278,313,26238,2,0,L|282:264,1,50
282,263,26566,2,0,L|233:259,1,50
232,259,26894,2,0,L|228:308,1,50
427,240,27222,6,0,L|476:236,7,50,2|0|0|0|0|0|0|0,0:0|0:0|0:0|0:0|0:0|0:0|0:0|0:0,0:0:0:0:
326,193,28533,2,0,L|272:198,1,50
255,224,28861,2,0,L|250:170,1,50
224,153,29189,2,0,L|278:148,1,50
295,122,29517,2,0,L|300:176,1,50
91,136,29845,6,0,L|41:132,7,50,2|0|0|0|0|0|0|0,0:0|0:0|0:0|0:0|0:0|0:0|0:0|0:0,0:0:0:0:
196,64,31156,2,0,L|245:68,1,50
324,45,31484,2,0,L|319:95,1,50
343,173,31812,2,0,L|293:168,1,50
215,192,32140,2,0,L|220:142,1,50
426,32,32468,6,0,L|475:28,6,50,2|0|0|0|0|0|0,0:0|0:0|0:0|0:0|0:0|0:0|0:0,0:0:0:0:
231,137,33615,1,0,1:0:0:0:
235,106,33697,1,0,1:0:0:0:
257,85,33779,5,8,0:0:0:0:
395,126,33943,1,0,1:0:0:0:
439,263,34107,1,0,1:0:0:0:
186,218,34271,5,8,0:3:0:0:
310,205,34435,1,4,0:3:0:0:
366,316,34599,1,4,0:3:0:0:
148,209,34763,5,8,0:0:0:0:
118,222,34845,1,8,0:3:0:0:
97,247,34927,1,8,0:3:0:0:
88,278,35009,1,8,0:3:0:0:
89,313,35091,6,0,P|116:306|147:309,1,55.0000016784668,4|0,1:0|0:0,0:0:0:0:
238,382,35419,2,0,P|261:364|293:352,1,55.0000016784668,0|0,1:0|0:0,0:0:0:0:
408,279,35747,2,0,P|384:264|358:257,1,55.0000016784668,0|0,1:0|0:0,0:0:0:0:
239,186,36074,2,0,L|233:240,1,55.0000016784668,0|0,1:0|0:0,0:0:0:0:
368,128,36402,5,4,0:3:0:0:
216,63,36566,1,0,0:0:0:0:
381,28,36730,2,0,P|354:24|317:44,1,55.0000016784668,4|0,0:3|0:0,0:0:0:0:
281,115,36976,1,0,0:0:0:0:
278,128,37058,2,0,L|272:186,1,55.0000016784668,4|0,0:3|0:0,0:0:0:0:
134,52,37386,1,4,1:3:0:0:
172,219,37550,1,0,0:0:0:0:
18,121,37714,6,0,P|45:120|84:138,1,55.0000016784668,0|0,1:0|0:0,0:0:0:0:
135,316,38042,2,0,P|156:303|187:299,1,55.0000016784668,0|0,1:0|0:0,0:0:0:0:
285,155,38370,2,0,P|312:156|340:169,1,55.0000016784668,0|0,1:0|0:0,0:0:0:0:
430,312,38697,2,0,L|424:366,1,55.0000016784668,0|0,1:0|0:0,0:0:0:0:
502,114,39025,5,4,0:3:0:0:
419,211,39189,1,0,0:0:0:0:
426,67,39353,5,4,0:3:0:0:
510,254,39517,1,0,0:0:0:0:
509,267,39599,1,0,0:0:0:0:
507,280,39681,5,4,0:3:0:0:
394,236,39845,1,0,0:0:0:0:
268,327,40009,2,0,L|213:333,1,55.0000016784668,4|0,0:3|0:0,0:0:0:0:
41,270,40337,6,0,P|63:231|60:199,1,55.0000016784668,0|0,1:0|0:0,0:0:0:0:
211,204,40665,2,0,P|195:162|168:143,1,55.0000016784668,0|0,1:0|0:0,0:0:0:0:
31,83,40992,1,0,1:0:0:0:
163,38,41156,1,0,0:0:0:0:
9,56,41320,1,0,1:0:0:0:
151,69,41484,1,0,0:0:0:0:
0,212,41648,6,0,L|54:203,1,55.0000016784668,4|0,0:3|0:0,0:0:0:0:
235,94,41976,2,0,L|290:103,1,55.0000016784668,4|0,0:3|0:0,0:0:0:0:
166,345,42304,6,0,L|112:354,1,55.0000016784668,2|0,1:0|0:0,0:0:0:0:
366,201,42632,2,0,L|421:210,1,55.0000016784668,2|0,1:0|0:0,0:0:0:0:
188,227,42960,5,0,1:0:0:0:
188,227,43124,1,0,1:0:0:0:
395,99,43288,1,8,0:0:0:0:
342,292,43452,1,0,1:0:0:0:
310,39,43615,5,8,0:0:0:0:
420,209,43779,1,4,0:3:0:0:
235,158,43943,1,4,0:3:0:0:
445,306,44107,6,0,P|438:341|408:376,1,80,10|0,0:0|0:0,0:0:0:0:
250,281,44435,1,4,0:3:0:0:
469,135,44599,2,0,P|497:163|507:201,1,80,8|0,0:0|1:0,0:0:0:0:
178,341,44927,1,8,0:0:0:0:
164,316,45009,1,8,0:3:0:0:
157,288,45091,1,8,0:3:0:0:
159,260,45173,1,8,0:3:0:0:
169,233,45255,1,4,0:3:0:0:
187,211,45337,1,4,0:3:0:0:
200,186,45419,1,4,0:3:0:0:
203,158,45501,1,4,0:3:0:0:
192,132,45583,5,12,0:0:0:0:
320,228,45747,1,0,1:0:0:0:
320,228,45911,1,0,1:0:0:0:
74,191,46074,5,12,0:0:0:0:
298,116,46238,1,0,1:0:0:0:
120,50,46402,1,0,1:0:0:0:
422,120,46566,5,12,0:0:0:0:
205,203,46730,1,0,1:0:0:0:
257,22,46894,1,0,1:0:0:0:
388,326,47058,5,12,0:0:0:0:
237,113,47222,1,0,1:0:0:0:
111,360,47386,1,0,1:0:0:0:
35,200,47550,5,8,0:0:0:0:
72,202,47632,1,8,0:0:0:0:
110,205,47714,1,8,0:0:0:0:
148,207,47796,1,8,0:0:0:0:
186,210,47878,1,8,0:0:0:0:
224,213,47960,1,8,0:0:0:0:
262,215,48042,1,8,0:0:0:0:
300,218,48124,1,8,0:0:0:0:
338,221,48206,1,2,0:0:0:0:
469,235,50501,6,2,P|429:236|400:264,1,82.5000025177003,2|0,0:0|0:0,1:0:0:0:
425,351,50829,5,14,0:0:0:0:
363,184,50992,1,2,1:0:0:0:
231,294,51156,1,2,1:0:0:0:
79,143,51320,2,0,L|65:38,1,91.0000030548097,14|0,0:0|1:0,0:0:0:0:
35,340,51648,5,12,0:0:0:0:
232,150,51812,1,2,1:0:0:0:
386,275,51976,1,2,1:0:0:0:
455,70,52140,5,14,0:0:0:0:
272,259,52304,1,2,1:0:0:0:
132,103,52468,1,2,1:0:0:0:
71,329,52632,2,0,P|-3:343|20:271,1,182.000006109619,12|0,0:0|1:0,0:0:0:0:
298,221,53124,5,10,0:0:0:0:
67,115,53288,1,4,0:3:0:0:
75,74,53370,1,4,0:3:0:0:
81,33,53452,6,0,P|119:10|164:12,1,91.0000030548097,14|0,0:0|1:0,0:0:0:0:
233,268,53779,1,10,0:0:0:0:
57,200,53943,1,10,0:0:0:0:
345,151,54107,5,2,1:0:0:0:
137,185,54271,1,10,0:0:0:0:
361,147,54435,1,2,0:0:0:0:
293,331,54599,5,14,0:0:0:0:
226,75,54763,1,14,0:0:0:0:
455,236,54927,1,6,0:3:0:0:
488,10,55091,1,6,0:3:0:0:
270,225,55255,2,0,L|290:313,2,91.0000030548097,14|0|0,0:0|1:0|1:0,0:0:0:0:
41,125,55747,6,0,P|57:134|93:134,1,45.5000015274048,10|8,0:0|0:3,0:0:0:0:
236,44,55911,2,0,P|252:35|288:33,1,45.5000015274048,4|4,0:3|0:3,0:0:0:0:
460,162,56074,5,14,0:0:0:0:
282,121,56238,1,2,1:0:0:0:
339,291,56402,1,2,1:0:0:0:
138,261,56566,2,0,B|180:238|180:238|228:252,1,91.0000030548097,10|0,0:0|1:0,0:0:0:0:
80,370,56894,1,8,0:0:0:0:
0,207,57058,2,0,L|11:116,1,91.0000030548097,2|0,0:0|1:0,0:0:0:0:
304,41,57386,5,14,0:0:0:0:
129,194,57550,1,2,1:0:0:0:
352,271,57714,1,2,1:0:0:0:
188,14,57878,6,0,P|189:66|215:109,1,91.0000030548097,10|0,0:0|1:0,0:0:0:0:
498,225,58206,2,0,B|452:199|452:199|400:204,1,91.0000030548097,2|8,0:0|0:0,0:0:0:0:
190,323,58533,1,0,1:0:0:0:
321,90,58697,6,0,L|310:180,1,91.0000030548097,14|0,0:0|1:0,0:0:0:0:
375,349,59025,1,0,1:0:0:0:
203,223,59189,5,10,0:0:0:0:
342,262,59353,1,2,1:0:0:0:
117,218,59517,5,10,0:0:0:0:
317,280,59681,1,2,1:0:0:0:
33,213,59845,5,8,0:0:0:0:
374,111,60009,2,0,B|426:122|426:122|448:152,1,91.0000030548097,14|0,0:0|1:0,0:0:0:0:
436,233,60255,1,0,1:0:0:0:
431,259,60337,5,14,0:0:0:0:
309,35,60501,1,14,0:0:0:0:
512,108,60665,1,0,1:0:0:0:
284,177,60829,1,0,1:0:0:0:
449,307,60992,6,0,L|459:262,1,45.5000015274048,14|8,0:0|0:3,0:0:0:0:
335,50,61156,2,0,L|345:94,1,45.5000015274048,4|4,0:3|0:3,0:0:0:0:
382,383,61320,5,14,0:0:0:0:
284,177,61484,2,0,P|232:180|197:214,1,91.0000030548097,2|0,1:0|1:0,0:0:0:0:
458,262,61812,1,10,0:0:0:0:
210,311,61976,1,2,1:0:0:0:
476,256,62140,5,14,0:0:0:0:
272,160,62304,1,2,1:0:0:0:
398,354,62468,1,2,1:0:0:0:
230,90,62632,6,0,L|237:0,1,91.0000030548097,14|0,0:0|1:0,0:0:0:0:
373,207,62960,1,0,1:0:0:0:
128,162,63124,2,0,P|110:121|113:71,1,91.0000030548097,14|0,0:0|0:0,0:0:0:0:
351,27,63452,1,0,1:0:0:0:
243,187,63615,1,8,0:0:0:0:
464,132,63779,1,0,1:0:0:0:
472,167,63861,1,0,1:0:0:0:
479,202,63943,6,0,P|472:246|447:284,1,91.0000030548097,14|0,0:0|1:0,0:0:0:0:
280,353,64271,1,0,1:0:0:0:
341,108,64435,2,0,P|370:143|382:187,1,91.0000030548097,8|0,0:0|1:0,0:0:0:0:
169,54,64763,2,0,P|213:46|257:57,1,91.0000030548097,8|0,0:0|1:0,0:0:0:0:
334,272,65091,1,0,1:0:0:0:
62,183,65255,6,0,P|97:153|141:138,1,91.0000030548097,14|0,0:0|1:0,0:0:0:0:
303,189,65583,1,0,1:0:0:0:
39,272,65747,2,0,P|84:274|127:295,1,91.0000030548097,14|0,0:0|1:0,0:0:0:0:
215,384,66074,1,0,1:0:0:0:
139,138,66238,5,10,0:0:0:0:
378,235,66402,1,4,0:3:0:0:
372,270,66484,1,4,0:3:0:0:
365,305,66566,5,14,0:0:0:0:
459,156,66730,1,2,1:0:0:0:
270,231,66894,1,2,1:0:0:0:
501,276,67058,5,10,0:0:0:0:
306,139,67222,1,2,1:0:0:0:
452,354,67386,5,10,0:0:0:0:
248,215,67550,1,2,1:0:0:0:
459,156,67714,1,2,1:0:0:0:
163,227,67878,6,0,P|126:253|114:296,1,91.0000030548097,14|0,0:0|1:0,0:0:0:0:
220,377,68206,1,0,1:0:0:0:
197,129,68370,2,0,B|157:103|157:103|101:104,1,91.0000030548097,10|0,0:0|1:0,0:0:0:0:
24,228,68697,1,0,1:0:0:0:
337,188,68861,5,10,0:0:0:0:
114,257,69025,1,4,0:3:0:0:
148,268,69107,1,4,0:3:0:0:
182,278,69189,6,0,P|211:243|220:199,1,91.0000030548097,14|0,0:0|1:0,0:0:0:0:
148,83,69517,1,2,1:0:0:0:
337,188,69681,2,0,P|327:144|297:110,1,91.0000030548097,8|0,0:0|1:0,0:0:0:0:
24,170,70009,2,0,L|114:166,1,91.0000030548097,10|0,0:0|1:0,0:0:0:0:
456,149,70337,5,12,0:0:0:0:
177,84,70501,1,12,0:0:0:0:
266,250,70665,1,2,1:0:0:0:
13,217,70829,5,12,0:0:0:0:
315,140,70993,1,12,0:0:0:0:
231,329,71157,1,2,1:0:0:0:
491,307,71320,5,12,0:0:0:0:
204,197,71484,1,8,0:3:0:0:
169,206,71566,1,8,0:3:0:0:
135,216,71648,1,8,0:3:0:0:
309,36,71812,5,6,0:0:0:0:
193,338,73615,1,0,1:0:0:0:
190,309,73697,1,0,1:0:0:0:
187,279,73779,5,10,0:0:0:0:
356,317,73942,1,0,1:0:0:0:
251,176,74107,5,10,0:0:0:0:
445,147,74271,1,0,1:0:0:0:
209,38,74435,5,4,0:0:0:0:
318,338,75583,1,0,1:0:0:0:
321,309,75665,1,0,1:0:0:0:
324,279,75747,5,10,0:0:0:0:
171,308,75911,1,0,1:0:0:0:
251,194,76074,1,8,0:3:0:0:
116,145,76238,1,4,0:3:0:0:
315,59,76402,5,10,0:0:0:0:
219,183,76566,1,8,0:3:0:0:
248,177,76648,1,8,0:3:0:0:
276,171,76730,2,0,P|299:193|302:247,1,75,4|0,0:3|0:0,0:0:0:0:
244,343,77058,5,4,0:0:0:0:
471,203,77550,1,0,1:0:0:0:
461,176,77632,1,0,1:0:0:0:
453,146,77714,6,0,L|459:84,1,62.5,8|0,0:0|0:0,0:0:0:0:
315,233,78042,1,0,1:0:0:0:
370,81,78206,2,0,L|360:5,1,62.5,0|2,1:0|0:0,0:0:0:0:
306,252,78533,2,0,L|317:319,1,62.5,8|0,0:0|0:0,0:0:0:0:
186,129,78861,1,0,1:0:0:0:
219,134,78943,1,0,1:0:0:0:
252,139,79025,5,8,0:0:0:0:
197,37,79189,1,4,0:3:0:0:
343,155,79353,1,8,0:0:0:0:
104,118,79517,6,0,B|34:150|34:150|23:196,1,123.750001180172,4|0,1:0|0:0,0:0:0:0:
54,278,79845,1,0,1:0:0:0:
266,189,80009,1,8,0:0:0:0:
241,334,80173,1,0,1:0:0:0:
12,172,80337,5,8,0:0:0:0:
201,254,80501,1,4,0:3:0:0:
176,89,80665,1,8,0:0:0:0:
37,336,80829,6,0,P|40:277|103:267,1,123.750001180172,4|0,1:0|0:0,0:0:0:0:
169,339,81156,1,8,0:0:0:0:
207,354,81237,1,8,0:0:0:0:
247,346,81319,1,8,0:0:0:0:
281,322,81401,1,8,0:0:0:0:
315,299,81484,1,8,0:0:0:0:
355,291,81565,1,8,0:0:0:0:
394,304,81648,6,0,L|391:346,1,41.2500003933907,8|8,0:3|0:3,0:0:0:0:
498,237,81812,2,0,L|495:195,1,41.2500003933907,8|8,0:3|0:3,0:0:0:0:
397,63,81976,2,0,L|394:104,1,41.2500003933907,4|4,0:3|0:3,0:0:0:0:
291,226,82140,2,0,L|288:184,1,41.2500003933907,4|4,0:3|0:3,0:0:0:0:
176,56,82304,5,12,0:0:0:0:
393,140,82468,1,0,1:0:0:0:
393,140,82632,1,0,1:0:0:0:
138,214,82795,5,12,0:0:0:0:
284,97,82959,1,0,1:0:0:0:
299,315,83123,1,0,1:0:0:0:
55,176,83288,5,12,0:0:0:0:
291,226,83451,1,0,1:0:0:0:
80,349,83615,1,0,1:0:0:0:
197,55,83779,5,12,0:0:0:0:
299,315,83943,1,0,1:0:0:0:
448,96,84107,1,0,1:0:0:0:
512,245,84271,5,8,0:0:0:0:
475,243,84353,1,8,0:0:0:0:
437,240,84435,1,8,0:0:0:0:
399,238,84517,1,8,0:0:0:0:
361,235,84599,1,8,0:0:0:0:
323,232,84681,1,8,0:0:0:0:
285,230,84763,1,8,0:0:0:0:
247,227,84845,1,8,0:0:0:0:
209,224,84927,6,0,L|218:278,2,50,2|0|2,0:0|0:0|0:0,0:0:0:0:
39,89,85419,1,2,0:0:0:0:
129,203,85583,1,2,0:0:0:0:
254,101,85747,1,2,0:0:0:0:
372,200,85911,1,2,0:0:0:0:
469,94,86074,1,2,0:0:0:0:
502,214,86238,5,2,0:0:0:0:
477,115,86402,1,0,0:0:0:0:
403,192,86566,1,2,0:0:0:0:
362,118,86730,1,0,0:0:0:0:
299,178,86894,1,2,0:0:0:0:
230,131,87058,1,0,0:0:0:0:
161,180,87222,1,2,0:0:0:0:
89,140,87386,1,0,0:0:0:0:
21,184,87550,6,0,P|2:214|0:248,1,70,2|0,0:0|1:0,0:0:0:0:
2,254,88779,1,0,1:0:0:0:
4,259,88861,5,8,0:0:0:0:
151,231,89025,1,0,1:0:0:0:
298,205,89189,1,0,1:0:0:0:
67,74,89353,5,8,0:0:0:0:
228,104,89517,1,4,0:3:0:0:
387,136,89681,1,4,0:3:0:0:
106,154,89845,5,8,0:3:0:0:
326,54,90009,1,4,0:3:0:0:
197,336,90173,5,14,0:0:0:0:
386,222,90336,1,2,1:0:0:0:
200,114,90500,1,2,1:0:0:0:
418,27,90665,2,0,L|508:39,1,91.0000030548097,14|0,0:0|1:0,0:0:0:0:
163,25,90992,5,14,0:0:0:0:
394,127,91156,1,2,1:0:0:0:
140,245,91320,1,2,1:0:0:0:
445,319,91484,5,14,0:0:0:0:
213,163,91648,1,2,1:0:0:0:
436,27,91812,1,2,1:0:0:0:
141,89,91976,2,0,P|94:29|169:18,1,182.000006109619,14|0,0:0|1:0,0:0:0:0:
342,256,92468,5,10,0:0:0:0:
124,165,92632,1,4,0:3:0:0:
83,172,92714,1,4,0:3:0:0:
42,181,92796,6,0,P|9:210|0:254,1,91.0000030548097,14|0,0:0|1:0,0:0:0:0:
268,281,93123,1,10,0:0:0:0:
69,371,93287,1,10,0:0:0:0:
204,142,93452,5,2,1:0:0:0:
154,341,93615,1,10,0:0:0:0:
210,128,93780,1,2,1:0:0:0:
360,341,93943,5,14,0:0:0:0:
124,182,94107,1,14,0:0:0:0:
402,254,94271,1,6,0:3:0:0:
100,271,94435,1,6,0:3:0:0:
385,168,94599,2,0,P|405:127|405:81,2,91.0000030548097,10|0|0,0:0|1:0|1:0,0:0:0:0:
118,50,95091,6,0,B|134:36|134:36|158:34,1,45.5000015274048,10|8,0:0|0:3,0:0:0:0:
307,67,95255,2,0,B|322:82|322:82|325:105,1,45.5000015274048,4|4,0:3|0:3,0:0:0:0:
158,240,95418,5,14,0:0:0:0:
227,85,95582,1,2,1:0:0:0:
55,123,95746,1,2,1:0:0:0:
261,199,95910,2,0,B|290:242|290:242|285:280,1,91.0000030548097,10|0,0:0|0:0,0:0:0:0:
7,208,96238,1,8,0:0:0:0:
232,102,96402,2,0,P|277:97|318:117,1,91.0000030548097,2|0,1:0|1:0,0:0:0:0:
265,371,96730,5,14,0:0:0:0:
158,188,96894,1,2,1:0:0:0:
378,239,97058,1,2,1:0:0:0:
124,337,97222,6,0,P|167:324|191:286,1,91.0000030548097,10|0,0:0|1:0,0:0:0:0:
98,120,97550,1,2,1:0:0:0:
277,177,97714,1,8,0:0:0:0:
53,252,97877,1,2,1:0:0:0:
355,147,98042,6,0,P|390:175|403:217,1,91.0000030548097,14|0,0:0|1:0,0:0:0:0:
206,367,98369,1,0,1:0:0:0:
213,129,98533,5,10,0:0:0:0:
276,307,98697,1,2,1:0:0:0:
300,75,98861,5,10,0:0:0:0:
281,280,99025,1,2,1:0:0:0:
382,23,99189,5,10,0:0:0:0:
130,159,99353,2,0,P|83:143|53:109,1,91.0000030548097,14|0,0:0|1:0,0:0:0:0:
295,36,99681,1,10,0:0:0:0:
211,220,99845,2,0,P|172:249|124:251,1,91.0000030548097,10|0,0:0|1:0,0:0:0:0:
83,18,100173,1,8,0:0:0:0:
294,131,100337,6,0,L|248:125,1,45.5000015274048,10|8,0:0|0:3,0:0:0:0:
8,196,100501,2,0,L|60:202,1,45.5000015274048,4|4,0:3|0:3,0:0:0:0:
378,141,100665,5,14,0:0:0:0:
167,115,100829,1,2,1:0:0:0:
249,306,100992,1,2,1:0:0:0:
342,48,101156,2,0,P|379:35|432:36,1,91.0000030548097,14|0,0:0|0:0,0:0:0:0:
501,275,101484,5,10,0:0:0:0:
281,199,101648,1,2,1:0:0:0:
485,136,101812,1,2,1:0:0:0:
315,362,101976,5,14,0:0:0:0:
378,127,102140,1,2,1:0:0:0:
164,294,102304,1,2,1:0:0:0:
124,90,102468,2,0,L|134:-1,1,91.0000030548097,14|0,0:0|1:0,0:0:0:0:
14,205,102796,1,0,1:0:0:0:
232,179,102960,6,0,P|211:168|189:165,1,45.5000015274048,10|8,0:0|0:3,0:0:0:0:
11,292,103124,2,0,P|33:288|53:278,1,45.5000015274048,4|4,0:3|0:3,0:0:0:0:
210,83,103288,5,14,0:0:0:0:
262,266,103452,2,0,P|294:298|339:304,1,91.0000030548097,2|0,1:0|1:0,0:0:0:0:
475,109,103779,5,14,0:0:0:0:
268,172,103943,1,2,1:0:0:0:
496,232,104107,1,14,0:0:0:0:
250,181,104271,1,2,1:0:0:0:
408,11,104435,5,14,0:0:0:0:
351,273,104599,1,14,0:0:0:0:
157,97,104763,1,6,0:3:0:0:
207,352,104927,1,6,0:3:0:0:
3,189,105091,2,0,L|13:98,1,91.0000030548097,10|0,0:0|1:0,0:0:0:0:
228,26,105419,1,0,1:0:0:0:
133,196,105583,6,0,L|178:191,1,45.5000015274048,8|0,0:0|0:0,0:0:0:0:
360,127,105747,1,4,0:3:0:0:
320,120,105829,1,4,0:3:0:0:
280,114,105911,5,14,0:0:0:0:
315,274,106074,1,2,1:0:0:0:
195,97,106238,1,2,1:0:0:0:
442,144,106402,2,0,P|482:113|494:76,1,91.0000030548097,10|0,0:0|1:0,0:0:0:0:
264,201,106730,1,8,0:0:0:0:
460,267,106894,2,0,B|437:230|437:230|390:219,1,91.0000030548097,2|0,1:0|1:0,0:0:0:0:
84,170,107222,5,14,0:0:0:0:
286,109,107386,1,2,1:0:0:0:
178,282,107550,1,2,1:0:0:0:
222,36,107714,6,0,P|185:10|140:8,1,91.0000030548097,14|0,0:0|1:0,0:0:0:0:
331,316,108042,2,0,P|367:342|412:344,1,91.0000030548097,2|8,1:0|0:0,0:0:0:0:
145,100,108370,1,0,1:0:0:0:
105,111,108452,1,0,1:0:0:0:
66,124,108533,6,0,B|45:169|45:169|45:210,1,91.0000030548097,14|0,0:0|1:0,0:0:0:0:
55,354,108861,1,0,1:0:0:0:
233,200,109025,2,0,L|142:191,1,91.0000030548097,10|0,0:0|1:0,0:0:0:0:
411,220,109353,2,0,L|320:211,1,91.0000030548097,10|0,0:0|1:0,0:0:0:0:
56,178,109681,5,10,0:0:0:0:
261,333,109845,2,0,L|351:324,1,91.0000030548097,10|0,0:0|1:0,0:0:0:0:
344,117,110173,5,10,0:0:0:0:
113,284,110337,2,0,L|22:275,1,91.0000030548097,10|0,0:0|1:0,0:0:0:0:
122,59,110665,5,10,0:0:0:0:
307,219,110829,2,0,L|352:216,1,45.5000015274048,10|0,0:0|0:0,0:0:0:0:
478,162,110992,1,4,0:3:0:0:
473,201,111074,1,4,0:3:0:0:
466,241,111156,5,14,0:0:0:0:
379,110,111320,1,2,1:0:0:0:
283,298,111484,1,2,1:0:0:0:
136,135,111648,2,0,L|144:44,1,91.0000030548097,14|0,0:0|1:0,0:0:0:0:
44,314,111976,2,0,P|87:301|116:267,1,91.0000030548097,14|0,0:0|1:0,0:0:0:0:
40,106,112304,1,0,1:0:0:0:
280,204,112468,5,14,0:0:0:0:
105,175,112632,1,2,1:0:0:0:
178,353,112796,1,2,1:0:0:0:
301,101,112960,2,0,B|279:132|279:132|292:183,1,91.0000030548097,14|0,0:0|1:0,0:0:0:0:
324,293,113288,1,0,1:0:0:0:
372,28,113452,5,10,0:0:0:0:
213,168,113615,1,4,0:3:0:0:
175,155,113697,1,4,0:3:0:0:
137,141,113779,5,14,0:0:0:0:
301,101,113943,1,2,1:0:0:0:
125,233,114107,5,2,1:0:0:0:
283,15,114271,1,8,0:0:0:0:
159,315,114435,5,2,1:0:0:0:
137,141,114599,1,8,0:0:0:0:
161,327,114763,1,2,1:0:0:0:
376,190,114927,5,14,0:0:0:0:
100,238,115091,1,14,0:0:0:0:
396,183,115255,1,6,0:3:0:0:
80,242,115419,1,6,0:3:0:0:
416,178,115583,2,0,P|437:137|439:92,2,91.0000030548097,10|0|0,0:0|1:0|1:0,0:0:0:0:
172,160,116074,6,0,P|191:147|214:143,1,45.5000015274048,8|0,0:0|0:0,0:0:0:0:
485,249,116238,1,4,0:3:0:0:
449,268,116320,1,4,0:3:0:0:
409,268,116402,6,0,B|365:247|365:247|341:203,1,91.0000030548097,14|0,0:0|1:0,0:0:0:0:
280,46,116730,1,0,1:0:0:0:
98,236,116894,2,0,P|103:280|127:318,1,91.0000030548097,14|0,0:0|1:0,0:0:0:0:
359,111,117222,1,8,0:0:0:0:
150,27,117386,2,0,L|159:117,1,91.0000030548097,2|0,1:0|1:0,0:0:0:0:
319,270,117714,5,14,0:0:0:0:
62,230,117878,1,2,1:0:0:0:
244,136,118042,1,2,1:0:0:0:
149,361,118206,2,0,P|185:336|230:335,1,91.0000030548097,10|0,0:0|1:0,0:0:0:0:
376,384,118533,5,2,1:0:0:0:
214,241,118697,1,8,0:0:0:0:
443,237,118861,1,0,1:0:0:0:
405,254,118943,1,0,1:0:0:0:
365,268,119025,6,0,P|333:236|327:192,1,91.0000030548097,14|0,0:0|1:0,0:0:0:0:
389,58,119353,1,0,1:0:0:0:
212,154,119517,5,10,0:0:0:0:
375,83,119681,1,2,1:0:0:0:
146,84,119845,5,10,0:0:0:0:
363,110,120009,1,2,1:0:0:0:
83,12,120173,5,10,0:0:0:0:
228,248,120337,2,0,P|215:290|179:318,1,91.0000030548097,14|0,0:0|1:0,0:0:0:0:
236,61,120665,5,10,0:0:0:0:
68,183,120829,1,2,1:0:0:0:
382,160,120992,1,8,0:0:0:0:
341,157,121074,1,8,0:0:0:0:
300,155,121156,1,8,0:0:0:0:
259,153,121238,1,8,0:0:0:0:
218,151,121320,1,8,0:0:0:0:
177,149,121402,1,8,0:0:0:0:
136,147,121484,1,8,0:0:0:0:
95,144,121566,1,8,0:0:0:0:
54,142,121648,5,14,0:0:0:0:
146,256,121812,1,2,1:0:0:0:
260,71,121976,1,10,0:0:0:0:
376,266,122140,2,0,L|386:350,1,85.0000016212464,2|0,1:0|1:0,0:0:0:0:
492,137,122468,1,2,1:0:0:0:
230,165,122632,5,10,0:0:0:0:
447,205,122796,1,2,1:0:0:0:
156,202,122960,5,6,1:0:0:0:
346,112,123124,1,2,1:0:0:0:
282,307,123288,1,10,0:0:0:0:
357,86,123452,2,0,P|316:16|236:28,1,170.000003242493,2|0,1:0|1:0,0:0:0:0:
39,158,123943,5,10,0:0:0:0:
231,124,124107,1,2,1:0:0:0:
105,332,124271,5,2,1:0:0:0:
159,75,124435,1,2,1:0:0:0:
99,350,124599,1,10,0:0:0:0:
164,57,124763,1,2,1:0:0:0:
307,270,124927,5,2,1:0:0:0:
54,174,125091,1,2,1:0:0:0:
332,78,125255,1,10,0:0:0:0:
102,310,125419,6,0,P|172:287|126:228,1,170.000003242493,6|2,1:0|1:0,0:0:0:0:
2,350,125911,1,10,0:0:0:0:
265,305,126074,2,0,P|270:262|256:222,1,85.0000016212464,2|0,1:0|1:0,0:0:0:0:
124,105,126402,1,0,1:0:0:0:
424,108,126566,5,10,0:0:0:0:
144,18,126730,1,0,1:0:0:0:
135,61,126812,1,0,1:0:0:0:
124,105,126894,5,12,0:0:0:0:
343,86,127058,1,0,1:0:0:0:
106,188,127222,5,8,0:0:0:0:
339,171,127386,1,0,1:0:0:0:
87,270,127550,5,8,0:0:0:0:
334,256,127714,1,0,1:0:0:0:
69,349,127878,5,10,0:0:0:0:
330,341,128042,1,2,1:0:0:0:
180,57,128206,5,14,0:0:0:0:
157,346,128370,1,2,1:0:0:0:
274,50,128533,5,8,0:0:0:0:
250,344,128697,1,0,1:0:0:0:
369,38,128861,5,8,0:0:0:0:
344,341,129025,1,0,1:0:0:0:
463,29,129189,5,8,0:0:0:0:
437,338,129353,1,0,1:0:0:0:
158,166,129517,5,12,0:0:0:0:
280,217,129681,1,0,1:0:0:0:
394,158,129845,1,0,1:0:0:0:
148,250,130009,5,8,0:0:0:0:
272,131,130173,1,0,1:0:0:0:
412,237,130337,1,0,1:0:0:0:
121,133,130501,5,12,0:0:0:0:
272,264,130665,1,0,1:0:0:0:
409,113,130829,1,0,1:0:0:0:
110,293,130992,5,8,0:0:0:0:
267,90,131156,1,0,1:0:0:0:
438,267,131320,1,0,1:0:0:0:
81,190,131484,5,8,0:0:0:0:
128,188,131566,1,8,0:0:0:0:
176,188,131648,1,8,0:0:0:0:
224,186,131730,1,8,0:0:0:0:
272,186,131812,1,8,0:0:0:0:
320,185,131894,1,8,0:0:0:0:
369,182,131976,1,8,0:0:0:0:
417,184,132058,1,8,0:0:0:0:
465,184,132140,1,4,0:0:0:0:
