osu file format v14

[General]
AudioFilename: audio.mp3
AudioLeadIn: 0
PreviewTime: 47509
Countdown: 0
SampleSet: Soft
StackLeniency: 0.3
Mode: 0
LetterboxInBreaks: 0
WidescreenStoryboard: 0

[Editor]
DistanceSpacing: 2.4
BeatDivisor: 4
GridSize: 8
TimelineZoom: 1.8

[Metadata]
Title:Itazura Fiction
TitleUnicode:悪戯フィクション
Artist:MY FIRST STORY
ArtistUnicode:MY FIRST STORY
Creator:Saut
Version:Extra
Source:
Tags:milan- pishifat dailycare antithese emo rock alternative post-hardcore
BeatmapID:1019809
BeatmapSetID:477343

[Difficulty]
HPDrainRate:6
CircleSize:3.6
OverallDifficulty:8.5
ApproachRate:9.2
SliderMultiplier:1
SliderTickRate:1

[Events]
//Background and Video events
0,0,"xys.png",0,0
//Break Periods
//Storyboard Layer 0 (Background)
//Storyboard Layer 1 (Fail)
//Storyboard Layer 2 (Pass)
//Storyboard Layer 3 (Foreground)
//Storyboard Sound Samples

[TimingPoints]
993,327.868852459016,4,2,1,50,1,0
3615,-100,4,2,1,50,0,0
5173,-100,4,2,1,5,0,0
5255,-100,4,2,1,50,0,0
5501,-100,4,2,0,5,0,0
5583,-66.6666666666667,4,2,1,50,0,0
5829,-66.6666666666667,4,2,0,5,0,0
5911,-50,4,2,1,50,0,0
6156,-50,4,2,0,5,0,0
6238,-100,4,2,1,50,0,0
12796,-66.6666666666667,4,2,1,60,0,0
13288,-66.6666666666667,4,2,1,70,0,0
13779,-66.6666666666667,4,2,1,55,0,0
14107,-100,4,2,1,75,0,0
14189,-100,4,2,1,15,0,0
14271,-100,4,2,1,45,0,0
15911,-80,4,2,1,40,0,0
16238,-80,4,2,1,55,0,0
16730,-100,4,2,1,75,0,0
16812,-100,4,2,1,15,0,0
16894,-100,4,2,1,45,0,0
17878,-100,4,2,1,40,0,0
18697,-80,4,2,1,55,0,0
19025,-200,4,2,1,55,0,0
19271,-200,4,2,1,5,0,0
19353,-80,4,2,1,75,0,0
19681,-80,4,2,1,55,0,0
21320,-80,4,2,1,60,0,0
21812,-57.1428571428571,4,2,1,75,0,0
22140,-57.1428571428571,4,2,1,65,0,0
23124,-57.1428571428571,4,2,1,75,0,0
23370,-57.1428571428571,4,2,1,5,0,0
23452,-57.1428571428571,4,2,1,65,0,0
23943,-57.1428571428571,4,2,1,55,0,0
24599,-100,4,2,1,45,0,0
33615,-100,4,2,1,55,0,0
34271,-100,4,2,1,45,0,0
34763,-100,4,2,1,40,0,0
35091,-90.9090909090909,4,2,1,45,0,0
36402,-90.9090909090909,4,2,1,55,0,0
37714,-90.9090909090909,4,2,1,45,0,0
39025,-90.9090909090909,4,2,1,55,0,0
40337,-90.9090909090909,4,2,1,45,0,0
40992,-90.9090909090909,4,2,1,55,0,0
41648,-90.9090909090909,4,2,1,45,0,0
42304,-90.9090909090909,4,2,1,55,0,0
42960,-90.9090909090909,4,2,1,60,0,0
44107,-62.5,4,2,1,65,0,0
45009,-62.5,4,2,1,50,0,0
45583,-58.8235294117647,4,2,1,60,0,0
46074,-58.8235294117647,4,2,1,65,0,0
46566,-58.8235294117647,4,2,1,70,0,0
47058,-58.8235294117647,4,2,1,75,0,0
47550,-58.8235294117647,4,2,1,30,0,0
50501,-90.9090909090908,4,2,0,50,0,0
50829,-54.9450549450549,4,2,1,65,0,1
54599,-54.9450549450549,4,2,1,75,0,1
55747,-54.9450549450549,4,2,1,65,0,1
60992,-54.9450549450549,4,2,1,65,0,0
61320,-54.9450549450549,4,2,1,65,0,1
70337,-54.9450549450549,4,2,1,75,0,1
71812,-100,4,2,1,50,0,0
73615,-100,4,2,1,45,0,0
77058,-80,4,2,1,50,0,0
79517,-60.6060606060606,4,2,1,60,0,0
80829,-60.6060606060606,4,2,1,70,0,0
81156,-60.6060606060606,4,2,1,45,0,0
82304,-60.6060606060606,4,2,1,60,0,0
82796,-60.6060606060606,4,2,1,65,0,0
83288,-60.6060606060606,4,2,1,70,0,0
83779,-60.6060606060606,4,2,1,75,0,0
84271,-60.6060606060606,4,2,1,30,0,0
84927,-100,4,2,1,65,0,0
85419,-100,4,2,1,50,0,0
86238,-100,4,2,1,40,0,0
87550,-200,4,2,1,50,0,0
88779,-76.9230769230769,4,2,1,50,0,0
90173,-54.9450549450549,4,2,1,65,0,1
93943,-54.9450549450549,4,2,1,75,0,1
95091,-54.9450549450549,4,2,1,65,0,1
100337,-54.9450549450549,4,2,1,65,0,0
100665,-54.9450549450549,4,2,1,65,0,1
104435,-54.9450549450549,4,2,1,75,0,1
105583,-54.9450549450549,4,2,1,65,0,1
110829,-54.9450549450549,4,2,1,65,0,0
111156,-54.9450549450549,4,2,1,65,0,1
114927,-54.9450549450549,4,2,1,75,0,1
116074,-54.9450549450549,4,2,1,65,0,1
120992,-54.9450549450549,4,2,1,50,0,0
121648,-58.8235294117647,4,2,1,65,0,1
126894,-58.8235294117647,4,2,1,75,0,1
128206,-58.8235294117647,4,2,1,80,0,1
129517,-68.9655172413793,4,2,1,85,0,0
129681,-68.9655172413793,4,2,1,60,0,0
130009,-68.9655172413793,4,2,1,65,0,0
130501,-68.9655172413793,4,2,1,70,0,0
130992,-68.9655172413793,4,2,1,75,0,0
131484,-68.9655172413793,4,2,1,35,0,0
132140,-68.9655172413793,4,2,1,25,0,0

[Colours]
Combo1 : 236,153,62
Combo2 : 222,211,213
Combo3 : 242,193,145
Combo4 : 175,158,158

[HitObjects]
255,331,3615,5,2,0:0:0:0:
255,331,3943,2,0,B|233:319|233:319|196:320,1,50,0|0,0:0|0:0,0:0:0:0:
191,229,4271,2,0,B|166:231|166:231|136:253,1,50,0|0,0:0|0:0,0:0:0:0:
101,340,4599,5,2,0:0:0:0:
120,226,4763,1,2,0:0:0:0:
139,111,4927,1,2,0:0:0:0:
139,111,5255,6,0,P|185:90|222:96,1,75,2|0,0:0|0:0,0:0:0:0:
213,66,5583,2,0,P|157:68|111:99,1,112.500004291535,2|0,0:0|0:0,0:0:0:0:
88,89,5911,2,0,P|148:46|222:45,1,150,2|0,0:0|0:0,0:0:0:0:
287,112,6238,5,2,0:0:0:0:
287,112,6566,2,0,B|309:124|309:124|346:123,1,50,0|0,0:0|0:0,0:0:0:0:
351,214,6894,2,0,B|375:211|375:211|405:189,1,50,0|0,0:0|0:0,0:0:0:0:
427,101,7222,1,2,0:0:0:0:
420,72,7386,1,2,0:0:0:0:
494,265,7550,6,0,L|487:314,1,50,2|0,0:0|0:0,0:0:0:0:
401,285,7878,2,0,L|394:334,1,50,2|0,0:0|0:0,0:0:0:0:
308,305,8206,2,0,L|301:354,1,50,2|0,0:0|0:0,0:0:0:0:
215,325,8533,2,0,L|208:374,1,50,2|0,0:0|0:0,0:0:0:0:
437,193,8861,5,2,0:0:0:0:
437,193,9189,2,0,P|419:155|404:145,1,50,0|0,0:0|0:0,0:0:0:0:
383,61,9517,2,0,P|342:53|325:60,1,50,0|0,0:0|0:0,0:0:0:0:
245,30,9845,2,0,P|215:58|211:76,1,50,0|0,0:0|0:0,0:0:0:0:
437,193,10173,5,2,0:0:0:0:
437,193,10501,2,0,P|397:182|379:187,1,50,0|0,0:0|0:0,0:0:0:0:
300,148,10829,2,0,P|268:174|262:191,1,50,0|0,0:0|0:0,0:0:0:0:
187,234,11157,2,0,P|190:274|201:289,1,50,0|0,0:0|0:0,0:0:0:0:
437,193,11484,5,2,0:0:0:0:
272,148,11812,1,0,0:0:0:0:
109,98,12140,1,2,0:0:0:0:
353,36,12468,5,0,0:0:0:0:
245,183,12632,1,0,1:0:0:0:
252,204,12714,1,0,1:0:0:0:
262,224,12796,6,0,P|291:246|326:258,1,75,8|0,0:0|1:0,0:0:0:0:
333,50,13124,1,0,1:0:0:0:
144,221,13288,2,0,P|150:257|169:288,1,75,8|0,0:0|1:0,0:0:0:0:
246,85,13616,1,0,1:0:0:0:
47,147,13779,1,8,0:0:0:0:
41,176,13861,1,8,0:3:0:0:
35,205,13943,1,8,0:3:0:0:
30,234,14025,1,8,0:3:0:0:
25,263,14107,6,0,L|29:312,1,50,4|0,1:0|0:0,0:0:0:0:
174,155,14599,1,0,0:0:0:0:
165,245,14763,2,0,L|172:175,1,50,2|0,0:0|0:0,0:0:0:0:
324,330,15255,1,0,0:0:0:0:
315,240,15419,2,0,L|322:310,1,50,2|0,0:0|0:0,0:0:0:0:
449,64,15911,5,2,0:0:0:0:
431,196,16074,1,2,0:0:0:0:
337,95,16238,1,0,1:0:0:0:
339,112,16320,1,0,1:0:0:0:
342,130,16402,1,10,0:0:0:0:
227,94,16566,1,2,1:0:0:0:
512,139,16730,5,6,1:0:0:0:
431,196,16894,1,0,0:0:0:0:
449,294,17058,1,0,0:0:0:0:
318,352,17222,2,0,L|261:348,1,50,0|0,0:0|0:0,0:0:0:0:
425,203,17550,5,0,0:0:0:0:
448,302,17714,1,0,0:0:0:0:
296,229,17878,5,2,0:0:0:0:
315,99,18042,1,2,0:0:0:0:
293,245,18206,1,2,0:0:0:0:
153,170,18370,5,2,0:0:0:0:
190,303,18533,1,2,0:0:0:0:
25,243,18697,6,0,L|32:177,1,62.5,10|0,0:0|1:0,0:0:0:0:
45,92,18943,1,0,1:0:0:0:
45,77,19025,6,0,L|40:39,1,37.5,4|0,0:3|0:0,0:0:0:0:
121,157,19353,5,6,1:0:0:0:
223,99,19517,2,0,L|297:110,1,62.5,0|0,0:0|0:0,0:0:0:0:
432,175,19845,1,2,1:0:0:0:
415,179,19927,1,0,1:0:0:0:
396,182,20009,5,8,0:0:0:0:
458,82,20173,1,2,0:0:0:0:
315,116,20337,1,0,1:0:0:0:
439,266,20501,6,0,L|432:328,1,62.5,6|0,0:3|0:0,0:0:0:0:
257,234,20829,2,0,B|222:278|222:278|234:327,1,93.75,8|0,0:0|0:0,0:0:0:0:
239,337,21156,1,2,1:0:0:0:
181,166,21320,5,8,0:0:0:0:
353,194,21484,1,6,0:3:0:0:
169,164,21648,1,8,0:0:0:0:
419,118,21812,6,0,B|399:95|357:95|357:95|303:124|303:124|258:115,1,175.00000166893,6|0,1:0|1:0,0:0:0:0:
47,69,22304,1,8,0:0:0:0:
236,28,22468,1,0,1:0:0:0:
142,258,22632,5,10,0:0:0:0:
161,76,22796,1,4,0:3:0:0:
0,171,22960,1,8,0:0:0:0:
265,159,23124,6,0,B|327:212|327:212|324:275,1,131.250001251698,6|0,1:0|0:0,0:0:0:0:
317,350,23452,1,8,0:0:0:0:
70,299,23615,2,0,P|98:267|141:257,1,87.500000834465,6|0,0:3|0:0,0:0:0:0:
232,277,23861,1,8,0:0:0:0:
236,302,23943,5,8,0:0:0:0:
217,182,24108,1,8,0:3:0:0:
146,353,24272,1,4,0:3:0:0:
254,98,24435,1,12,0:3:0:0:
400,307,24599,6,0,P|420:321|443:329,1,50,6|0,1:0|0:0,0:0:0:0:
297,280,24927,2,0,P|274:290|255:306,1,50,0|0,0:0|0:0,0:0:0:0:
371,204,25255,2,0,P|373:179|368:154,1,50,0|0,0:0|0:0,0:0:0:0:
400,307,25583,1,0,0:0:0:0:
297,280,25747,1,0,0:0:0:0:
463,227,25911,6,0,L|512:235,1,50,0|0,0:0|0:0,0:0:0:0:
342,169,26238,2,0,L|292:177,1,50,0|0,0:0|0:0,0:0:0:0:
463,111,26566,2,0,L|512:119,1,50,0|0,0:0|0:0,0:0:0:0:
342,53,26894,2,0,L|292:61,1,50,0|0,0:0|0:0,0:0:0:0:
161,163,27222,6,0,B|180:180|180:180|204:185,1,50,2|0,0:0|0:0,0:0:0:0:
65,115,27550,2,0,B|40:122|40:122|24:141,1,50,0|0,0:0|0:0,0:0:0:0:
154,55,27878,2,0,B|159:30|159:30|151:6,1,50,0|0,0:0|0:0,0:0:0:0:
161,163,28206,1,0,0:0:0:0:
65,115,28370,1,0,0:0:0:0:
65,237,28533,6,0,L|56:286,1,50,0|0,0:0|0:0,0:0:0:0:
166,359,28861,2,0,L|174:309,1,50,0|0,0:0|0:0,0:0:0:0:
288,235,29189,2,0,L|279:284,1,50,0|0,0:0|0:0,0:0:0:0:
389,357,29517,2,0,L|397:307,1,50,0|0,0:0|0:0,0:0:0:0:
401,171,29845,6,0,P|418:188|452:171,1,50,2|0,0:0|0:0,0:0:0:0:
297,109,30173,2,0,P|273:115|271:153,1,50,0|0,0:0|0:0,0:0:0:0:
402,49,30501,2,0,P|408:25|376:4,1,50,0|0,0:0|0:0,0:0:0:0:
401,171,30829,1,0,0:0:0:0:
297,109,30992,1,0,0:0:0:0:
209,223,31156,6,0,L|146:233,1,50,0|0,0:0|0:0,0:0:0:0:
82,114,31484,2,0,L|32:106,1,50,0|0,0:0|0:0,0:0:0:0:
191,17,31812,2,0,L|254:7,1,50,0|0,0:0|0:0,0:0:0:0:
318,126,32140,2,0,L|367:133,1,50,0|0,0:0|0:0,0:0:0:0:
480,229,32468,6,0,P|481:206|470:173,1,50,2|0,0:0|0:0,0:0:0:0:
407,349,32796,2,0,P|427:339|450:313,1,50,0|0,0:0|0:0,0:0:0:0:
266,347,33124,2,0,P|284:360|318:366,1,50,0|0,0:0|0:0,0:0:0:0:
197,237,33452,5,0,0:0:0:0:
342,271,33615,1,0,1:0:0:0:
341,253,33697,1,0,1:0:0:0:
339,235,33779,5,8,0:0:0:0:
221,260,33943,1,0,1:0:0:0:
103,285,34107,1,0,1:0:0:0:
267,176,34271,5,8,0:3:0:0:
147,160,34435,1,4,0:3:0:0:
28,141,34599,1,4,0:3:0:0:
226,23,34763,5,8,0:0:0:0:
227,38,34845,1,8,0:3:0:0:
230,53,34927,1,8,0:3:0:0:
231,69,35009,1,8,0:3:0:0:
218,108,35091,6,0,P|236:93|271:90,1,55.0000016784668,4|0,1:0|0:0,0:0:0:0:
466,151,35419,2,0,P|456:129|425:112,1,55.0000016784668,0|0,1:0|0:0,0:0:0:0:
212,250,35747,6,0,P|218:227|245:204,1,55.0000016784668,0|0,1:0|0:0,0:0:0:0:
439,142,36074,2,0,P|418:130|383:133,1,55.0000016784668,0|0,1:0|0:0,0:0:0:0:
320,366,36402,5,4,0:3:0:0:
300,279,36566,1,0,0:0:0:0:
170,340,36730,2,0,L|116:328,1,55.0000016784668,4|0,0:3|0:0,0:0:0:0:
35,303,36976,1,0,0:0:0:0:
19,296,37058,2,0,P|4:272|0:245,1,55.0000016784668,4|0,0:3|0:0,0:0:0:0:
134,152,37386,5,4,1:3:0:0:
0,105,37550,1,0,0:0:0:0:
190,61,37714,6,0,B|211:71|211:71|228:102,1,55.0000016784668,0|0,1:0|0:0,0:0:0:0:
251,305,38042,2,0,B|266:287|266:287|269:252,1,55.0000016784668,0|0,1:0|0:0,0:0:0:0:
302,25,38370,6,0,B|313:45|313:45|309:80,1,55.0000016784668,0|0,1:0|0:0,0:0:0:0:
212,259,38698,2,0,B|234:253|234:253|257:226,1,55.0000016784668,0|0,1:0|0:0,0:0:0:0:
403,101,39025,5,4,0:3:0:0:
252,141,39189,1,0,0:0:0:0:
469,216,39353,5,4,0:3:0:0:
353,188,39517,1,0,0:0:0:0:
347,203,39599,1,0,0:0:0:0:
342,218,39681,2,0,P|342:245|351:270,1,55.0000016784668,4|0,0:3|0:0,0:0:0:0:
447,355,40009,5,4,0:3:0:0:
262,312,40173,1,0,0:0:0:0:
150,361,40337,6,0,P|171:350|167:316,1,55.0000016784668,0|0,1:0|0:0,0:0:0:0:
89,160,40665,2,0,P|111:154|130:183,1,55.0000016784668,0|0,1:0|0:0,0:0:0:0:
16,380,40992,6,0,P|38:385|58:357,1,55.0000016784668,0|0,1:0|0:0,0:0:0:0:
100,187,41320,2,0,P|120:197|116:232,1,55.0000016784668,0|0,1:0|0:0,0:0:0:0:
7,289,41648,5,4,0:3:0:0:
7,289,41812,1,0,0:0:0:0:
159,334,41976,5,4,0:3:0:0:
156,305,42140,1,0,0:0:0:0:
305,228,42304,5,2,1:0:0:0:
291,306,42468,1,0,0:0:0:0:
447,374,42632,5,2,1:0:0:0:
432,279,42796,1,0,0:0:0:0:
491,163,42960,5,0,1:0:0:0:
465,288,43124,1,0,1:0:0:0:
354,134,43288,2,0,L|343:80,1,55.0000016784668,8|0,0:0|1:0,0:0:0:0:
269,297,43615,2,0,L|258:350,2,55.0000016784668,8|4|4,0:0|0:3|0:3,0:0:0:0:
144,93,44107,5,10,0:0:0:0:
244,203,44271,1,0,0:0:0:0:
90,232,44435,1,4,0:3:0:0:
259,93,44599,5,8,0:0:0:0:
76,242,44763,1,0,1:0:0:0:
207,24,44927,1,8,0:0:0:0:
235,9,45009,1,8,0:3:0:0:
266,7,45091,1,8,0:3:0:0:
296,15,45173,1,8,0:3:0:0:
322,33,45255,1,4,0:3:0:0:
338,60,45337,1,4,0:3:0:0:
363,79,45419,1,4,0:3:0:0:
394,86,45501,1,4,0:3:0:0:
423,60,45583,6,0,L|338:60,1,85.0000016212464,12|0,0:0|1:0,0:0:0:0:
94,68,45911,1,0,1:0:0:0:
442,152,46074,6,0,L|352:153,1,85.0000016212464,12|0,0:0|1:0,0:0:0:0:
97,159,46402,1,0,1:0:0:0:
463,244,46566,6,0,L|369:245,1,85.0000016212464,12|0,0:0|1:0,0:0:0:0:
101,252,46894,1,0,1:0:0:0:
483,335,47058,6,0,L|384:336,1,85.0000016212464,12|0,0:0|1:0,0:0:0:0:
104,344,47386,1,0,1:0:0:0:
279,74,47550,5,8,0:0:0:0:
287,104,47631,1,8,0:0:0:0:
285,136,47713,1,8,0:0:0:0:
272,165,47795,1,8,0:0:0:0:
255,192,47877,1,8,0:0:0:0:
237,218,47959,1,8,0:0:0:0:
225,248,48041,1,8,0:0:0:0:
225,279,48123,1,8,0:0:0:0:
235,310,48205,1,2,0:0:0:0:
307,322,50501,6,0,P|277:294|237:298,1,82.5000025177003,2|0,0:0|0:0,0:0:0:0:
188,369,50829,5,14,0:0:0:0:
212,208,50992,1,2,1:0:0:0:
76,116,51156,1,2,1:0:0:0:
225,216,51320,2,0,P|267:203|297:170,1,91.0000030548097,14|0,0:0|1:0,0:0:0:0:
71,213,51648,5,12,0:0:0:0:
215,105,51812,1,2,1:0:0:0:
59,221,51976,1,2,1:0:0:0:
148,45,52140,5,14,0:0:0:0:
137,277,52304,1,2,1:0:0:0:
149,19,52468,1,2,1:0:0:0:
136,305,52632,2,0,P|172:330|225:325,1,91.0000030548097,12|0,0:0|1:0,0:0:0:0:
295,167,52960,1,0,1:0:0:0:
494,305,53124,6,0,L|443:293,1,45.5000015274048,10|0,0:0|0:0,0:0:0:0:
237,247,53288,2,0,L|281:257,1,45.5000015274048,4|4,0:3|0:3,0:0:0:0:
425,378,53452,6,0,P|443:337|434:293,1,91.0000030548097,14|0,0:0|1:0,0:0:0:0:
291,152,53779,1,10,0:0:0:0:
354,328,53943,1,10,0:0:0:0:
451,182,54107,5,2,1:0:0:0:
269,255,54271,1,10,0:0:0:0:
466,175,54435,1,2,0:0:0:0:
224,356,54599,5,14,0:0:0:0:
307,132,54763,1,14,0:0:0:0:
131,264,54927,5,6,0:3:0:0:
399,239,55091,1,6,0:3:0:0:
96,266,55255,2,0,P|52:256|20:224,1,91.0000030548097,14|0,0:0|1:0,0:0:0:0:
232,185,55583,1,0,1:0:0:0:
205,364,55747,6,0,L|211:319,1,45.5000015274048,10|8,0:0|0:3,0:0:0:0:
243,107,55911,2,0,L|237:152,1,45.5000015274048,4|4,0:3|0:3,0:0:0:0:
364,272,56074,6,0,L|454:260,1,91.0000030548097,14|2,0:0|1:0,0:0:0:0:
338,159,56402,1,2,1:0:0:0:
297,337,56566,2,0,P|331:365|378:366,1,91.0000030548097,10|0,0:0|1:0,0:0:0:0:
505,182,56894,5,8,0:0:0:0:
280,250,57058,2,0,B|243:222|243:222|234:179,1,91.0000030548097,2|0,0:0|1:0,0:0:0:0:
449,65,57386,5,14,0:0:0:0:
338,159,57550,1,2,1:0:0:0:
479,203,57714,1,2,1:0:0:0:
466,14,57878,6,0,P|420:23|400:71,1,91.0000030548097,10|0,0:0|1:0,0:0:0:0:
512,236,58206,2,0,P|527:191|495:150,1,91.0000030548097,2|8,0:0|0:0,0:0:0:0:
314,190,58533,1,2,1:0:0:0:
464,346,58697,6,0,L|374:335,1,91.0000030548097,14|0,0:0|1:0,0:0:0:0:
168,306,59025,1,0,1:0:0:0:
418,201,59189,2,0,B|361:211|361:211|343:246,1,91.0000030548097,10|2,0:0|1:0,0:0:0:0:
75,305,59517,2,0,B|132:315|132:315|150:350,1,91.0000030548097,10|2,0:0|1:0,0:0:0:0:
261,100,59845,5,8,0:0:0:0:
250,370,60009,2,0,L|254:263,1,91.0000030548097,14|0,0:0|1:0,0:0:0:0:
257,200,60255,1,0,1:0:0:0:
258,190,60337,5,14,0:0:0:0:
71,260,60501,1,14,0:0:0:0:
154,129,60665,2,0,P|135:87|98:62,1,91.0000030548097,0|0,1:0|1:0,0:0:0:0:
27,347,60992,1,14,0:0:0:0:
58,330,61074,1,8,0:3:0:0:
75,297,61156,1,4,0:3:0:0:
71,260,61238,1,4,0:3:0:0:
43,234,61320,6,0,B|34:187|34:187|62:150,1,91.0000030548097,14|2,0:0|1:0,0:0:0:0:
175,21,61648,1,0,1:0:0:0:
128,209,61812,5,10,0:0:0:0:
80,43,61976,1,2,1:0:0:0:
248,86,62140,1,14,0:0:0:0:
45,159,62303,5,2,1:0:0:0:
266,78,62468,1,2,1:0:0:0:
23,170,62632,6,0,P|5:211|14:255,1,91.0000030548097,14|0,0:0|1:0,0:0:0:0:
214,186,62960,1,0,1:0:0:0:
46,342,63124,2,0,B|100:321|100:321|130:332,1,91.0000030548097,14|0,0:0|0:0,0:0:0:0:
228,384,63452,1,0,1:0:0:0:
361,244,63615,2,0,L|367:153,1,91.0000030548097,8|0,0:0|1:0,0:0:0:0:
373,71,63861,1,0,1:0:0:0:
373,51,63943,6,0,P|338:22|294:21,1,91.0000030548097,14|0,0:0|1:0,0:0:0:0:
215,149,64271,1,0,1:0:0:0:
451,126,64435,2,0,B|480:84|480:84|479:44,1,91.0000030548097,8|0,0:0|1:0,0:0:0:0:
354,247,64763,2,0,L|360:337,2,91.0000030548097,8|0|0,0:0|1:0|1:0,0:0:0:0:
143,64,65255,6,0,B|119:101|119:101|120:152,1,91.0000030548097,14|0,0:0|1:0,0:0:0:0:
130,272,65583,1,0,1:0:0:0:
219,125,65747,5,14,0:0:0:0:
49,216,65910,1,0,1:0:0:0:
49,216,66074,1,0,1:0:0:0:
219,279,66238,1,10,0:0:0:0:
182,281,66320,1,0,0:0:0:0:
156,306,66402,1,4,0:3:0:0:
154,342,66484,1,4,0:3:0:0:
172,372,66566,6,0,B|205:354|205:354|259:352,1,91.0000030548097,14|2,0:0|1:0,0:0:0:0:
432,347,66894,1,2,1:0:0:0:
269,195,67058,5,8,0:0:0:0:
344,370,67222,1,2,1:0:0:0:
162,232,67386,5,10,0:0:0:0:
353,264,67550,1,2,1:0:0:0:
105,330,67714,5,2,1:0:0:0:
375,253,67878,2,0,L|383:162,1,91.0000030548097,14|0,0:0|1:0,0:0:0:0:
395,50,68206,1,0,1:0:0:0:
275,269,68370,2,0,P|285:313|317:345,1,91.0000030548097,10|0,0:0|1:0,0:0:0:0:
475,249,68698,1,0,1:0:0:0:
266,163,68861,5,10,0:0:0:0:
446,126,69025,1,4,0:3:0:0:
447,144,69107,1,4,0:3:0:0:
441,161,69189,6,0,P|401:138|356:132,1,91.0000030548097,14|0,0:0|1:0,0:0:0:0:
200,235,69517,1,2,1:0:0:0:
374,31,69681,2,0,P|329:36|289:57,1,91.0000030548097,8|0,0:0|1:0,0:0:0:0:
215,344,70009,2,0,B|232:300|232:300|213:260,1,91.0000030548097,10|0,0:0|1:0,0:0:0:0:
19,125,70337,5,12,0:0:0:0:
279,159,70501,2,0,P|315:185|337:225,1,91.0000030548097,12|2,0:0|1:0,0:0:0:0:
6,229,70829,5,12,0:0:0:0:
264,60,70992,2,0,P|309:60|349:80,1,91.0000030548097,12|2,0:0|1:0,0:0:0:0:
68,309,71320,5,12,0:0:0:0:
180,13,71484,1,8,0:0:0:0:
218,16,71565,1,8,0:3:0:0:
243,46,71647,1,8,0:3:0:0:
240,84,71729,1,8,0:3:0:0:
211,110,71811,5,6,0:0:0:0:
194,206,73615,1,0,1:0:0:0:
195,220,73697,1,0,1:0:0:0:
196,234,73779,5,10,0:0:0:0:
88,175,73943,1,0,1:0:0:0:
255,138,74107,5,10,0:0:0:0:
88,272,74271,1,0,1:0:0:0:
312,336,74435,5,4,0:0:0:0:
306,174,75583,1,0,1:0:0:0:
305,160,75665,1,0,1:0:0:0:
304,146,75747,5,10,0:0:0:0:
402,215,75911,1,0,1:0:0:0:
378,70,76075,1,8,0:3:0:0:
405,232,76239,1,4,0:3:0:0:
215,170,76402,5,10,0:0:0:0:
452,133,76566,1,8,0:3:0:0:
469,137,76648,1,8,0:3:0:0:
485,141,76730,2,0,P|508:169|513:206,1,75,4|0,0:3|0:0,0:0:0:0:
467,316,77058,5,4,0:0:0:0:
269,257,77550,1,0,1:0:0:0:
279,237,77632,1,0,1:0:0:0:
287,216,77714,2,0,L|282:153,1,62.5,8|0,0:0|0:0,0:0:0:0:
272,43,78042,1,0,1:0:0:0:
115,120,78206,6,0,L|40:109,1,62.5,0|2,1:0|0:0,0:0:0:0:
189,194,78533,2,0,B|115:224|115:224|117:269,1,125,8|0,0:0|1:0,0:0:0:0:
119,291,78943,1,0,1:0:0:0:
121,312,79025,5,8,0:0:0:0:
27,207,79189,1,4,0:3:0:0:
210,283,79353,1,8,0:0:0:0:
71,384,79517,6,0,P|131:331|212:331,1,165.000001573563,4|0,1:0|1:0,0:0:0:0:
377,202,80009,2,0,L|365:118,1,82.5000007867813,8|0,0:0|1:0,0:0:0:0:
456,310,80337,5,8,0:0:0:0:
283,237,80501,1,4,0:3:0:0:
480,167,80665,1,8,0:0:0:0:
254,245,80829,6,0,P|207:205|199:147,1,123.750001180172,4|0,1:0|0:0,0:0:0:0:
256,13,81156,1,8,0:0:0:0:
288,10,81237,1,8,0:0:0:0:
312,31,81319,1,8,0:0:0:0:
315,63,81401,1,8,0:0:0:0:
294,87,81483,1,8,0:0:0:0:
262,90,81565,1,8,0:0:0:0:
237,70,81648,5,8,0:3:0:0:
229,51,81729,1,8,0:3:0:0:
216,35,81811,1,8,0:3:0:0:
199,24,81893,1,8,0:3:0:0:
179,17,81975,1,4,0:3:0:0:
159,17,82057,1,4,0:3:0:0:
139,22,82139,1,4,0:3:0:0:
121,32,82221,1,4,0:3:0:0:
101,66,82304,6,0,L|183:66,1,82.5000007867813,12|0,0:0|1:0,0:0:0:0:
438,76,82633,1,0,1:0:0:0:
80,157,82796,6,0,L|169:158,1,82.5000007867813,12|0,0:0|1:0,0:0:0:0:
435,167,83124,1,0,1:0:0:0:
57,249,83288,6,0,L|148:250,1,82.5000007867813,12|0,0:0|1:0,0:0:0:0:
431,260,83615,1,0,1:0:0:0:
35,340,83779,6,0,L|133:340,1,82.5000007867813,12|0,0:0|1:0,0:0:0:0:
428,352,84107,1,0,1:0:0:0:
233,71,84271,5,8,0:0:0:0:
224,101,84352,1,8,0:0:0:0:
226,133,84434,1,8,0:0:0:0:
239,162,84516,1,8,0:0:0:0:
256,189,84598,1,8,0:0:0:0:
274,215,84680,1,8,0:0:0:0:
286,245,84762,1,8,0:0:0:0:
286,276,84844,1,8,0:0:0:0:
276,307,84927,6,0,L|338:300,2,50,2|0|2,0:0|0:0|0:0,0:0:0:0:
149,265,85419,1,2,0:0:0:0:
180,364,85583,1,2,0:0:0:0:
145,255,85747,1,2,0:0:0:0:
73,341,85911,2,0,L|16:348,1,50,2|2,0:0|0:0,0:0:0:0:
40,203,86238,5,2,0:0:0:0:
53,247,86402,1,0,0:0:0:0:
141,161,86566,5,2,0:0:0:0:
127,119,86730,1,0,0:0:0:0:
114,75,86894,1,2,0:0:0:0:
29,218,87058,5,0,0:0:0:0:
43,260,87222,1,2,0:0:0:0:
72,225,87386,1,0,0:0:0:0:
56,189,87550,6,0,B|29:218|29:218|43:258|43:258|8:292|8:292|29:340,1,175,2|0,0:0|1:0,0:0:0:0:
30,344,88779,1,0,1:0:0:0:
35,355,88861,5,8,0:0:0:0:
140,304,89025,1,0,1:0:0:0:
256,314,89189,1,0,1:0:0:0:
67,199,89353,5,8,0:0:0:0:
156,274,89517,1,4,0:3:0:0:
194,384,89681,1,4,0:3:0:0:
231,155,89845,5,8,0:3:0:0:
186,363,90009,1,4,0:3:0:0:
254,68,90173,6,0,P|293:46|338:45,1,91.0000030548097,14|2,0:0|1:0,0:0:0:0:
315,236,90500,1,2,1:0:0:0:
158,87,90665,2,0,B|157:44|157:44|186:4,1,91.0000030548097,14|0,0:0|1:0,0:0:0:0:
401,189,90992,5,14,0:0:0:0:
219,151,91156,1,2,1:0:0:0:
416,193,91320,1,2,1:0:0:0:
192,241,91484,5,14,0:0:0:0:
407,97,91648,1,2,1:0:0:0:
162,262,91812,1,2,1:0:0:0:
435,78,91976,2,0,P|479:87|505:123,1,91.0000030548097,14|0,0:0|1:0,0:0:0:0:
324,261,92304,1,0,1:0:0:0:
283,71,92468,6,0,L|295:122,1,45.5000015274048,10|0,0:0|0:0,0:0:0:0:
341,328,92632,2,0,L|331:284,1,45.5000015274048,4|4,0:3|0:3,0:0:0:0:
274,37,92796,6,0,B|234:19|234:19|187:27,1,91.0000030548097,14|0,0:0|1:0,0:0:0:0:
97,232,93123,1,10,0:0:0:0:
273,151,93287,1,10,0:0:0:0:
83,109,93451,5,2,1:0:0:0:
228,243,93615,1,10,0:0:0:0:
70,98,93779,1,2,1:0:0:0:
113,330,93943,5,14,0:0:0:0:
184,103,94107,1,14,0:0:0:0:
224,356,94271,5,6,0:3:0:0:
179,73,94435,1,6,0:3:0:0:
230,384,94599,2,0,P|273:374|305:342,1,91.0000030548097,10|0,0:0|1:0,0:0:0:0:
254,211,94927,1,0,1:0:0:0:
432,236,95091,6,0,L|387:230,1,45.5000015274048,10|8,0:0|0:3,0:0:0:0:
175,198,95255,2,0,L|220:204,1,45.5000015274048,4|4,0:3|0:3,0:0:0:0:
465,242,95419,6,0,P|496:209|502:165,1,91.0000030548097,14|2,0:0|1:0,0:0:0:0:
360,88,95746,1,2,1:0:0:0:
396,313,95910,2,0,B|425:340|425:340|477:342,1,91.0000030548097,10|0,0:0|0:0,0:0:0:0:
490,134,96238,5,8,0:0:0:0:
306,258,96402,2,0,B|215:251,1,91.0000030548097,2|0,1:0|1:0,0:0:0:0:
35,225,96730,5,14,0:0:0:0:
210,154,96894,1,2,1:0:0:0:
163,332,97058,1,2,1:0:0:0:
223,125,97222,6,0,P|215:82|177:59,1,91.0000030548097,10|0,0:0|1:0,0:0:0:0:
2,309,97550,2,0,B|51:287|51:287|86:299,1,91.0000030548097,2|8,1:0|0:0,0:0:0:0:
269,377,97877,1,2,1:0:0:0:
262,345,97960,1,0,0:0:0:0:
256,313,98042,6,0,L|270:217,1,91.0000030548097,14|0,0:0|1:0,0:0:0:0:
294,69,98369,1,0,1:0:0:0:
445,154,98533,2,0,P|400:155|369:187,1,91.0000030548097,10|2,0:0|1:0,0:0:0:0:
99,220,98861,2,0,P|143:221|174:253,1,91.0000030548097,10|2,0:0|1:0,0:0:0:0:
294,112,99189,5,10,0:0:0:0:
270,374,99353,2,0,B|246:326|246:326|252:288,1,91.0000030548097,14|0,0:0|1:0,0:0:0:0:
394,169,99681,5,10,0:0:0:0:
185,225,99845,1,10,0:0:0:0:
230,48,100009,2,0,P|266:22|311:24,1,91.0000030548097,0|8,1:0|0:0,0:0:0:0:
494,268,100336,1,10,0:0:0:0:
457,270,100418,1,8,0:3:0:0:
428,247,100500,1,4,0:3:0:0:
420,210,100582,1,4,0:3:0:0:
432,176,100665,6,0,B|401:140|401:140|355:134,1,91.0000030548097,14|2,0:0|1:0,0:0:0:0:
167,112,100992,1,2,1:0:0:0:
485,35,101156,2,0,P|440:35|397:51,1,91.0000030548097,14|0,0:0|0:0,0:0:0:0:
310,256,101484,5,10,0:0:0:0:
278,63,101647,1,2,1:0:0:0:
444,149,101812,1,2,1:0:0:0:
186,169,101976,5,14,0:0:0:0:
461,148,102140,1,2,1:0:0:0:
273,358,102304,1,2,1:0:0:0:
322,78,102468,6,0,B|341:117|341:117|333:163,1,91.0000030548097,14|0,0:0|1:0,0:0:0:0:
284,331,102796,1,0,1:0:0:0:
470,276,102960,5,10,0:0:0:0:
247,149,103124,1,4,0:3:0:0:
257,184,103205,1,4,0:3:0:0:
267,219,103288,6,0,P|300:248|344:250,2,91.0000030548097,14|2|0,0:0|1:0|1:0,0:0:0:0:
215,40,103779,1,14,0:0:0:0:
120,206,103943,1,2,1:0:0:0:
225,24,104107,1,14,0:0:0:0:
110,222,104271,1,2,1:0:0:0:
335,103,104435,5,14,0:0:0:0:
49,132,104599,1,14,0:0:0:0:
362,100,104763,5,6,0:3:0:0:
24,135,104927,1,6,0:3:0:0:
355,232,105091,2,0,P|396:214|418:176,1,91.0000030548097,10|0,0:0|1:0,0:0:0:0:
196,114,105418,1,0,1:0:0:0:
239,353,105583,5,8,0:0:0:0:
119,228,105747,1,4,0:3:0:0:
101,230,105829,1,4,0:3:0:0:
83,233,105911,5,14,0:0:0:0:
209,262,106074,1,2,1:0:0:0:
37,335,106238,1,2,1:0:0:0:
175,154,106402,2,0,P|172:108|151:69,1,91.0000030548097,10|0,0:0|1:0,0:0:0:0:
51,321,106730,1,8,0:0:0:0:
224,244,106894,2,0,B|258:213|258:213|270:169,1,91.0000030548097,2|0,1:0|1:0,0:0:0:0:
22,90,107222,5,14,0:0:0:0:
175,154,107386,1,2,1:0:0:0:
26,211,107550,1,2,1:0:0:0:
155,27,107714,6,0,P|196:6|241:6,1,91.0000030548097,14|0,0:0|1:0,0:0:0:0:
466,180,108042,2,0,P|455:136|426:101,1,91.0000030548097,2|8,1:0|0:0,0:0:0:0:
177,312,108370,1,0,1:0:0:0:
203,329,108452,1,0,1:0:0:0:
234,323,108533,6,0,B|266:289|266:289|273:245,1,91.0000030548097,14|0,0:0|1:0,0:0:0:0:
290,96,108861,1,0,1:0:0:0:
379,238,109025,5,10,0:0:0:0:
210,164,109189,1,0,1:0:0:0:
413,207,109353,5,10,0:0:0:0:
173,195,109517,1,0,1:0:0:0:
436,107,109681,5,10,0:0:0:0:
342,321,109845,2,0,P|303:328|299:288,1,91.0000030548097,10|0,0:0|1:0,0:0:0:0:
346,90,110173,5,10,0:0:0:0:
437,337,110337,2,0,P|476:344|480:304,1,91.0000030548097,10|0,0:0|1:0,0:0:0:0:
450,78,110665,5,10,0:0:0:0:
332,339,110829,1,10,0:0:0:0:
296,335,110911,1,0,0:0:0:0:
287,301,110992,1,4,0:3:0:0:
316,281,111074,1,4,0:3:0:0:
345,304,111156,5,14,0:0:0:0:
180,253,111320,1,2,1:0:0:0:
340,191,111484,1,2,1:0:0:0:
100,283,111648,2,0,P|63:256|50:214,1,91.0000030548097,14|0,0:0|1:0,0:0:0:0:
277,40,111976,2,0,L|271:130,1,91.0000030548097,14|0,0:0|1:0,0:0:0:0:
259,331,112304,1,0,1:0:0:0:
483,216,112468,6,0,B|452:200|452:200|396:209,1,91.0000030548097,14|2,0:0|1:0,0:0:0:0:
218,241,112796,1,2,1:0:0:0:
489,362,112960,2,0,P|469:321|432:296,1,91.0000030548097,14|0,0:0|1:0,0:0:0:0:
238,338,113288,1,0,1:0:0:0:
428,188,113452,5,10,0:0:0:0:
227,88,113615,1,4,0:3:0:0:
227,124,113697,1,4,0:3:0:0:
246,155,113779,6,0,P|281:126|324:114,1,91.0000030548097,14|2,0:0|1:0,0:0:0:0:
512,147,114107,1,2,1:0:0:0:
343,246,114271,1,8,0:0:0:0:
442,55,114435,5,2,1:0:0:0:
426,204,114599,1,8,0:0:0:0:
443,37,114763,1,2,1:0:0:0:
488,281,114927,5,14,0:0:0:0:
344,117,115091,1,14,0:0:0:0:
399,345,115255,5,6,0:3:0:0:
437,73,115419,1,6,0:3:0:0:
395,372,115583,2,0,P|352:386|310:376,1,91.0000030548097,10|0,0:0|1:0,0:0:0:0:
258,218,115911,1,0,1:0:0:0:
480,239,116074,6,0,L|427:233,1,45.5000015274048,8|0,0:0|0:0,0:0:0:0:
181,208,116238,2,0,L|225:212,1,45.5000015274048,4|4,0:3|0:3,0:0:0:0:
444,110,116402,6,0,B|387:122|387:122|373:152,1,91.0000030548097,14|0,0:0|1:0,0:0:0:0:
325,292,116730,1,0,1:0:0:0:
203,120,116894,2,0,L|195:26,1,91.0000030548097,14|0,0:0|1:0,0:0:0:0:
79,239,117222,1,8,0:0:0:0:
32,106,117386,2,0,P|76:106|105:140,1,91.0000030548097,2|0,1:0|1:0,0:0:0:0:
41,338,117714,5,14,0:0:0:0:
196,268,117878,1,2,1:0:0:0:
0,221,118042,1,2,1:0:0:0:
227,277,118206,2,0,P|270:267|301:234,1,91.0000030548097,10|0,0:0|1:0,0:0:0:0:
238,6,118533,2,0,P|224:48|237:91,1,91.0000030548097,2|8,1:0|0:0,0:0:0:0:
494,151,118861,1,0,1:0:0:0:
466,134,118943,1,0,1:0:0:0:
435,123,119025,6,0,B|400:170|400:170|404:202,1,91.0000030548097,14|0,0:0|1:0,0:0:0:0:
434,347,119353,1,0,1:0:0:0:
157,195,119517,2,0,B|201:183|201:183|231:216,1,91.0000030548097,10|2,0:0|1:0,0:0:0:0:
453,256,119845,2,0,B|409:244|409:244|378:277,1,91.0000030548097,10|2,0:0|1:0,0:0:0:0:
271,107,120173,5,10,0:0:0:0:
305,377,120337,2,0,L|292:284,1,91.0000030548097,14|0,0:0|1:0,0:0:0:0:
436,121,120665,1,10,0:0:0:0:
226,213,120829,1,2,1:0:0:0:
508,225,120992,5,8,0:0:0:0:
470,234,121073,1,8,0:0:0:0:
431,231,121155,1,8,0:0:0:0:
395,215,121237,1,8,0:0:0:0:
361,195,121319,1,8,0:0:0:0:
329,172,121401,1,8,0:0:0:0:
293,157,121483,1,8,0:0:0:0:
254,157,121565,1,8,0:0:0:0:
216,168,121648,6,0,L|231:267,1,85.0000016212464,14|2,0:0|1:0,0:0:0:0:
65,131,121976,1,10,0:0:0:0:
145,291,122140,2,0,L|130:390,1,85.0000016212464,2|0,1:0|1:0,0:0:0:0:
172,90,122468,5,2,1:0:0:0:
69,245,122632,1,10,0:0:0:0:
259,186,122796,1,2,1:0:0:0:
37,262,122960,6,0,B|9:226|9:226|8:186,1,85.0000016212464,6|2,1:0|1:0,0:0:0:0:
201,49,123288,1,10,0:0:0:0:
157,257,123452,2,0,L|167:341,1,85.0000016212464,2|0,1:0|0:0,0:0:0:0:
136,117,123779,1,0,1:0:0:0:
294,227,123943,2,0,P|315:190|318:148,1,85.0000016212464,10|2,0:0|1:0,0:0:0:0:
70,192,124271,5,2,1:0:0:0:
232,164,124435,1,2,1:0:0:0:
125,73,124599,5,10,0:0:0:0:
169,280,124763,1,2,1:0:0:0:
30,164,124927,5,2,1:0:0:0:
268,195,125091,1,2,1:0:0:0:
60,288,125255,1,10,0:0:0:0:
339,144,125419,6,0,P|405:165|350:206,1,170.000003242493,6|2,1:0|1:0,0:0:0:0:
103,178,125911,1,10,0:0:0:0:
250,273,126074,2,0,B|266:314|266:314|260:356,2,85.0000016212464,2|0|0,1:0|1:0|1:0,0:0:0:0:
140,67,126566,1,10,0:0:0:0:
228,234,126730,1,0,1:0:0:0:
233,209,126812,1,0,1:0:0:0:
238,184,126894,5,12,0:0:0:0:
76,237,127058,1,0,1:0:0:0:
326,146,127222,5,8,0:0:0:0:
165,70,127386,1,0,1:0:0:0:
408,179,127550,2,0,P|449:169|483:143,1,85.0000016212464,8|0,0:0|1:0,0:0:0:0:
151,167,127878,5,10,0:0:0:0:
340,54,128042,1,2,1:0:0:0:
112,143,128206,5,14,0:0:0:0:
382,78,128370,1,2,1:0:0:0:
84,110,128533,5,8,0:0:0:0:
296,134,128697,1,0,1:0:0:0:
62,213,128861,5,8,0:0:0:0:
300,105,129025,1,0,1:0:0:0:
106,303,129189,5,8,0:0:0:0:
303,75,129353,1,0,1:0:0:0:
300,105,129435,1,0,0:0:0:0:
296,134,129517,6,0,P|315:158|370:161,1,72.5000022125245,12|0,0:0|1:0,0:0:0:0:
473,85,129845,1,0,1:0:0:0:
489,293,130009,5,8,0:0:0:0:
455,127,130173,1,0,1:0:0:0:
485,275,130336,1,0,1:0:0:0:
248,170,130501,6,0,P|280:188|314:181,1,72.5000022125245,12|0,0:0|1:0,0:0:0:0:
473,85,130829,1,0,1:0:0:0:
489,293,130993,5,8,0:0:0:0:
455,127,131156,1,0,1:0:0:0:
485,275,131320,1,0,1:0:0:0:
254,220,131484,5,8,0:0:0:0:
289,220,131565,1,8,0:0:0:0:
322,205,131647,1,8,0:0:0:0:
345,177,131729,1,8,0:0:0:0:
354,143,131811,1,8,0:0:0:0:
347,107,131893,1,8,0:0:0:0:
331,81,131976,1,8,0:0:0:0:
305,67,132058,1,8,0:0:0:0:
276,64,132140,1,4,0:0:0:0:
