osu file format v14

[General]
AudioFilename: audio.mp3
AudioLeadIn: 0
PreviewTime: 48206
Countdown: 1
SampleSet: Normal
StackLeniency: 0.7
Mode: 1
LetterboxInBreaks: 0
WidescreenStoryboard: 0

[Editor]
DistanceSpacing: 2.5
BeatDivisor: 4
GridSize: 8
TimelineZoom: 2.799999

[Metadata]
Title:Itazura Fiction
TitleUnicode:悪戯フィクション
Artist:MY FIRST STORY
ArtistUnicode:MY FIRST STORY
Creator:Chromoxx
Version:Oni
Source:
Tags:j-rock jrock antithese mfs
BeatmapID:1223398
BeatmapSetID:577936

[Difficulty]
HPDrainRate:6
CircleSize:5
OverallDifficulty:6
ApproachRate:5
SliderMultiplier:1.4
SliderTickRate:1

[Events]
//Background and Video events
0,0,"itazura.jpg",0,100
//Break Periods
//Storyboard Layer 0 (Background)
//Storyboard Layer 1 (Fail)
//Storyboard Layer 2 (Pass)
//Storyboard Layer 3 (Foreground)
//Storyboard Sound Samples

[TimingPoints]
993,327.868852459016,4,1,0,40,1,0
3533,-100,4,1,0,70,0,0
12550,-100,4,1,0,80,0,0
24763,-100,4,1,0,70,0,0
33533,-100,4,1,0,80,0,0
50829,-100,4,1,0,90,0,1
71812,-100,4,1,0,90,0,0
71976,-100,4,1,0,80,0,0
87550,-50,4,1,0,40,0,0
88615,-100,4,1,0,80,0,0
90173,-100,4,1,0,90,0,1
111074,-100,4,1,0,100,0,1
132058,-100,4,1,0,100,0,0

[HitObjects]
256,192,2304,12,0,3452,0:0:0:0:
280,192,3615,5,4,0:0:0:0:
304,216,4271,1,0,0:0:0:0:
320,224,4599,1,0,0:0:0:0:
320,224,4763,1,0,0:0:0:0:
304,216,4927,1,8,0:0:0:0:
272,144,5583,1,0,0:0:0:0:
272,144,5911,1,0,0:0:0:0:
304,216,6238,1,8,0:0:0:0:
352,176,6894,1,0,0:0:0:0:
272,128,7222,1,0,0:0:0:0:
272,128,7386,1,0,0:0:0:0:
304,144,7550,1,0,0:0:0:0:
304,144,7878,1,8,0:0:0:0:
304,144,8206,1,0,0:0:0:0:
384,168,8861,1,0,0:0:0:0:
288,96,9517,1,8,0:0:0:0:
344,152,9845,1,0,0:0:0:0:
256,112,10173,1,0,0:0:0:0:
320,152,10829,1,8,0:0:0:0:
272,136,11156,1,8,0:0:0:0:
240,136,11484,1,0,0:0:0:0:
224,72,12632,1,0,0:0:0:0:
224,72,12714,1,0,0:0:0:0:
224,72,12796,1,8,0:0:0:0:
272,208,12960,1,0,0:0:0:0:
272,208,13124,1,0,0:0:0:0:
272,208,13288,1,8,0:0:0:0:
136,96,13452,1,0,0:0:0:0:
152,96,13615,1,0,0:0:0:0:
344,176,13779,1,8,0:0:0:0:
328,168,13861,1,0,0:0:0:0:
328,168,13943,1,0,0:0:0:0:
328,168,14025,1,0,0:0:0:0:
328,168,14107,1,0,0:0:0:0:
384,232,16238,1,0,0:0:0:0:
384,232,16320,1,0,0:0:0:0:
384,232,16402,1,8,0:0:0:0:
384,232,16566,1,0,0:0:0:0:
384,232,16730,1,4,0:0:0:0:
424,280,18697,1,8,0:0:0:0:
400,264,18861,1,0,0:0:0:0:
352,216,18943,1,0,0:0:0:0:
352,216,19025,1,0,0:0:0:0:
352,216,19353,1,4,0:0:0:0:
368,256,19845,1,0,0:0:0:0:
368,256,19927,1,0,0:0:0:0:
256,128,20009,1,8,0:0:0:0:
360,208,20337,1,0,0:0:0:0:
360,208,20501,1,0,0:0:0:0:
360,208,20829,1,8,0:0:0:0:
360,208,21156,1,0,0:0:0:0:
320,152,21320,1,8,0:0:0:0:
320,152,21484,1,0,0:0:0:0:
320,152,21648,1,8,0:0:0:0:
320,152,21812,1,4,0:0:0:0:
392,176,22140,1,0,0:0:0:0:
384,200,22304,1,8,0:0:0:0:
384,200,22468,1,0,0:0:0:0:
384,200,22632,1,8,0:0:0:0:
232,104,22796,1,0,0:0:0:0:
232,104,22960,1,8,0:0:0:0:
232,104,23124,1,4,0:0:0:0:
352,192,23452,1,8,0:0:0:0:
352,184,23615,1,0,0:0:0:0:
352,192,23779,1,0,0:0:0:0:
320,208,23861,1,0,0:0:0:0:
296,192,23943,1,8,0:0:0:0:
328,208,24107,1,0,0:0:0:0:
352,208,24271,1,8,0:0:0:0:
384,200,24435,1,0,0:0:0:0:
384,200,24517,1,0,0:0:0:0:
384,200,24599,1,0,0:0:0:0:
200,160,24927,1,8,0:0:0:0:
208,136,25255,1,8,0:0:0:0:
208,136,25583,1,8,0:0:0:0:
352,264,25911,1,0,0:0:0:0:
368,160,26238,1,8,0:0:0:0:
352,264,26566,1,8,0:0:0:0:
376,160,26894,1,8,0:0:0:0:
320,208,27058,1,8,0:0:0:0:
208,168,27222,1,0,0:0:0:0:
248,192,27550,1,0,0:0:0:0:
248,176,27878,1,8,0:0:0:0:
248,176,28206,1,0,0:0:0:0:
248,176,28533,1,0,0:0:0:0:
240,144,28861,1,0,0:0:0:0:
240,144,29189,1,8,0:0:0:0:
240,144,29517,1,0,0:0:0:0:
232,144,29681,1,0,0:0:0:0:
232,144,29845,1,0,0:0:0:0:
224,128,30173,1,0,0:0:0:0:
224,128,30501,1,8,0:0:0:0:
224,128,30829,1,8,0:0:0:0:
224,128,31156,1,0,0:0:0:0:
256,208,31484,1,0,0:0:0:0:
256,208,31812,1,8,0:0:0:0:
344,128,32140,1,8,0:0:0:0:
344,128,32468,1,0,0:0:0:0:
344,128,32796,1,0,0:0:0:0:
336,152,33124,1,8,0:0:0:0:
360,144,33452,1,0,0:0:0:0:
360,144,33615,1,0,0:0:0:0:
360,144,33697,1,0,0:0:0:0:
352,176,33779,1,8,0:0:0:0:
296,136,33943,1,0,0:0:0:0:
248,248,34107,1,0,0:0:0:0:
296,136,34271,1,0,0:0:0:0:
328,248,34435,1,8,0:0:0:0:
352,272,34599,1,0,0:0:0:0:
352,192,34763,1,8,0:0:0:0:
352,192,34845,1,0,0:0:0:0:
352,192,34927,1,0,0:0:0:0:
352,192,35009,1,0,0:0:0:0:
352,192,35091,1,0,0:0:0:0:
256,136,35419,1,8,0:0:0:0:
248,144,35583,1,0,0:0:0:0:
248,152,35665,1,0,0:0:0:0:
248,152,35747,1,0,0:0:0:0:
248,152,35911,1,0,0:0:0:0:
248,152,36074,1,8,0:0:0:0:
248,152,36402,1,0,0:0:0:0:
320,216,36566,1,0,0:0:0:0:
344,168,36730,1,8,0:0:0:0:
320,224,36894,1,0,0:0:0:0:
288,192,36976,1,0,0:0:0:0:
296,136,37058,1,0,0:0:0:0:
360,232,37222,1,0,0:0:0:0:
312,136,37386,1,8,0:0:0:0:
312,144,37550,1,8,0:0:0:0:
304,144,37714,1,0,0:0:0:0:
264,160,38042,1,8,0:0:0:0:
264,160,38206,1,0,0:0:0:0:
264,160,38288,1,0,0:0:0:0:
264,160,38370,1,8,0:0:0:0:
264,160,38533,1,0,0:0:0:0:
264,160,38697,1,8,0:0:0:0:
264,160,39025,1,0,0:0:0:0:
288,120,39189,1,0,0:0:0:0:
288,120,39353,1,8,0:0:0:0:
288,120,39517,1,0,0:0:0:0:
288,120,39599,1,0,0:0:0:0:
288,120,39681,1,8,0:0:0:0:
288,120,39845,1,0,0:0:0:0:
288,120,40009,1,8,0:0:0:0:
288,120,40173,1,8,0:0:0:0:
288,120,40337,1,0,0:0:0:0:
312,216,40665,1,8,0:0:0:0:
312,216,40829,1,8,0:0:0:0:
328,232,40911,1,8,0:0:0:0:
328,224,40992,1,0,0:0:0:0:
328,224,41156,1,0,0:0:0:0:
296,256,41320,1,8,0:0:0:0:
352,240,41648,1,0,0:0:0:0:
352,240,41812,1,0,0:0:0:0:
352,240,41976,1,8,0:0:0:0:
360,224,42140,1,0,0:0:0:0:
360,224,42222,1,0,0:0:0:0:
392,224,42304,1,8,0:0:0:0:
392,224,42468,1,0,0:0:0:0:
400,216,42632,1,8,0:0:0:0:
280,136,42796,1,8,0:0:0:0:
400,200,42960,1,0,0:0:0:0:
400,200,43124,1,0,0:0:0:0:
400,200,43288,1,8,0:0:0:0:
320,240,43452,1,0,0:0:0:0:
320,232,43615,1,8,0:0:0:0:
320,232,43779,1,0,0:0:0:0:
320,232,43943,1,0,0:0:0:0:
344,248,44107,1,8,0:0:0:0:
352,240,44271,1,0,0:0:0:0:
360,224,44353,1,0,0:0:0:0:
368,224,44435,1,0,0:0:0:0:
368,160,44599,1,8,0:0:0:0:
376,144,44763,1,0,0:0:0:0:
280,176,44927,1,8,0:0:0:0:
280,176,45009,1,0,0:0:0:0:
280,176,45091,1,0,0:0:0:0:
288,176,45173,1,0,0:0:0:0:
288,176,45255,1,8,0:0:0:0:
288,176,45337,1,0,0:0:0:0:
288,176,45419,1,8,0:0:0:0:
192,136,45583,1,4,0:0:0:0:
216,112,45747,1,8,0:0:0:0:
216,112,45829,1,8,0:0:0:0:
216,104,45911,1,8,0:0:0:0:
216,104,46074,1,4,0:0:0:0:
216,104,46238,1,8,0:0:0:0:
216,104,46320,1,8,0:0:0:0:
216,104,46402,1,8,0:0:0:0:
216,96,46566,1,4,0:0:0:0:
216,96,46730,1,8,0:0:0:0:
328,200,46812,1,8,0:0:0:0:
432,288,46894,1,0,0:0:0:0:
360,200,47058,1,8,0:0:0:0:
360,200,47140,1,8,0:0:0:0:
352,184,47222,1,8,0:0:0:0:
288,184,47386,1,0,0:0:0:0:
240,176,47550,1,8,0:0:0:0:
248,176,47632,1,8,0:0:0:0:
248,184,47714,1,8,0:0:0:0:
248,184,47796,1,8,0:0:0:0:
248,184,47878,1,8,0:0:0:0:
248,184,47960,1,8,0:0:0:0:
248,184,48042,1,8,0:0:0:0:
248,184,48124,1,8,0:0:0:0:
248,184,48206,1,0,0:0:0:0:
352,232,50829,1,8,0:0:0:0:
368,224,50911,1,8,0:0:0:0:
368,208,50992,1,0,0:0:0:0:
352,200,51156,1,0,0:0:0:0:
408,264,51320,1,8,0:0:0:0:
408,264,51402,1,8,0:0:0:0:
408,264,51484,1,0,0:0:0:0:
272,152,51648,1,8,0:0:0:0:
272,296,51812,1,0,0:0:0:0:
248,288,51894,1,0,0:0:0:0:
272,296,51976,1,0,0:0:0:0:
280,160,52140,1,8,0:0:0:0:
416,248,52304,1,0,0:0:0:0:
416,248,52386,1,0,0:0:0:0:
416,248,52468,1,8,0:0:0:0:
416,248,52632,1,8,0:0:0:0:
272,192,52796,1,0,0:0:0:0:
352,200,52878,1,0,0:0:0:0:
352,192,52960,1,0,0:0:0:0:
352,200,53042,1,0,0:0:0:0:
344,192,53124,1,8,0:0:0:0:
344,192,53288,1,8,0:0:0:0:
344,184,53370,1,8,0:0:0:0:
344,184,53452,1,0,0:0:0:0:
344,184,53615,1,0,0:0:0:0:
336,184,53697,1,0,0:0:0:0:
328,176,53779,1,8,0:0:0:0:
336,176,53943,1,8,0:0:0:0:
336,176,54107,1,0,0:0:0:0:
304,248,54271,1,8,0:0:0:0:
304,248,54353,1,8,0:0:0:0:
304,248,54435,1,8,0:0:0:0:
344,264,54599,1,0,0:0:0:0:
336,256,54763,1,8,0:0:0:0:
416,304,54845,1,8,0:0:0:0:
304,240,54927,1,0,0:0:0:0:
272,208,55091,1,0,0:0:0:0:
240,184,55255,1,8,0:0:0:0:
240,184,55337,1,8,0:0:0:0:
248,176,55419,1,0,0:0:0:0:
248,184,55583,1,8,0:0:0:0:
312,208,55747,1,0,0:0:0:0:
312,208,55829,1,0,0:0:0:0:
312,208,55911,1,0,0:0:0:0:
312,208,55992,1,0,0:0:0:0:
312,208,56074,1,8,0:0:0:0:
360,224,56238,1,0,0:0:0:0:
360,224,56402,1,0,0:0:0:0:
352,216,56566,1,8,0:0:0:0:
344,208,56648,1,8,0:0:0:0:
320,216,56730,1,0,0:0:0:0:
328,208,56894,1,8,0:0:0:0:
328,208,57058,1,0,0:0:0:0:
328,208,57140,1,0,0:0:0:0:
320,200,57222,1,0,0:0:0:0:
320,200,57386,1,8,0:0:0:0:
272,176,57468,1,8,0:0:0:0:
272,176,57550,1,0,0:0:0:0:
272,176,57714,1,0,0:0:0:0:
272,176,57878,1,8,0:0:0:0:
272,176,57960,1,8,0:0:0:0:
272,176,58042,1,0,0:0:0:0:
272,176,58206,1,0,0:0:0:0:
296,208,58370,1,8,0:0:0:0:
224,144,58533,1,0,0:0:0:0:
288,160,58697,1,8,0:0:0:0:
296,240,58861,1,8,0:0:0:0:
296,248,58943,1,8,0:0:0:0:
296,240,59025,1,0,0:0:0:0:
304,232,59189,1,8,0:0:0:0:
304,224,59353,1,0,0:0:0:0:
304,224,59435,1,0,0:0:0:0:
304,224,59517,1,8,0:0:0:0:
312,216,59681,1,0,0:0:0:0:
312,216,59845,1,0,0:0:0:0:
336,232,60009,1,8,0:0:0:0:
336,232,60173,1,0,0:0:0:0:
336,232,60255,1,0,0:0:0:0:
336,232,60337,1,8,0:0:0:0:
336,232,60501,1,8,0:0:0:0:
336,288,60665,1,0,0:0:0:0:
320,248,60747,1,0,0:0:0:0:
320,248,60829,1,0,0:0:0:0:
320,248,60911,1,0,0:0:0:0:
312,248,60992,1,8,0:0:0:0:
312,248,61074,1,0,0:0:0:0:
312,248,61156,1,8,0:0:0:0:
344,216,61320,1,4,0:0:0:0:
336,232,61484,1,8,0:0:0:0:
336,232,61566,1,8,0:0:0:0:
288,152,61648,1,8,0:0:0:0:
288,152,61812,1,0,0:0:0:0:
288,152,61976,1,8,0:0:0:0:
288,152,62058,1,8,0:0:0:0:
288,152,62140,1,0,0:0:0:0:
336,296,62304,1,8,0:0:0:0:
312,272,62468,1,0,0:0:0:0:
264,264,62632,1,8,0:0:0:0:
368,208,62714,1,8,0:0:0:0:
368,208,62796,1,0,0:0:0:0:
368,208,62960,1,0,0:0:0:0:
328,232,63124,1,8,0:0:0:0:
216,216,63288,1,0,0:0:0:0:
312,216,63370,1,0,0:0:0:0:
96,144,63452,1,0,0:0:0:0:
320,176,63615,1,8,0:0:0:0:
312,184,63779,1,0,0:0:0:0:
312,184,63861,1,0,0:0:0:0:
312,184,63943,1,8,0:0:0:0:
328,184,64107,1,0,0:0:0:0:
328,184,64271,1,0,0:0:0:0:
320,176,64435,1,8,0:0:0:0:
336,208,64599,1,0,0:0:0:0:
328,200,64681,1,0,0:0:0:0:
336,192,64763,1,8,0:0:0:0:
336,192,64927,1,0,0:0:0:0:
336,192,65091,1,0,0:0:0:0:
336,184,65255,1,8,0:0:0:0:
344,232,65337,1,8,0:0:0:0:
344,232,65419,1,0,0:0:0:0:
344,232,65583,1,0,0:0:0:0:
344,232,65747,1,8,0:0:0:0:
344,232,65829,1,8,0:0:0:0:
344,232,65911,1,0,0:0:0:0:
384,216,66074,1,8,0:0:0:0:
384,272,66238,1,0,0:0:0:0:
336,152,66402,1,0,0:0:0:0:
336,152,66484,1,0,0:0:0:0:
336,152,66566,1,8,0:0:0:0:
360,224,66730,1,0,0:0:0:0:
360,224,66894,1,0,0:0:0:0:
360,224,67058,1,8,0:0:0:0:
360,224,67222,1,0,0:0:0:0:
352,224,67304,1,0,0:0:0:0:
352,216,67386,1,8,0:0:0:0:
336,224,67550,1,0,0:0:0:0:
336,224,67714,1,0,0:0:0:0:
320,168,67878,1,8,0:0:0:0:
320,184,67960,1,8,0:0:0:0:
296,184,68042,1,0,0:0:0:0:
256,224,68206,1,0,0:0:0:0:
256,216,68370,1,8,0:0:0:0:
264,208,68452,1,8,0:0:0:0:
256,208,68533,1,0,0:0:0:0:
256,208,68697,1,0,0:0:0:0:
256,200,68861,1,8,0:0:0:0:
360,240,69025,1,0,0:0:0:0:
360,240,69107,1,0,0:0:0:0:
360,240,69189,1,8,0:0:0:0:
360,240,69353,1,0,0:0:0:0:
360,240,69517,1,0,0:0:0:0:
328,272,69681,1,8,0:0:0:0:
280,168,69763,1,8,0:0:0:0:
360,256,69845,1,0,0:0:0:0:
280,200,69927,1,0,0:0:0:0:
360,256,70009,1,8,0:0:0:0:
360,256,70173,1,0,0:0:0:0:
360,256,70337,1,8,0:0:0:0:
360,256,70501,1,8,0:0:0:0:
360,256,70665,1,0,0:0:0:0:
344,256,70747,1,0,0:0:0:0:
344,256,70829,1,8,0:0:0:0:
344,256,70992,1,8,0:0:0:0:
344,248,71156,1,0,0:0:0:0:
344,248,71320,1,8,0:0:0:0:
344,248,71484,1,8,0:0:0:0:
336,248,71566,1,0,0:0:0:0:
336,248,71648,1,0,0:0:0:0:
328,240,71730,1,0,0:0:0:0:
336,248,71812,1,0,0:0:0:0:
416,296,73615,1,0,0:0:0:0:
416,296,73697,1,0,0:0:0:0:
416,288,73779,1,8,0:0:0:0:
416,280,73943,1,0,0:0:0:0:
416,280,74107,1,8,0:0:0:0:
416,280,74271,1,0,0:0:0:0:
416,280,74435,1,4,0:0:0:0:
312,224,75583,1,0,0:0:0:0:
312,224,75665,1,0,0:0:0:0:
312,224,75747,1,8,0:0:0:0:
312,224,75911,1,0,0:0:0:0:
312,224,76074,1,0,0:0:0:0:
312,224,76238,1,0,0:0:0:0:
312,224,76402,1,8,0:0:0:0:
320,224,76566,1,0,0:0:0:0:
320,224,76648,1,0,0:0:0:0:
344,256,76730,1,0,0:0:0:0:
360,240,77058,1,4,0:0:0:0:
360,240,77550,1,0,0:0:0:0:
328,248,77632,1,0,0:0:0:0:
304,240,77714,1,8,0:0:0:0:
304,240,78042,1,0,0:0:0:0:
304,240,78206,1,0,0:0:0:0:
352,224,78533,1,8,0:0:0:0:
352,224,78861,1,0,0:0:0:0:
352,224,78943,1,0,0:0:0:0:
352,224,79025,1,8,0:0:0:0:
352,224,79189,1,0,0:0:0:0:
352,224,79353,1,8,0:0:0:0:
352,224,79517,1,4,0:0:0:0:
200,192,79845,1,0,0:0:0:0:
256,192,80009,1,8,0:0:0:0:
256,192,80173,1,0,0:0:0:0:
256,192,80337,1,8,0:0:0:0:
256,192,80501,1,0,0:0:0:0:
256,192,80665,1,8,0:0:0:0:
256,192,80829,1,4,0:0:0:0:
224,176,81156,1,8,0:0:0:0:
224,176,81238,1,8,0:0:0:0:
224,176,81320,1,8,0:0:0:0:
224,176,81402,1,8,0:0:0:0:
224,176,81484,1,0,0:0:0:0:
224,176,81566,1,0,0:0:0:0:
352,336,81648,1,8,0:0:0:0:
320,272,81730,1,0,0:0:0:0:
312,264,81812,1,8,0:0:0:0:
328,264,81894,1,8,0:0:0:0:
312,264,81976,1,0,0:0:0:0:
320,256,82058,1,0,0:0:0:0:
320,256,82140,1,8,0:0:0:0:
320,256,82304,1,4,0:0:0:0:
320,248,82468,1,8,0:0:0:0:
320,248,82550,1,8,0:0:0:0:
208,184,82632,1,8,0:0:0:0:
208,184,82796,1,4,0:0:0:0:
208,184,82960,1,8,0:0:0:0:
208,184,83042,1,8,0:0:0:0:
328,256,83124,1,8,0:0:0:0:
296,272,83288,1,4,0:0:0:0:
304,216,83452,1,8,0:0:0:0:
296,224,83533,1,8,0:0:0:0:
288,192,83615,1,0,0:0:0:0:
304,216,83779,1,8,0:0:0:0:
304,216,83861,1,8,0:0:0:0:
304,216,83943,1,8,0:0:0:0:
304,208,84107,1,0,0:0:0:0:
320,216,84271,1,8,0:0:0:0:
320,216,84353,1,8,0:0:0:0:
320,216,84435,1,8,0:0:0:0:
320,216,84517,1,8,0:0:0:0:
320,216,84599,1,8,0:0:0:0:
320,216,84681,1,8,0:0:0:0:
320,216,84763,1,8,0:0:0:0:
320,216,84845,1,8,0:0:0:0:
320,216,84927,1,0,0:0:0:0:
256,192,87550,12,0,88533,0:0:0:0:
376,208,88697,5,0,0:0:0:0:
376,208,88779,1,0,0:0:0:0:
376,208,88861,1,8,0:0:0:0:
376,208,89025,1,0,0:0:0:0:
376,208,89189,1,0,0:0:0:0:
344,272,89353,1,8,0:0:0:0:
360,248,89517,1,0,0:0:0:0:
376,240,89681,1,0,0:0:0:0:
360,224,89845,1,8,0:0:0:0:
360,224,90009,1,0,0:0:0:0:
336,224,90173,1,8,0:0:0:0:
256,152,90255,1,8,0:0:0:0:
256,152,90337,1,0,0:0:0:0:
256,152,90501,1,0,0:0:0:0:
320,144,90665,1,8,0:0:0:0:
320,144,90747,1,8,0:0:0:0:
320,144,90829,1,0,0:0:0:0:
320,144,90992,1,8,0:0:0:0:
376,272,91156,1,0,0:0:0:0:
344,320,91238,1,0,0:0:0:0:
376,272,91320,1,0,0:0:0:0:
248,208,91484,1,8,0:0:0:0:
312,112,91648,1,0,0:0:0:0:
312,112,91730,1,0,0:0:0:0:
312,112,91812,1,8,0:0:0:0:
312,112,91976,1,8,0:0:0:0:
392,224,92140,1,0,0:0:0:0:
392,224,92222,1,0,0:0:0:0:
392,224,92304,1,0,0:0:0:0:
392,224,92386,1,0,0:0:0:0:
392,224,92468,1,8,0:0:0:0:
368,208,92632,1,8,0:0:0:0:
304,280,92714,1,8,0:0:0:0:
296,296,92796,1,0,0:0:0:0:
256,160,92960,1,0,0:0:0:0:
256,160,93042,1,0,0:0:0:0:
256,160,93124,1,8,0:0:0:0:
256,160,93288,1,8,0:0:0:0:
256,160,93452,1,0,0:0:0:0:
256,160,93615,1,8,0:0:0:0:
256,160,93697,1,8,0:0:0:0:
256,160,93779,1,8,0:0:0:0:
256,160,93943,1,0,0:0:0:0:
296,160,94107,1,8,0:0:0:0:
296,160,94189,1,8,0:0:0:0:
296,160,94271,1,0,0:0:0:0:
296,160,94435,1,0,0:0:0:0:
296,160,94599,1,8,0:0:0:0:
296,160,94681,1,8,0:0:0:0:
304,160,94763,1,0,0:0:0:0:
392,320,94927,1,8,0:0:0:0:
336,232,95091,1,0,0:0:0:0:
336,232,95173,1,0,0:0:0:0:
336,232,95255,1,0,0:0:0:0:
336,232,95337,1,0,0:0:0:0:
336,232,95419,1,8,0:0:0:0:
360,224,95583,1,0,0:0:0:0:
360,224,95747,1,0,0:0:0:0:
352,216,95911,1,8,0:0:0:0:
344,208,95993,1,8,0:0:0:0:
320,216,96075,1,0,0:0:0:0:
328,208,96239,1,8,0:0:0:0:
328,208,96403,1,0,0:0:0:0:
328,208,96485,1,0,0:0:0:0:
320,200,96567,1,0,0:0:0:0:
320,200,96731,1,8,0:0:0:0:
272,176,96813,1,8,0:0:0:0:
272,176,96895,1,0,0:0:0:0:
272,176,97059,1,0,0:0:0:0:
272,176,97223,1,8,0:0:0:0:
272,176,97305,1,8,0:0:0:0:
272,176,97387,1,0,0:0:0:0:
272,176,97551,1,0,0:0:0:0:
296,208,97715,1,8,0:0:0:0:
224,144,97878,1,0,0:0:0:0:
288,160,98042,1,8,0:0:0:0:
296,240,98206,1,8,0:0:0:0:
296,248,98288,1,8,0:0:0:0:
296,240,98370,1,0,0:0:0:0:
304,232,98534,1,8,0:0:0:0:
304,224,98698,1,0,0:0:0:0:
304,224,98780,1,0,0:0:0:0:
304,224,98862,1,8,0:0:0:0:
312,216,99026,1,0,0:0:0:0:
312,216,99190,1,0,0:0:0:0:
336,232,99354,1,8,0:0:0:0:
336,232,99518,1,0,0:0:0:0:
336,232,99600,1,0,0:0:0:0:
336,232,99682,1,8,0:0:0:0:
336,232,99846,1,8,0:0:0:0:
336,288,100010,1,0,0:0:0:0:
320,248,100092,1,0,0:0:0:0:
320,248,100174,1,0,0:0:0:0:
320,248,100256,1,0,0:0:0:0:
312,248,100337,1,8,0:0:0:0:
312,248,100419,1,0,0:0:0:0:
312,248,100501,1,8,0:0:0:0:
344,216,100665,1,4,0:0:0:0:
144,160,100829,1,0,0:0:0:0:
208,152,100911,1,0,0:0:0:0:
208,152,100992,1,8,0:0:0:0:
208,152,101156,1,8,0:0:0:0:
208,152,101320,1,0,0:0:0:0:
208,152,101402,1,0,0:0:0:0:
208,152,101484,1,8,0:0:0:0:
368,200,101648,1,8,0:0:0:0:
360,176,101812,1,0,0:0:0:0:
360,176,101976,1,8,0:0:0:0:
360,168,102058,1,8,0:0:0:0:
352,168,102140,1,0,0:0:0:0:
336,168,102304,1,0,0:0:0:0:
336,168,102468,1,8,0:0:0:0:
336,216,102550,1,8,0:0:0:0:
248,176,102632,1,0,0:0:0:0:
248,184,102796,1,8,0:0:0:0:
336,176,102960,1,0,0:0:0:0:
336,176,103042,1,0,0:0:0:0:
336,176,103124,1,0,0:0:0:0:
344,176,103206,1,0,0:0:0:0:
336,176,103288,1,8,0:0:0:0:
336,176,103452,1,0,0:0:0:0:
248,200,103615,1,0,0:0:0:0:
360,144,103779,1,8,0:0:0:0:
360,144,103861,1,8,0:0:0:0:
360,144,103943,1,0,0:0:0:0:
360,144,104107,1,8,0:0:0:0:
240,224,104189,1,8,0:0:0:0:
360,272,104271,1,0,0:0:0:0:
360,272,104435,1,0,0:0:0:0:
400,248,104599,1,8,0:0:0:0:
400,240,104681,1,8,0:0:0:0:
368,216,104763,1,0,0:0:0:0:
352,216,104927,1,0,0:0:0:0:
240,104,105091,1,8,0:0:0:0:
240,104,105173,1,8,0:0:0:0:
240,104,105255,1,0,0:0:0:0:
240,104,105419,1,0,0:0:0:0:
328,176,105583,1,8,0:0:0:0:
312,184,105747,1,0,0:0:0:0:
328,176,105829,1,0,0:0:0:0:
400,192,105911,1,8,0:0:0:0:
392,192,106074,1,0,0:0:0:0:
392,184,106238,1,0,0:0:0:0:
400,192,106402,1,8,0:0:0:0:
392,192,106484,1,8,0:0:0:0:
344,200,106566,1,0,0:0:0:0:
344,200,106730,1,8,0:0:0:0:
360,192,106894,1,0,0:0:0:0:
352,184,106976,1,0,0:0:0:0:
360,192,107058,1,0,0:0:0:0:
344,176,107222,1,8,0:0:0:0:
344,168,107386,1,0,0:0:0:0:
240,216,107468,1,0,0:0:0:0:
352,168,107550,1,0,0:0:0:0:
264,176,107714,1,8,0:0:0:0:
272,168,107878,1,0,0:0:0:0:
304,152,107960,1,0,0:0:0:0:
296,176,108042,1,8,0:0:0:0:
312,160,108206,1,0,0:0:0:0:
352,248,108370,1,0,0:0:0:0:
376,240,108452,1,0,0:0:0:0:
360,216,108533,1,8,0:0:0:0:
344,176,108697,1,0,0:0:0:0:
344,176,108861,1,0,0:0:0:0:
344,176,109025,1,8,0:0:0:0:
344,176,109107,1,8,0:0:0:0:
344,176,109189,1,0,0:0:0:0:
344,176,109353,1,8,0:0:0:0:
352,256,109517,1,0,0:0:0:0:
288,288,109599,1,0,0:0:0:0:
352,256,109681,1,8,0:0:0:0:
368,240,109845,1,8,0:0:0:0:
384,224,110009,1,0,0:0:0:0:
384,224,110091,1,0,0:0:0:0:
384,224,110173,1,8,0:0:0:0:
384,160,110337,1,8,0:0:0:0:
392,160,110501,1,0,0:0:0:0:
376,184,110665,1,8,0:0:0:0:
376,184,110747,1,8,0:0:0:0:
376,184,110829,1,0,0:0:0:0:
376,184,110911,1,0,0:0:0:0:
376,184,110992,1,8,0:0:0:0:
272,112,111156,1,0,0:0:0:0:
288,112,111238,1,0,0:0:0:0:
288,112,111320,1,8,0:0:0:0:
288,112,111484,1,0,0:0:0:0:
288,112,111648,1,8,0:0:0:0:
288,112,111730,1,8,0:0:0:0:
288,112,111812,1,0,0:0:0:0:
288,112,111976,1,8,0:0:0:0:
288,104,112140,1,0,0:0:0:0:
288,104,112222,1,0,0:0:0:0:
288,104,112304,1,8,0:0:0:0:
376,264,112468,1,0,0:0:0:0:
288,200,112550,1,0,0:0:0:0:
312,208,112632,1,0,0:0:0:0:
312,216,112796,1,8,0:0:0:0:
312,208,112960,1,0,0:0:0:0:
312,208,113042,1,0,0:0:0:0:
240,136,113124,1,0,0:0:0:0:
288,216,113288,1,8,0:0:0:0:
280,128,113452,1,0,0:0:0:0:
280,128,113533,1,0,0:0:0:0:
280,128,113615,1,0,0:0:0:0:
280,128,113697,1,0,0:0:0:0:
280,128,113779,1,8,0:0:0:0:
280,136,113943,1,0,0:0:0:0:
280,136,114107,1,0,0:0:0:0:
280,128,114271,1,8,0:0:0:0:
280,136,114353,1,8,0:0:0:0:
376,200,114435,1,0,0:0:0:0:
352,216,114599,1,8,0:0:0:0:
216,112,114681,1,8,0:0:0:0:
208,112,114763,1,0,0:0:0:0:
216,112,114927,1,0,0:0:0:0:
216,112,115091,1,8,0:0:0:0:
216,112,115173,1,8,0:0:0:0:
216,112,115255,1,0,0:0:0:0:
216,112,115419,1,0,0:0:0:0:
304,192,115583,1,8,0:0:0:0:
264,144,115665,1,8,0:0:0:0:
240,200,115747,1,0,0:0:0:0:
240,200,115911,1,8,0:0:0:0:
352,200,116074,1,0,0:0:0:0:
360,192,116156,1,0,0:0:0:0:
376,192,116238,1,0,0:0:0:0:
344,208,116320,1,0,0:0:0:0:
328,192,116402,1,8,0:0:0:0:
360,168,116566,1,0,0:0:0:0:
352,168,116648,1,0,0:0:0:0:
256,256,116730,1,0,0:0:0:0:
256,248,116894,1,8,0:0:0:0:
256,248,117058,1,0,0:0:0:0:
328,248,117140,1,0,0:0:0:0:
320,240,117222,1,8,0:0:0:0:
320,240,117386,1,0,0:0:0:0:
328,240,117550,1,0,0:0:0:0:
328,240,117714,1,8,0:0:0:0:
320,216,117796,1,8,0:0:0:0:
312,208,117878,1,0,0:0:0:0:
304,208,118042,1,0,0:0:0:0:
320,192,118206,1,8,0:0:0:0:
320,192,118288,1,8,0:0:0:0:
328,184,118370,1,0,0:0:0:0:
328,184,118533,1,8,0:0:0:0:
336,176,118697,1,8,0:0:0:0:
328,168,118861,1,0,0:0:0:0:
328,168,118943,1,0,0:0:0:0:
328,160,119025,1,8,0:0:0:0:
328,144,119189,1,0,0:0:0:0:
328,144,119353,1,0,0:0:0:0:
336,144,119517,1,8,0:0:0:0:
344,160,119599,1,8,0:0:0:0:
312,192,119681,1,0,0:0:0:0:
344,160,119845,1,8,0:0:0:0:
296,216,120009,1,0,0:0:0:0:
384,208,120091,1,0,0:0:0:0:
296,216,120173,1,0,0:0:0:0:
288,144,120337,1,8,0:0:0:0:
288,144,120419,1,8,0:0:0:0:
288,144,120501,1,0,0:0:0:0:
288,144,120665,1,8,0:0:0:0:
288,144,120747,1,8,0:0:0:0:
288,136,120829,1,0,0:0:0:0:
344,144,120992,1,8,0:0:0:0:
344,144,121074,1,8,0:0:0:0:
344,144,121156,1,8,0:0:0:0:
344,144,121238,1,8,0:0:0:0:
344,144,121320,1,8,0:0:0:0:
344,144,121402,1,8,0:0:0:0:
344,144,121484,1,8,0:0:0:0:
344,144,121566,1,8,0:0:0:0:
344,144,121648,1,0,0:0:0:0:
272,168,121812,1,0,0:0:0:0:
272,160,121976,1,8,0:0:0:0:
272,160,122140,1,0,0:0:0:0:
272,160,122222,1,0,0:0:0:0:
272,160,122304,1,0,0:0:0:0:
272,160,122468,1,0,0:0:0:0:
272,160,122632,1,8,0:0:0:0:
272,160,122796,1,0,0:0:0:0:
272,160,122878,1,0,0:0:0:0:
272,160,122960,1,8,0:0:0:0:
272,160,123124,1,0,0:0:0:0:
272,160,123288,1,8,0:0:0:0:
312,248,123452,1,8,0:0:0:0:
272,160,123533,1,8,0:0:0:0:
312,248,123615,1,0,0:0:0:0:
312,256,123779,1,0,0:0:0:0:
304,192,123943,1,8,0:0:0:0:
256,96,124025,1,8,0:0:0:0:
240,104,124107,1,0,0:0:0:0:
288,120,124271,1,8,0:0:0:0:
344,120,124435,1,0,0:0:0:0:
344,112,124599,1,8,0:0:0:0:
344,112,124763,1,0,0:0:0:0:
320,152,124845,1,0,0:0:0:0:
344,112,124927,1,0,0:0:0:0:
320,160,125091,1,0,0:0:0:0:
336,152,125255,1,8,0:0:0:0:
336,152,125419,1,0,0:0:0:0:
336,152,125501,1,0,0:0:0:0:
336,152,125583,1,8,0:0:0:0:
336,152,125747,1,0,0:0:0:0:
336,152,125911,1,8,0:0:0:0:
336,152,126074,1,8,0:0:0:0:
336,152,126156,1,8,0:0:0:0:
256,160,126238,1,0,0:0:0:0:
304,208,126402,1,0,0:0:0:0:
304,208,126566,1,8,0:0:0:0:
312,192,126648,1,8,0:0:0:0:
304,192,126730,1,0,0:0:0:0:
304,184,126894,1,8,0:0:0:0:
328,144,127058,1,0,0:0:0:0:
328,136,127140,1,0,0:0:0:0:
328,136,127222,1,8,0:0:0:0:
328,136,127386,1,0,0:0:0:0:
328,136,127550,1,8,0:0:0:0:
328,136,127714,1,0,0:0:0:0:
328,136,127796,1,0,0:0:0:0:
328,136,127878,1,8,0:0:0:0:
320,184,128042,1,0,0:0:0:0:
288,192,128206,1,8,0:0:0:0:
280,144,128370,1,0,0:0:0:0:
280,144,128452,1,0,0:0:0:0:
280,144,128533,1,8,0:0:0:0:
240,192,128697,1,0,0:0:0:0:
336,168,128861,1,8,0:0:0:0:
320,200,128943,1,8,0:0:0:0:
320,208,129025,1,0,0:0:0:0:
336,200,129189,1,8,0:0:0:0:
320,200,129353,1,0,0:0:0:0:
328,192,129435,1,0,0:0:0:0:
272,104,129517,1,8,0:0:0:0:
248,144,129681,1,0,0:0:0:0:
272,136,129845,1,0,0:0:0:0:
272,136,130009,1,8,0:0:0:0:
280,128,130173,1,0,0:0:0:0:
280,128,130337,1,0,0:0:0:0:
336,256,130501,1,8,0:0:0:0:
368,232,130665,1,8,0:0:0:0:
368,232,130829,1,0,0:0:0:0:
328,176,130992,1,8,0:0:0:0:
344,152,131156,1,0,0:0:0:0:
344,152,131320,1,0,0:0:0:0:
248,128,131484,1,8,0:0:0:0:
248,128,131566,1,8,0:0:0:0:
248,128,131648,1,8,0:0:0:0:
248,128,131730,1,8,0:0:0:0:
248,128,131812,1,8,0:0:0:0:
248,128,131894,1,8,0:0:0:0:
248,128,131976,1,8,0:0:0:0:
248,128,132058,1,8,0:0:0:0:
