osu file format v14

[General]
AudioFilename: audio.mp3
AudioLeadIn: 0
PreviewTime: 48206
Countdown: 1
SampleSet: Normal
StackLeniency: 0.7
Mode: 1
LetterboxInBreaks: 0
WidescreenStoryboard: 1

[Editor]
DistanceSpacing: 2.5
BeatDivisor: 4
GridSize: 8
TimelineZoom: 2

[Metadata]
Title:Itazura Fiction
TitleUnicode:悪戯フィクション
Artist:MY FIRST STORY
ArtistUnicode:MY FIRST STORY
Creator:Chromoxx
Version:Futsuu
Source:
Tags:j-rock jrock antithese mfs
BeatmapID:1223432
BeatmapSetID:577936

[Difficulty]
HPDrainRate:7
CircleSize:5
OverallDifficulty:4.5
ApproachRate:5
SliderMultiplier:1.4
SliderTickRate:1

[Events]
//Background and Video events
0,0,"itazura.jpg",0,100
//Break Periods
//Storyboard Layer 0 (Background)
//Storyboard Layer 1 (Fail)
//Storyboard Layer 2 (Pass)
//Storyboard Layer 3 (Foreground)
//Storyboard Sound Samples

[TimingPoints]
993,327.868852459016,4,1,0,40,1,0
3533,-100,4,1,0,70,0,0
12550,-100,4,1,0,80,0,0
24763,-100,4,1,0,70,0,0
33533,-100,4,1,0,80,0,0
50829,-100,4,1,0,90,0,1
71812,-100,4,1,0,90,0,0
71976,-100,4,1,0,80,0,0
87550,-100,4,1,0,40,0,0
88615,-100,4,1,0,80,0,0
90173,-100,4,1,0,90,0,1
111074,-100,4,1,0,100,0,1
132058,-100,4,1,0,100,0,0

[HitObjects]
256,192,2304,12,0,3288,0:0:0:0:
360,192,3615,5,4,0:0:0:0:
331,183,4927,1,8,0:0:0:0:
324,205,6238,1,0,0:0:0:0:
324,205,6894,1,0,0:0:0:0:
324,205,7550,1,8,0:0:0:0:
324,205,8861,1,0,0:0:0:0:
324,208,10173,1,8,0:0:0:0:
358,225,10829,1,0,0:0:0:0:
358,225,11484,1,0,0:0:0:0:
360,230,12796,1,8,0:0:0:0:
363,234,13124,1,0,0:0:0:0:
363,234,13288,1,8,0:0:0:0:
362,233,13452,1,0,0:0:0:0:
363,233,13779,1,8,0:0:0:0:
370,236,14107,1,4,0:0:0:0:
370,230,16238,1,0,0:0:0:0:
370,230,16402,1,8,0:0:0:0:
362,277,16730,1,4,0:0:0:0:
333,153,18697,1,8,0:0:0:0:
333,153,18861,1,0,0:0:0:0:
333,153,19025,1,0,0:0:0:0:
336,160,19353,1,4,0:0:0:0:
335,159,20009,1,8,0:0:0:0:
335,159,20501,1,0,0:0:0:0:
335,159,20829,1,8,0:0:0:0:
335,159,21156,1,0,0:0:0:0:
335,159,21320,1,8,0:0:0:0:
331,206,21812,1,4,0:0:0:0:
240,200,22304,1,8,0:0:0:0:
272,184,22468,1,0,0:0:0:0:
240,200,22632,1,8,0:0:0:0:
305,185,23124,1,4,0:0:0:0:
281,266,23943,1,8,0:0:0:0:
282,200,24271,1,0,0:0:0:0:
282,200,24599,1,4,0:0:0:0:
106,243,25911,1,8,0:0:0:0:
135,240,27222,1,0,0:0:0:0:
135,240,27878,1,0,0:0:0:0:
135,240,28533,1,8,0:0:0:0:
137,242,29845,1,0,0:0:0:0:
137,242,31156,1,8,0:0:0:0:
137,242,31812,1,0,0:0:0:0:
137,242,32468,1,0,0:0:0:0:
264,220,33779,1,8,0:0:0:0:
285,228,34107,1,0,0:0:0:0:
285,228,34271,1,0,0:0:0:0:
285,228,34435,1,0,0:0:0:0:
288,227,34763,1,8,0:0:0:0:
293,230,35091,1,4,0:0:0:0:
293,230,35747,1,8,0:0:0:0:
293,230,36402,1,0,0:0:0:0:
293,230,37714,1,8,0:0:0:0:
293,230,38370,1,0,0:0:0:0:
293,230,39025,1,8,0:0:0:0:
293,231,40337,1,8,0:0:0:0:
293,231,40992,1,8,0:0:0:0:
293,231,41648,1,0,0:0:0:0:
294,232,42960,1,8,0:0:0:0:
213,227,43124,1,0,0:0:0:0:
231,240,43288,1,8,0:0:0:0:
213,227,43615,1,0,0:0:0:0:
240,132,44271,1,8,0:0:0:0:
292,241,44599,1,0,0:0:0:0:
293,238,44927,1,8,0:0:0:0:
274,228,45255,1,0,0:0:0:0:
295,173,45583,1,4,0:0:0:0:
297,181,46074,1,8,0:0:0:0:
297,181,46402,1,0,0:0:0:0:
297,181,46566,1,8,0:0:0:0:
297,181,46730,1,0,0:0:0:0:
271,162,47058,1,8,0:0:0:0:
58,181,47550,2,8,L|167:167,4,70
309,180,50829,1,4,0:0:0:0:
315,189,51156,1,0,0:0:0:0:
315,189,51320,1,8,0:0:0:0:
315,189,51812,1,8,0:0:0:0:
315,189,52140,1,0,0:0:0:0:
315,189,52468,1,0,0:0:0:0:
315,189,52796,1,8,0:0:0:0:
319,195,53124,1,0,0:0:0:0:
319,195,53452,1,0,0:0:0:0:
277,222,53779,1,0,0:0:0:0:
277,222,53943,1,8,0:0:0:0:
277,222,54435,1,8,0:0:0:0:
277,222,54763,1,0,0:0:0:0:
277,222,55091,1,0,0:0:0:0:
277,222,55419,1,8,0:0:0:0:
216,170,55747,1,8,0:0:0:0:
276,239,56074,1,0,0:0:0:0:
318,199,56402,1,0,0:0:0:0:
318,199,56566,1,8,0:0:0:0:
318,199,57386,1,0,0:0:0:0:
318,199,57714,1,0,0:0:0:0:
311,203,57878,1,8,0:0:0:0:
310,202,58370,1,0,0:0:0:0:
310,202,58697,1,8,0:0:0:0:
306,197,59025,1,0,0:0:0:0:
314,194,59189,1,8,0:0:0:0:
314,194,59517,1,8,0:0:0:0:
313,195,59681,1,8,0:0:0:0:
306,196,60009,1,4,0:0:0:0:
310,197,61320,1,4,0:0:0:0:
315,201,61648,1,0,0:0:0:0:
315,201,61812,1,8,0:0:0:0:
314,201,62304,1,8,0:0:0:0:
315,201,62632,1,0,0:0:0:0:
319,199,62960,1,0,0:0:0:0:
319,200,63124,1,8,0:0:0:0:
315,201,63452,1,0,0:0:0:0:
315,201,63615,1,8,0:0:0:0:
319,199,63943,1,8,0:0:0:0:
282,177,64599,1,8,0:0:0:0:
282,177,64927,1,8,0:0:0:0:
317,179,65255,1,0,0:0:0:0:
317,179,65583,1,0,0:0:0:0:
317,179,65747,1,8,0:0:0:0:
317,179,66074,1,0,0:0:0:0:
317,179,66238,1,8,0:0:0:0:
317,179,66566,1,4,0:0:0:0:
311,132,67222,1,8,0:0:0:0:
280,179,67550,1,0,0:0:0:0:
280,179,67878,1,8,0:0:0:0:
333,165,68206,1,0,0:0:0:0:
326,168,68370,1,8,0:0:0:0:
332,153,68861,1,0,0:0:0:0:
337,151,69189,1,4,0:0:0:0:
350,167,69845,1,8,0:0:0:0:
352,166,70173,1,0,0:0:0:0:
350,167,70501,1,8,0:0:0:0:
350,167,70829,1,8,0:0:0:0:
352,166,70992,1,8,0:0:0:0:
325,228,71320,1,0,0:0:0:0:
359,168,71484,1,8,0:0:0:0:
357,221,71812,1,4,0:0:0:0:
342,203,73615,1,0,0:0:0:0:
320,200,73779,1,8,0:0:0:0:
320,200,74107,1,8,0:0:0:0:
372,183,74435,1,4,0:0:0:0:
293,177,75583,1,0,0:0:0:0:
376,180,75747,1,8,0:0:0:0:
345,209,76074,1,0,0:0:0:0:
345,209,76402,1,8,0:0:0:0:
345,209,76730,1,0,0:0:0:0:
363,200,77058,1,4,0:0:0:0:
364,198,77714,1,8,0:0:0:0:
364,198,78206,1,0,0:0:0:0:
384,168,78533,1,8,0:0:0:0:
360,192,78861,1,0,0:0:0:0:
360,184,79025,1,8,0:0:0:0:
368,184,79517,1,4,0:0:0:0:
312,160,80009,1,8,0:0:0:0:
320,160,80337,1,8,0:0:0:0:
320,160,80829,1,4,0:0:0:0:
48,208,81156,2,0,L|136:200,5,70
184,136,82304,1,4,0:0:0:0:
384,192,82632,1,0,0:0:0:0:
384,200,82796,1,8,0:0:0:0:
392,192,83124,1,0,0:0:0:0:
392,192,83288,1,8,0:0:0:0:
376,192,83452,1,0,0:0:0:0:
384,192,83779,1,8,0:0:0:0:
88,208,84271,2,8,L|176:208,4,70
256,192,87550,12,0,88533,0:0:0:0:
344,152,88861,5,8,0:0:0:0:
344,152,89189,1,0,0:0:0:0:
344,152,89353,1,8,0:0:0:0:
309,180,90173,1,4,0:0:0:0:
315,189,90500,1,0,0:0:0:0:
315,189,90664,1,8,0:0:0:0:
315,189,91156,1,8,0:0:0:0:
315,189,91484,1,0,0:0:0:0:
315,189,91812,1,0,0:0:0:0:
315,189,92140,1,8,0:0:0:0:
319,195,92468,1,0,0:0:0:0:
319,195,92796,1,0,0:0:0:0:
277,222,93123,1,0,0:0:0:0:
277,222,93287,1,8,0:0:0:0:
277,222,93779,1,8,0:0:0:0:
277,222,94107,1,0,0:0:0:0:
277,222,94435,1,0,0:0:0:0:
277,222,94763,1,8,0:0:0:0:
216,170,95091,1,8,0:0:0:0:
276,239,95418,1,0,0:0:0:0:
318,199,95746,1,0,0:0:0:0:
318,199,95910,1,8,0:0:0:0:
318,199,96730,1,0,0:0:0:0:
318,199,97058,1,0,0:0:0:0:
311,203,97222,1,8,0:0:0:0:
310,202,97714,1,0,0:0:0:0:
310,202,98041,1,8,0:0:0:0:
306,197,98370,1,0,0:0:0:0:
314,194,98533,1,8,0:0:0:0:
314,194,98861,1,8,0:0:0:0:
313,195,99025,1,8,0:0:0:0:
306,196,99353,1,4,0:0:0:0:
309,180,100665,1,4,0:0:0:0:
315,189,100992,1,0,0:0:0:0:
315,189,101156,1,8,0:0:0:0:
315,189,101648,1,8,0:0:0:0:
315,189,101976,1,0,0:0:0:0:
315,189,102304,1,0,0:0:0:0:
315,189,102632,1,8,0:0:0:0:
319,195,102960,1,0,0:0:0:0:
319,195,103288,1,0,0:0:0:0:
277,222,103615,1,0,0:0:0:0:
277,222,103779,1,8,0:0:0:0:
277,222,104271,1,8,0:0:0:0:
277,222,104599,1,0,0:0:0:0:
277,222,104927,1,0,0:0:0:0:
277,222,105255,1,8,0:0:0:0:
216,170,105583,1,8,0:0:0:0:
276,239,105910,1,0,0:0:0:0:
318,199,106238,1,0,0:0:0:0:
318,199,106402,1,8,0:0:0:0:
318,199,107222,1,0,0:0:0:0:
318,199,107550,1,0,0:0:0:0:
311,203,107714,1,8,0:0:0:0:
310,202,108206,1,0,0:0:0:0:
310,202,108533,1,8,0:0:0:0:
306,197,108861,1,0,0:0:0:0:
314,194,109025,1,8,0:0:0:0:
313,195,109353,1,8,0:0:0:0:
248,120,109517,1,8,0:0:0:0:
306,196,109845,1,4,0:0:0:0:
200,176,111156,1,4,0:0:0:0:
200,176,111320,1,8,0:0:0:0:
200,168,111648,1,8,0:0:0:0:
200,168,111812,1,0,0:0:0:0:
200,168,112140,1,8,0:0:0:0:
336,304,112468,1,0,0:0:0:0:
192,144,112796,1,8,0:0:0:0:
306,148,112960,1,8,0:0:0:0:
192,144,113124,1,0,0:0:0:0:
296,224,113779,1,0,0:0:0:0:
296,224,113943,1,8,0:0:0:0:
312,232,114271,1,8,0:0:0:0:
312,232,114435,1,0,0:0:0:0:
312,232,114763,1,8,0:0:0:0:
312,232,115091,1,0,0:0:0:0:
280,176,115255,1,0,0:0:0:0:
312,232,115419,1,0,0:0:0:0:
312,232,115747,1,8,0:0:0:0:
320,184,116402,1,0,0:0:0:0:
344,192,116730,1,0,0:0:0:0:
344,192,116894,1,8,0:0:0:0:
344,192,117714,1,0,0:0:0:0:
160,144,118042,1,0,0:0:0:0:
336,200,118206,1,8,0:0:0:0:
272,176,118697,1,0,0:0:0:0:
272,176,119025,1,8,0:0:0:0:
272,176,119353,1,0,0:0:0:0:
272,176,119517,1,8,0:0:0:0:
272,176,119845,1,8,0:0:0:0:
296,192,120009,1,8,0:0:0:0:
296,192,120337,1,4,0:0:0:0:
304,192,121648,1,0,0:0:0:0:
304,192,121976,1,8,0:0:0:0:
304,192,122304,1,0,0:0:0:0:
304,192,122468,1,0,0:0:0:0:
304,192,122632,1,8,0:0:0:0:
304,192,122960,1,0,0:0:0:0:
328,200,123288,1,8,0:0:0:0:
328,200,123615,1,0,0:0:0:0:
328,200,123943,1,8,0:0:0:0:
328,200,124107,1,8,0:0:0:0:
328,200,124271,1,0,0:0:0:0:
320,152,124599,1,8,0:0:0:0:
320,152,124927,1,0,0:0:0:0:
320,152,125091,1,0,0:0:0:0:
320,152,125255,1,8,0:0:0:0:
320,152,125583,1,0,0:0:0:0:
344,192,126238,1,8,0:0:0:0:
368,224,126566,1,0,0:0:0:0:
280,216,126894,1,8,0:0:0:0:
280,240,127058,1,0,0:0:0:0:
280,240,127222,1,8,0:0:0:0:
296,216,127550,1,8,0:0:0:0:
296,216,127714,1,0,0:0:0:0:
296,216,127878,1,8,0:0:0:0:
328,232,128206,1,8,0:0:0:0:
336,224,128533,1,0,0:0:0:0:
336,224,128697,1,0,0:0:0:0:
336,224,128861,1,8,0:0:0:0:
336,224,129189,1,0,0:0:0:0:
344,232,129517,1,12,0:0:0:0:
336,224,129845,1,0,0:0:0:0:
336,224,130009,1,8,0:0:0:0:
352,224,130501,1,0,0:0:0:0:
352,224,130665,1,8,0:0:0:0:
392,240,130992,1,8,0:0:0:0:
392,240,131156,1,0,0:0:0:0:
24,184,131484,2,0,L|272:160,1,245
