osu file format v14

[General]
AudioFilename: audio.mp3
AudioLeadIn: 0
PreviewTime: 48206
Countdown: 1
SampleSet: None
StackLeniency: 0.7
Mode: 1
LetterboxInBreaks: 0
WidescreenStoryboard: 1

[Editor]
DistanceSpacing: 2.5
BeatDivisor: 4
GridSize: 8
TimelineZoom: 1.6

[Metadata]
Title:Itazura Fiction
TitleUnicode:悪戯フィクション
Artist:MY FIRST STORY
ArtistUnicode:MY FIRST STORY
Creator:Chromoxx
Version:Kantan
Source:
Tags:j-rock jrock antithese mfs
BeatmapID:1223444
BeatmapSetID:577936

[Difficulty]
HPDrainRate:8
CircleSize:5
OverallDifficulty:4
ApproachRate:5
SliderMultiplier:1.4
SliderTickRate:1

[Events]
//Background and Video events
0,0,"itazura.jpg",0,100
//Break Periods
//Storyboard Layer 0 (Background)
//Storyboard Layer 1 (Fail)
//Storyboard Layer 2 (Pass)
//Storyboard Layer 3 (Foreground)
//Storyboard Sound Samples

[TimingPoints]
993,327.868852459016,4,1,0,40,1,0
3533,-100,4,1,0,70,0,0
12550,-100,4,1,0,80,0,0
24763,-100,4,1,0,70,0,0
33533,-100,4,1,0,80,0,0
50829,-100,4,1,0,90,0,1
71812,-100,4,1,0,90,0,0
71976,-100,4,1,0,80,0,0
87550,-100,4,1,0,40,0,0
88615,-100,4,1,0,80,0,0
90173,-100,4,1,0,90,0,1
111074,-100,4,1,0,100,0,1
132058,-100,4,1,0,100,0,0

[HitObjects]
256,192,2304,12,0,3288,0:0:0:0:
368,168,3615,5,4,0:0:0:0:
368,173,6238,1,8,0:0:0:0:
369,188,8861,1,8,0:0:0:0:
327,169,10173,1,0,0:0:0:0:
369,188,11484,1,8,0:0:0:0:
314,167,12796,1,8,0:0:0:0:
335,182,13452,1,0,0:0:0:0:
335,182,13779,1,8,0:0:0:0:
371,178,14107,1,4,0:0:0:0:
352,176,16730,1,4,0:0:0:0:
408,192,18697,1,8,0:0:0:0:
408,192,19353,1,4,0:0:0:0:
338,234,20009,1,8,0:0:0:0:
314,152,21320,1,8,0:0:0:0:
369,175,21812,1,4,0:0:0:0:
349,188,22632,1,0,0:0:0:0:
349,188,23124,1,4,0:0:0:0:
278,245,24599,1,4,0:0:0:0:
328,208,27222,1,8,0:0:0:0:
376,200,29845,1,0,0:0:0:0:
376,216,31156,1,8,0:0:0:0:
376,216,32468,1,0,0:0:0:0:
376,216,33779,1,8,0:0:0:0:
384,224,34435,1,0,0:0:0:0:
384,224,34763,1,8,0:0:0:0:
384,224,35091,1,4,0:0:0:0:
344,208,36402,1,8,0:0:0:0:
352,208,37714,1,0,0:0:0:0:
352,208,38370,1,0,0:0:0:0:
352,208,39025,1,8,0:0:0:0:
352,208,40337,1,0,0:0:0:0:
352,208,41648,1,8,0:0:0:0:
352,208,42304,1,8,0:0:0:0:
352,208,42960,1,0,0:0:0:0:
280,200,43288,1,8,0:0:0:0:
280,200,43615,1,8,0:0:0:0:
280,200,44271,1,0,0:0:0:0:
328,208,44927,1,8,0:0:0:0:
360,224,45583,1,4,0:0:0:0:
64,208,47550,2,0,L|360:200,1,280
344,232,50829,1,4,0:0:0:0:
344,232,51484,1,8,0:0:0:0:
344,232,52140,1,0,0:0:0:0:
368,248,52468,1,0,0:0:0:0:
368,248,52796,1,8,0:0:0:0:
368,248,53452,1,0,0:0:0:0:
368,248,54107,1,8,0:0:0:0:
368,248,54435,1,8,0:0:0:0:
368,248,54763,1,0,0:0:0:0:
368,248,55419,1,8,0:0:0:0:
376,232,56074,1,4,0:0:0:0:
392,248,57386,1,8,0:0:0:0:
392,248,58042,1,0,0:0:0:0:
392,248,58697,1,0,0:0:0:0:
336,192,59353,1,8,0:0:0:0:
336,192,59681,1,0,0:0:0:0:
336,192,60009,1,8,0:0:0:0:
336,192,60665,1,8,0:0:0:0:
384,216,61320,1,4,0:0:0:0:
280,192,62632,1,8,0:0:0:0:
296,200,63943,1,8,0:0:0:0:
296,200,64599,1,0,0:0:0:0:
296,200,65255,1,8,0:0:0:0:
296,200,65911,1,0,0:0:0:0:
296,200,66238,1,0,0:0:0:0:
296,200,66566,1,8,0:0:0:0:
296,200,67222,1,0,0:0:0:0:
296,200,67878,1,8,0:0:0:0:
336,184,69189,1,8,0:0:0:0:
328,184,69845,1,0,0:0:0:0:
328,184,70501,1,8,0:0:0:0:
328,184,70829,1,8,0:0:0:0:
328,184,71156,1,8,0:0:0:0:
336,184,71484,1,8,0:0:0:0:
344,184,71812,1,4,0:0:0:0:
248,136,73779,1,8,0:0:0:0:
240,160,74435,1,4,0:0:0:0:
384,144,75747,1,8,0:0:0:0:
384,144,76402,1,8,0:0:0:0:
376,144,77058,1,4,0:0:0:0:
360,128,79025,1,8,0:0:0:0:
192,120,79517,1,4,0:0:0:0:
208,168,80337,1,0,0:0:0:0:
208,168,80829,1,4,0:0:0:0:
152,192,81156,2,0,L|232:192,5,70
336,168,82304,1,4,0:0:0:0:
96,200,84271,2,0,L|400:192,1,280
256,192,87550,12,0,88533,0:0:0:0:
240,96,88861,5,8,0:0:0:0:
344,232,90173,1,4,0:0:0:0:
344,232,90828,1,8,0:0:0:0:
344,232,91484,1,0,0:0:0:0:
368,248,91812,1,0,0:0:0:0:
368,248,92140,1,8,0:0:0:0:
368,248,92796,1,0,0:0:0:0:
368,248,93451,1,8,0:0:0:0:
368,248,93779,1,8,0:0:0:0:
368,248,94107,1,0,0:0:0:0:
368,248,94763,1,8,0:0:0:0:
376,232,95418,1,4,0:0:0:0:
392,248,96730,1,8,0:0:0:0:
392,248,97386,1,0,0:0:0:0:
392,248,98041,1,0,0:0:0:0:
336,192,98697,1,8,0:0:0:0:
336,192,99025,1,0,0:0:0:0:
336,192,99353,1,8,0:0:0:0:
336,192,100009,1,8,0:0:0:0:
384,216,100664,1,4,0:0:0:0:
152,168,101976,1,8,0:0:0:0:
264,136,102632,1,0,0:0:0:0:
264,136,102960,1,0,0:0:0:0:
256,136,103288,1,8,0:0:0:0:
256,136,103943,1,0,0:0:0:0:
256,136,104599,1,8,0:0:0:0:
208,72,104927,1,0,0:0:0:0:
208,72,105255,1,8,0:0:0:0:
200,72,105911,1,4,0:0:0:0:
200,72,107222,1,0,0:0:0:0:
296,112,107878,1,0,0:0:0:0:
200,72,108533,1,8,0:0:0:0:
312,104,109189,1,0,0:0:0:0:
328,184,109845,1,8,0:0:0:0:
328,184,110173,1,8,0:0:0:0:
328,184,110500,1,8,0:0:0:0:
336,184,110828,1,8,0:0:0:0:
344,184,111156,1,4,0:0:0:0:
256,120,112468,1,8,0:0:0:0:
256,120,113124,1,8,0:0:0:0:
256,120,113779,1,0,0:0:0:0:
256,120,114107,1,0,0:0:0:0:
256,120,114435,1,8,0:0:0:0:
256,120,115091,1,8,0:0:0:0:
256,120,115747,1,8,0:0:0:0:
256,120,116074,1,8,0:0:0:0:
256,120,116402,1,0,0:0:0:0:
256,120,117058,1,8,0:0:0:0:
256,120,117714,1,0,0:0:0:0:
256,120,118042,1,0,0:0:0:0:
256,120,118370,1,8,0:0:0:0:
256,120,119025,1,4,0:0:0:0:
248,120,120337,1,8,0:0:0:0:
248,120,120992,1,8,0:0:0:0:
248,120,121648,1,0,0:0:0:0:
248,120,121976,1,0,0:0:0:0:
248,120,122304,1,8,0:0:0:0:
224,88,122960,1,8,0:0:0:0:
224,88,123288,1,0,0:0:0:0:
224,88,123615,1,8,0:0:0:0:
208,88,124271,1,0,0:0:0:0:
208,88,124927,1,8,0:0:0:0:
208,88,125583,1,0,0:0:0:0:
208,88,125911,1,0,0:0:0:0:
208,88,126238,1,8,0:0:0:0:
272,208,126894,1,0,0:0:0:0:
304,232,127550,1,8,0:0:0:0:
304,232,128206,1,8,0:0:0:0:
304,232,128533,1,8,0:0:0:0:
232,104,128861,1,8,0:0:0:0:
336,224,129517,1,4,0:0:0:0:
272,224,130829,1,8,0:0:0:0:
0,192,131484,2,0,L|272:184,1,245
