osu file format v14

[General]
AudioFilename: audio.mp3
AudioLeadIn: 0
PreviewTime: -1
Countdown: 0
SampleSet: None
StackLeniency: 1
Mode: 0
LetterboxInBreaks: 0
WidescreenStoryboard: 1

[Editor]
DistanceSpacing: 1.3
BeatDivisor: 4
GridSize: 16
TimelineZoom: 1

[Metadata]
Title:Home
TitleUnicode:Home
Artist:MY FIRST STORY
ArtistUnicode:MY FIRST STORY
Creator:Ringer
Version:Normal
Source:antithese
Tags:
BeatmapID:1229011
BeatmapSetID:579466

[Difficulty]
HPDrainRate:4
CircleSize:3
OverallDifficulty:4
ApproachRate:5
SliderMultiplier:0.80000000596046
SliderTickRate:1

[Events]
//Background and Video events
0,0,"5582969-touhou-wallpaper.jpg",0,0
//Break Periods
//Storyboard Layer 0 (Background)
//Storyboard Layer 1 (Fail)
//Storyboard Layer 2 (Pass)
//Storyboard Layer 3 (Foreground)
//Storyboard Sound Samples

[TimingPoints]
1801.52041436882,342.857142857143,4,2,0,70,1,0
1802,-100,4,2,0,50,0,0
5915,-100,4,3,0,70,0,0
6944,-100,4,3,0,80,0,0
9172,-100,4,3,0,90,0,0
9858,-100,4,3,0,80,0,0
11915,-100,4,3,0,90,0,0
12601,-100,4,3,0,80,0,0
14315,-100,4,3,0,90,0,0
15515,-100,4,3,0,80,0,0
19287,-100,4,3,0,90,0,0
20315,-100,4,3,0,70,0,0
21001,-100,4,3,0,80,0,0
23058,-100,4,3,0,90,0,0
23572,-100,4,3,0,80,0,0
34372,-100,4,3,0,80,0,0
45687,-100,4,2,0,40,0,0
49801,-100,4,1,0,90,0,0
51172,-100,4,3,0,80,0,0
51515,-100,4,3,0,80,0,0
51858,-100,4,3,0,80,0,0
52201,-100,4,3,0,80,0,0
52544,-100,4,3,0,80,0,0
53058,-100,4,3,0,80,0,0
53572,-100,4,3,0,80,0,0
53915,-100,4,3,0,80,0,0
54430,-100,4,3,0,80,0,0
54944,-100,4,3,0,80,0,0
55287,-100,4,3,0,80,0,0
55630,-100,4,3,0,80,0,0
55801,-100,4,3,0,80,0,0
55972,-100,4,3,0,80,0,0
56144,-100,4,3,0,80,0,0
56315,-100,4,3,0,80,0,0
56658,-100,4,3,0,80,0,0
57172,-100,4,3,0,80,0,0
57687,-100,4,3,0,80,0,0
58030,-100,4,3,0,80,0,0
62144,-100,4,3,0,80,0,0
63172,-100,4,3,0,80,0,0
64201,-100,4,3,0,80,0,1
64887,-100,4,3,0,80,0,1
83915,-100,4,3,0,80,0,1
84087,-100,4,3,0,80,0,0
90601,-100,4,2,0,50,0,0
91630,-100,4,3,0,80,0,0
92144,-100,4,2,0,50,0,0
93001,-100,4,3,0,80,0,0
93172,-100,4,3,0,80,0,0
93344,-100,4,2,0,50,0,0
94372,-100,4,3,0,80,0,0
96087,-100,4,2,0,50,0,0
97115,-100,4,3,0,80,0,0
110830,-100,4,3,0,80,0,0
111515,-100,4,3,0,80,0,0
121287,-100,4,3,0,80,0,0
121801,-100,4,3,0,80,0,0
122487,-100,4,3,0,80,0,0
124372,-100,4,3,0,80,0,0
124715,-100,4,3,0,80,0,0
130715,-100,4,3,0,80,0,0
131058,-100,4,3,0,80,0,0
131401,-100,4,3,0,80,0,0
131744,-100,4,3,0,80,0,0
132087,-100,4,3,0,80,0,0
133287,-100,4,3,0,80,0,1
152487,-100,4,3,0,80,0,1
152658,-100,4,3,0,80,0,0
169115,-100,4,3,0,80,0,0
180087,-100,4,3,0,80,0,0
188144,-100,4,3,0,80,0,0
188315,-100,4,3,0,80,0,0
189687,-100,4,3,0,80,0,0
191058,-100,4,3,0,80,0,0
193115,-100,4,3,0,80,0,0
193801,-100,4,3,0,80,0,0
195001,-100,4,3,0,80,0,0
195172,-100,4,3,0,80,0,0
196544,-100,4,3,0,80,0,0
201172,-100,4,3,0,80,0,0
201858,-100,4,3,0,80,0,0
204601,-100,4,3,0,80,0,0
206830,-100,4,3,0,80,0,0
207344,-100,4,3,0,80,0,1
226715,-100,4,3,0,80,0,0
234944,-100,4,3,0,80,0,0
238372,-100,4,3,0,80,0,0

[HitObjects]
192,128,5915,6,0,P|288:64|304:160,1,240.000001788138
368,240,7287,2,0,L|416:240,2,40.000000298023,0|0|8,0:0|0:0|0:0,0:0:0:0:
288,304,7972,2,0,P|240:304|208:272,1,80.000000596046,0|8,0:0|0:0,0:0:0:0:
162,196,8658,2,0,P|169:148|206:121,1,80.000000596046,0|8,0:0|0:0,0:0:0:0:
288,80,9344,6,0,L|272:32,2,40.000000298023,8|8|8,0:0|0:0|0:0,0:0:0:0:
368,144,10030,1,0,0:0:0:0:
464,112,10372,1,8,0:0:0:0:
480,208,10715,2,0,P|469:254|430:278,1,80.000000596046,0|8,0:0|0:0,0:0:0:0:
336,256,11401,2,0,P|325:302|286:326,1,80.000000596046,0|8,0:0|0:0,0:0:0:0:
192,336,12087,2,8,L|208:384,3,40.000000298023
96,256,13115,5,8,0:0:0:0:
96,144,13458,1,0,0:0:0:0:
176,80,13801,1,8,0:0:0:0:
256,144,14144,2,0,L|224:192,5,40.000000298023,0|8|8|8|8|0,0:0|0:0|0:0|0:0|0:0|0:0,0:0:0:0:
233,177,15344,5,4,0:0:0:0:
208,272,15687,2,0,L|160:272,1,40.000000298023,0|8,0:0|0:0,0:0:0:0:
96,192,16201,2,0,P|106:145|145:121,1,80.000000596046,0|8,0:0|0:0,0:0:0:0:
224,96,16887,6,0,L|208:48,2,40.000000298023,0|0|8,0:0|0:0|0:0,0:0:0:0:
320,64,17572,2,0,P|400:128|400:144,1,120.000000894069
400,240,18430,2,0,L|384:288,1,40.000000298023,0|8,0:0|0:0,0:0:0:0:
288,320,18944,6,0,L|256:368,2,40.000000298023,0|0|8,0:0|0:0|0:0,0:0:0:0:
288,208,19630,2,0,P|253:174|252:129,1,80.000000596046,0|8,0:0|0:0,0:0:0:0:
208,48,20315,6,0,P|141:85|144:162,1,160.000001192092,0|4,0:0|0:0,0:0:0:0:
224,192,23058,6,0,L|176:176,2,40.000000298023
432,160,24087,1,8,0:0:0:0:
432,320,24601,2,0,P|384:336|384:336,1,40.000000298023,0|8,0:0|0:0,0:0:0:0:
192,272,25458,1,8,0:0:0:0:
336,192,25972,2,0,P|304:160|304:160,1,40.000000298023,0|8,0:0|0:0,0:0:0:0:
144,48,26830,1,8,0:0:0:0:
80,192,27344,2,0,L|96:240,1,40.000000298023,0|8,0:0|0:0,0:0:0:0:
256,240,28030,2,0,L|240:192,1,40.000000298023,0|8,0:0|0:0,0:0:0:0:
208,112,28544,2,0,L|160:96,2,40.000000298023
352,96,29401,6,0,L|395:109,1,40.000000298023,0|8,0:0|0:0,0:0:0:0:
400,320,30258,1,8,0:0:0:0:
192,288,30772,2,0,L|240:272,1,40.000000298023,0|8,0:0|0:0,0:0:0:0:
432,192,31630,2,8,B|368:192|352:240|336:192|272:192,1,160.000001192092
176,144,32658,1,0,0:0:0:0:
256,80,33001,1,8,0:0:0:0:
160,48,33344,1,0,0:0:0:0:
160,48,34030,6,0,P|96:64|80:128,1,120.000000894069
160,240,35058,1,8,0:0:0:0:
368,304,35744,1,8,0:0:0:0:
320,96,36430,1,8,0:0:0:0:
224,64,36772,1,0,0:0:0:0:
240,160,37115,5,8,0:0:0:0:
48,64,37801,1,8,0:0:0:0:
160,240,38487,1,8,0:0:0:0:
368,192,39172,1,8,0:0:0:0:
448,128,39515,2,0,P|400:96|336:112,1,120.000000894069,8|0,0:0|0:0,0:0:0:0:
240,224,40544,6,0,P|160:256|160:336,1,160.000001192092,8|8,0:0|0:0,0:0:0:0:
256,320,41572,1,0,0:0:0:0:
352,288,41915,2,0,B|336:224|400:208|336:192|352:128,1,160.000001192092,8|8,0:0|0:0,0:0:0:0:
288,48,42944,1,0,0:0:0:0:
160,208,43630,5,0,0:0:0:0:
256,192,43972,1,8,0:0:0:0:
256,192,44315,12,4,45687,0:0:0:0:
256,192,46372,5,0,0:0:0:0:
80,320,47058,1,0,0:0:0:0:
112,112,47744,2,0,P|208:80|256:48,1,160.000001192092
432,144,49115,1,0,0:0:0:0:
256,288,49801,2,0,P|304:336|336:272,1,160.000001192092
337,274,50830,5,0,0:0:0:0:
416,192,51172,1,8,0:0:0:0:
336,128,51515,2,0,L|256:80,1,80.000000596046,8|8,0:0|0:0,0:0:0:0:
192,160,52201,2,0,L|144:96,1,80.000000596046,8|8,0:0|0:0,0:0:0:0:
32,192,53058,1,8,0:0:0:0:
144,288,53572,2,0,L|192:224,1,80.000000596046,8|8,0:0|0:0,0:0:0:0:
352,240,54430,1,8,0:0:0:0:
448,128,54944,2,0,L|384:80,1,80.000000596046,8|8,0:0|0:0,0:0:0:0:
304,144,55630,2,0,L|256:128,4,40.000000298023,8|8|8|8|8,0:0|0:0|0:0|0:0|0:0,0:0:0:0:
304,144,56658,5,8,0:0:0:0:
256,288,57172,1,8,0:0:0:0:
128,192,57687,2,0,L|176:112,1,80.000000596046,8|8,0:0|0:0,0:0:0:0:
64,112,58372,1,0,0:0:0:0:
144,32,58715,1,8,0:0:0:0:
352,32,59401,1,8,0:0:0:0:
352,240,60087,1,8,0:0:0:0:
144,240,60772,1,8,0:0:0:0:
48,48,61458,2,0,P|112:64|128:80,1,80.000000596046,8|0,0:0|0:0,0:0:0:0:
208,96,62144,5,0,0:0:0:0:
336,192,62658,1,0,0:0:0:0:
368,48,63172,1,0,0:0:0:0:
368,48,64201,6,0,P|400:80|400:160,1,120.000000894069
