osu file format v14

[General]
AudioFilename: audio.mp3
AudioLeadIn: 0
PreviewTime: -1
Countdown: 0
SampleSet: None
StackLeniency: 1
Mode: 0
LetterboxInBreaks: 0
WidescreenStoryboard: 0

[Editor]
DistanceSpacing: 3.5
BeatDivisor: 4
GridSize: 16
TimelineZoom: 1

[Metadata]
Title:Home
TitleUnicode:Home
Artist:MY FIRST STORY
ArtistUnicode:MY FIRST STORY
Creator:Ringer
Version:Despair
Source:antithese
Tags:
BeatmapID:1226999
BeatmapSetID:579466

[Difficulty]
HPDrainRate:6
CircleSize:3.8
OverallDifficulty:6
ApproachRate:9.2
SliderMultiplier:1
SliderTickRate:1

[Events]
//Background and Video events
0,0,"5582969-touhou-wallpaper.jpg",0,0
//Break Periods
2,111715,120717
2,169315,179517
2,196572,200602
//Storyboard Layer 0 (Background)
//Storyboard Layer 1 (Fail)
//Storyboard Layer 2 (Pass)
//Storyboard Layer 3 (Foreground)
//Storyboard Sound Samples

[TimingPoints]
1801.52041436882,342.857142857143,4,2,0,70,1,0
1802,-100,4,2,0,50,0,0
5915,-66.6666666666667,4,3,0,70,0,0
6944,-66.6666666666667,4,3,0,80,0,0
9172,-66.6666666666667,4,3,0,90,0,0
9858,-66.6666666666667,4,3,0,80,0,0
11915,-66.6666666666667,4,3,0,90,0,0
12601,-66.6666666666667,4,3,0,80,0,0
14315,-66.6666666666667,4,3,0,90,0,0
15515,-66.6666666666667,4,3,0,80,0,0
19287,-66.6666666666667,4,3,0,90,0,0
20315,-66.6666666666667,4,3,0,70,0,0
21001,-66.6666666666667,4,3,0,80,0,0
23058,-66.6666666666667,4,3,0,90,0,0
23572,-66.6666666666667,4,3,0,80,0,0
34372,-66.6666666666667,4,3,0,80,0,0
45687,-125,4,2,0,40,0,0
49801,-125,4,1,0,90,0,0
51172,-66.6666666666667,4,3,0,80,0,0
51515,-66.6666666666667,4,3,0,80,0,0
51858,-66.6666666666667,4,3,0,80,0,0
52201,-66.6666666666667,4,3,0,80,0,0
52544,-66.6666666666667,4,3,0,80,0,0
53058,-66.6666666666667,4,3,0,80,0,0
53572,-66.6666666666667,4,3,0,80,0,0
53915,-66.6666666666667,4,3,0,80,0,0
54430,-66.6666666666667,4,3,0,80,0,0
54944,-66.6666666666667,4,3,0,80,0,0
55287,-66.6666666666667,4,3,0,80,0,0
55630,-66.6666666666667,4,3,0,80,0,0
55801,-66.6666666666667,4,3,0,80,0,0
55972,-66.6666666666667,4,3,0,80,0,0
56144,-66.6666666666667,4,3,0,80,0,0
56315,-66.6666666666667,4,3,0,80,0,0
56658,-66.6666666666667,4,3,0,80,0,0
57172,-66.6666666666667,4,3,0,80,0,0
57687,-66.6666666666667,4,3,0,80,0,0
58030,-66.6666666666667,4,3,0,80,0,0
62144,-66.6666666666667,4,3,0,80,0,0
63172,-66.6666666666667,4,3,0,80,0,0
64201,-66.6666666666667,4,3,0,80,0,1
64887,-66.6666666666667,4,3,0,80,0,1
83915,-66.6666666666667,4,3,0,80,0,1
84087,-66.6666666666667,4,3,0,80,0,0
90601,-66.6666666666667,4,2,0,50,0,0
91630,-66.6666666666667,4,3,0,80,0,0
92144,-66.6666666666667,4,2,0,50,0,0
93001,-66.6666666666667,4,3,0,80,0,0
93172,-66.6666666666667,4,3,0,80,0,0
93344,-66.6666666666667,4,2,0,50,0,0
94372,-66.6666666666667,4,3,0,80,0,0
96087,-66.6666666666667,4,2,0,50,0,0
97115,-66.6666666666667,4,3,0,80,0,0
110830,-100,4,3,0,80,0,0
111515,-66.6666666666667,4,3,0,80,0,0
121287,-200,4,3,0,80,0,0
121801,-100,4,3,0,80,0,0
122487,-200,4,3,0,80,0,0
124372,-100,4,3,0,80,0,0
124715,-200,4,3,0,80,0,0
130715,-200,4,3,0,80,0,0
131058,-133.333333333333,4,3,0,80,0,0
131401,-100,4,3,0,80,0,0
131744,-80,4,3,0,80,0,0
132087,-66.6666666666667,4,3,0,80,0,0
133287,-66.6666666666667,4,3,0,80,0,1
152487,-66.6666666666667,4,3,0,80,0,1
152658,-66.6666666666667,4,3,0,80,0,0
169115,-66.6666666666667,4,3,0,80,0,0
180087,-66.6666666666667,4,3,0,80,0,0
188144,-66.6666666666667,4,3,0,80,0,0
188315,-66.6666666666667,4,3,0,80,0,0
189687,-66.6666666666667,4,3,0,80,0,0
191058,-66.6666666666667,4,3,0,80,0,0
193115,-66.6666666666667,4,3,0,80,0,0
193801,-100,4,3,0,80,0,0
195001,-66.6666666666667,4,3,0,80,0,0
195172,-100,4,3,0,80,0,0
196544,-66.6666666666667,4,3,0,80,0,0
201172,-66.6666666666667,4,3,0,80,0,0
201858,-200,4,3,0,80,0,0
204601,-66.6666666666667,4,3,0,80,0,0
206830,-66.6666666666667,4,3,0,80,0,0
207344,-66.6666666666667,4,3,0,80,0,1
226715,-66.6666666666667,4,3,0,80,0,0
234944,-66.6666666666667,4,3,0,80,0,0
238372,-66.6666666666667,4,3,0,80,0,0

[HitObjects]
80,112,1801,6,0,P|144:96|128:192,1,200
129,191,2830,1,0,0:0:0:0:
432,112,3172,6,0,P|368:96|384:192,1,200
384,192,4201,1,0,0:0:0:0:
208,272,4544,6,0,P|228:334|301:270,1,200
301,270,5572,1,0,0:0:0:0:
256,112,5915,6,0,L|304:128,1,37.5
256,272,6087,2,0,L|208:256,1,37.5
288,160,6258,2,0,L|336:176,1,37.5,0|0,0:0|0:0,0:0:0:0:
288,320,6430,2,0,L|240:304,1,37.5
224,304,6515,1,0,0:0:0:0:
186,306,6601,5,0,0:0:0:0:
151,293,6687,1,0,0:0:0:0:
124,267,6772,1,0,0:0:0:0:
110,233,6858,1,0,0:0:0:0:
112,192,6944,2,0,L|192:144,1,75,8|0,0:0|0:0,0:0:0:0:
304,224,7287,5,0,0:0:0:0:
432,304,7458,2,0,L|432:224,1,75.0000028610231,0|8,0:0|0:0,0:0:0:0:
368,96,7801,1,0,0:0:0:0:
304,224,7972,6,0,L|320:304,2,75.0000028610231,0|0|8,0:0|0:0|0:0,0:0:0:0:
192,96,8487,1,0,0:0:0:0:
80,192,8658,5,0,0:0:0:0:
192,304,8830,2,0,L|272:272,1,75.0000028610231,0|8,0:0|0:0,0:0:0:0:
384,192,9172,1,8,0:0:0:0:
160,144,9344,1,8,0:0:0:0:
320,272,9515,1,8,0:0:0:0:
224,64,9687,2,0,L|304:48,1,75.0000028610231,8|4,0:0|0:0,0:0:0:0:
416,128,10030,5,0,0:0:0:0:
400,272,10201,2,0,L|326:286,1,75.0000028610231,0|8,0:0|0:0,0:0:0:0:
176,336,10544,1,0,0:0:0:0:
240,192,10715,6,0,L|320:224,2,75.0000028610231,0|0|8,0:0|0:0|0:0,0:0:0:0:
96,224,11230,1,0,0:0:0:0:
144,80,11401,5,0,0:0:0:0:
288,64,11572,2,0,L|368:48,1,75.0000028610231,0|8,0:0|0:0,0:0:0:0:
464,160,11915,1,8,0:0:0:0:
336,320,12087,1,8,0:0:0:0:
368,64,12258,1,8,0:0:0:0:
240,208,12430,2,0,L|144:192,1,75.0000028610231,8|0,0:0|0:0,0:0:0:0:
96,336,12772,5,0,0:0:0:0:
240,352,12944,2,0,L|336:336,1,75.0000028610231,0|8,0:0|0:0,0:0:0:0:
448,272,13287,1,0,0:0:0:0:
304,256,13458,6,0,L|208:272,2,75.0000028610231,0|0|8,0:0|0:0|0:0,0:0:0:0:
384,128,13972,1,0,0:0:0:0:
240,144,14144,2,0,L|160:80,1,75.0000028610231,0|8,0:0|0:0,0:0:0:0:
48,240,14487,1,8,0:0:0:0:
224,288,14658,1,8,0:0:0:0:
181,97,14830,1,8,0:0:0:0:
384,304,15001,1,8,0:0:0:0:
384,304,15344,5,12,0:0:0:0:
480,192,15515,1,0,0:0:0:0:
368,96,15687,2,0,L|352:176,1,75.0000028610231,0|8,0:0|0:0,0:0:0:0:
384,304,16030,1,0,0:0:0:0:
224,288,16201,5,0,0:0:0:0:
80,272,16372,2,0,L|96:192,1,75.0000028610231,0|8,0:0|0:0,0:0:0:0:
224,288,16715,1,0,0:0:0:0:
256,144,16887,6,0,L|272:64,2,75.0000028610231,0|0|8,0:0|0:0|0:0,0:0:0:0:
320,288,17401,1,0,0:0:0:0:
416,80,17572,1,8,0:0:0:0:
272,80,17744,2,8,L|224:48,1,37.5000014305115
128,160,17915,6,0,L|128:240,1,75.0000028610231
320,256,18258,1,0,0:0:0:0:
225,138,18430,2,0,L|289:58,1,75.0000028610231,0|8,0:0|0:0,0:0:0:0:
416,80,18772,5,0,0:0:0:0:
416,224,18944,2,0,L|464:304,2,75.0000028610231,0|0|8,0:0|0:0|0:0,0:0:0:0:
256,112,19458,1,0,0:0:0:0:
304,304,19630,1,8,0:0:0:0:
160,144,19801,1,0,0:0:0:0:
208,336,19972,1,8,0:0:0:0:
64,176,20144,1,0,0:0:0:0:
112,368,20315,6,8,L|163:355,1,37.5000014305115
304,304,20487,2,8,L|352:256,1,37.5000014305115
352,256,20658,5,8,0:0:0:0:
359,219,20743,1,0,0:0:0:0:
366,182,20829,1,0,0:0:0:0:
374,145,20915,1,0,0:0:0:0:
381,108,21000,1,8,0:0:0:0:
384,112,23058,5,8,0:0:0:0:
320,288,23230,1,8,0:0:0:0:
208,144,23401,2,8,L|256:64,1,75.0000028610231
96,96,23744,5,0,0:0:0:0:
112,240,23915,2,0,L|160:320,1,75.0000028610231,0|8,0:0|0:0,0:0:0:0:
96,96,24258,1,0,0:0:0:0:
224,176,24430,5,0,0:0:0:0:
304,48,24601,2,0,L|352:128,1,75.0000028610231,0|8,0:0|0:0,0:0:0:0:
384,256,24944,1,0,0:0:0:0:
240,320,25115,1,0,0:0:0:0:
144,192,25287,1,8,0:0:0:0:
144,192,25458,5,8,0:0:0:0:
240,320,25630,1,0,0:0:0:0:
384,384,25801,5,0,0:0:0:0:
416,240,25972,2,0,L|464:160,1,75.0000028610231,0|8,0:0|0:0,0:0:0:0:
320,144,26315,1,0,0:0:0:0:
384,0,26487,5,0,0:0:0:0:
240,16,26658,2,0,L|201:80,1,75.0000028610231,0|8,0:0|0:0,0:0:0:0:
112,208,27001,1,0,0:0:0:0:
64,64,27172,5,0,0:0:0:0:
192,160,27344,2,0,L|230:224,1,75.0000028610231,0|8,0:0|0:0,0:0:0:0:
368,272,27687,1,0,0:0:0:0:
448,144,27858,1,0,0:0:0:0:
368,16,28030,1,8,0:0:0:0:
368,16,28201,5,8,0:0:0:0:
448,144,28372,1,0,0:0:0:0:
304,272,28544,2,0,L|224:256,1,75.0000028610231,0|8,0:0|0:0,0:0:0:0:
224,64,28887,2,0,L|144:80,1,75.0000028610231,0|8,0:0|0:0,0:0:0:0:
64,192,29230,5,0,0:0:0:0:
176,304,29401,2,0,L|272:304,1,75.0000028610231,0|8,0:0|0:0,0:0:0:0:
416,256,29744,1,0,0:0:0:0:
272,192,29915,5,0,0:0:0:0:
336,48,30087,2,0,L|432:48,1,75.0000028610231,0|8,0:0|0:0,0:0:0:0:
464,192,30430,1,0,0:0:0:0:
384,320,30601,1,0,0:0:0:0:
240,320,30772,1,8,0:0:0:0:
240,320,30944,5,8,0:0:0:0:
384,320,31115,1,0,0:0:0:0:
464,192,31287,5,0,0:0:0:0:
272,192,31458,2,0,L|272:112,1,75.0000028610231,0|8,0:0|0:0,0:0:0:0:
160,80,31801,1,0,0:0:0:0:
304,32,31972,5,0,0:0:0:0:
352,176,32144,2,0,L|352:251,1,75.0000028610231,0|8,0:0|0:0,0:0:0:0:
224,336,32487,1,0,0:0:0:0:
96,256,32658,5,0,0:0:0:0:
128,112,32830,2,0,L|192:64,1,75.0000028610231,0|8,0:0|0:0,0:0:0:0:
336,80,33172,1,0,0:0:0:0:
208,192,33344,5,0,0:0:0:0:
304,304,33515,1,8,0:0:0:0:
304,304,33601,1,8,0:0:0:0:
304,304,33687,5,8,0:0:0:0:
416,192,33858,1,0,0:0:0:0:
208,96,34030,1,8,0:0:0:0:
416,96,34201,1,0,0:0:0:0:
208,192,34372,5,8,0:0:0:0:
160,368,34544,2,0,L|240:384,1,75.0000028610231,12|8,0:0|0:0,0:0:0:0:
400,304,34887,2,0,L|326:289,1,75.0000028610231,0|8,0:0|0:0,0:0:0:0:
144,336,35230,6,0,L|224:352,1,75.0000028610231,0|8,0:0|0:0,0:0:0:0:
384,272,35572,2,0,L|310:257,1,75.0000028610231,0|8,0:0|0:0,0:0:0:0:
128,304,35915,6,0,L|208:320,1,75.0000028610231,0|8,0:0|0:0,0:0:0:0:
368,240,36258,2,0,L|294:225,1,75.0000028610231,0|8,0:0|0:0,0:0:0:0:
112,272,36601,6,0,L|192:288,1,75.0000028610231,0|8,0:0|0:0,0:0:0:0:
448,192,36944,1,0,0:0:0:0:
176,96,37115,1,8,0:0:0:0:
176,96,37201,1,8,0:0:0:0:
176,96,37287,6,0,L|160:176,1,75.0000028610231,12|8,0:0|0:0,0:0:0:0:
240,336,37630,2,0,L|254:262,1,75.0000028610231,0|8,0:0|0:0,0:0:0:0:
208,80,37973,6,0,L|192:160,1,75.0000028610231,0|8,0:0|0:0,0:0:0:0:
272,320,38315,2,0,L|286:246,1,75.0000028610231,0|8,0:0|0:0,0:0:0:0:
240,64,38658,6,0,L|224:144,1,75.0000028610231,0|8,0:0|0:0,0:0:0:0:
304,304,39001,2,0,L|318:230,1,75.0000028610231,0|8,0:0|0:0,0:0:0:0:
272,48,39344,6,0,L|256:128,1,75.0000028610231,0|8,0:0|0:0,0:0:0:0:
352,384,39687,1,0,0:0:0:0:
448,112,39858,1,8,0:0:0:0:
448,112,39944,1,8,0:0:0:0:
448,112,40030,5,12,0:0:0:0:
400,208,40201,1,8,0:0:0:0:
352,352,40372,5,0,0:0:0:0:
288,256,40543,1,8,0:0:0:0:
288,112,40715,5,0,0:0:0:0:
224,208,40887,1,8,0:0:0:0:
208,352,41057,5,0,0:0:0:0:
144,256,41228,1,8,0:0:0:0:
128,112,41401,5,0,0:0:0:0:
64,208,41573,1,8,0:0:0:0:
128,352,41744,5,0,0:0:0:0:
0,320,41915,2,8,P|34:261|93:295,1,150.000005722046
304,384,42430,1,0,0:0:0:0:
480,192,42601,2,8,L|464:96,1,75.0000028610231,8|12,0:0|0:0,0:0:0:0:
464,80,42944,5,8,0:0:0:0:
256,144,43115,1,0,0:0:0:0:
256,256,43287,1,8,0:0:0:0:
96,64,43630,5,0,0:0:0:0:
416,64,43972,1,0,0:0:0:0:
256,368,44315,1,0,0:0:0:0:
464,304,44487,6,8,L|432:224,1,75.0000028610231
352,112,44830,5,8,0:0:0:0:
336,112,44915,1,8,0:0:0:0:
320,112,45001,1,8,0:0:0:0:
336,320,45172,2,0,L|240:304,1,75.0000028610231,0|8,0:0|0:0,0:0:0:0:
480,272,45515,1,0,0:0:0:0:
288,192,45687,6,0,L|240:208,1,40,12|0,0:0|0:0,0:0:0:0:
160,272,46030,2,0,P|112:240|112:240,1,40,8|0,0:0|0:0,0:0:0:0:
160,128,46372,2,0,L|197:115,1,40,8|0,0:0|0:0,0:0:0:0:
320,96,46715,2,0,B|305:86|353:118,1,40,8|0,0:0|0:0,0:0:0:0:
416,208,47058,6,0,L|416:256,1,40,8|0,0:0|0:0,0:0:0:0:
320,320,47401,2,0,L|320:272,1,40,8|0,0:0|0:0,0:0:0:0:
208,240,47744,2,0,L|208:288,1,40,8|0,0:0|0:0,0:0:0:0:
112,352,48087,2,0,L|112:304,1,40,8|0,0:0|0:0,0:0:0:0:
64,208,48430,6,0,L|96:160,1,40,8|0,0:0|0:0,0:0:0:0:
32,64,48772,2,0,L|80:96,1,40,8|0,0:0|0:0,0:0:0:0:
176,48,49115,2,0,L|144:96,1,40,8|0,0:0|0:0,0:0:0:0:
208,192,49457,2,0,L|160:160,1,40,8|0,0:0|0:0,0:0:0:0:
272,96,49801,5,8,0:0:0:0:
384,144,49972,1,0,0:0:0:0:
272,192,50144,1,8,0:0:0:0:
384,240,50315,1,0,0:0:0:0:
272,288,50487,1,8,0:0:0:0:
112,320,50658,6,0,L|96:272,1,40,8|0,0:0|0:0,0:0:0:0:
96,128,51001,2,0,L|112:80,1,40,8|8,0:0|0:0,0:0:0:0:
128,64,51258,1,0,0:0:0:0:
161,48,51343,1,0,0:0:0:0:
199,47,51429,1,0,0:0:0:0:
224,64,51515,6,0,L|264:104,3,37.5000014305115,8|0|0|0,0:0|0:0|0:0|0:0,0:0:0:0:
264,120,51858,5,0,0:0:0:0:
264,157,51943,1,0,0:0:0:0:
264,195,52029,1,0,0:0:0:0:
264,232,52115,1,0,0:0:0:0:
288,256,52201,6,0,L|352:280,3,37.5000014305115,8|0|0|0,0:0|0:0|0:0|0:0,0:0:0:0:
352,240,52544,6,0,L|416:264,5,37.5000014305115,8|0|0|0|0|0,0:0|0:0|0:0|0:0|0:0|0:0,0:0:0:0:
400,224,53058,6,0,L|464:248,5,37.5000014305115,8|0|0|0|0|0,0:0|0:0|0:0|0:0|0:0|0:0,0:0:0:0:
464,256,53572,5,8,0:0:0:0:
454,291,53657,1,0,0:0:0:0:
430,320,53743,1,0,0:0:0:0:
397,337,53829,1,0,0:0:0:0:
352,336,53915,6,0,L|288:312,5,37.5000014305115,8|0|0|0|0|0,0:0|0:0|0:0|0:0|0:0|0:0,0:0:0:0:
304,352,54430,6,0,L|240:328,5,37.5000014305115,8|0|0|0|0|0,0:0|0:0|0:0|0:0|0:0|0:0,0:0:0:0:
240,336,54944,5,8,0:0:0:0:
202,336,55029,1,0,0:0:0:0:
165,336,55115,1,0,0:0:0:0:
127,336,55201,1,0,0:0:0:0:
96,320,55287,6,0,L|64:272,3,37.5000014305115,8|0|0|0,0:0|0:0|0:0|0:0,0:0:0:0:
64,256,55630,5,8,0:0:0:0:
208,240,55801,2,8,L|224:160,1,75.0000028610231
128,80,56144,2,0,L|144:144,1,37.5000014305115,8|0,0:0|0:0,0:0:0:0:
144,144,56315,5,8,0:0:0:0:
160,177,56400,1,0,0:0:0:0:
186,204,56486,1,0,0:0:0:0:
219,222,56572,1,0,0:0:0:0:
256,240,56658,6,0,L|304:240,5,37.5000014305115,8|0|0|0|0|0,0:0|0:0|0:0|0:0|0:0|0:0,0:0:0:0:
288,272,57172,6,0,L|336:272,5,37.5000014305115,8|0|0|0|0|0,0:0|0:0|0:0|0:0|0:0|0:0,0:0:0:0:
352,256,57687,5,8,0:0:0:0:
370,223,57772,1,0,0:0:0:0:
388,190,57858,1,0,0:0:0:0:
406,157,57944,1,0,0:0:0:0:
424,124,58029,5,8,0:0:0:0:
256,48,58201,2,0,L|176:64,1,75.0000028610231,0|8,0:0|0:0,0:0:0:0:
0,112,58544,2,0,L|73:126,1,75.0000028610231,0|8,0:0|0:0,0:0:0:0:
256,192,58887,2,0,L|176:208,1,75.0000028610231,0|8,0:0|0:0,0:0:0:0:
0,272,59230,2,0,L|73:286,1,75.0000028610231,0|8,0:0|0:0,0:0:0:0:
256,352,59572,5,0,0:0:0:0:
176,272,59743,1,8,0:0:0:0:
432,192,59915,5,0,0:0:0:0:
352,272,60086,1,8,0:0:0:0:
272,64,60258,5,0,0:0:0:0:
352,144,60429,1,8,0:0:0:0:
96,224,60601,5,0,0:0:0:0:
176,144,60772,1,8,0:0:0:0:
256,352,60944,5,0,0:0:0:0:
176,272,61115,1,8,0:0:0:0:
384,240,61287,5,8,0:0:0:0:
384,224,61372,1,8,0:0:0:0:
384,208,61458,1,8,0:0:0:0:
272,64,61630,5,0,0:0:0:0:
272,64,61801,2,8,P|331:98|297:157,1,150.000005722046
0,208,62487,1,0,0:0:0:0:
304,160,62658,2,8,P|400:192|329:253,1,225.000008583069
340,254,64201,5,8,0:0:0:0:
112,112,64372,1,8,0:0:0:0:
112,112,64715,6,0,L|208:80,1,75.0000028610231,0|8,0:0|0:0,0:0:0:0:
368,128,65058,1,0,0:0:0:0:
160,176,65230,5,0,0:0:0:0:
336,224,65401,2,0,L|256:256,1,75.0000028610231,0|8,0:0|0:0,0:0:0:0:
80,320,65744,1,0,0:0:0:0:
208,176,65915,1,8,0:0:0:0:
384,304,66087,1,0,0:0:0:0:
272,112,66258,5,8,0:0:0:0:
384,304,66430,1,0,0:0:0:0:
336,64,66601,1,8,0:0:0:0:
384,304,66772,1,0,0:0:0:0:
432,80,66944,1,8,0:0:0:0:
384,304,67115,6,8,L|304:288,1,75.0000028610231
128,240,67458,2,0,L|128:160,1,75.0000028610231
336,80,67801,1,0,0:0:0:0:
144,80,67972,5,8,0:0:0:0:
336,192,68144,2,0,P|272:240|272:240,1,75.0000028610231,0|8,0:0|0:0,0:0:0:0:
144,80,68487,1,0,0:0:0:0:
276,237,68658,2,8,L|340:301,1,75.0000028610231
352,32,69001,6,0,L|288:80,1,75.0000028610231,8|0,0:0|0:0,0:0:0:0:
112,112,69344,2,0,L|192:176,1,75.0000028610231,8|0,0:0|0:0,0:0:0:0:
304,288,69687,2,0,L|208:336,1,75.0000028610231,8|8,0:0|0:0,0:0:0:0:
276,63,70030,5,8,0:0:0:0:
236,321,70201,2,0,P|176:288|224:256,1,150.000005722046,8|8,0:0|0:0,0:0:0:0:
416,144,70715,1,8,0:0:0:0:
224,256,70887,1,0,0:0:0:0:
276,63,71058,1,8,0:0:0:0:
96,96,71230,6,0,L|16:144,1,75.0000028610231,0|8,0:0|0:0,0:0:0:0:
192,224,71572,6,0,L|112:272,1,75.0000028610231,0|8,0:0|0:0,0:0:0:0:
127,262,71915,5,0,0:0:0:0:
448,64,72258,5,0,0:0:0:0:
80,32,72601,5,0,0:0:0:0:
304,336,72944,5,0,0:0:0:0:
80,32,73287,5,0,0:0:0:0:
448,144,73630,6,0,L|416:176,1,37.5000014305115
384,192,73801,1,8,0:0:0:0:
256,64,73972,1,0,0:0:0:0:
336,272,74144,1,8,0:0:0:0:
192,144,74315,2,0,P|148:190|208:210,1,150.000005722046,4|0,0:0|0:0,0:0:0:0:
336,272,74830,5,8,0:0:0:0:
128,352,75001,2,0,L|112:272,1,75.0000028610231,0|8,0:0|0:0,0:0:0:0:
112,240,75258,1,0,0:0:0:0:
108,202,75343,1,0,0:0:0:0:
105,165,75429,1,0,0:0:0:0:
102,127,75515,5,0,0:0:0:0:
99,90,75600,1,0,0:0:0:0:
96,53,75687,2,0,P|116:-6|162:36,1,150.000005722046
240,240,76201,1,8,0:0:0:0:
256,16,76372,1,0,0:0:0:0:
240,240,76544,5,8,0:0:0:0:
384,336,76715,2,0,L|400:256,1,75.0000028610231,0|8,0:0|0:0,0:0:0:0:
416,32,77058,1,0,0:0:0:0:
400,256,77230,5,8,0:0:0:0:
320,48,77401,1,0,0:0:0:0:
400,256,77572,5,8,0:0:0:0:
240,96,77744,2,0,L|224:176,1,75.0000028610231,0|8,0:0|0:0,0:0:0:0:
128,336,78087,2,8,L|144:256,1,75.0000028610231
96,80,78430,2,0,P|116:21|162:63,1,150.000005722046,8|8,0:0|0:0,0:0:0:0:
384,112,78944,5,0,0:0:0:0:
161,65,79115,1,0,0:0:0:0:
384,224,79287,6,0,L|288:256,1,75.0000028610231,8|0,0:0|0:0,0:0:0:0:
176,384,79630,2,0,L|104:360,1,75.0000028610231,8|0,0:0|0:0,0:0:0:0:
48,144,79972,6,0,L|119:120,1,75.0000028610231,8|0,0:0|0:0,0:0:0:0:
496,176,80487,1,0,0:0:0:0:
112,336,80830,1,0,0:0:0:0:
104,299,80915,1,0,0:0:0:0:
97,262,81001,5,0,0:0:0:0:
89,225,81087,1,0,0:0:0:0:
80,192,81172,2,0,L|128:128,1,75.0000028610231,0|8,0:0|0:0,0:0:0:0:
352,80,81515,1,0,0:0:0:0:
368,96,81601,1,0,0:0:0:0:
384,112,81687,5,8,0:0:0:0:
176,192,81858,1,0,0:0:0:0:
384,320,82030,1,8,0:0:0:0:
256,96,82201,1,0,0:0:0:0:
0,192,82372,1,8,0:0:0:0:
64,0,82544,1,0,0:0:0:0:
176,192,82715,5,8,0:0:0:0:
384,224,82887,1,0,0:0:0:0:
304,16,83058,1,8,0:0:0:0:
272,240,83230,1,0,0:0:0:0:
263,276,83315,1,0,0:0:0:0:
239,305,83401,5,0,0:0:0:0:
206,321,83487,1,0,0:0:0:0:
169,322,83572,1,8,0:0:0:0:
272,80,83744,1,8,0:0:0:0:
464,272,83915,1,12,0:0:0:0:
464,272,85972,5,0,0:0:0:0:
448,272,86058,1,0,0:0:0:0:
432,272,86144,2,8,L|368:224,1,75.0000028610231,8|0,0:0|0:0,0:0:0:0:
256,128,86487,2,8,L|192:176,1,75.0000028610231,8|0,0:0|0:0,0:0:0:0:
256,320,87001,1,0,0:0:0:0:
256,320,87172,6,0,P|275:291|195:275,1,150.000005722046,0|8,0:0|0:0,0:0:0:0:
80,368,87687,2,0,B|32:304|32:304|32:224,1,150.000005722046
96,96,88201,5,0,0:0:0:0:
240,48,88372,6,8,L|320:64,1,75.0000028610231
384,192,88715,2,8,L|336:208,1,37.5000014305115
272,208,88887,1,8,0:0:0:0:
96,48,89058,1,8,0:0:0:0:
96,336,89230,1,8,0:0:0:0:
96,336,89401,6,0,P|144:368|240:320,1,150.000005722046,8|0,0:0|0:0,0:0:0:0:
352,304,89915,1,0,0:0:0:0:
256,208,90087,2,0,L|320:160,1,75.0000028610231,0|8,0:0|0:0,0:0:0:0:
464,208,90430,1,0,0:0:0:0:
352,304,90601,6,0,L|256:336,1,75.0000028610231
176,224,90944,2,0,L|199:152,1,75.0000028610231
352,128,91287,2,0,L|400:192,1,75.0000028610231
176,224,91630,5,8,0:0:0:0:
400,192,91801,1,0,0:0:0:0:
280,328,91972,1,0,0:0:0:0:
48,208,92144,6,0,L|64:112,1,75.0000028610231
208,104,92487,2,0,L|195:177,1,75.0000028610231
344,152,92830,2,0,L|360:56,1,75.0000028610231,0|8,0:0|0:0,0:0:0:0:
448,208,93172,1,0,0:0:0:0:
356,337,93344,6,0,L|340:241,1,75.0000028610231
196,233,93687,2,0,L|209:306,1,75.0000028610231
60,281,94030,2,0,L|44:185,1,75.0000028610231
112,32,94372,5,8,0:0:0:0:
192,192,94544,1,8,0:0:0:0:
272,32,94715,1,8,0:0:0:0:
368,192,94887,2,0,P|378:256|314:249,1,150.000005722046,12|0,0:0|0:0,0:0:0:0:
176,128,95401,6,0,L|128:192,1,75.0000028610231
128,336,95744,1,8,0:0:0:0:
272,256,95915,1,0,0:0:0:0:
176,128,96087,6,0,L|272:144,1,75.0000028610231
304,80,96430,2,0,L|240:160,1,75.0000028610231
285,208,96772,2,0,L|253:128,1,75.0000028610231
128,208,97115,5,8,0:0:0:0:
256,288,97287,1,0,0:0:0:0:
80,352,97458,1,0,0:0:0:0:
128,208,97630,1,0,0:0:0:0:
144,64,97801,2,0,P|128:16|80:80,1,150.000005722046
256,288,98487,5,8,0:0:0:0:
256,288,98658,2,0,P|305:298|274:224,1,150.000005722046
304,48,99172,2,0,L|256:112,1,75.0000028610231
208,256,99515,6,0,L|256:320,1,75.0000028610231,0|8,0:0|0:0,0:0:0:0:
329,311,99772,2,8,L|365:300,1,37.5000014305115
416,32,100030,1,8,0:0:0:0:
320,272,100201,5,8,0:0:0:0:
432,80,100372,2,8,L|416:160,1,75.0000028610231,12|8,0:0|0:0,0:0:0:0:
336,320,100715,2,8,L|352:240,1,75.0000028610231,0|8,0:0|0:0,0:0:0:0:
336,64,101058,2,8,L|320:144,1,75.0000028610231,0|8,0:0|0:0,0:0:0:0:
240,304,101401,2,8,L|256:224,1,75.0000028610231,0|8,0:0|0:0,0:0:0:0:
240,48,101744,2,8,L|224:128,1,75.0000028610231,0|8,0:0|0:0,0:0:0:0:
144,288,102087,2,8,L|160:208,1,75.0000028610231,0|8,0:0|0:0,0:0:0:0:
144,32,102430,6,8,L|128:112,1,75.0000028610231,0|8,0:0|0:0,0:0:0:0:
352,192,102772,1,0,0:0:0:0:
256,368,102944,1,8,0:0:0:0:
240,368,103030,1,8,0:0:0:0:
224,368,103115,6,0,L|192:288,1,75.0000028610231,12|8,0:0|0:0,0:0:0:0:
32,224,103458,2,0,L|112:192,1,75.0000028610231,0|8,0:0|0:0,0:0:0:0:
272,128,103801,2,0,L|202:155,1,75.0000028610231,0|8,0:0|0:0,0:0:0:0:
304,320,104144,2,0,L|384:288,1,75.0000028610231,0|8,0:0|0:0,0:0:0:0:
448,112,104487,6,0,L|448:32,1,75.0000028610231
272,128,104830,1,0,0:0:0:0:
96,64,105001,1,8,0:0:0:0:
96,288,105172,1,0,0:0:0:0:
272,224,105344,1,8,0:0:0:0:
288,240,105430,1,8,0:0:0:0:
304,256,105515,6,0,P|384:256|384:256,1,75.0000028610231,8|8,0:0|0:0,0:0:0:0:
384,0,105858,1,12,0:0:0:0:
256,128,106030,1,8,0:0:0:0:
480,128,106201,1,0,0:0:0:0:
379,256,106373,1,8,0:0:0:0:
96,336,106544,1,0,0:0:0:0:
432,80,106887,1,8,0:0:0:0:
32,144,107230,1,0,0:0:0:0:
32,144,107744,6,0,P|21:211|96:192,1,150.000005722046
208,64,108258,2,0,L|224:112,1,37.5000014305115
288,160,108430,5,0,0:0:0:0:
352,336,108601,2,0,P|411:368|418:292,1,150.000005722046
432,160,109115,1,0,0:0:0:0:
288,48,109287,1,0,0:0:0:0:
240,224,109458,6,0,P|176:272|128:112,1,300.000011444092
336,112,110315,1,0,0:0:0:0:
144,96,110487,1,0,0:0:0:0:
304,80,110658,1,0,0:0:0:0:
176,64,110830,2,0,L|96:16,2,75
176,64,111515,1,0,0:0:0:0:
112,96,121287,5,0,0:0:0:0:
192,144,121459,1,0,0:0:0:0:
112,208,121630,5,0,0:0:0:0:
192,256,121802,1,0,0:0:0:0:
352,192,121972,1,0,0:0:0:0:
192,144,122144,1,0,0:0:0:0:
64,64,122315,1,0,0:0:0:0:
64,64,122487,6,0,P|112:64|144:48,1,75,0|8,0:0|0:0,0:0:0:0:
224,96,123172,1,0,0:0:0:0:
288,176,123344,1,0,0:0:0:0:
320,272,123515,1,0,0:0:0:0:
384,352,123687,6,0,P|432:384|432:384,2,50
200,272,124544,1,0,0:0:0:0:
200,272,125230,6,0,P|248:272|280:256,1,75,0|8,0:0|0:0,0:0:0:0:
336,181,126258,6,0,P|312:139|282:119,1,75,0|8,0:0|0:0,0:0:0:0:
96,96,127115,1,8,0:0:0:0:
80,112,127201,1,8,0:0:0:0:
96,128,127287,1,12,0:0:0:0:
96,128,127972,5,0,0:0:0:0:
128,224,128144,1,0,0:0:0:0:
144,112,128315,1,0,0:0:0:0:
96,192,128487,1,0,0:0:0:0:
48,288,128658,1,0,0:0:0:0:
144,320,128830,1,0,0:0:0:0:
240,288,129001,1,4,0:0:0:0:
240,288,130715,5,0,0:0:0:0:
320,192,130887,1,0,0:0:0:0:
144,176,131058,1,0,0:0:0:0:
288,96,131230,1,0,0:0:0:0:
480,176,131401,1,0,0:0:0:0:
304,16,131572,1,0,0:0:0:0:
64,112,131744,1,0,0:0:0:0:
256,288,131915,1,0,0:0:0:0:
480,176,132087,1,8,0:0:0:0:
443,185,132172,1,0,0:0:0:0:
406,192,132258,1,0,0:0:0:0:
369,188,132344,1,0,0:0:0:0:
333,179,132429,5,8,0:0:0:0:
96,304,132601,1,8,0:0:0:0:
208,144,132772,2,8,P|272:112|272:112,1,37.5000014305115,8|0,0:0|0:0,0:0:0:0:
176,32,132944,2,0,B|179:30|148:45,1,37.5000014305115
64,128,133115,2,8,L|96:208,1,75.0000028610231,8|12,0:0|0:0,0:0:0:0:
240,256,133458,5,0,0:0:0:0:
448,224,133630,1,0,0:0:0:0:
320,80,133801,1,8,0:0:0:0:
128,64,133972,2,0,L|176:144,1,75.0000028610231,0|8,0:0|0:0,0:0:0:0:
416,288,134487,5,8,0:0:0:0:
320,80,134658,1,0,0:0:0:0:
336,304,134830,1,8,0:0:0:0:
320,80,135001,1,0,0:0:0:0:
256,320,135172,1,8,0:0:0:0:
320,80,135344,1,0,0:0:0:0:
192,272,135515,1,8,0:0:0:0:
112,96,135687,2,8,L|208:144,1,75.0000028610231
352,192,136030,6,8,P|412:208|401:146,1,150.000005722046,4|0,0:0|0:0,0:0:0:0:
256,272,136544,1,8,0:0:0:0:
160,64,136715,1,0,0:0:0:0:
64,272,136887,6,8,P|47:332|109:321,1,150.000005722046,0|8,0:0|0:0,0:0:0:0:
304,304,137401,2,0,L|384:272,1,75.0000028610231
416,48,137744,2,0,L|320:64,1,75.0000028610231,0|8,0:0|0:0,0:0:0:0:
80,128,138087,2,0,L|160:176,1,75.0000028610231
342,60,138430,2,0,L|326:140,1,75.0000028610231,0|8,0:0|0:0,0:0:0:0:
304,304,138772,6,8,P|243:320|254:258,1,150.000005722046,4|8,0:0|0:0,0:0:0:0:
256,32,139287,1,8,0:0:0:0:
320,208,139458,1,0,0:0:0:0:
144,64,139630,1,8,0:0:0:0:
320,208,139801,6,0,L|256:288,1,75.0000028610231,0|8,0:0|0:0,0:0:0:0:
80,256,140144,2,0,L|144:176,1,75.0000028610231,0|8,0:0|0:0,0:0:0:0:
336,112,140487,5,0,0:0:0:0:
32,32,140830,5,0,0:0:0:0:
368,272,141172,5,0,0:0:0:0:
32,32,141515,5,0,0:0:0:0:
128,288,141858,5,0,0:0:0:0:
368,64,142201,6,0,L|369:109,1,37.5000014305115
360,144,142372,1,8,0:0:0:0:
179,150,142543,1,0,0:0:0:0:
386,234,142715,1,8,0:0:0:0:
194,252,142886,2,0,P|197:315|253:285,1,150.000005722046,4|0,0:0|0:0,0:0:0:0:
432,312,143401,5,8,0:0:0:0:
432,96,143572,2,0,L|336:56,1,75.0000028610231,0|8,0:0|0:0,0:0:0:0:
200,64,143915,2,0,L|168:96,1,37.5000014305115
152,160,144087,1,8,0:0:0:0:
386,234,144258,6,0,P|449:230|419:174,1,150.000005722046,4|0,0:0|0:0,0:0:0:0:
208,96,144772,1,8,0:0:0:0:
176,320,144944,1,0,0:0:0:0:
288,128,145115,1,8,0:0:0:0:
112,256,145287,6,0,L|80:160,1,75.0000028610231,0|8,0:0|0:0,0:0:0:0:
272,48,145630,1,0,0:0:0:0:
48,112,145801,1,8,0:0:0:0:
288,128,145972,1,0,0:0:0:0:
448,288,146144,1,8,0:0:0:0:
352,64,146315,1,0,0:0:0:0:
368,256,146487,1,8,0:0:0:0:
144,256,146658,2,0,L|160:160,1,75.0000028610231,8|8,0:0|0:0,0:0:0:0:
352,64,147001,6,0,P|408:34|400:112,1,150.000005722046,4|0,0:0|0:0,0:0:0:0:
320,288,147515,1,8,0:0:0:0:
256,32,147687,1,0,0:0:0:0:
208,256,147858,6,0,P|152:286|160:208,1,150.000005722046,8|8,0:0|0:0,0:0:0:0:
256,32,148372,2,0,L|352:64,1,75.0000028610231,0|8,0:0|0:0,0:0:0:0:
496,144,148715,2,0,L|496:224,1,75.0000028610231,0|8,0:0|0:0,0:0:0:0:
336,320,149058,6,0,P|273:306|330:252,1,150.000005722046,8|8,0:0|0:0,0:0:0:0:
496,144,149572,1,8,0:0:0:0:
336,64,149744,6,0,P|273:77|330:131,1,150.000005722046,12|8,0:0|0:0,0:0:0:0:
80,192,150258,1,8,0:0:0:0:
224,336,150430,1,8,0:0:0:0:
448,288,150601,2,0,P|400:224|320:192,1,150.000005722046,8|8,0:0|0:0,0:0:0:0:
144,320,151115,2,0,L|96:256,1,75.0000028610231,8|8,0:0|0:0,0:0:0:0:
95,218,151372,1,0,0:0:0:0:
107,183,151458,1,0,0:0:0:0:
130,153,151544,1,0,0:0:0:0:
161,133,151629,5,8,0:0:0:0:
256,336,151801,2,0,L|304:320,1,37.5000014305115
368,240,151972,2,0,L|384:192,1,37.5000014305115,8|0,0:0|0:0,0:0:0:0:
384,160,152144,1,0,0:0:0:0:
359,131,152229,1,0,0:0:0:0:
334,103,152315,1,8,0:0:0:0:
309,75,152401,1,0,0:0:0:0:
285,47,152487,6,0,L|208:48,1,75.0000028610231,12|8,0:0|0:0,0:0:0:0:
80,176,152830,1,0,0:0:0:0:
224,304,153001,1,0,0:0:0:0:
368,176,153172,2,0,L|432:96,2,75.0000028610231
224,304,153687,5,8,0:0:0:0:
192,128,153858,2,0,L|180:26,2,75.0000028610231
224,304,154372,5,8,0:0:0:0:
416,304,154544,2,0,L|448:224,1,75.0000028610231,8|0,0:0|0:0,0:0:0:0:
368,64,154887,2,8,L|320:32,1,37.5000014305115
256,48,155058,5,8,0:0:0:0:
96,256,155230,2,0,P|160:288|240:256,1,150.000005722046,12|0,0:0|0:0,0:0:0:0:
384,368,155744,1,8,0:0:0:0:
368,176,155915,2,0,L|288:208,2,75.0000028610231
464,16,156430,5,8,0:0:0:0:
288,96,156601,1,0,0:0:0:0:
464,16,156772,1,8,0:0:0:0:
240,32,156944,1,0,0:0:0:0:
464,16,157115,1,8,0:0:0:0:
464,16,157287,2,8,L|480:96,1,75.0000028610231
368,288,157630,1,8,0:0:0:0:
352,272,157715,1,8,0:0:0:0:
336,256,157800,5,8,0:0:0:0:
144,288,157972,2,0,P|120:218|152:152,1,150.000005722046,12|0,0:0|0:0,0:0:0:0:
336,96,158487,5,8,0:0:0:0:
336,288,158658,2,0,L|368:368,2,75.0000028610231
416,128,159172,5,8,0:0:0:0:
240,80,159344,2,0,L|144:64,2,75.0000028610231
384,208,159858,1,8,0:0:0:0:
176,288,160030,2,8,L|160:240,1,37.5000014305115
128,176,160201,1,8,0:0:0:0:
384,112,160372,1,12,0:0:0:0:
384,112,160715,6,0,L|304:96,1,75.0000028610231,4|0,0:0|0:0,0:0:0:0:
144,176,161058,1,0,0:0:0:0:
272,32,161230,5,8,0:0:0:0:
96,96,161401,2,0,L|32:48,2,75.0000028610231
256,144,161915,5,8,0:0:0:0:
432,192,162087,2,0,L|496:144,2,75.0000028610231
256,240,162601,5,8,0:0:0:0:
64,224,162772,2,8,L|48:176,1,37.5000014305115
48,112,162944,1,8,0:0:0:0:
304,144,163115,1,8,0:0:0:0:
80,0,163287,1,8,0:0:0:0:
208,224,163458,2,0,P|232:292|298:324,1,150.000005722046,12|0,0:0|0:0,0:0:0:0:
400,272,163972,1,8,0:0:0:0:
400,272,164315,6,0,P|375:203|309:171,1,150.000005722046,12|0,0:0|0:0,0:0:0:0:
224,96,164830,1,0,0:0:0:0:
128,32,165001,1,8,0:0:0:0:
32,96,165172,1,0,0:0:0:0:
128,160,165344,6,0,P|152:228|218:260,1,150.000005722046,12|0,0:0|0:0,0:0:0:0:
384,320,165858,1,0,0:0:0:0:
464,112,166030,1,0,0:0:0:0:
352,32,166201,6,0,P|283:56|251:122,1,150.000005722046,12|0,0:0|0:0,0:0:0:0:
160,192,166715,1,0,0:0:0:0:
96,288,166887,1,0,0:0:0:0:
208,288,167058,6,0,P|276:263|304:192,1,150.000005722046,12|0,0:0|0:0,0:0:0:0:
416,160,167572,1,0,0:0:0:0:
304,112,167744,1,0,0:0:0:0:
208,48,167915,6,0,P|176:114|207:183,1,150.000005722046,12|0,0:0|0:0,0:0:0:0:
96,192,168430,2,0,L|48:144,2,50.0000019073487
160,272,168772,2,0,L|112:320,2,50.0000019073487
256,240,169115,1,4,0:0:0:0:
256,240,180087,6,0,L|256:160,2,75.0000028610231,0|0|8,0:0|0:0|0:0,0:0:0:0:
176,320,181115,1,8,0:0:0:0:
96,240,181801,1,8,0:0:0:0:
96,128,182487,1,8,0:0:0:0:
176,48,182830,2,0,L|256:64,1,75.0000028610231
416,128,183172,5,8,0:0:0:0:
416,224,183858,1,8,0:0:0:0:
304,192,184544,1,8,0:0:0:0:
304,304,184887,2,0,L|224:288,1,75.0000028610231
112,144,185230,1,8,0:0:0:0:
288,96,185401,1,0,0:0:0:0:
160,0,185572,5,4,0:0:0:0:
64,48,185915,1,8,0:0:0:0:
112,144,186601,5,8,0:0:0:0:
112,256,186944,1,0,0:0:0:0:
400,320,187287,1,8,0:0:0:0:
400,48,187630,1,8,0:0:0:0:
363,57,187715,1,0,0:0:0:0:
329,73,187801,1,0,0:0:0:0:
300,95,187887,1,0,0:0:0:0:
275,123,187972,6,0,L|224:208,1,75.0000028610231,8|0,0:0|0:0,0:0:0:0:
160,256,188315,1,8,0:0:0:0:
80,128,188487,1,0,0:0:0:0:
160,64,188658,1,8,0:0:0:0:
80,208,188830,1,0,0:0:0:0:
128,320,189001,1,8,0:0:0:0:
272,320,189172,1,0,0:0:0:0:
320,208,189344,1,8,0:0:0:0:
464,272,189515,1,0,0:0:0:0:
464,160,189687,5,8,0:0:0:0:
256,64,189858,1,0,0:0:0:0:
448,64,190030,1,8,0:0:0:0:
384,272,190201,1,0,0:0:0:0:
208,352,190372,1,8,0:0:0:0:
320,160,190544,1,0,0:0:0:0:
320,336,190715,1,8,0:0:0:0:
144,160,190887,2,8,L|112:112,1,37.5000014305115
48,112,191058,5,8,0:0:0:0:
256,272,191230,1,0,0:0:0:0:
240,48,191401,1,8,0:0:0:0:
448,208,191572,1,0,0:0:0:0:
224,240,191744,1,8,0:0:0:0:
48,48,191915,1,0,0:0:0:0:
16,272,192087,1,8,0:0:0:0:
208,96,192258,1,0,0:0:0:0:
416,0,192430,1,8,0:0:0:0:
240,192,192601,1,0,0:0:0:0:
448,336,192772,1,8,0:0:0:0:
336,128,192944,2,0,L|368:80,1,37.5000014305115
400,32,193115,5,8,0:0:0:0:
208,272,193287,1,8,0:0:0:0:
32,32,193458,1,8,0:0:0:0:
320,96,193630,1,8,0:0:0:0:
112,320,193801,2,0,L|-48:336,2,150.000005722046,12|0|0,0:0|0:0|0:0,0:0:0:0:
112,320,195858,2,0,L|160:304,1,50
256,272,196372,5,4,0:0:0:0:
256,272,201172,6,0,L|304:256,1,37.5000014305115
368,192,201344,2,0,L|304:128,1,75.0000028610231,0|4,0:0|0:0,0:0:0:0:
256,32,201858,6,0,L|240:80,1,50
144,112,202372,1,8,0:0:0:0:
96,208,202544,1,0,0:0:0:0:
192,208,202715,1,8,0:0:0:0:
192,208,203058,5,8,0:0:0:0:
256,288,203230,1,0,0:0:0:0:
304,208,203401,1,8,0:0:0:0:
352,288,203573,1,0,0:0:0:0:
400,208,203744,1,8,0:0:0:0:
464,128,203915,1,0,0:0:0:0:
400,48,204087,2,0,L|352:112,1,75
176,64,204772,5,0,0:0:0:0:
160,64,204858,1,0,0:0:0:0:
144,64,204944,1,0,0:0:0:0:
128,64,205030,1,0,0:0:0:0:
112,64,205115,5,0,0:0:0:0:
76,74,205200,1,0,0:0:0:0:
46,97,205286,1,0,0:0:0:0:
29,130,205372,1,0,0:0:0:0:
25,167,205457,5,0,0:0:0:0:
32,208,205544,1,0,0:0:0:0:
42,243,205629,1,0,0:0:0:0:
61,275,205715,1,0,0:0:0:0:
89,300,205801,5,0,0:0:0:0:
123,315,205886,1,0,0:0:0:0:
160,320,205972,1,0,0:0:0:0:
197,315,206058,1,0,0:0:0:0:
224,288,206144,5,0,0:0:0:0:
246,258,206229,1,0,0:0:0:0:
269,228,206315,1,0,0:0:0:0:
292,198,206401,1,0,0:0:0:0:
315,169,206486,5,0,0:0:0:0:
338,139,206572,1,0,0:0:0:0:
361,109,206658,1,0,0:0:0:0:
384,79,206744,1,0,0:0:0:0:
384,32,206830,6,0,L|320:48,1,37.5000014305115,8|0,0:0|0:0,0:0:0:0:
224,128,207001,2,0,L|160:128,1,37.5000014305115,8|0,0:0|0:0,0:0:0:0:
48,256,207172,2,0,L|112:256,1,37.5000014305115,8|0,0:0|0:0,0:0:0:0:
224,304,207344,6,0,P|292:280|324:214,1,150.000005722046,12|0,0:0|0:0,0:0:0:0:
208,16,207858,1,8,0:0:0:0:
320,208,208030,1,0,0:0:0:0:
144,64,208201,6,0,P|107:127|126:198,1,150.000005722046,12|8,0:0|0:0,0:0:0:0:
352,144,208715,1,0,0:0:0:0:
176,272,208887,1,8,0:0:0:0:
288,80,209058,1,0,0:0:0:0:
256,304,209230,1,8,0:0:0:0:
480,320,209401,1,0,0:0:0:0:
288,80,209572,1,8,0:0:0:0:
96,48,209744,2,8,L|64:128,1,75.0000028610231
96,304,210087,6,0,P|108:367|167:338,1,150.000005722046,4|0,0:0|0:0,0:0:0:0:
384,288,210601,1,8,0:0:0:0:
160,224,210772,1,0,0:0:0:0:
384,176,210944,6,0,P|371:112|312:141,1,150.000005722046
96,304,211458,1,0,0:0:0:0:
96,80,211630,2,8,L|160:128,1,75.0000028610231
256,288,211972,1,0,0:0:0:0:
356,125,212144,6,0,P|332:57|266:25,1,150.000005722046,8|0,0:0|0:0,0:0:0:0:
256,208,212658,1,0,0:0:0:0:
64,224,212830,6,0,P|88:292|154:324,1,150.000005722046,12|0,0:0|0:0,0:0:0:0:
384,320,213344,1,8,0:0:0:0:
176,240,213515,1,0,0:0:0:0:
400,240,213687,6,0,P|411:168|369:108,1,150.000005722046,8|8,0:0|0:0,0:0:0:0:
112,80,214201,1,0,0:0:0:0:
112,336,214372,2,0,L|160:256,1,75.0000028610231
432,80,214887,1,0,0:0:0:0:
304,352,215230,1,0,0:0:0:0:
64,80,215572,1,0,0:0:0:0:
304,352,215915,1,0,0:0:0:0:
448,224,216087,5,0,0:0:0:0:
422,196,216172,1,0,0:0:0:0:
393,173,216258,1,0,0:0:0:0:
358,160,216344,1,0,0:0:0:0:
321,164,216429,5,0,0:0:0:0:
288,183,216515,1,0,0:0:0:0:
260,207,216601,1,0,0:0:0:0:
234,234,216687,1,0,0:0:0:0:
209,262,216772,5,0,0:0:0:0:
182,288,216858,1,0,0:0:0:0:
150,308,216944,1,0,0:0:0:0:
114,306,217029,1,0,0:0:0:0:
85,282,217115,6,8,L|80:224,1,37.5000014305115
144,64,217372,2,8,L|192:48,1,37.5000014305115
216,55,217544,1,0,0:0:0:0:
254,59,217630,1,0,0:0:0:0:
291,62,217716,1,0,0:0:0:0:
328,65,217801,5,0,0:0:0:0:
366,69,217887,1,0,0:0:0:0:
403,72,217973,1,0,0:0:0:0:
440,76,218059,1,0,0:0:0:0:
480,80,218144,1,8,0:0:0:0:
448,304,218315,6,0,P|352:272|304:208,1,150.000005722046,4|0,0:0|0:0,0:0:0:0:
112,144,218830,1,8,0:0:0:0:
320,240,219001,1,0,0:0:0:0:
80,224,219172,6,0,P|176:192|224:128,1,150.000005722046,8|8,0:0|0:0,0:0:0:0:
384,160,219687,1,0,0:0:0:0:
176,80,219858,1,8,0:0:0:0:
400,80,220030,1,0,0:0:0:0:
256,32,220201,1,8,0:0:0:0:
272,240,220372,1,0,0:0:0:0:
64,320,220544,1,8,0:0:0:0:
144,160,220715,6,8,L|224:144,1,75.0000028610231
432,80,221058,6,0,P|419:16|360:45,1,150.000005722046,4|0,0:0|0:0,0:0:0:0:
272,240,221572,1,8,0:0:0:0:
48,336,221744,1,0,0:0:0:0:
112,128,221915,6,0,P|202:82|281:94,1,150.000005722046,8|8,0:0|0:0,0:0:0:0:
432,112,222430,2,0,L|400:192,1,75.0000028610231,0|8,0:0|0:0,0:0:0:0:
256,352,222772,1,0,0:0:0:0:
96,192,222944,6,8,L|160:224,1,37.5000014305115
336,304,223201,2,8,L|400:272,1,37.5000014305115
448,80,223458,1,0,0:0:0:0:
411,84,223543,1,0,0:0:0:0:
374,76,223629,1,0,0:0:0:0:
344,55,223715,1,0,0:0:0:0:
320,32,223801,6,0,P|269:83|269:156,1,150.000005722046,8|8,0:0|0:0,0:0:0:0:
272,160,224315,1,8,0:0:0:0:
96,304,224487,1,0,0:0:0:0:
96,304,224658,1,8,0:0:0:0:
160,48,224830,1,0,0:0:0:0:
160,48,225001,1,8,0:0:0:0:
400,144,225172,1,0,0:0:0:0:
400,144,225344,6,0,L|352:224,1,75.0000028610231,8|0,0:0|0:0,0:0:0:0:
16,304,225858,1,0,0:0:0:0:
112,0,226201,1,0,0:0:0:0:
256,192,226544,1,4,0:0:0:0:
256,192,226715,12,0,234944,0:0:0:0:
