osu file format v14

[General]
AudioFilename: audio.mp3
AudioLeadIn: 0
PreviewTime: 64061
Countdown: 1
SampleSet: Soft
StackLeniency: 0.7
Mode: 0
LetterboxInBreaks: 0
WidescreenStoryboard: 0

[Editor]
DistanceSpacing: 1.6
BeatDivisor: 3
GridSize: 32
TimelineZoom: 1.7

[Metadata]
Title:Home
TitleUnicode:Home
Artist:MY FIRST STORY
ArtistUnicode:MY FIRST STORY
Creator:HowRengar
Version:Memories
Source:
Tags:Jrock japanese rock antithese track 13
BeatmapID:2153405
BeatmapSetID:1029822

[Difficulty]
HPDrainRate:5.4
CircleSize:4.4
OverallDifficulty:9
ApproachRate:9.2
SliderMultiplier:1.65
SliderTickRate:1

[Events]
//Background and Video events
0,0,"Home.jpg",0,0
//Break Periods
//Storyboard Layer 0 (Background)
//Storyboard Layer 1 (Fail)
//Storyboard Layer 2 (Pass)
//Storyboard Layer 3 (Foreground)
//Storyboard Layer 4 (Overlay)
//Storyboard Sound Samples

[TimingPoints]
376,342.857142857143,4,2,1,45,1,0
1747,-200,4,2,1,45,0,0
5861,-133.333333333333,4,2,1,60,0,0
7061,-79.9999999999999,4,2,1,70,0,0
7318,-79.9999999999999,4,2,1,5,0,0
7404,-79.9999999999999,4,2,1,70,0,0
10061,-79.9999999999999,4,2,1,5,0,0
10147,-79.9999999999999,4,2,1,70,0,0
11604,-79.9999999999999,4,2,1,5,0,0
11690,-79.9999999999999,4,2,1,70,0,0
12804,-79.9999999999999,4,2,1,5,0,0
12890,-79.9999999999999,4,2,1,70,0,0
14947,-153.846153846154,4,2,1,70,0,0
15204,-153.846153846154,4,2,1,5,0,0
15290,-80,4,2,1,70,0,0
15547,-80,4,2,1,5,0,0
15633,-80,4,2,1,70,0,0
23004,-80,4,2,1,60,0,0
23518,-133.333333333333,4,2,1,50,0,0
23776,-133.333333333333,4,2,1,5,0,0
23861,-133.333333333333,4,2,1,50,0,0
25147,-133.333333333333,4,2,1,5,0,0
25233,-133.333333333333,4,2,1,50,0,0
26518,-133.333333333333,4,2,1,5,0,0
26604,-133.333333333333,4,2,1,50,0,0
27633,-117.647058823529,4,2,1,50,0,0
27890,-117.647058823529,4,2,1,5,0,0
27976,-133.333333333333,4,2,1,50,0,0
29261,-133.333333333333,4,2,1,5,0,0
29347,-133.333333333333,4,2,1,50,0,0
30633,-133.333333333333,4,2,1,5,0,0
30719,-133.333333333333,4,2,1,50,0,0
32004,-133.333333333333,4,2,1,5,0,0
32090,-133.333333333333,4,2,1,50,0,0
34490,-100,4,2,1,60,0,0
34747,-100,4,2,1,5,0,0
34833,-100,4,2,1,60,0,0
36118,-100,4,2,1,5,0,0
36204,-100,4,2,1,60,0,0
37490,-100,4,2,1,5,0,0
37576,-100,4,2,1,60,0,0
38604,-90.9090909090909,4,2,1,60,0,0
38861,-90.9090909090909,4,2,1,5,0,0
38947,-100,4,2,1,60,0,0
40233,-100,4,2,1,5,0,0
40319,-100,4,2,1,60,0,0
41776,-100,4,2,1,5,0,0
41862,-100,4,2,1,60,0,0
42976,-100,4,2,1,5,0,0
43062,-100,4,2,1,60,0,0
45633,-200,4,2,1,40,0,0
51033,-200,4,2,1,5,0,0
51118,-133.333333333333,4,2,1,50,0,0
56604,-100,4,2,1,60,0,0
62090,-76.9230769230769,4,2,1,60,0,0
62347,-76.9230769230769,4,2,1,5,0,0
62433,-76.9230769230769,4,2,1,60,0,0
62947,-76.9230769230769,4,2,1,60,0,0
63204,-76.9230769230769,4,2,1,5,0,0
64147,-133.333333333333,4,2,1,60,0,0
64661,-66.6666666666667,4,2,1,80,0,1
64918,-66.6666666666667,4,2,1,5,0,1
65004,-66.6666666666667,4,2,1,80,0,1
67147,-66.6666666666667,4,2,1,5,0,1
67233,-66.6666666666667,4,2,1,80,0,1
67404,-62.5,4,2,1,80,0,1
67661,-62.5,4,2,1,5,0,1
67747,-66.6666666666667,4,2,1,80,0,1
70404,-66.6666666666667,4,2,1,5,0,1
70490,-66.6666666666667,4,2,1,80,0,1
72890,-58.8235294117647,4,2,1,80,0,1
73147,-58.8235294117647,4,2,1,5,0,1
73233,-58.8235294117647,4,2,1,80,0,1
74261,-100,4,2,1,80,0,1
74518,-100,4,2,1,5,0,1
74604,-66.6666666666667,4,2,1,80,0,1
75890,-66.6666666666667,4,2,1,5,0,1
75976,-66.6666666666667,4,2,1,80,0,1
78118,-66.6666666666667,4,2,1,5,0,1
78204,-66.6666666666667,4,2,1,80,0,1
78633,-66.6666666666667,4,2,1,5,0,1
78718,-66.6666666666667,4,2,1,80,0,1
83861,-133.333333333333,4,2,1,80,0,0
85747,-133.333333333333,4,2,1,60,0,0
86604,-133.333333333333,4,2,1,70,0,0
86861,-133.333333333333,4,2,1,5,0,0
86947,-133.333333333333,4,2,1,70,0,0
87376,-133.333333333333,4,2,1,5,0,0
87461,-133.333333333333,4,2,1,70,0,0
87718,-133.333333333333,4,2,1,5,0,0
87976,-100,4,2,1,70,0,0
88233,-100,4,2,1,5,0,0
88318,-100,4,2,1,70,0,0
89347,-166.666666666667,4,2,1,50,0,0
89604,-166.666666666667,4,2,1,5,0,0
89690,-166.666666666667,4,2,1,50,0,0
95090,-166.666666666667,4,2,1,5,0,0
95176,-166.666666666667,4,2,1,50,0,0
100318,-111.111111111111,4,2,1,60,0,0
100576,-111.111111111111,4,2,1,5,0,0
100661,-111.111111111111,4,2,1,60,0,0
103318,-111.111111111111,4,2,1,5,0,0
103404,-111.111111111111,4,2,1,60,0,0
106061,-111.111111111111,4,2,1,5,0,0
106147,-111.111111111111,4,2,1,60,0,0
108804,-111.111111111111,4,2,1,5,0,0
108890,-111.111111111111,4,2,1,60,0,0
110776,-100,4,2,1,60,0,0
110947,-100,4,2,1,5,0,0
111033,-100,4,2,1,60,0,0
111204,-100,4,2,1,5,0,0
111290,-100,4,2,1,60,0,0
111376,-100,4,2,1,5,0,0
111461,-333.333333333333,4,2,1,40,0,0
121147,-333.333333333333,4,2,1,5,0,0
121233,-333.333333333333,4,2,1,40,0,0
122090,-166.666666666667,4,2,1,40,0,0
122347,-166.666666666667,4,2,1,5,0,0
122433,-285.714285714286,4,2,1,50,0,0
130661,-285.714285714286,4,2,1,60,0,0
132033,-100,4,2,1,70,0,0
133233,-58.8235294117647,4,2,1,80,0,1
133490,-66.6666666666667,4,2,1,5,0,1
133576,-66.6666666666667,4,2,1,80,0,1
135718,-66.6666666666667,4,2,1,5,0,1
135804,-66.6666666666667,4,2,1,80,0,1
136233,-66.6666666666667,4,2,1,5,0,1
136318,-66.6666666666667,4,2,1,80,0,1
138976,-66.6666666666667,4,2,1,5,0,1
139061,-66.6666666666667,4,2,1,80,0,1
141718,-66.6666666666667,4,2,1,5,0,1
141804,-66.6666666666667,4,2,1,80,0,1
142833,-100,4,2,1,80,0,1
143090,-100,4,2,1,5,0,1
143176,-66.6666666666667,4,2,1,80,0,1
144461,-66.6666666666667,4,2,1,5,0,1
144547,-66.6666666666667,4,2,1,80,0,1
146690,-66.6666666666667,4,2,1,5,0,1
146776,-66.6666666666667,4,2,1,80,0,1
147204,-66.6666666666667,4,2,1,5,0,1
147290,-66.6666666666667,4,2,1,80,0,1
149690,-58.8235294117647,4,2,1,80,0,1
149947,-58.8235294117647,4,2,1,5,0,1
150033,-66.6666666666667,4,2,1,80,0,1
151233,-100,4,2,1,80,0,1
152433,-66.6666666666667,4,2,1,80,0,1
152690,-66.6666666666667,4,2,1,5,0,1
152776,-66.6666666666667,4,2,1,80,0,1
155433,-66.6666666666667,4,2,1,5,0,1
155518,-66.6666666666667,4,2,1,80,0,1
158176,-66.6666666666667,4,2,1,5,0,1
158261,-66.6666666666667,4,2,1,80,0,1
160318,-133.333333333333,4,2,1,80,0,1
160576,-133.333333333333,4,2,1,5,0,1
160661,-66.6666666666667,4,2,1,80,0,1
160918,-66.6666666666667,4,2,1,5,0,1
161004,-66.6666666666667,4,2,1,80,0,1
163404,-100,4,2,1,80,0,1
163661,-100,4,2,1,5,0,1
163747,-100,4,2,1,80,0,1
166404,-100,4,2,1,5,0,1
166490,-100,4,2,1,80,0,1
169061,-250.000000000001,4,2,1,50,0,0
179690,-370.37037037037,4,2,1,50,0,0
179947,-370.37037037037,4,2,1,5,0,0
180033,-133.333333333333,4,2,1,60,0,0
188261,-133.333333333333,4,2,1,70,0,0
191004,-133.333333333333,4,2,1,80,0,0
193747,-66.6666666666667,4,2,1,80,0,0
194090,-66.6666666666667,4,2,1,80,0,0
194261,-58.8235294117647,4,2,1,80,0,0
194604,-58.8235294117647,4,2,1,80,0,0
194776,-133.333333333333,4,2,1,80,0,0
194861,-133.333333333333,4,2,1,5,0,0
194947,-285.714285714284,4,2,1,40,0,0
201118,-285.714285714284,4,2,1,60,0,0
201804,-153.846153846153,4,2,1,60,0,0
202061,-153.846153846153,4,2,1,5,0,0
202147,-153.846153846153,4,2,1,60,0,0
204547,-100,4,2,1,70,0,0
206090,-100,4,2,1,80,0,0
207290,-62.5,4,2,1,90,0,1
207547,-62.5,4,2,1,5,0,1
207633,-62.5,4,2,1,90,0,1
209776,-62.5,4,2,1,5,0,1
209861,-62.5,4,2,1,90,0,1
210290,-62.5,4,2,1,5,0,1
210376,-62.5,4,2,1,90,0,1
213033,-62.5,4,2,1,5,0,1
213118,-62.5,4,2,1,90,0,1
215776,-62.5,4,2,1,5,0,1
215861,-62.5,4,2,1,90,0,1
218518,-62.5,4,2,1,5,0,1
218604,-62.5,4,2,1,90,0,1
220747,-62.5,4,2,1,5,0,1
220833,-62.5,4,2,1,90,0,1
221261,-62.5,4,2,1,5,0,1
221347,-62.5,4,2,1,90,0,1
226490,-100,4,2,1,90,0,0
227347,-100,4,2,1,85,0,0
228033,-100,4,2,1,80,0,0
228718,-100,4,2,1,75,0,0
229404,-100,4,2,1,70,0,0
230090,-100,4,2,1,65,0,0
230776,-100,4,2,1,60,0,0
231461,-100,4,2,1,55,0,0
232147,-100,4,2,1,50,0,0
232833,-100,4,2,1,40,0,0
233518,-100,4,2,1,30,0,0
234204,-100,4,2,1,20,0,0
234890,-100,4,2,1,5,0,0

[Colours]
Combo1 : 243,134,118
Combo2 : 150,196,222
Combo3 : 195,195,195
Combo4 : 105,155,248
Combo5 : 216,185,150

[HitObjects]
36,268,1747,6,0,L|81:261,1,41.25,2|0,0:0|0:0,0:0:0:0:
202,240,2090,2,0,P|206:288|212:332,2,82.5,2|2|2,0:0|0:0|0:0,0:0:0:0:
332,44,3118,6,0,L|338:94,1,41.25,2|0,0:0|0:0,0:0:0:0:
425,175,3461,2,0,P|472:174|511:169,2,82.5,2|2|2,0:0|0:0|0:0,0:0:0:0:
210,322,4490,5,2,0:0:0:0:
191,349,4833,2,0,P|148:342|94:339,2,82.5,2|2|2,0:0|0:0|0:0,0:0:0:0:
364,226,5861,6,0,L|371:275,1,30.937501180172,0|0,1:0|1:0,1:0:0:0:
391,354,6033,1,8,0:0:0:0:
418,368,6118,1,8,0:0:0:0:
448,372,6204,1,8,0:0:0:0:
478,367,6290,1,8,0:0:0:0:
505,351,6376,2,0,L|512:303,1,30.937501180172,0|0,1:0|1:0,1:0:0:0:
474,174,6547,5,0,1:0:0:0:
474,174,6633,1,0,1:0:0:0:
474,174,6718,2,0,L|467:223,1,30.937501180172,0|0,1:0|1:0,1:0:0:0:
291,312,6890,2,0,L|295:281,1,30.937501180172,0|0,0:0|1:0,1:0:0:0:
286,135,7061,6,0,B|273:227|264:307,1,154.6875,6|0,1:0|0:0,0:0:0:0:
261,320,7404,1,2,1:0:0:0:
76,257,7576,2,0,P|127:246|178:238,1,103.125,8|2,0:0|0:0,0:0:0:0:
381,220,7918,1,2,1:0:0:0:
256,135,8090,1,2,1:0:0:0:
319,0,8261,2,0,P|328:50|332:101,1,103.125,8|2,0:0|0:0,0:0:0:0:
397,236,8604,6,0,P|401:184|410:134,1,103.125,2|2,1:0|1:0,0:0:0:0:
512,37,8947,2,0,B|458:48|410:29,1,103.125,8|2,0:0|0:0,0:0:0:0:
203,59,9290,1,2,1:0:0:0:
219,177,9461,1,2,1:0:0:0:
397,236,9633,1,8,0:0:0:0:
202,361,9804,6,0,B|173:334|173:334|58:319,1,154.6875,6|0,1:2|0:0,0:0:0:0:
34,317,10147,1,2,1:0:0:0:
29,118,10318,2,0,B|46:167|46:167|34:216,1,103.125,8|2,0:0|0:0,0:0:0:0:
164,41,10661,1,2,1:0:0:0:
37,0,10833,1,2,1:0:0:0:
191,135,11004,2,0,B|174:86|174:86|185:36,1,103.125,8|2,0:0|0:0,0:0:0:0:
436,111,11347,6,0,B|379:106|379:106|340:84|340:84|287:80,1,154.6875,2|0,1:0|0:0,0:0:0:0:
270,81,11690,2,0,B|287:130|287:130|275:179,1,103.125,8|2,0:0|0:0,0:0:0:0:
240,264,12033,1,2,1:0:0:0:
414,27,12204,1,10,0:0:0:0:
414,27,12376,1,8,0:0:0:0:
492,222,12547,6,0,P|409:172|438:104,1,154.6875,6|0,1:0|0:0,0:0:0:0:
436,111,12890,1,2,1:0:0:0:
303,193,13061,2,0,P|351:186|404:244,1,103.125,8|2,0:0|0:0,0:0:0:0:
386,343,13404,1,2,1:0:0:0:
232,293,13576,1,2,1:0:0:0:
139,349,13747,2,0,P|189:355|229:325,1,103.125,8|2,0:0|0:0,0:0:0:0:
116,211,14090,5,2,1:0:0:0:
206,151,14261,1,2,1:0:0:0:
116,0,14433,2,0,L|96:114,1,103.125,8|2,0:0|1:0,0:0:0:0:
105,113,14690,1,2,1:0:0:0:
105,113,14776,1,10,0:0:0:0:
278,105,14947,6,0,B|251:74|251:74|212:67,1,80.4374963178636,4|0,1:2|0:0,0:0:0:0:
206,151,15290,6,0,B|288:164|272:95|376:121,1,154.6875,6|0,1:0|0:0,0:0:0:0:
379,123,15633,1,2,1:0:0:0:
487,243,15804,2,0,P|468:179|464:133,1,103.125,8|2,0:0|0:0,0:0:0:0:
375,289,16147,1,2,1:0:0:0:
334,200,16318,1,2,1:0:0:0:
260,335,16490,2,0,P|324:316|370:312,1,103.125,8|2,0:0|0:0,0:0:0:0:
218,234,16833,5,2,1:0:0:0:
136,310,17004,1,2,1:0:0:0:
221,120,17176,2,0,P|240:184|244:230,1,103.125,8|2,0:0|0:0,0:0:0:0:
359,106,17518,2,0,P|365:54|381:6,1,103.125,0|2,1:0|0:0,0:0:0:0:
395,0,17776,1,8,0:0:0:0:
395,0,17861,1,8,0:0:0:0:
247,30,18033,6,0,B|203:21|167:41|167:41|151:31|134:18|134:18|93:37|46:32,1,206.25,6|2,1:0|1:0,0:0:0:0:
0,239,18547,2,0,B|49:219|49:219|107:231,1,103.125,8|2,0:0|0:0,0:0:0:0:
205,311,18890,1,2,1:0:0:0:
318,246,19061,1,2,1:0:0:0:
468,384,19233,2,0,B|443:338|443:338|454:281,1,103.125,8|2,0:0|0:0,0:0:0:0:
504,154,19576,5,2,1:0:0:0:
435,62,19747,1,2,1:0:0:0:
272,154,19918,2,0,B|322:136|322:136|371:155,1,103.125,8|0,0:0|1:0,0:0:0:0:
176,223,20261,5,10,0:0:0:0:
155,176,20347,1,8,0:0:0:0:
155,125,20433,1,0,1:0:0:0:
178,79,20518,1,0,1:0:0:0:
217,46,20604,1,10,0:0:0:0:
190,63,20690,1,8,0:0:0:0:
158,67,20776,1,0,1:0:0:0:
127,59,20861,1,0,1:0:0:0:
102,39,20947,1,6,1:2:0:0:
102,39,23004,5,10,0:0:0:0:
217,46,23176,1,8,0:0:0:0:
332,53,23347,1,10,0:0:0:0:
496,9,23518,6,0,P|484:53|474:99,1,92.812503540516,6|0,1:2|0:0,0:0:0:0:
472,118,23861,1,0,1:0:0:0:
512,214,24033,1,10,0:0:0:0:
383,180,24204,2,0,P|389:211|393:241,1,61.875002360344,2|0,0:0|1:0,0:0:0:0:
477,310,24547,2,0,P|470:340|466:370,1,61.875002360344,2|8,1:0|0:0,0:0:0:0:
261,327,24890,6,0,P|319:334|383:337,1,92.812503540516,2|0,1:0|0:0,0:0:0:0:
378,337,25233,1,0,1:0:0:0:
280,233,25404,2,0,P|249:237|218:241,1,61.875002360344,8|0,0:0|0:0,0:0:0:0:
66,336,25747,1,2,1:0:0:0:
93,256,25918,1,2,1:0:0:0:
55,182,26090,1,10,0:0:0:0:
225,87,26261,6,0,P|180:99|135:110,1,92.812503540516,2|0,1:0|0:0,0:0:0:0:
113,118,26604,1,0,1:0:0:0:
0,59,26776,1,10,0:0:0:0:
150,24,26947,2,0,B|154:60|154:60|139:99,1,61.875002360344,2|0,0:0|1:0,0:0:0:0:
221,223,27290,2,0,B|217:187|217:187|232:148,1,61.875002360344,2|8,1:0|0:0,0:0:0:0:
351,67,27633,6,0,B|320:78|320:78|280:69|280:69|249:77,1,105.187502006292,2|0,1:0|0:0,0:0:0:0:
225,87,27976,1,0,1:0:0:0:
315,195,28147,2,0,L|392:202,1,61.875002360344,8|0,0:0|0:0,0:0:0:0:
508,226,28490,1,2,1:0:0:0:
431,278,28661,1,2,1:0:0:0:
456,126,28833,1,10,0:0:0:0:
450,300,29004,6,0,P|405:292|359:287,1,92.812503540516,6|0,1:2|0:0,0:0:0:0:
335,287,29347,1,0,1:0:0:0:
229,366,29518,1,10,0:0:0:0:
228,217,29690,2,0,P|235:247|241:277,1,61.875002360344,2|0,0:0|1:0,0:0:0:0:
315,195,30033,2,0,P|321:164|328:134,1,61.875002360344,2|8,1:0|0:0,0:0:0:0:
483,46,30376,6,0,P|437:52|390:55,1,92.812503540516,2|0,1:0|0:0,0:0:0:0:
368,57,30718,1,0,1:0:0:0:
259,0,30890,2,0,P|266:30|272:60,1,61.875002360344,8|0,0:0|0:0,0:0:0:0:
236,146,31233,1,2,1:0:0:0:
155,107,31404,1,2,1:0:0:0:
25,164,31576,1,10,0:0:0:0:
115,4,31747,6,0,P|122:69|126:122,1,92.812503540516,2|0,1:0|0:0,0:0:0:0:
124,126,32090,1,0,1:0:0:0:
216,239,32261,2,0,P|246:232|276:227,1,61.875002360344,10|0,0:0|0:0,0:0:0:0:
363,294,32604,1,2,1:0:0:0:
449,302,32776,2,0,P|418:308|388:313,1,61.875002360344,2|8,1:0|0:0,0:0:0:0:
227,351,33118,1,0,1:0:0:0:
222,356,33204,1,0,1:0:0:0:
217,361,33290,6,0,P|190:354|129:345,1,61.875002360344,2|8,1:0|0:0,0:0:0:0:
129,364,33547,1,8,0:0:0:0:
129,364,33633,1,8,0:0:0:0:
16,305,33804,1,0,1:0:0:0:
172,187,33976,5,10,0:0:0:0:
273,210,34147,1,2,1:0:0:0:
261,70,34318,1,10,0:0:0:0:
48,71,34490,6,0,B|70:130|70:130|53:202,1,123.75,6|0,1:0|0:0,0:0:0:0:
48,212,34833,1,0,1:0:0:0:
178,164,35004,1,10,0:0:0:0:
268,254,35176,2,0,P|307:243|348:236,1,82.5,2|0,0:0|1:0,0:0:0:0:
481,166,35518,2,0,P|440:159|400:148,1,82.5,2|8,0:0|0:0,0:0:0:0:
280,0,35861,6,0,P|257:54|199:61,1,123.75,2|0,0:0|0:0,0:0:0:0:
181,45,36204,1,0,0:0:0:0:
103,158,36376,2,0,P|142:147|183:142,1,82.5,8|0,0:0|0:0,0:0:0:0:
300,215,36718,1,2,1:0:0:0:
400,148,36890,1,2,1:0:0:0:
310,0,37061,1,10,0:0:0:0:
512,3,37233,6,0,B|491:36|491:36|484:120,1,123.75,6|0,1:2|0:0,0:0:0:0:
484,147,37576,1,0,1:0:0:0:
300,215,37747,1,10,0:0:0:0:
343,300,37918,2,0,P|335:259|324:219,1,82.5,2|0,0:0|1:0,0:0:0:0:
183,142,38261,2,0,P|172:181|164:222,1,82.5,2|8,0:0|0:0,0:0:0:0:
56,370,38604,6,0,P|128:362|228:348,1,136.125004154205,2|0,0:0|0:0,0:0:0:0:
214,350,38947,1,0,0:0:0:0:
348,384,39118,2,0,P|391:373|436:363,1,82.5,8|0,0:0|0:0,0:0:0:0:
512,227,39461,2,0,P|471:217|431:207,1,82.5,2|2,1:0|0:0,0:0:0:0:
416,190,39718,1,8,0:0:0:0:
416,190,39804,1,8,0:0:0:0:
250,250,39976,6,0,P|308:230|290:149,1,123.75,6|0,1:2|0:0,0:0:0:0:
301,156,40318,1,0,1:0:0:0:
456,96,40490,1,10,0:0:0:0:
355,8,40661,2,0,L|369:102,1,82.5,2|0,0:0|1:0,0:0:0:0:
173,78,41004,1,2,0:0:0:0:
207,169,41176,2,0,L|194:87,1,82.5,8|2,0:0|0:0,0:0:0:0:
16,0,41518,6,0,L|33:160,1,123.75,2|0,1:0|0:0,0:0:0:0:
47,143,41861,2,0,B|36:185|36:185|49:221,1,82.5,10|0,0:0|0:0,0:0:0:0:
137,294,42204,1,2,1:0:0:0:
222,259,42376,2,0,P|181:260|141:267,1,82.5,2|8,1:0|0:0,0:0:0:0:
317,362,42718,6,0,P|365:308|365:221,1,123.75,6|0,1:2|0:0,0:0:0:0:
366,238,43061,1,0,1:0:0:0:
494,174,43233,2,0,P|487:214|481:255,1,82.5,8|0,0:0|0:0,0:0:0:0:
384,128,43576,2,0,P|378:87|371:46,1,82.5,2|0,1:0|0:0,0:0:0:0:
257,162,43918,1,8,0:0:0:0:
255,184,44261,5,2,1:0:0:0:
120,245,44433,1,8,0:0:0:0:
238,322,44604,1,0,1:0:0:0:
255,184,44776,1,8,0:0:0:0:
257,162,44861,1,8,0:0:0:0:
260,141,44947,1,8,0:0:0:0:
371,46,45118,5,0,1:0:0:0:
253,1,45290,1,2,1:0:0:0:
160,107,45461,1,0,1:0:0:0:
157,110,45547,1,0,1:0:0:0:
154,113,45633,6,0,L|104:107,1,41.25,6|0,1:2|0:0,0:0:0:0:
21,98,45976,1,2,1:0:0:0:
55,182,46147,2,0,B|59:209|61:222,1,41.25,2|0,0:0|1:0,0:0:0:0:
139,262,46490,2,0,B|135:289|132:302,1,41.25,2|0,0:0|1:0,0:0:0:0:
217,356,46833,6,0,L|315:344,1,82.5,2|0,0:0|0:0,0:0:0:0:
374,223,47347,1,2,1:0:0:0:
249,251,47518,1,2,0:0:0:0:
246,252,47604,1,0,0:0:0:0:
243,253,47690,1,0,1:0:0:0:
290,172,47861,2,0,P|290:152|291:129,1,41.25,2|0,0:0|1:0,0:0:0:0:
255,41,48204,1,2,0:0:0:0:
367,0,48376,6,0,L|372:44,1,41.25,2|0,1:0|0:0,0:0:0:0:
418,125,48718,1,2,1:0:0:0:
484,123,48890,2,0,L|434:115,1,41.25,2|0,0:0|1:0,0:0:0:0:
372,217,49233,2,0,L|422:209,1,41.25,2|0,0:0|1:0,0:0:0:0:
481,332,49576,6,0,L|388:320,1,82.5,2|0,0:0|0:0,0:0:0:0:
300,365,50090,2,0,L|255:357,1,41.25,0|0,1:0|0:0,0:0:0:0:
245,356,50347,1,0,0:0:0:0:
241,360,50433,1,0,1:0:0:0:
164,293,50604,1,0,0:0:0:0:
91,362,50776,6,0,B|63:348|63:348|26:360,1,61.875,10|0,0:0|0:0,0:0:0:0:
14,369,51118,5,10,0:0:0:0:
67,264,51290,1,0,1:0:0:0:
67,264,51376,1,0,1:0:0:0:
67,264,51461,1,10,0:0:0:0:
171,204,51633,2,0,L|164:271,1,61.875002360344,10|0,0:0|1:0,0:0:0:0:
164,293,51890,1,0,0:0:0:0:
164,293,51976,1,2,0:0:0:0:
73,156,52147,2,0,L|66:89,1,61.875002360344,8|0,0:0|0:0,0:0:0:0:
186,17,52490,5,10,0:0:0:0:
184,115,52661,1,0,1:0:0:0:
184,115,52747,1,0,1:0:0:0:
184,115,52833,1,10,0:0:0:0:
353,80,53004,2,0,P|322:76|291:72,1,61.875002360344,10|0,0:0|1:0,0:0:0:0:
268,68,53261,1,0,0:0:0:0:
268,68,53347,1,2,0:0:0:0:
247,200,53518,2,0,P|277:196|308:192,1,61.875002360344,8|2,0:0|0:0,0:0:0:0:
448,184,53861,5,10,0:0:0:0:
385,303,54033,1,0,1:0:0:0:
385,303,54118,1,0,1:0:0:0:
385,303,54204,1,2,1:0:0:0:
239,261,54376,2,0,P|242:230|246:199,1,61.875002360344,10|0,0:0|1:0,0:0:0:0:
353,80,54718,2,0,P|356:110|360:141,1,61.875002360344,2|8,0:0|0:0,0:0:0:0:
286,22,55061,1,2,0:0:0:0:
287,18,55147,1,0,0:0:0:0:
288,14,55233,6,0,P|332:-8|414:12,1,123.750004720688,10|0,0:0|1:0,0:0:0:0:
492,93,55747,1,8,0:0:0:0:
360,141,55918,2,0,L|324:134,3,30.937501180172,0|0|0|0,1:0|0:0|0:0|0:0,0:0:0:0:
208,97,56261,2,0,L|172:104,3,30.937501180172,10|0|0|0,0:0|0:0|0:0|0:0,0:0:0:0:
47,94,56604,5,10,1:0:0:0:
49,119,56690,1,0,1:0:0:0:
52,145,56776,1,0,1:0:0:0:
55,170,56861,1,0,1:0:0:0:
58,196,56947,1,2,1:0:0:0:
60,222,57033,1,0,1:0:0:0:
63,247,57118,5,10,1:0:0:0:
83,271,57204,1,0,1:0:0:0:
110,285,57290,1,0,1:0:0:0:
141,288,57376,1,0,1:0:0:0:
170,278,57461,1,2,1:0:0:0:
194,259,57547,1,0,1:0:0:0:
208,231,57633,5,8,1:0:0:0:
183,260,57718,1,0,1:0:0:0:
176,298,57804,1,0,1:0:0:0:
188,334,57890,1,0,1:0:0:0:
217,359,57976,6,0,L|318:339,1,82.5,2|8,1:0|0:0,0:0:0:0:
322,340,58233,1,8,0:0:0:0:
322,340,58318,1,10,0:0:0:0:
384,193,58490,1,2,1:0:0:0:
512,299,58661,2,0,L|415:277,1,82.5,10|0,0:0|1:0,0:0:0:0:
208,231,59004,1,10,0:0:0:0:
487,202,59176,1,0,1:0:0:0:
487,202,59261,1,0,1:0:0:0:
487,202,59347,5,10,0:0:0:0:
468,94,59518,1,0,1:0:0:0:
330,10,59690,5,8,0:0:0:0:
314,130,59861,1,0,1:0:0:0:
208,231,60033,5,8,0:0:0:0:
183,64,60204,1,0,1:0:0:0:
0,0,60376,5,8,0:0:0:0:
28,156,60547,1,0,1:0:0:0:
267,60,60718,5,8,0:0:0:0:
67,70,60890,1,0,1:0:0:0:
373,231,61061,5,8,0:0:0:0:
173,241,61233,1,0,1:0:0:0:
173,241,61318,1,0,1:0:0:0:
173,241,61404,1,8,0:0:0:0:
284,358,61576,1,0,0:0:0:0:
375,207,61747,2,0,L|292:216,1,82.5,10|0,0:0|1:0,0:0:0:0:
124,150,62090,6,0,P|181:135|117:100,1,160.874992635727,6|0,1:0|0:0,0:0:0:0:
108,101,62433,1,8,0:0:0:0:
22,273,62604,6,0,B|22:232|3:201|3:201|19:174|29:150|29:150|8:111|21:60,1,214.49999018097,6|0,1:2|0:0,0:0:0:0:
37,355,63118,6,0,L|100:340,1,53.6249975452424,6|0,1:0|0:0,0:0:0:0:
249,195,64490,1,8,0:0:0:0:
215,30,64661,6,0,L|229:248,1,185.625007081032,6|0,1:0|0:0,0:0:0:0:
213,234,65004,1,2,1:0:0:0:
457,229,65176,1,10,0:0:0:0:
345,294,65347,1,2,0:0:0:0:
444,91,65518,2,0,B|422:145|422:145|434:212,1,123.750004720688,2|0,1:0|1:0,0:0:0:0:
481,359,65861,1,10,0:0:0:0:
345,294,66033,1,2,0:0:0:0:
145,379,66204,6,0,P|138:301|131:242,1,123.750004720688,2|0,1:0|0:0,0:0:0:0:
23,81,66547,1,10,0:0:0:0:
181,62,66718,1,2,0:0:0:0:
0,278,66890,2,0,B|19:218|19:218|3:93,1,185.625007081032,2|0,1:0|0:0,0:0:0:0:
0,76,67233,1,8,0:0:0:0:
132,255,67404,6,0,B|232:263|204:162|332:179,1,198,6|0,1:2|0:0,0:0:0:0:
331,182,67747,1,2,1:0:0:0:
319,322,67918,1,10,0:0:0:0:
468,254,68090,1,2,0:0:0:0:
346,62,68261,2,0,L|357:196,1,123.750004720688,2|0,1:0|1:0,0:0:0:0:
504,18,68604,1,10,0:0:0:0:
504,18,68776,1,2,0:0:0:0:
464,143,68947,5,2,1:0:0:0:
224,86,69118,2,0,P|284:73|345:61,1,123.750004720688,2|8,0:0|0:0,0:0:0:0:
78,217,69461,2,0,P|138:229|199:241,1,123.750004720688,2|0,0:0|1:0,0:0:0:0:
119,103,69804,1,2,1:0:0:0:
2,120,69976,2,0,L|12:196,1,61.875002360344,8|8,0:0|0:0,0:0:0:0:
11,327,70147,6,0,B|51:279|51:279|30:128,1,185.625007081032,6|0,1:2|0:0,0:0:0:0:
31,127,70490,1,2,1:0:0:0:
195,144,70661,1,10,0:0:0:0:
268,60,70833,1,2,0:0:0:0:
309,193,71004,2,0,B|247:198|247:198|180:171,1,123.750004720688,2|0,1:0|1:0,0:0:0:0:
412,146,71347,1,10,0:0:0:0:
318,322,71518,1,2,0:0:0:0:
512,316,71690,5,2,1:0:0:0:
401,234,71861,2,0,P|417:303|425:362,1,123.750004720688,2|8,0:0|0:0,0:0:0:0:
512,111,72204,2,0,P|496:180|488:239,1,123.750004720688,2|0,0:0|1:0,0:0:0:0:
386,21,72547,1,2,1:0:0:0:
429,143,72718,2,0,P|397:151|336:132,1,61.875002360344,8|8,0:0|0:0,0:0:0:0:
203,72,72890,6,0,B|295:40|296:154|419:126,1,210.375004012585,6|0,1:0|0:0,0:0:0:0:
420,124,73233,1,2,1:0:0:0:
224,170,73404,1,8,0:0:0:0:
359,293,73576,1,2,1:0:0:0:
359,293,73661,1,0,1:0:0:0:
359,293,73747,5,8,0:0:0:0:
236,376,73918,2,0,B|239:343|239:343|258:311,1,70.1250013375282,6|0,1:0|0:0,0:0:0:0:
224,170,74090,2,0,B|205:202|205:202|179:222,1,70.1250013375282,4|0,1:2|0:0,0:0:0:0:
0,335,74261,6,0,B|45:336|45:336|79:317|79:317|118:320,1,123.75,6|0,1:0|0:0,0:0:0:0:
141,323,74604,1,0,1:0:0:0:
35,115,74776,1,8,0:0:0:0:
22,225,74947,1,0,1:0:0:0:
22,225,75033,1,0,1:0:0:0:
22,225,75118,6,0,B|55:221|55:221|81:210,1,61.875002360344,0|0,1:0|0:0,0:0:0:0:
210,79,75290,2,0,L|220:162,1,61.875002360344,8|8,0:0|0:0,0:0:0:0:
346,296,75461,2,0,L|338:234,1,61.875002360344,8|8,0:0|0:0,0:0:0:0:
347,58,75633,6,0,L|369:253,1,185.625007081032,6|0,1:0|0:0,0:0:0:0:
373,265,75976,1,2,1:0:0:0:
206,248,76147,1,10,0:0:0:0:
281,384,76318,1,2,0:0:0:0:
197,269,76490,2,0,L|71:248,1,123.750004720688,2|0,1:0|1:0,0:0:0:0:
0,116,76833,1,10,0:0:0:0:
151,80,77004,1,2,0:0:0:0:
90,156,77176,5,2,1:0:0:0:
236,184,77347,1,2,0:0:0:0:
71,168,77518,1,10,0:0:0:0:
211,0,77690,1,2,0:0:0:0:
371,95,77861,2,0,P|272:83|176:76,1,185.625007081032,2|0,1:0|0:0,0:0:0:0:
151,80,78204,1,8,0:0:0:0:
23,266,78376,6,0,P|116:268|167:175,1,185.625007081032,6|0,1:2|0:0,0:0:0:0:
166,176,78718,1,2,1:0:0:0:
294,303,78890,1,10,0:0:0:0:
377,223,79061,1,2,0:0:0:0:
510,384,79233,2,0,P|502:316|489:250,1,123.750004720688,2|0,1:0|1:0,0:0:0:0:
347,119,79576,1,10,0:0:0:0:
347,119,79747,1,2,0:0:0:0:
500,51,79918,5,2,1:0:0:0:
253,140,80090,2,0,B|259:72|259:72|295:24,1,123.750004720688,2|8,0:0|0:0,0:0:0:0:
491,261,80433,2,0,B|486:195|486:195|448:145,1,123.750004720688,2|0,0:0|1:0,0:0:0:0:
310,360,80776,1,10,0:0:0:0:
310,360,80861,1,8,0:0:0:0:
310,360,80947,2,0,P|343:351|368:325,1,61.875002360344,8|8,0:0|0:0,0:0:0:0:
461,259,81118,6,0,B|335:243|358:357|234:342,1,247.500009441376,6|2,1:0|1:0,0:0:0:0:
216,328,81547,1,0,1:0:0:0:
217,328,81633,5,10,0:0:0:0:
139,211,81804,1,2,1:0:0:0:
350,212,81976,5,10,0:0:0:0:
138,359,82147,1,0,1:0:0:0:
137,86,82318,5,10,0:0:0:0:
360,302,82490,1,2,1:0:0:0:
41,150,82661,5,10,0:0:0:0:
139,211,82833,1,2,1:0:0:0:
338,122,83004,1,8,0:0:0:0:
134,24,83176,1,10,0:0:0:0:
135,54,83261,1,8,0:0:0:0:
136,85,83347,1,8,0:0:0:0:
260,23,83518,5,2,1:0:0:0:
353,137,83690,1,8,1:0:0:0:
512,0,83861,1,6,1:0:0:0:
256,192,84033,12,2,85747,0:0:0:0:
318,272,85918,5,0,1:0:0:0:
347,263,86004,1,0,1:0:0:0:
377,254,86090,1,8,0:0:0:0:
278,186,86261,1,0,1:0:0:0:
213,294,86433,1,0,1:0:0:0:
463,287,86604,6,0,B|469:239|469:239|449:198,1,92.812503540516,4|0,1:0|0:0,0:0:0:0:
438,180,86947,1,0,1:0:0:0:
245,87,87118,2,0,B|239:135|239:135|258:175,1,92.812503540516,4|0,1:2|0:0,0:0:0:0:
278,186,87461,1,8,0:0:0:0:
372,111,87633,2,0,L|322:122,1,30.937501180172,4|0,1:2|0:0,0:0:0:0:
124,276,87976,6,0,B|157:261|190:256|190:256|207:273|241:288,1,123.75,4|0,1:0|0:0,0:0:0:0:
261,288,88318,1,8,0:0:0:0:
27,306,88490,1,0,1:0:0:0:
117,195,88661,1,8,0:0:0:0:
113,166,88747,1,8,0:0:0:0:
109,137,88833,1,10,0:0:0:0:
124,276,89004,1,8,0:0:0:0:
101,56,89176,1,10,0:0:0:0:
288,107,89347,6,0,P|253:93|216:90,1,74.2499977340699,6|0,1:2|0:0,0:0:0:0:
194,90,89690,1,0,1:0:0:0:
373,22,89861,1,2,1:0:0:0:
389,11,90204,1,8,0:0:0:0:
414,122,90376,2,0,L|422:176,1,49.4999984893799,2|0,0:0|0:0,0:0:0:0:
272,336,90718,6,0,P|320:326|369:317,1,98.9999969787599,2|0,1:0|0:0,0:0:0:0:
484,353,91233,1,0,1:0:0:0:
493,370,91576,1,10,0:0:0:0:
412,384,91747,1,2,0:0:0:0:
445,273,91918,1,2,0:0:0:0:
259,234,92090,6,0,P|263:270|271:335,1,98.9999969787599,2|0,1:0|0:0,0:0:0:0:
350,202,92604,1,2,1:0:0:0:
365,187,92947,1,8,0:0:0:0:
259,234,93118,2,0,P|234:228|210:225,1,49.4999984893799,2|0,0:0|0:0,0:0:0:0:
33,288,93461,6,0,P|28:238|22:189,1,98.9999969787599,2|0,1:0|0:0,0:0:0:0:
128,261,93976,1,0,1:0:0:0:
119,286,94318,1,10,0:0:0:0:
217,340,94490,2,0,L|244:344,2,24.74999924469,2|0|0,0:0|0:0|0:0,0:0:0:0:
255,179,94833,6,0,P|221:191|209:225,1,74.2499977340699,6|0,1:2|0:0,0:0:0:0:
216,243,95176,1,0,1:0:0:0:
126,128,95347,1,2,1:0:0:0:
107,114,95690,1,8,0:0:0:0:
219,38,95861,2,0,L|167:46,1,49.4999984893799,2|0,0:0|0:0,0:0:0:0:
255,179,96204,6,0,L|370:160,1,98.9999969787599,2|0,1:0|0:0,0:0:0:0:
478,104,96718,1,0,1:0:0:0:
496,88,97061,1,10,0:0:0:0:
401,93,97233,1,2,0:0:0:0:
327,5,97404,1,2,0:0:0:0:
283,111,97576,6,0,P|289:62|298:14,1,98.9999969787599,2|0,1:0|0:0,0:0:0:0:
164,113,98090,2,0,P|167:137|169:162,1,49.4999984893799,2|0,1:0|0:0,0:0:0:0:
97,252,98433,1,10,0:0:0:0:
181,329,98604,2,0,P|205:331|230:334,1,49.4999984893799,2|0,0:0|0:0,0:0:0:0:
361,205,98947,6,0,P|312:212|264:226,1,98.9999969787599,2|0,1:0|0:0,0:0:0:0:
329,384,99461,2,0,L|334:319,1,49.4999984893799,0|0,1:0|0:0,0:0:0:0:
339,302,99718,1,8,0:0:0:0:
339,302,99804,1,10,0:0:0:0:
230,334,99976,1,2,1:0:0:0:
483,355,100147,1,10,0:0:0:0:
433,133,100318,6,0,B|419:173|419:173|431:273,1,111.374996601105,6|0,1:0|0:0,0:0:0:0:
431,271,100661,1,0,1:0:0:0:
283,179,100833,1,8,0:0:0:0:
298,102,101004,2,0,L|308:176,1,74.2499977340699,2|0,0:0|1:0,0:0:0:0:
135,102,101347,2,0,L|146:17,1,74.2499977340699,2|8,0:0|0:0,0:0:0:0:
372,89,101690,6,0,P|298:102|225:108,1,148.49999546814,2|0,0:0|0:0,0:0:0:0:
97,202,102204,2,0,P|133:193|169:186,1,74.2499977340699,8|0,0:0|0:0,0:0:0:0:
278,268,102547,1,2,1:0:0:0:
364,218,102718,1,2,1:0:0:0:
462,293,102890,1,10,0:0:0:0:
244,383,103061,6,0,B|262:326|262:326|247:267,1,111.374996601105,6|0,1:2|0:0,0:0:0:0:
253,248,103404,1,0,1:0:0:0:
117,313,103576,1,10,0:0:0:0:
77,228,103747,2,0,P|83:264|88:301,1,74.2499977340699,2|0,0:0|1:0,0:0:0:0:
181,113,104090,2,0,P|174:149|169:186,1,74.2499977340699,2|8,0:0|0:0,0:0:0:0:
2,90,104433,6,0,P|66:86|73:-13,1,148.49999546814,2|0,0:0|0:0,0:0:0:0:
255,16,104947,2,0,P|220:4|189:22,1,74.2499977340699,8|0,0:0|0:0,0:0:0:0:
310,128,105290,1,2,1:0:0:0:
394,21,105461,1,10,0:0:0:0:
394,21,105547,1,10,0:0:0:0:
394,21,105633,1,10,0:0:0:0:
512,0,105804,6,0,B|493:31|493:31|479:137,1,111.374996601105,6|0,1:0|0:0,0:0:0:0:
487,130,106147,1,0,1:0:0:0:
396,228,106318,1,10,0:0:0:0:
492,256,106490,2,0,B|456:243|456:243|420:245,1,74.2499977340699,2|0,0:0|1:0,0:0:0:0:
312,366,106833,2,0,B|276:368|276:368|240:355,1,74.2499977340699,2|8,0:0|0:0,0:0:0:0:
121,155,107176,6,0,P|142:227|155:300,1,148.49999546814,2|0,0:0|0:0,0:0:0:0:
0,384,107690,2,0,P|2:346|7:310,1,74.2499977340699,10|0,0:0|0:0,0:0:0:0:
220,188,108033,2,0,P|183:183|146:178,1,74.2499977340699,2|2,1:0|0:0,0:0:0:0:
121,156,108290,1,8,0:0:0:0:
121,156,108376,1,8,0:0:0:0:
326,58,108547,6,0,L|309:196,1,111.374996601105,6|0,1:2|0:0,0:0:0:0:
310,192,108890,1,0,1:0:0:0:
430,289,109061,2,0,P|394:279|357:273,1,74.2499977340699,8|0,0:0|1:0,0:0:0:0:
253,293,109404,1,2,1:0:0:0:
146,178,109576,1,8,0:0:0:0:
86,374,109747,1,0,0:0:0:0:
66,378,110090,5,10,0:0:0:0:
152,330,110261,1,0,1:0:0:0:
17,234,110433,1,8,0:0:0:0:
146,178,110604,1,0,1:0:0:0:
35,77,110776,6,0,B|73:96|73:96|111:86,1,82.5,8|0,0:0|0:0,0:0:0:0:
131,60,111033,2,0,B|169:50|169:50|207:69,1,82.5,10|0,0:0|0:0,0:0:0:0:
230,93,111290,2,0,B|249:76|249:76|264:72,1,41.25,8|0,0:0|0:0,0:0:0:0:
426,24,111461,5,6,1:2:0:0:
446,18,111804,1,2,1:0:0:0:
473,129,111976,2,0,L|475:96,1,24.74999924469,10|0,0:0|0:0,0:0:0:0:
367,154,112318,2,0,L|365:176,2,12.374999622345,10|8|0,0:0|0:0|1:0,0:0:0:0:
498,247,112661,6,0,L|441:241,1,49.4999984893799,2|0,0:0|0:0,0:0:0:0:
321,273,113176,1,2,0:0:0:0:
321,273,113347,2,0,L|324:243,1,24.74999924469,2|8,1:0|0:0,0:0:0:0:
253,166,113690,1,2,0:0:0:0:
232,152,114033,1,10,0:0:0:0:
228,148,114118,1,8,0:0:0:0:
224,144,114204,6,0,L|226:172,1,24.74999924469,2|0,1:0|0:0,0:0:0:0:
182,250,114547,1,2,0:0:0:0:
104,283,114718,2,0,L|72:280,1,24.74999924469,10|0,0:0|0:0,0:0:0:0:
16,368,115061,2,0,L|37:366,2,12.374999622345,10|8|0,0:0|0:0|1:0,0:0:0:0:
162,384,115404,2,0,L|169:332,1,49.4999984893799,2|0,0:0|0:0,0:0:0:0:
172,315,116090,1,0,1:0:0:0:
15,224,116261,2,0,L|8:172,1,49.4999984893799,8|2,0:0|0:0,0:0:0:0:
111,77,116776,1,8,0:0:0:0:
114,80,116861,1,8,0:0:0:0:
117,83,116947,6,0,L|112:110,1,24.74999924469,2|0,1:0|0:0,0:0:0:0:
224,161,117290,1,2,0:0:0:0:
224,161,117461,2,0,L|219:136,1,24.74999924469,10|0,0:0|0:0,0:0:0:0:
228,22,117804,2,0,L|244:21,2,12.374999622345,10|8|0,0:0|0:0|1:0,0:0:0:0:
344,97,118147,6,0,L|396:88,1,49.4999984893799,2|0,0:0|0:0,0:0:0:0:
493,38,118661,1,2,0:0:0:0:
472,145,118833,2,0,P|474:161|475:172,1,24.74999924469,2|8,1:0|0:0,0:0:0:0:
344,97,119176,1,2,0:0:0:0:
324,112,119518,1,10,0:0:0:0:
321,115,119604,1,8,0:0:0:0:
318,118,119690,6,0,L|315:91,1,24.74999924469,2|0,1:0|0:0,0:0:0:0:
244,19,120033,1,2,0:0:0:0:
185,83,120204,2,0,L|160:81,1,24.74999924469,10|0,0:0|0:0,0:0:0:0:
92,27,120547,2,0,L|67:25,1,24.74999924469,2|0,0:0|1:0,0:0:0:0:
30,151,120890,6,0,P|54:154|77:156,1,37.1249988670349,2|0,0:0|0:0,0:0:0:0:
85,157,121233,1,8,0:0:0:0:
103,243,121404,1,0,1:0:0:0:
66,326,121576,1,8,0:0:0:0:
66,326,121661,1,8,0:0:0:0:
66,326,121747,1,8,0:0:0:0:
205,242,121918,1,0,1:0:0:0:
187,363,122090,6,0,P|155:364|177:352,1,74.2499977340699,2|0,1:0|0:0,0:0:0:0:
183,351,122433,6,0,L|211:352,1,28.874999118805,2|0,1:0|0:0,0:0:0:0:
281,299,122776,1,2,0:0:0:0:
374,379,122947,2,0,L|406:372,1,28.874999118805,10|0,0:0|0:0,0:0:0:0:
494,277,123290,2,0,L|497:296,2,14.4374995594025,10|8|0,0:0|0:0|1:0,0:0:0:0:
387,264,123633,6,0,L|378:202,1,57.7499982376099,2|2,0:0|0:0,0:0:0:0:
376,186,124318,1,2,1:0:0:0:
478,111,124490,2,0,L|473:150,1,28.874999118805,8|2,0:0|0:0,0:0:0:0:
365,74,124833,2,0,L|361:45,1,28.874999118805,0|10,0:0|0:0,0:0:0:0:
366,22,125090,1,8,0:0:0:0:
366,22,125176,6,0,P|334:27|307:30,1,57.7499982376099,2|2,1:0|0:0,0:0:0:0:
212,75,125690,2,0,P|215:91|217:104,1,28.874999118805,10|0,0:0|0:0,0:0:0:0:
301,165,126033,2,0,P|298:180|296:193,1,28.874999118805,2|0,0:0|1:0,0:0:0:0:
195,278,126376,6,0,P|167:276|138:270,1,57.7499982376099,2|8,0:0|0:0,0:0:0:0:
112,268,127061,1,0,1:0:0:0:
112,268,127147,1,0,1:0:0:0:
112,268,127233,1,8,0:0:0:0:
112,268,127918,5,2,0:0:0:0:
183,192,128090,1,0,0:0:0:0:
72,102,128261,1,2,0:0:0:0:
229,12,128433,5,2,0:0:0:0:
92,88,128604,1,0,0:0:0:0:
179,169,128776,1,2,0:0:0:0:
112,268,128947,2,0,L|113:296,1,28.874999118805,0|2,0:0|0:0,0:0:0:0:
171,73,130661,5,6,1:2:0:0:
155,94,130833,1,0,0:0:0:0:
239,166,131004,1,8,0:0:0:0:
265,66,131176,1,8,0:0:0:0:
89,19,131347,5,8,0:0:0:0:
102,225,131518,1,8,0:0:0:0:
347,137,131690,1,8,0:0:0:0:
0,124,131861,1,8,0:0:0:0:
43,337,132033,5,8,0:0:0:0:
81,350,132118,1,0,1:0:0:0:
122,350,132204,1,0,1:0:0:0:
160,335,132290,1,0,1:0:0:0:
191,307,132376,2,0,L|211:250,1,41.25,8|0,0:0|0:0,0:0:0:0:
182,112,132547,1,0,1:0:0:0:
182,112,132633,1,0,1:0:0:0:
182,112,132718,5,10,0:0:0:0:
183,65,132804,1,8,0:0:0:0:
151,31,132890,1,10,0:0:0:0:
104,30,132976,1,0,1:0:0:0:
71,63,133061,1,0,1:0:0:0:
71,110,133147,1,0,1:0:0:0:
105,142,133233,6,0,B|165:112|208:134|208:134|229:120|255:111|255:111|278:122|304:118,1,210.375004012585,6|0,1:0|0:0,0:0:0:0:
332,114,133576,1,2,1:0:0:0:
499,175,133747,1,10,0:0:0:0:
452,23,133918,1,2,0:0:0:0:
382,235,134090,2,0,B|320:212|320:212|260:210,1,123.750004720688,2|0,1:0|1:0,0:0:0:0:
62,327,134433,1,10,0:0:0:0:
0,203,134604,1,2,0:0:0:0:
202,186,134776,5,2,1:0:0:0:
173,21,134947,1,2,0:0:0:0:
35,92,135118,1,10,0:0:0:0:
202,0,135290,1,2,0:0:0:0:
335,246,135461,2,0,P|247:247|213:166,1,185.625007081032,2|0,1:0|0:0,0:0:0:0:
228,143,135804,1,8,0:0:0:0:
382,164,135976,6,0,P|369:247|359:359,1,185.625007081032,6|0,1:2|0:0,0:0:0:0:
365,377,136318,1,2,1:0:0:0:
226,245,136490,1,10,0:0:0:0:
163,363,136661,1,2,0:0:0:0:
0,279,136833,2,0,L|123:268,1,123.750004720688,2|0,1:0|1:0,0:0:0:0:
284,143,137176,1,10,0:0:0:0:
284,143,137347,1,2,0:0:0:0:
152,150,137518,5,2,1:0:0:0:
333,16,137690,2,0,P|273:29|212:41,1,123.750004720688,2|8,0:0|0:0,0:0:0:0:
433,172,138033,2,0,P|373:159|312:147,1,123.750004720688,2|0,0:0|1:0,0:0:0:0:
512,31,138376,1,2,1:0:0:0:
315,165,138547,2,0,P|320:210|334:237,1,61.875002360344,8|8,0:0|0:0,0:0:0:0:
509,234,138718,6,0,P|511:153|432:171,1,185.625007081032,6|0,1:0|0:0,0:0:0:0:
419,194,139061,1,2,1:0:0:0:
227,241,139233,1,10,0:0:0:0:
289,69,139404,1,2,0:0:0:0:
343,310,139576,2,0,B|402:293|402:293|463:300,1,123.750004720688,2|0,1:0|1:0,0:0:0:0:
315,165,139918,1,10,0:0:0:0:
236,360,140090,1,2,0:0:0:0:
93,285,140261,5,2,1:0:0:0:
203,118,140433,2,0,P|217:179|226:240,1,123.750004720688,2|8,0:0|0:0,0:0:0:0:
432,21,140776,2,0,P|417:81|410:143,1,123.750004720688,2|0,0:0|1:0,0:0:0:0:
512,175,141118,1,2,1:0:0:0:
373,225,141290,2,0,P|343:207|324:176,1,61.875002360344,8|8,0:0|0:0,0:0:0:0:
277,26,141461,6,0,P|300:115|316:207,1,185.625007081032,6|0,1:2|0:0,0:0:0:0:
314,234,141804,1,2,1:0:0:0:
48,183,141976,1,8,0:0:0:0:
200,126,142147,1,2,1:0:0:0:
194,156,142233,1,0,1:0:0:0:
188,186,142318,1,8,0:0:0:0:
284,352,142490,6,0,B|322:350|322:350|350:335,1,61.875002360344,6|0,1:0|0:0,0:0:0:0:
372,220,142661,2,0,B|334:222|334:222|306:237,1,61.875002360344,4|0,1:2|0:0,0:0:0:0:
160,338,142833,6,0,B|187:194,1,123.750004720688,6|0,1:0|0:0,0:0:0:0:
188,186,143176,1,0,1:0:0:0:
29,60,143347,2,0,P|40:123|49:194,1,123.750004720688,8|0,0:0|0:0,0:0:0:0:
171,87,143690,5,0,1:0:0:0:
171,87,143776,1,0,1:0:0:0:
171,87,143861,2,0,P|176:52|182:25,1,61.875002360344,8|8,0:0|0:0,0:0:0:0:
313,124,144033,2,0,P|307:89|302:62,1,61.875002360344,8|8,0:0|0:0,0:0:0:0:
182,216,144204,6,0,B|254:206|254:206|301:219|301:219|370:208,1,185.625007081032,6|0,1:2|0:0,0:0:0:0:
387,205,144547,1,2,1:0:0:0:
233,325,144718,1,10,0:0:0:0:
354,384,144890,1,2,0:0:0:0:
493,260,145061,2,0,L|472:134,1,123.750004720688,2|0,1:0|1:0,0:0:0:0:
305,46,145404,1,10,0:0:0:0:
445,13,145576,1,2,0:0:0:0:
284,180,145747,5,2,1:0:0:0:
305,46,145918,1,2,0:0:0:0:
280,204,146090,1,10,0:0:0:0:
151,80,146261,1,2,0:0:0:0:
147,287,146433,2,0,P|235:281|279:203,1,185.625007081032,2|0,1:0|0:0,0:0:0:0:
284,180,146776,1,8,0:0:0:0:
179,61,146947,6,0,B|119:46|119:46|57:66|57:66|-19:48,1,185.625007081032,6|0,1:2|0:0,0:0:0:0:
0,31,147290,1,2,1:0:0:0:
120,143,147461,1,10,0:0:0:0:
21,236,147633,1,2,0:0:0:0:
128,384,147804,2,0,P|134:322|146:261,1,123.750004720688,2|0,1:0|1:0,0:0:0:0:
299,132,148147,1,10,0:0:0:0:
299,132,148318,1,2,0:0:0:0:
120,143,148490,5,2,1:0:0:0:
302,238,148661,2,0,P|362:224|423:217,1,123.750004720688,2|8,0:0|0:0,0:0:0:0:
177,16,149004,2,0,P|237:29|298:36,1,123.750004720688,2|0,0:0|1:0,0:0:0:0:
0,95,149347,1,2,1:0:0:0:
228,174,149518,2,0,P|233:138|226:106,1,61.875002360344,8|8,0:0|0:0,0:0:0:0:
68,202,149690,6,0,P|139:220|192:107,1,210.375004012585,6|0,1:0|0:0,0:0:0:0:
187,95,150033,1,2,1:0:0:0:
365,169,150204,1,10,0:0:0:0:
426,66,150376,1,2,0:0:0:0:
503,284,150547,2,0,B|446:255|446:255|387:268,1,123.750004720688,2|0,1:0|1:0,0:0:0:0:
238,378,150890,1,10,0:0:0:0:
68,202,151061,1,2,1:0:0:0:
0,359,151233,5,10,0:0:0:0:
33,376,151318,1,8,0:0:0:0:
72,376,151404,1,2,1:0:0:0:
105,358,151490,1,0,1:0:0:0:
126,326,151576,2,0,L|146:261,1,41.25,8|8,0:0|0:0,0:0:0:0:
184,122,151747,2,0,L|195:161,1,41.25,2|0,1:0|1:0,0:0:0:0:
375,313,151918,5,8,0:0:0:0:
384,262,152004,1,8,0:0:0:0:
395,214,152090,1,10,0:0:0:0:
405,164,152176,1,8,0:0:0:0:
416,115,152261,1,8,0:0:0:0:
426,66,152347,1,8,0:0:0:0:
437,16,152433,6,0,B|399:7|366:27|366:27|317:9|317:9|288:23|257:20,1,185.625007081032,4|0,1:0|0:0,0:0:0:0:
235,17,152776,1,2,1:0:0:0:
158,175,152947,1,10,0:0:0:0:
60,47,153118,1,2,0:0:0:0:
252,182,153290,1,2,1:0:0:0:
161,196,153461,1,2,1:0:0:0:
70,210,153633,1,10,0:0:0:0:
95,355,153804,6,0,B|150:325|150:325|208:342,1,123.750004720688,2|0,0:0|1:0,0:0:0:0:
353,256,154147,1,0,0:0:0:0:
466,270,154318,2,0,B|411:300|411:300|352:282,1,123.750004720688,10|0,0:0|0:0,0:0:0:0:
239,58,154661,2,0,L|252:185,1,123.750004720688,2|0,1:0|1:0,0:0:0:0:
512,52,155004,2,0,L|505:115,1,61.875002360344,10|8,0:0|0:0,0:0:0:0:
466,270,155176,6,0,B|456:204|456:204|418:151|418:151|411:79,1,185.625007081032,6|0,1:2|0:0,0:0:0:0:
409,75,155518,1,0,1:0:0:0:
251,181,155690,1,10,0:0:0:0:
352,282,155861,1,2,0:0:0:0:
152,188,156033,1,2,1:0:0:0:
242,162,156204,1,2,1:0:0:0:
332,136,156376,1,10,0:0:0:0:
198,11,156547,6,0,P|219:64|174:100,1,123.750004720688,2|0,0:0|1:0,0:0:0:0:
50,133,156890,1,0,0:0:0:0:
40,243,157061,2,0,P|18:189|63:153,1,123.750004720688,10|0,0:0|0:0,0:0:0:0:
169,310,157404,2,0,L|151:187,1,123.750004720688,2|0,1:0|1:0,0:0:0:0:
316,253,157747,2,0,L|247:264,1,61.875002360344,10|8,0:0|0:0,0:0:0:0:
18,346,157918,6,0,B|78:322|138:321|138:321|162:347|187:358,1,185.625007081032,6|0,1:0|0:0,0:0:0:0:
213,370,158261,1,0,1:0:0:0:
290,164,158433,1,10,0:0:0:0:
338,340,158604,1,2,0:0:0:0:
387,152,158776,1,2,1:0:0:0:
293,139,158947,1,2,1:0:0:0:
199,126,159118,1,10,0:0:0:0:
316,253,159290,5,2,0:0:0:0:
415,62,159461,2,0,B|350:74|350:74|298:48,1,123.750004720688,2|0,1:0|1:0,0:0:0:0:
87,140,159804,2,0,B|152:128|152:128|204:154,1,123.750004720688,8|0,0:0|1:0,0:0:0:0:
210,182,160061,1,0,1:0:0:0:
210,182,160147,1,10,0:0:0:0:
402,269,160318,6,0,B|356:274|356:274|315:252,1,92.812503540516,6|0,1:2|0:0,0:0:0:0:
432,180,160661,6,0,B|437:217|428:254|428:254|442:289|442:289|431:328|444:368,1,185.625007081032,6|0,1:0|0:0,0:0:0:0:
446,384,161004,1,0,1:0:0:0:
243,313,161176,1,10,0:0:0:0:
335,160,161347,1,2,0:0:0:0:
336,349,161518,1,2,1:0:0:0:
235,336,161690,1,2,1:0:0:0:
134,323,161861,1,10,0:0:0:0:
19,379,162033,5,0,0:0:0:0:
5,148,162204,2,0,B|27:178|27:178|38:270,1,123.750004720688,2|0,1:0|1:0,0:0:0:0:
222,141,162547,2,0,B|200:111|200:111|189:19,1,123.750004720688,8|8,0:0|0:0,0:0:0:0:
209,9,162804,1,8,0:0:0:0:
209,9,162890,1,8,0:0:0:0:
298,84,163061,1,0,1:0:0:0:
138,199,163233,1,0,1:0:0:0:
0,0,163404,6,0,P|16:80|25:142,1,123.75,6|0,1:0|0:0,0:0:0:0:
25,147,163747,1,0,1:0:0:0:
37,263,163918,1,2,1:0:0:0:
139,227,164090,1,2,0:0:0:0:
161,322,164261,2,0,B|151:280|151:280|163:242,1,82.5,10|0,0:0|0:0,0:0:0:0:
294,293,164604,1,2,0:0:0:0:
389,251,164776,1,2,0:0:0:0:
207,151,164947,5,2,1:0:0:0:
309,187,165118,1,10,0:0:0:0:
291,92,165290,2,0,B|301:134|301:134|288:171,1,82.5,2|0,1:0|0:0,0:0:0:0:
371,0,165633,1,8,0:0:0:0:
484,78,165804,1,0,1:0:0:0:
309,187,165976,1,0,1:0:0:0:
427,381,166147,6,0,P|491:343|503:271,1,123.75,6|0,1:2|0:0,0:0:0:0:
509,272,166490,1,0,1:0:0:0:
309,187,166661,1,2,1:0:0:0:
444,151,166833,1,2,0:0:0:0:
316,287,167004,2,0,L|333:178,1,82.5,10|0,0:0|0:0,0:0:0:0:
196,232,167347,1,2,0:0:0:0:
99,222,167518,1,2,0:0:0:0:
5,358,167690,5,2,1:0:0:0:
132,337,167861,1,10,0:0:0:0:
15,262,168033,2,0,L|32:371,1,82.5,2|0,1:0|0:0,0:0:0:0:
196,232,168376,5,10,0:0:0:0:
185,155,168490,5,8,0:0:0:0:
119,125,168604,5,0,1:0:0:0:
38,140,168718,5,2,1:0:0:0:
5,118,168833,5,0,1:0:0:0:
7,101,168947,5,0,1:0:0:0:
14,95,169061,5,6,1:2:0:0:
233,27,169404,6,0,L|238:72,1,33,2|0,0:0|0:0,0:0:0:0:
318,111,169747,2,0,L|323:156,1,33,2|0,0:0|0:0,0:0:0:0:
386,214,170090,1,2,0:0:0:0:
425,129,170261,2,0,L|416:204,1,66,2|0,0:0|0:0,0:0:0:0:
506,156,170776,1,2,0:0:0:0:
491,69,170947,2,0,L|502:29,1,33,2|0,0:0|0:0,0:0:0:0:
410,0,171290,1,2,0:0:0:0:
340,70,171461,1,2,0:0:0:0:
233,27,171633,1,2,0:0:0:0:
230,30,171718,1,0,0:0:0:0:
227,33,171804,6,0,L|194:29,1,33
106,72,172147,1,2,0:0:0:0:
106,72,172318,1,0,0:0:0:0:
20,42,172490,1,2,0:0:0:0:
37,127,172661,2,0,L|28:162,1,33,2|0,0:0|0:0,0:0:0:0:
97,245,173004,2,0,L|117:169,1,66,2|0,0:0|0:0,0:0:0:0:
194,119,173518,2,0,L|203:154,1,33
213,170,173776,1,0,0:0:0:0:
215,171,173861,2,0,L|258:159,1,33
234,189,174204,2,0,L|277:177,1,33
391,276,174547,5,2,0:0:0:0:
403,300,174890,2,0,L|371:291,1,33,2|0,0:0|0:0,0:0:0:0:
275,318,175233,1,2,0:0:0:0:
206,382,175404,2,0,L|174:373,1,33,2|0,0:0|0:0,0:0:0:0:
73,300,175747,2,0,P|105:294|131:274,1,66,2|0,0:0|0:0,0:0:0:0:
66,193,176261,1,2,0:0:0:0:
158,126,176433,1,0,0:0:0:0:
161,129,176518,1,0,0:0:0:0:
164,132,176604,2,0,L|208:124,1,33,2|2,0:0|0:0,0:0:0:0:
286,55,176947,2,0,L|242:47,1,33,0|2,0:0|0:0,0:0:0:0:
148,8,177290,6,0,B|121:23|121:23|86:26,1,66
0,7,177804,1,0,0:0:0:0:
21,96,177976,2,0,L|8:130,1,33
36,113,178318,2,0,L|23:147,1,33
147,159,178661,2,0,L|160:193,1,33
132,176,179004,2,0,L|145:210,1,33
27,264,179347,2,0,L|14:298,1,33
30,312,179690,6,0,L|42:281,1,33.4125008157349,2|0,0:0|0:0,0:0:0:0:
50,258,180033,5,0,1:0:0:0:
118,344,180204,1,0,1:0:0:0:
287,206,180376,1,10,0:0:0:0:
304,191,181061,1,10,0:0:0:0:
321,176,181747,1,10,0:0:0:0:
338,161,182433,1,10,0:0:0:0:
382,36,182776,5,2,1:0:0:0:
472,133,182947,1,0,1:0:0:0:
230,48,183118,1,10,0:0:0:0:
209,41,183804,1,8,0:0:0:0:
188,34,184490,1,8,0:0:0:0:
134,153,184833,5,0,1:0:0:0:
67,62,185004,1,0,1:0:0:0:
310,141,185176,1,8,0:0:0:0:
333,149,185518,5,0,1:0:0:0:
359,286,185690,1,0,1:0:0:0:
42,249,185861,1,10,0:0:0:0:
14,242,186547,1,10,0:0:0:0:
64,376,186890,5,2,1:0:0:0:
178,276,187061,1,0,1:0:0:0:
123,96,187233,2,0,L|108:183,1,61.875002360344,10|2,0:0|0:0,0:0:0:0:
342,83,187576,1,8,0:0:0:0:
316,65,187661,1,8,0:0:0:0:
287,55,187747,1,2,1:0:0:0:
256,55,187833,1,0,1:0:0:0:
227,64,187918,1,8,0:0:0:0:
145,0,188090,1,2,1:0:0:0:
123,96,188261,5,12,0:2:0:0:
0,130,188433,1,0,1:0:0:0:
207,226,188604,5,8,0:0:0:0:
84,192,188776,1,0,1:0:0:0:
350,98,188947,5,8,0:0:0:0:
227,64,189118,1,0,1:0:0:0:
512,165,189290,5,8,0:0:0:0:
389,199,189461,1,0,1:0:0:0:
313,0,189633,5,8,0:0:0:0:
270,167,189804,1,0,1:0:0:0:
59,111,189976,5,8,0:0:0:0:
102,278,190147,1,0,1:0:0:0:
350,98,190318,5,8,0:0:0:0:
307,265,190490,1,0,1:0:0:0:
145,0,190661,5,8,0:0:0:0:
206,267,190833,1,0,1:0:0:0:
206,267,190918,1,0,1:0:0:0:
206,267,191004,5,14,0:1:0:0:
411,322,191176,1,0,1:0:0:0:
350,98,191347,5,8,0:0:0:0:
261,363,191518,1,0,1:0:0:0:
505,220,191690,5,8,0:0:0:0:
163,140,191861,1,0,1:0:0:0:
427,357,192033,5,8,0:0:0:0:
342,61,192204,1,0,1:0:0:0:
77,303,192376,5,8,0:0:0:0:
393,240,192547,1,0,1:0:0:0:
33,83,192718,1,8,0:0:0:0:
273,188,192890,5,8,0:0:0:0:
316,170,192976,1,8,0:0:0:0:
359,153,193061,1,8,0:0:0:0:
512,44,193233,5,8,0:0:0:0:
381,29,193404,1,8,0:0:0:0:
250,14,193576,1,8,0:0:0:0:
187,192,193747,6,0,P|89:189|156:260,1,247.500009441376,4|0,1:0|0:0,0:0:0:0:
108,78,194261,6,0,P|7:165|28:298,1,280.500005350113,4|0,1:2|0:0,0:0:0:0:
265,267,194776,6,0,L|230:253,1,30.937501180172,4|0,1:0|0:0,0:0:0:0:
0,319,195804,5,2,0:0:0:0:
67,380,195976,2,0,L|108:371,1,28.874999118805,2|0,0:0|0:0,0:0:0:0:
218,350,196318,6,0,L|181:341,2,28.874999118805,2|0|2,0:0|0:0|0:0,0:0:0:0:
298,384,196833,1,2,0:0:0:0:
363,336,197004,1,2,0:0:0:0:
310,277,197176,2,0,L|313:244,1,28.874999118805,2|0,0:0|0:0,0:0:0:0:
397,232,197518,2,0,L|394:260,1,28.874999118805,2|2,0:0|0:0,0:0:0:0:
346,173,197861,6,0,L|351:132,2,28.874999118805,2|0|2,0:0|0:0|0:0,0:0:0:0:
262,186,198376,1,0,0:0:0:0:
328,70,198547,2,0,P|356:66|384:72,1,57.7499982376099,2|0,0:0|0:0,0:0:0:0:
512,20,199061,6,0,P|483:23|455:17,1,57.7499982376099,2|2,0:0|0:0,0:0:0:0:
351,0,199576,1,2,0:0:0:0:
328,70,199747,1,2,0:0:0:0:
242,50,199918,2,0,L|205:47,1,28.874999118805,2|0,0:0|0:0,0:0:0:0:
155,122,200261,2,0,L|183:124,1,28.874999118805,2|2,0:0|0:0,0:0:0:0:
266,133,200604,5,2,0:0:0:0:
141,210,200776,2,0,L|101:206,1,28.874999118805,2|0,0:0|0:0,0:0:0:0:
57,73,201118,1,2,1:0:0:0:
54,101,201204,1,0,1:0:0:0:
52,130,201290,1,8,0:0:0:0:
237,221,201461,1,2,1:0:0:0:
266,217,201804,6,0,P|259:256|256:296,1,80.4374963178636,2|0,1:0|0:0,0:0:0:0:
257,318,202147,1,10,0:0:0:0:
362,384,202318,1,2,1:0:0:0:
457,304,202490,1,2,1:0:0:0:
371,164,202661,2,0,P|366:190|364:217,1,53.6249975452424,10|0,0:0|0:0,0:0:0:0:
257,318,203004,1,2,0:0:0:0:
177,252,203176,1,2,1:0:0:0:
143,357,203347,5,2,1:0:0:0:
79,284,203518,1,2,1:0:0:0:
93,187,203690,1,2,1:0:0:0:
182,151,203861,1,2,1:0:0:0:
0,223,204033,2,0,L|-3:158,1,53.6249975452424,10|0,0:0|0:0,0:0:0:0:
74,27,204376,1,0,1:0:0:0:
195,176,204547,6,0,P|276:157|358:145,1,165,6|10,1:0|0:0,0:0:0:0:
386,150,204976,1,8,0:0:0:0:
386,150,205061,6,0,L|381:205,1,41.25,8|0,0:0|0:0,0:0:0:0:
340,316,205233,1,10,0:0:0:0:
340,316,205318,1,8,0:0:0:0:
340,316,205404,2,0,L|390:292,1,41.25,8|0,0:0|0:0,0:0:0:0:
511,266,205576,1,10,0:0:0:0:
511,266,205661,1,8,0:0:0:0:
511,266,205747,2,0,L|465:234,1,41.25,8|0,0:0|0:0,0:0:0:0:
266,147,205918,1,10,0:0:0:0:
266,147,206004,1,8,0:0:0:0:
266,147,206090,5,8,0:0:0:0:
236,138,206176,1,8,0:0:0:0:
205,141,206261,1,8,0:0:0:0:
178,155,206347,1,8,0:0:0:0:
158,178,206433,1,8,0:0:0:0:
113,201,206518,1,8,0:0:0:0:
67,182,206604,1,8,0:0:0:0:
50,135,206690,1,8,0:0:0:0:
75,91,206776,5,10,0:0:0:0:
116,125,206861,1,0,1:0:0:0:
128,178,206947,1,2,1:0:0:0:
106,227,207033,1,0,1:0:0:0:
65,261,207118,1,0,1:0:0:0:
53,313,207204,1,0,1:0:0:0:
74,363,207290,6,0,B|274:325,1,198,4|0,1:0|0:0,0:0:0:0:
293,320,207633,1,2,1:0:0:0:
368,203,207804,1,10,0:0:0:0:
423,382,207976,1,2,0:0:0:0:
512,211,208147,2,0,B|382:186,1,132,2|0,1:0|1:0,0:0:0:0:
214,235,208490,1,10,0:0:0:0:
253,84,208661,1,2,0:0:0:0:
114,6,208833,6,0,P|107:67|102:142,1,132,2|0,1:0|0:0,0:0:0:0:
16,246,209176,1,10,0:0:0:0:
214,235,209347,1,2,0:0:0:0:
14,377,209518,2,0,P|85:316|28:229,1,198,2|0,1:0|0:0,0:0:0:0:
16,222,209861,1,8,0:0:0:0:
202,322,210033,6,0,B|315:327|262:234|402:246,1,198,6|0,1:2|0:0,0:0:0:0:
399,254,210376,1,2,1:0:0:0:
214,235,210547,1,10,0:0:0:0:
367,337,210718,1,2,0:0:0:0:
502,263,210890,2,0,L|515:124,1,132,2|0,1:0|1:0,0:0:0:0:
398,0,211233,1,10,0:0:0:0:
398,0,211404,1,2,0:0:0:0:
327,154,211576,5,2,1:0:0:0:
197,42,211747,2,0,P|257:55|327:68,1,132,2|8,0:0|0:0,0:0:0:0:
108,219,212090,2,0,P|168:206|238:193,1,132,2|0,0:0|1:0,0:0:0:0:
348,314,212433,1,2,1:0:0:0:
120,384,212604,2,0,P|112:352|116:315,1,66,8|8,0:0|0:0,0:0:0:0:
301,138,212776,6,0,P|285:260|197:265,1,198,6|0,1:0|0:0,0:0:0:0:
197,274,213118,1,2,1:0:0:0:
147,62,213290,1,10,0:0:0:0:
75,174,213461,1,2,0:0:0:0:
0,52,213633,2,0,B|167:31,1,132,2|0,1:0|1:0,0:0:0:0:
270,127,213976,1,10,0:0:0:0:
399,0,214147,1,2,0:0:0:0:
253,19,214318,5,2,1:0:0:0:
423,115,214490,2,0,P|407:184|396:253,1,132,2|8,1:0|0:0,0:0:0:0:
130,35,214833,2,0,P|146:104|157:173,1,132,2|0,0:0|1:0,0:0:0:0:
215,367,215176,1,2,1:0:0:0:
397,244,215347,2,0,L|328:232,1,66,8|8,0:0|0:0,0:0:0:0:
155,164,215518,6,0,B|377:202,1,198,6|0,1:2|0:0,0:0:0:0:
376,202,215861,1,2,1:0:0:0:
484,50,216033,5,8,0:0:0:0:
487,82,216118,1,0,1:0:0:0:
490,115,216204,2,0,P|458:118|425:115,1,66,2|0,1:0|1:0,0:0:0:0:
278,39,216376,2,0,P|296:66|310:96,1,66,0|0,1:0|1:0,0:0:0:0:
267,265,216547,1,10,0:0:0:0:
236,251,216633,1,0,1:0:0:0:
206,238,216718,2,0,P|219:208|238:180,1,66,0|0,1:0|1:0,0:0:0:0:
415,197,216890,2,0,P|382:199|349:197,1,66,2|0,1:0|1:0,0:0:0:0:
81,87,217061,5,8,0:0:0:0:
96,46,217147,1,8,0:0:0:0:
134,28,217233,1,8,0:0:0:0:
175,41,217318,1,8,0:0:0:0:
196,78,217404,1,8,0:0:0:0:
186,120,217490,1,8,0:0:0:0:
159,147,217576,2,0,L|114:196,1,66,8|8,0:0|0:0,0:0:0:0:
23,360,217747,5,0,1:0:0:0:
84,382,217833,1,0,1:0:0:0:
149,374,217918,1,0,1:0:0:0:
208,346,218004,1,0,1:0:0:0:
270,324,218090,1,0,1:0:0:0:
335,332,218176,1,0,1:0:0:0:
402,374,218261,6,0,B|411:306|411:306|400:249|400:249|410:162,1,198,6|0,1:0|0:0,0:0:0:0:
397,148,218604,1,2,1:0:0:0:
239,212,218776,1,10,0:0:0:0:
485,230,218947,1,2,0:0:0:0:
250,65,219118,2,0,L|261:197,1,132,2|0,1:0|1:0,0:0:0:0:
440,11,219461,1,10,0:0:0:0:
397,148,219633,1,2,0:0:0:0:
143,8,219804,5,2,1:0:0:0:
345,39,219976,1,2,0:0:0:0:
119,0,220147,1,10,0:0:0:0:
239,212,220318,1,2,0:0:0:0:
76,145,220490,2,0,L|275:114,1,198,2|0,1:0|0:0,0:0:0:0:
301,113,220833,1,8,0:0:0:0:
477,284,221004,6,0,P|398:289|367:190,1,198,6|0,1:2|0:0,0:0:0:0:
383,174,221347,1,2,1:0:0:0:
351,373,221518,1,10,0:0:0:0:
150,277,221690,1,2,0:0:0:0:
239,212,221861,2,0,P|250:272|259:345,1,132,2|0,1:0|1:0,0:0:0:0:
398,87,222204,1,10,0:0:0:0:
398,87,222376,1,2,0:0:0:0:
478,198,222547,5,2,1:0:0:0:
297,130,222718,1,10,0:0:0:0:
512,31,222890,1,8,0:0:0:0:
267,40,223061,1,10,0:0:0:0:
263,43,223147,1,8,0:0:0:0:
259,46,223233,2,0,L|269:120,1,66,8|0,0:0|0:0,0:0:0:0:
408,323,223404,5,10,0:0:0:0:
456,321,223490,1,8,0:0:0:0:
493,289,223576,1,8,0:0:0:0:
501,241,223661,1,8,0:0:0:0:
478,198,223747,6,0,B|426:183|385:213|385:213|317:188|317:188|278:212|226:194,1,264,6|2,1:0|1:0,0:0:0:0:
199,195,224176,1,0,1:0:0:0:
196,199,224261,1,10,0:0:0:0:
30,55,224433,1,2,0:0:0:0:
143,2,224604,2,0,L|120:140,1,132,2|0,1:0|1:0,0:0:0:0:
129,333,224947,1,10,0:0:0:0:
316,304,225118,1,2,1:0:0:0:
118,157,225290,5,10,0:0:0:0:
12,258,225461,2,0,P|77:246|142:235,1,132,2|0,1:0|1:0,0:0:0:0:
375,323,225804,1,2,1:0:0:0:
346,313,225890,1,0,1:0:0:0:
316,304,225976,1,8,0:0:0:0:
470,360,226147,5,2,1:0:0:0:
228,269,226318,1,8,0:0:0:0:
512,123,226490,1,6,1:0:0:0:
256,192,226661,12,0,234890,0:0:0:0:
