osu file format v14

[General]
AudioFilename: audio.mp3
AudioLeadIn: 0
PreviewTime: 64061
Countdown: 1
SampleSet: Soft
StackLeniency: 0.7
Mode: 0
LetterboxInBreaks: 0
WidescreenStoryboard: 1

[Editor]
DistanceSpacing: 1.5
BeatDivisor: 4
GridSize: 32
TimelineZoom: 1.7

[Metadata]
Title:Home
TitleUnicode:Home
Artist:MY FIRST STORY
ArtistUnicode:MY FIRST STORY
Creator:HowRengar
Version:Insane
Source:
Tags:Jrock japanese rock antithese track 13
BeatmapID:2153404
BeatmapSetID:1029822

[Difficulty]
HPDrainRate:5
CircleSize:4
OverallDifficulty:7.8
ApproachRate:9
SliderMultiplier:1.4
SliderTickRate:1

[Events]
//Background and Video events
0,0,"Home.jpg",0,0
//Break Periods
2,169261,178661
//Storyboard Layer 0 (Background)
//Storyboard Layer 1 (Fail)
//Storyboard Layer 2 (Pass)
//Storyboard Layer 3 (Foreground)
//Storyboard Layer 4 (Overlay)
//Storyboard Sound Samples

[TimingPoints]
376,342.857142857143,4,2,1,45,1,0
1747,-125,4,2,1,45,0,0
5861,-100,4,2,1,60,0,0
7061,-86.9565217391304,4,2,1,70,0,0
15204,-86.9565217391304,4,2,1,5,0,0
15290,-86.9565217391304,4,2,1,70,0,0
23004,-95.2380952380952,4,2,1,60,0,0
23518,-117.647058823529,4,2,1,50,0,0
34490,-105.263157894737,4,2,1,60,0,0
45633,-133.333333333333,4,2,1,40,0,0
51118,-111.111111111111,4,2,1,50,0,0
56604,-100,4,2,1,60,0,0
62347,-100,4,2,1,5,0,0
62433,-100,4,2,1,60,0,0
64661,-86.9565217391304,4,2,1,80,0,1
83861,-125,4,2,1,80,0,0
85747,-125,4,2,1,60,0,0
86604,-125,4,2,1,70,0,0
86861,-125,4,2,1,5,0,0
86947,-125,4,2,1,70,0,0
87376,-125,4,2,1,5,0,0
87461,-125,4,2,1,70,0,0
87890,-125,4,2,1,5,0,0
87976,-83.3333333333333,4,2,1,70,0,0
88233,-83.3333333333333,4,2,1,5,0,0
88318,-100,4,2,1,70,0,0
89347,-125,4,2,1,50,0,0
100318,-100,4,2,1,60,0,0
110947,-100,4,2,1,5,0,0
111033,-100,4,2,1,60,0,0
111204,-100,4,2,1,5,0,0
111290,-100,4,2,1,60,0,0
111376,-100,4,2,1,5,0,0
111461,-133.333333333333,4,2,1,40,0,0
122433,-117.647058823529,4,2,1,50,0,0
128947,-181.818181818181,4,2,1,50,0,0
130661,-117.647058823529,4,2,1,60,0,0
131347,-105.263157894737,4,2,1,60,0,0
132033,-105.263157894737,4,2,1,70,0,0
133233,-86.9565217391304,4,2,1,80,0,1
160318,-117.647058823529,4,2,1,80,0,1
160576,-86.9565217391304,4,2,1,5,0,1
160661,-86.9565217391304,4,2,1,80,0,1
163404,-100,4,2,1,80,0,1
165547,-100,4,2,1,5,0,1
165633,-100,4,2,1,80,0,1
169061,-133.333333333333,4,2,1,50,0,0
187918,-105.263157894737,4,2,1,60,0,0
188261,-105.263157894737,4,2,1,70,0,0
191004,-105.263157894737,4,2,1,80,0,0
194947,-105.263157894737,4,2,1,40,0,0
196318,-181.818181818181,4,2,1,40,0,0
201118,-133.333333333333,4,2,1,60,0,0
204547,-100,4,2,1,70,0,0
206090,-100,4,2,1,80,0,0
207290,-86.9565217391304,4,2,1,90,0,1
227347,-90.9090909090909,4,2,1,95,0,0
228033,-90.9090909090909,4,2,1,80,0,0
228718,-90.9090909090909,4,2,1,75,0,0
229404,-90.9090909090909,4,2,1,70,0,0
230090,-90.9090909090909,4,2,1,65,0,0
230776,-90.9090909090909,4,2,1,60,0,0
231461,-90.9090909090909,4,2,1,55,0,0
232147,-90.9090909090909,4,2,1,50,0,0
232833,-90.9090909090909,4,2,1,40,0,0
233518,-90.9090909090909,4,2,1,30,0,0
234204,-90.9090909090909,4,2,1,20,0,0
234890,-90.9090909090909,4,2,1,5,0,0

[Colours]
Combo1 : 243,134,118
Combo2 : 150,196,222
Combo3 : 195,195,195
Combo4 : 105,155,248
Combo5 : 216,185,150

[HitObjects]
159,62,1747,6,0,P|154:89|149:117,1,56,2|0,0:0|0:0,0:0:0:0:
142,222,2090,2,0,P|197:219|253:211,2,112,2|2|2,0:0|0:0|0:0,0:0:0:0:
321,358,3118,6,0,P|349:353|385:350,1,56,2|0,0:0|0:0,0:0:0:0:
474,297,3461,2,0,P|475:247|484:182,2,112,2|2|2,0:0|0:0|0:0,0:0:0:0:
379,70,4490,5,2,0:0:0:0:
360,42,4833,2,0,P|305:27|251:15,2,112,2|2|2,0:0|0:0|0:0,0:0:0:0:
436,162,5861,5,0,1:0:0:0:
411,175,5947,1,0,1:0:0:0:
384,181,6033,1,8,0:0:0:0:
356,180,6118,1,8,0:0:0:0:
329,172,6204,2,0,L|293:157,3,35,8|8|0|0,0:0|0:0|1:0|1:0,0:0:0:0:
222,223,6547,2,0,L|185:238,3,35,0|0|0|0,1:0|1:0|1:0|1:0,0:0:0:0:
183,119,6890,2,0,L|146:103,1,35,0|0,0:0|1:0,0:0:0:0:
75,72,7061,6,0,P|148:68|237:48,1,161.000003070831,6|2,1:0|1:0,0:0:0:0:
366,16,7576,2,0,P|358:51|352:100,1,80.5000015354157,8|2,0:0|0:0,0:0:0:0:
351,225,7918,1,2,1:0:0:0:
457,156,8090,1,2,1:0:0:0:
451,273,8261,2,0,P|419:266|366:259,1,80.5000015354157,8|2,0:0|0:0,0:0:0:0:
285,341,8604,5,2,1:0:0:0:
245,238,8776,1,2,1:0:0:0:
339,145,8947,2,0,P|345:177|351:229,1,80.5000015354157,8|2,0:0|0:0,0:0:0:0:
250,71,9290,1,2,1:0:0:0:
156,145,9461,2,0,L|70:134,1,80.5000015354157,2|8,1:0|0:0,0:0:0:0:
0,299,9804,6,0,L|182:268,1,161.000003070831,6|2,1:2|1:0,0:0:0:0:
265,378,10318,2,0,L|174:367,1,80.5000015354157,8|2,0:0|0:0,0:0:0:0:
316,254,10661,1,2,1:0:0:0:
316,254,10833,1,2,1:0:0:0:
229,188,11004,2,0,L|223:101,1,80.5000015354157,8|2,0:0|0:0,0:0:0:0:
350,0,11347,2,0,P|337:79|328:159,1,161.000003070831,2|8,1:0|0:0,0:0:0:0:
220,207,11861,1,2,0:0:0:0:
220,207,12033,6,0,P|179:198|135:192,1,80.5000015354157,2|10,1:0|0:0,0:0:0:0:
12,115,12376,1,8,0:0:0:0:
170,96,12547,6,0,P|87:60|113:6,1,161.000003070831,6|2,1:0|1:0,0:0:0:0:
271,1,13061,2,0,P|262:42|258:87,1,80.5000015354157,8|2,0:0|0:0,0:0:0:0:
259,217,13404,1,2,1:0:0:0:
140,192,13576,1,2,1:0:0:0:
98,316,13747,2,0,P|136:305|180:293,1,80.5000015354157,8|2,0:0|0:0,0:0:0:0:
292,323,14090,5,2,1:0:0:0:
259,217,14261,1,2,1:0:0:0:
376,243,14433,1,8,0:0:0:0:
493,269,14604,1,2,1:0:0:0:
493,269,14690,1,2,1:0:0:0:
493,269,14776,1,10,0:0:0:0:
480,152,14947,6,0,P|447:182|466:133,1,120.750002303124,4|0,1:2|0:0,0:0:0:0:
499,128,15290,6,0,B|448:114|448:114|392:119|392:119|341:105,1,161.000003070831,6|2,1:0|1:0,0:0:0:0:
223,47,15804,2,0,L|325:21,1,80.5000015354157,8|2,0:0|0:0,0:0:0:0:
428,12,16147,1,2,1:0:0:0:
428,12,16318,1,2,1:0:0:0:
499,128,16490,2,0,P|490:167|485:207,1,80.5000015354157,8|2,0:0|0:0,0:0:0:0:
454,331,16833,1,2,1:0:0:0:
366,253,17004,1,2,1:0:0:0:
307,353,17176,2,0,P|259:343|206:339,1,80.5000015354157,8|2,0:0|0:0,0:0:0:0:
137,245,17518,2,0,P|176:240|216:231,1,80.5000015354157,2|2,1:0|1:0,0:0:0:0:
233,223,17776,1,8,0:0:0:0:
248,213,17861,1,8,0:0:0:0:
377,110,18033,6,0,B|341:142|305:135|305:135|267:106|208:122,1,161.000003070831,6|2,1:0|1:0,0:0:0:0:
125,157,18547,2,0,P|118:117|109:78,1,80.5000015354157,8|2,0:0|0:0,0:0:0:0:
41,0,18890,1,2,1:0:0:0:
0,99,19061,1,2,1:0:0:0:
52,199,19233,2,0,P|91:190|130:183,1,80.5000015354157,8|2,0:0|0:0,0:0:0:0:
220,274,19576,5,2,1:0:0:0:
263,157,19747,1,2,1:0:0:0:
206,298,19918,2,0,P|166:289|127:282,1,80.5000015354157,8|0,0:0|1:0,0:0:0:0:
299,379,20261,5,10,0:0:0:0:
318,356,20347,1,8,0:0:0:0:
329,329,20433,1,0,1:0:0:0:
332,299,20518,1,0,1:0:0:0:
326,269,20604,2,0,P|312:248|297:229,3,40.2500007677078,10|8|0|0,0:0|0:0|1:0|1:0,0:0:0:0:
206,298,20947,1,6,1:2:0:0:
256,192,21118,12,0,22490,0:0:0:0:
226,287,23004,5,10,0:0:0:0:
302,274,23176,1,8,0:0:0:0:
379,261,23347,1,10,0:0:0:0:
479,321,23518,6,0,P|485:256|494:184,1,119.000002269745,6|0,1:2|1:0,0:0:0:0:
463,116,24033,1,10,0:0:0:0:
396,172,24204,2,0,P|363:165|316:159,1,59.5000011348725,2|0,0:0|1:0,0:0:0:0:
239,96,24547,2,0,P|268:91|297:85,1,59.5000011348725,2|8,1:0|0:0,0:0:0:0:
449,88,24890,6,0,P|395:68|376:13,1,119.000002269745,2|0,1:0|1:0,0:0:0:0:
224,10,25404,2,0,P|229:39|234:68,1,59.5000011348725,8|0,0:0|0:0,0:0:0:0:
202,169,25747,1,2,1:0:0:0:
202,169,25918,1,2,1:0:0:0:
131,94,26090,1,10,0:0:0:0:
0,117,26261,6,0,P|18:173|30:232,1,119.000002269745,2|0,1:0|1:0,0:0:0:0:
0,323,26776,1,10,0:0:0:0:
83,384,26947,2,0,P|110:373|140:367,1,59.5000011348725,2|0,0:0|1:0,0:0:0:0:
189,274,27290,2,0,P|216:284|246:290,1,59.5000011348725,2|8,1:0|0:0,0:0:0:0:
371,259,27633,6,0,P|347:312|365:367,1,119.000002269745,2|0,1:0|1:0,0:0:0:0:
461,233,28147,2,0,P|450:206|430:185,1,59.5000011348725,8|0,0:0|0:0,0:0:0:0:
330,168,28490,1,2,1:0:0:0:
330,168,28661,1,2,1:0:0:0:
411,74,28833,1,10,0:0:0:0:
512,111,29004,6,0,P|447:103|373:92,1,119.000002269745,6|0,1:2|1:0,0:0:0:0:
314,0,29518,1,10,0:0:0:0:
294,76,29690,2,0,L|284:6,1,59.5000011348725,2|0,0:0|1:0,0:0:0:0:
176,0,30033,2,0,L|184:58,1,59.5000011348725,2|8,1:0|0:0,0:0:0:0:
129,167,30376,6,0,P|145:100|190:84,1,119.000002269745,2|0,1:0|1:0,0:0:0:0:
328,166,30890,2,0,P|323:195|322:225,1,59.5000011348725,8|0,0:0|0:0,0:0:0:0:
306,339,31233,1,2,1:0:0:0:
306,339,31404,1,2,1:0:0:0:
220,266,31576,1,10,0:0:0:0:
187,372,31747,6,0,B|128:387|133:344|71:371,1,119.000002269745,2|0,1:0|1:0,0:0:0:0:
0,301,32261,2,0,P|8:272|14:243,1,59.5000011348725,10|0,0:0|0:0,0:0:0:0:
132,139,32604,1,2,1:0:0:0:
59,173,32776,2,0,P|90:167|116:157,1,59.5000011348725,2|8,1:0|0:0,0:0:0:0:
17,23,33118,1,0,1:0:0:0:
8,32,33204,1,0,1:0:0:0:
0,40,33290,6,0,P|5:70|20:95,1,59.5000011348725,2|8,1:0|0:0,0:0:0:0:
35,101,33547,1,8,0:0:0:0:
49,98,33633,1,8,0:0:0:0:
121,4,33804,1,0,1:0:0:0:
170,110,33976,5,10,0:0:0:0:
245,13,34147,1,2,1:0:0:0:
100,12,34318,1,10,0:0:0:0:
270,99,34490,6,0,B|308:91|308:91|356:106|356:106|403:95,1,132.999996448517,6|0,1:0|1:0,0:0:0:0:
508,45,35004,1,10,0:0:0:0:
392,6,35176,2,0,B|406:38|406:38|403:70,1,66.4999982242585,2|0,0:0|1:0,0:0:0:0:
512,132,35518,2,0,B|498:100|498:100|501:68,1,66.4999982242585,2|8,0:0|0:0,0:0:0:0:
512,230,35861,6,0,L|383:195,1,132.999996448517,2|0,0:0|0:0,0:0:0:0:
256,251,36376,2,0,L|339:273,1,66.4999982242585,8|0,0:0|0:0,0:0:0:0:
413,296,36718,1,2,1:0:0:0:
413,296,36890,1,2,1:0:0:0:
512,230,37061,1,10,0:0:0:0:
465,379,37233,6,0,B|400:383|400:383|335:363,1,132.999996448517,6|0,1:2|1:0,0:0:0:0:
239,327,37747,1,10,0:0:0:0:
149,382,37918,2,0,L|137:304,1,66.4999982242585,2|0,0:0|1:0,0:0:0:0:
28,284,38261,2,0,L|40:206,1,66.4999982242585,2|8,0:0|0:0,0:0:0:0:
126,115,38604,6,0,P|56:129|7:92,1,132.999996448517,2|0,0:0|0:0,0:0:0:0:
198,48,39118,2,0,P|217:85|222:115,1,66.4999982242585,8|0,0:0|0:0,0:0:0:0:
171,195,39461,1,2,1:0:0:0:
80,50,39633,1,2,0:0:0:0:
82,43,39718,1,8,0:0:0:0:
84,36,39804,1,8,0:0:0:0:
221,109,39976,6,0,B|271:99|271:99|304:101|304:101|372:87,1,132.999996448517,6|0,1:2|1:0,0:0:0:0:
437,0,40490,1,10,0:0:0:0:
512,98,40661,2,0,P|480:88|447:84,1,66.4999982242585,2|0,0:0|1:0,0:0:0:0:
333,189,41004,2,0,P|364:179|397:175,1,66.4999982242585,2|8,0:0|0:0,0:0:0:0:
439,297,41347,6,0,P|412:239|428:176,1,132.999996448517,2|0,0:0|0:0,0:0:0:0:
455,333,41861,2,0,L|386:324,1,66.4999982242585,10|0,0:0|0:0,0:0:0:0:
262,287,42204,1,2,1:0:0:0:
275,377,42376,2,0,P|286:346|290:313,1,66.4999982242585,2|8,1:0|0:0,0:0:0:0:
150,231,42718,6,0,B|214:244|212:192|284:206,1,132.999996448517,6|0,1:2|1:0,0:0:0:0:
381,133,43233,2,0,P|346:128|310:118,1,66.4999982242585,8|0,0:0|0:0,0:0:0:0:
184,14,43576,2,0,L|164:149,1,132.999996448517,2|8,1:0|0:0,0:0:0:0:
69,178,44090,1,0,0:0:0:0:
146,248,44261,5,2,1:0:0:0:
164,145,44433,1,8,0:0:0:0:
142,273,44604,1,0,1:0:0:0:
260,213,44776,5,8,0:0:0:0:
253,211,44861,1,8,0:0:0:0:
246,209,44947,1,8,0:0:0:0:
69,178,45118,1,0,1:0:0:0:
12,285,45290,1,2,1:0:0:0:
87,370,45461,1,0,1:0:0:0:
89,377,45547,1,0,1:0:0:0:
91,384,45633,6,0,P|129:375|164:368,1,52.5000020027161,6|0,1:2|0:0,0:0:0:0:
239,323,45976,1,2,1:0:0:0:
312,380,46147,2,0,P|337:373|362:366,1,52.5000020027161,2|0,0:0|1:0,0:0:0:0:
437,304,46490,2,0,P|430:278|423:253,1,52.5000020027161,2|0,0:0|1:0,0:0:0:0:
332,147,46833,2,0,P|339:198|318:245,1,105.000004005432,2|0,0:0|0:0,0:0:0:0:
239,182,47347,1,2,1:0:0:0:
164,240,47518,2,0,P|139:231|108:224,1,52.5000020027161,2|0,0:0|1:0,0:0:0:0:
20,154,47861,2,0,P|45:147|70:138,1,52.5000020027161,2|0,0:0|1:0,0:0:0:0:
165,54,48204,1,2,0:0:0:0:
154,148,48376,6,0,L|141:30,1,105.000004005432,2|2,1:0|1:0,0:0:0:0:
8,64,48890,2,0,P|33:57|58:48,1,52.5000020027161,2|0,0:0|1:0,0:0:0:0:
226,0,49233,2,0,P|251:6|276:15,1,52.5000020027161,2|0,0:0|1:0,0:0:0:0:
315,126,49576,2,0,P|292:81|302:30,1,105.000004005432,2|0,0:0|0:0,0:0:0:0:
442,54,50090,2,0,P|416:61|390:65,1,52.5000020027161,0|0,1:0|0:0,0:0:0:0:
324,161,50433,2,0,P|349:153|375:149,1,52.5000020027161,0|0,1:0|0:0,0:0:0:0:
485,191,50776,1,10,0:0:0:0:
512,206,51118,6,0,P|499:267|490:330,1,125.999996154785,10|10,0:0|0:0,0:0:0:0:
374,384,51633,2,0,P|368:348|359:308,1,62.9999980773926,10|0,0:0|1:0,0:0:0:0:
297,262,51976,1,2,0:0:0:0:
269,379,52147,2,0,P|238:370|208:362,1,62.9999980773926,8|0,0:0|0:0,0:0:0:0:
184,378,52404,1,0,0:0:0:0:
176,384,52490,6,0,P|145:349|151:270,1,125.999996154785,10|10,0:0|0:0,0:0:0:0:
212,176,53004,2,0,P|180:186|147:191,1,62.9999980773926,10|0,0:0|1:0,0:0:0:0:
44,208,53347,1,2,0:0:0:0:
0,100,53518,2,0,P|31:105|61:114,1,62.9999980773926,8|2,0:0|0:0,0:0:0:0:
73,121,53776,1,0,0:0:0:0:
83,128,53861,6,0,B|79:64|79:64|99:5,1,125.999996154785,10|2,0:0|1:0,0:0:0:0:
246,79,54376,2,0,L|166:73,1,62.9999980773926,10|0,0:0|1:0,0:0:0:0:
212,176,54718,2,0,L|274:180,1,62.9999980773926,2|8,0:0|0:0,0:0:0:0:
378,79,55061,1,2,0:0:0:0:
371,86,55147,1,0,0:0:0:0:
364,93,55233,6,0,P|367:155|376:218,1,125.999996154785,10|0,0:0|1:0,0:0:0:0:
474,298,55747,1,8,0:0:0:0:
372,366,55918,2,0,L|286:343,1,62.9999980773926,0|0,1:0|0:0,0:0:0:0:
281,376,56176,1,0,0:0:0:0:
269,384,56261,2,0,L|183:361,1,62.9999980773926,10|0,0:0|0:0,0:0:0:0:
177,377,56518,1,0,0:0:0:0:
164,384,56604,6,0,B|96:364|96:364|25:382,1,140,10|2,1:0|1:0,0:0:0:0:
0,266,57118,2,0,L|78:246,1,70,10|0,1:0|1:0,0:0:0:0:
181,180,57461,1,2,1:0:0:0:
188,187,57547,1,0,1:0:0:0:
195,194,57633,2,0,L|185:291,1,70,8|0,1:0|1:0,0:0:0:0:
94,137,57976,6,0,L|101:67,1,70,2|8,1:0|0:0,0:0:0:0:
108,60,58233,1,8,0:0:0:0:
115,53,58318,1,10,0:0:0:0:
199,98,58490,1,2,1:0:0:0:
243,12,58661,2,0,P|228:44|221:78,1,70,10|0,0:0|1:0,0:0:0:0:
365,171,59004,2,0,P|357:136|343:105,1,70,10|0,0:0|1:0,0:0:0:0:
333,91,59261,1,0,1:0:0:0:
326,84,59347,5,10,0:0:0:0:
369,0,59518,1,0,1:0:0:0:
477,166,59690,1,8,0:0:0:0:
434,82,59861,1,0,1:0:0:0:
350,209,60033,2,0,L|261:197,1,70,8|0,0:0|1:0,0:0:0:0:
184,332,60376,2,0,L|253:322,1,70,8|0,0:0|1:0,0:0:0:0:
116,234,60718,5,8,0:0:0:0:
155,338,60890,1,0,1:0:0:0:
191,137,61061,1,8,0:0:0:0:
109,233,61233,1,0,1:0:0:0:
102,232,61318,1,0,1:0:0:0:
95,231,61404,1,8,0:0:0:0:
41,119,61576,1,0,0:0:0:0:
122,46,61747,1,10,0:0:0:0:
0,0,61918,1,0,1:0:0:0:
144,39,62090,6,0,P|194:52|226:2,1,105,6|0,1:0|0:0,0:0:0:0:
209,0,62433,1,0,0:0:0:0:
293,111,62604,2,0,P|341:108|291:76,1,140,6|0,1:2|0:0,0:0:0:0:
260,287,63118,1,6,1:0:0:0:
260,287,64490,1,8,0:0:0:0:
357,384,64661,6,0,P|364:308|378:197,1,161.000003070831,6|2,1:0|1:0,0:0:0:0:
483,117,65176,1,10,0:0:0:0:
407,36,65347,1,2,0:0:0:0:
295,143,65518,2,0,L|199:135,1,80.5000015354157,2|0,1:0|1:0,0:0:0:0:
65,138,65861,1,10,0:0:0:0:
160,28,66033,1,2,0:0:0:0:
8,49,66204,6,0,P|19:87|26:127,1,80.5000015354157,2|0,1:0|0:0,0:0:0:0:
115,275,66547,1,10,0:0:0:0:
0,241,66718,1,2,0:0:0:0:
191,350,66890,2,0,P|200:280|115:256,1,161.000003070831,2|8,1:0|0:0,0:0:0:0:
19,384,67404,6,0,B|12:323|12:323|29:289|29:289|20:213,1,161.000003070831,6|2,1:2|1:0,0:0:0:0:
137,147,67918,1,10,0:0:0:0:
126,250,68090,1,2,0:0:0:0:
244,148,68261,2,0,P|206:138|156:133,1,80.5000015354157,2|0,1:0|1:0,0:0:0:0:
11,142,68604,1,10,0:0:0:0:
11,142,68776,1,2,0:0:0:0:
77,11,68947,5,2,1:0:0:0:
243,118,69118,2,0,P|204:128|165:132,1,80.5000015354157,2|8,0:0|0:0,0:0:0:0:
338,143,69461,2,0,P|309:171|277:195,1,80.5000015354157,2|0,0:0|1:0,0:0:0:0:
431,117,69804,2,0,P|420:155|404:192,1,80.5000015354157,2|8,1:0|0:0,0:0:0:0:
290,44,70147,6,0,B|328:35|367:62|367:62|401:29|454:35,1,161.000003070831,6|2,1:2|1:0,0:0:0:0:
512,163,70661,1,10,0:0:0:0:
431,117,70833,1,2,0:0:0:0:
382,274,71004,2,0,P|432:273|461:254,1,80.5000015354157,2|0,1:0|1:0,0:0:0:0:
317,213,71347,1,10,0:0:0:0:
294,304,71518,1,2,0:0:0:0:
404,192,71690,1,2,1:0:0:0:
358,359,71861,6,0,L|253:337,1,80.5000015354157,2|8,0:0|0:0,0:0:0:0:
144,223,72204,2,0,L|222:239,1,80.5000015354157,2|0,0:0|1:0,0:0:0:0:
115,337,72547,1,2,1:0:0:0:
34,214,72718,1,8,0:0:0:0:
180,68,72890,6,0,B|173:127|173:127|153:161|153:161|143:225,1,161.000003070831,6|2,1:0|1:0,0:0:0:0:
88,93,73404,2,0,L|98:13,1,80.5000015354157,8|2,0:0|1:0,0:0:0:0:
85,0,73661,1,0,1:0:0:0:
85,0,73747,1,8,0:0:0:0:
0,108,73918,1,6,1:0:0:0:
180,68,74090,2,0,L|187:125,1,40.2500007677078,4|0,1:2|0:0,0:0:0:0:
223,237,74261,6,0,P|143:222|64:209,1,161.000003070831,6|0,1:0|1:0,0:0:0:0:
0,351,74776,2,0,P|38:341|81:336,1,80.5000015354157,8|0,0:0|1:0,0:0:0:0:
305,384,75118,1,0,1:0:0:0:
333,372,75204,1,0,1:0:0:0:
356,352,75290,1,8,0:0:0:0:
370,326,75376,1,8,0:0:0:0:
375,296,75461,1,8,0:0:0:0:
331,196,75633,6,0,P|410:186|489:168,1,161.000003070831,6|2,1:0|1:0,0:0:0:0:
377,88,76147,1,10,0:0:0:0:
498,34,76318,1,2,0:0:0:0:
338,0,76490,2,0,P|344:33|351:79,1,80.5000015354157,2|0,1:0|1:0,0:0:0:0:
247,124,76833,1,10,0:0:0:0:
223,5,77004,1,2,0:0:0:0:
69,98,77176,5,2,1:0:0:0:
154,77,77347,1,2,0:0:0:0:
0,32,77518,1,10,0:0:0:0:
169,76,77690,1,2,0:0:0:0:
51,106,77861,2,0,L|38:193,1,80.5000015354157,2|0,1:0|0:0,0:0:0:0:
3,324,78204,1,8,0:0:0:0:
185,382,78376,6,0,P|130:344|133:251,1,161.000003070831,6|2,1:2|1:0,0:0:0:0:
171,167,78890,1,10,0:0:0:0:
284,213,79061,1,2,0:0:0:0:
288,306,79233,2,0,P|254:300|205:298,1,80.5000015354157,2|0,1:0|1:0,0:0:0:0:
408,268,79576,1,10,0:0:0:0:
408,268,79747,1,2,0:0:0:0:
387,384,79918,5,2,1:0:0:0:
512,254,80090,2,0,P|501:292|496:341,1,80.5000015354157,2|8,0:0|0:0,0:0:0:0:
380,167,80433,2,0,P|391:205|396:254,1,80.5000015354157,2|0,0:0|1:0,0:0:0:0:
400,54,80776,1,10,0:0:0:0:
403,44,80861,1,8,0:0:0:0:
406,34,80947,1,8,0:0:0:0:
512,117,81118,6,0,B|432:137|445:58|348:79,1,161.000003070831,6|2,1:0|1:0,0:0:0:0:
351,82,81547,1,0,1:0:0:0:
343,92,81633,5,10,0:0:0:0:
257,134,81804,1,2,1:0:0:0:
173,10,81976,5,10,0:0:0:0:
259,52,82147,1,0,1:0:0:0:
92,134,82318,5,10,0:0:0:0:
178,92,82490,1,2,1:0:0:0:
68,0,82661,5,10,0:0:0:0:
0,82,82833,2,0,P|8:118|15:162,1,80.5000015354157,2|8,1:0|0:0,0:0:0:0:
130,232,83176,1,10,0:0:0:0:
132,223,83261,1,8,0:0:0:0:
135,213,83347,1,8,0:0:0:0:
92,134,83518,5,2,1:0:0:0:
44,255,83690,1,8,1:0:0:0:
256,192,83861,1,6,1:0:0:0:
256,192,84033,12,2,85747,0:0:0:0:
344,177,85918,5,0,1:0:0:0:
347,193,86004,1,0,1:0:0:0:
353,211,86090,1,8,0:0:0:0:
383,303,86261,1,0,1:0:0:0:
451,226,86433,1,0,1:0:0:0:
290,278,86604,6,0,B|244:274|244:274|206:246,1,84,4|0,1:0|0:0,0:0:0:0:
207,231,86947,1,0,1:0:0:0:
104,150,87118,2,0,B|123:191|123:191|118:238,1,84,4|0,1:2|0:0,0:0:0:0:
113,253,87461,1,8,0:0:0:0:
89,373,87633,2,0,B|115:335|115:335|158:316,1,84,4|0,1:2|0:0,0:0:0:0:
159,331,87976,6,0,B|127:348|93:342|93:342|71:322|17:325,1,125.999996154785,4|0,1:0|0:0,0:0:0:0:
21,327,88318,1,8,0:0:0:0:
113,253,88490,1,0,1:0:0:0:
226,384,88661,1,8,0:0:0:0:
234,377,88747,1,8,0:0:0:0:
242,370,88833,5,10,0:0:0:0:
250,277,89004,1,8,0:0:0:0:
258,184,89176,1,10,0:0:0:0:
369,128,89347,6,0,P|315:141|260:150,1,112,6|0,1:2|1:0,0:0:0:0:
137,161,89861,1,2,1:0:0:0:
115,154,90204,1,8,0:0:0:0:
51,50,90376,2,0,L|39:104,1,56,2|0,0:0|0:0,0:0:0:0:
93,263,90718,2,0,L|115:149,1,112,2|0,1:0|0:0,0:0:0:0:
144,52,91233,1,0,1:0:0:0:
404,9,91576,1,10,0:0:0:0:
144,52,92090,6,0,P|204:49|273:39,1,112,2|0,1:0|0:0,0:0:0:0:
404,9,92604,1,2,1:0:0:0:
380,21,92947,1,8,0:0:0:0:
349,90,93118,2,0,L|357:30,1,56,2|0,0:0|0:0,0:0:0:0:
389,171,93461,2,0,P|333:177|286:152,1,112,2|0,1:0|0:0,0:0:0:0:
451,97,93976,1,0,1:0:0:0:
156,184,94318,1,10,0:0:0:0:
451,97,94833,6,0,B|479:148|479:148|474:215,1,112,6|0,1:2|1:0,0:0:0:0:
422,321,95347,1,2,1:0:0:0:
439,343,95690,1,8,0:0:0:0:
334,238,95861,2,0,L|395:247,1,56,2|0,0:0|0:0,0:0:0:0:
304,331,96204,2,0,B|255:332|248:284|200:292,1,112,2|0,1:0|0:0,0:0:0:0:
191,384,96718,1,0,1:0:0:0:
285,151,97061,1,10,0:0:0:0:
191,384,97576,6,0,P|136:370|81:362,1,112,2|0,1:0|0:0,0:0:0:0:
16,259,98090,1,2,1:0:0:0:
9,233,98433,1,10,0:0:0:0:
117,279,98604,2,0,P|119:252|112:225,1,56,2|0,0:0|0:0,0:0:0:0:
0,131,98947,2,0,P|55:121|109:106,1,112,2|0,1:0|0:0,0:0:0:0:
214,25,99461,1,0,1:0:0:0:
229,141,99633,1,0,0:0:0:0:
237,140,99718,1,8,0:0:0:0:
245,139,99804,5,10,0:0:0:0:
330,62,99976,1,2,1:0:0:0:
197,15,100147,1,10,0:0:0:0:
355,159,100318,6,0,B|394:151|394:151|451:160|451:160|503:147,1,140,6|0,1:0|1:0,0:0:0:0:
512,0,100833,1,10,0:0:0:0:
436,67,101004,2,0,L|358:55,1,70,2|0,0:0|1:0,0:0:0:0:
266,4,101347,2,0,L|196:14,1,70,2|8,0:0|0:0,0:0:0:0:
65,10,101690,6,0,P|98:52|78:145,1,140,2|0,0:0|0:0,0:0:0:0:
0,247,102204,2,0,P|30:235|72:224,1,70,8|0,0:0|0:0,0:0:0:0:
164,230,102547,1,2,1:0:0:0:
205,313,102718,1,2,1:0:0:0:
304,215,102890,1,10,0:0:0:0:
188,93,103061,6,0,B|176:161|176:161|198:234,1,140,6|0,1:2|1:0,0:0:0:0:
315,309,103576,1,10,0:0:0:0:
391,249,103747,2,0,P|427:242|470:243,1,70,2|0,0:0|1:0,0:0:0:0:
512,133,104090,2,0,P|477:132|442:125,1,70,2|8,0:0|0:0,0:0:0:0:
302,20,104433,2,0,P|335:90|342:166,1,140,2|0,0:0|0:0,0:0:0:0:
428,24,104947,1,8,0:0:0:0:
158,150,105290,2,0,L|86:129,1,70,2|10,1:0|0:0,0:0:0:0:
71,127,105547,1,10,0:0:0:0:
71,127,105633,1,10,0:0:0:0:
208,90,105804,6,0,L|167:257,1,140,6|0,1:0|1:0,0:0:0:0:
135,321,106318,1,10,0:0:0:0:
2,259,106490,2,0,P|39:252|73:247,1,70,2|0,0:0|1:0,0:0:0:0:
233,306,106833,2,0,P|270:313|304:318,1,70,2|8,0:0|0:0,0:0:0:0:
425,258,107176,6,0,P|398:294|414:395,1,140,2|0,0:0|0:0,0:0:0:0:
481,192,107690,1,10,0:0:0:0:
496,171,108033,1,2,1:0:0:0:
366,157,108204,1,2,0:0:0:0:
367,165,108290,1,8,0:0:0:0:
369,174,108376,1,8,0:0:0:0:
373,63,108547,6,0,B|315:53|286:109|233:85,1,140,6|0,1:2|1:0,0:0:0:0:
125,0,109061,2,0,P|135:40|139:73,1,70,8|0,0:0|1:0,0:0:0:0:
160,163,109404,1,2,1:0:0:0:
238,87,109576,1,8,0:0:0:0:
140,178,109747,1,0,0:0:0:0:
120,193,110090,5,10,0:0:0:0:
32,252,110261,1,0,1:0:0:0:
217,232,110433,1,8,0:0:0:0:
129,287,110604,1,0,1:0:0:0:
228,374,110776,6,0,B|263:370|263:370|292:342,1,70,8|0,0:0|0:0,0:0:0:0:
299,317,111033,2,0,B|303:353|303:353|332:374,1,70,10|0,0:0|0:0,0:0:0:0:
358,384,111290,2,0,L|388:352,1,35,8|0,0:0|0:0,0:0:0:0:
496,247,111461,5,6,1:2:0:0:
512,230,111804,1,2,1:0:0:0:
460,358,111976,2,0,P|455:326|442:303,1,52.5000020027161,10|0,0:0|0:0,0:0:0:0:
380,214,112318,2,0,P|385:182|398:159,1,52.5000020027161,10|0,0:0|1:0,0:0:0:0:
495,106,112661,2,0,P|443:96|393:80,1,105.000004005432,2|0,0:0|0:0,0:0:0:0:
294,25,113176,1,2,0:0:0:0:
309,118,113347,2,0,L|292:184,1,52.5000020027161,2|8,1:0|0:0,0:0:0:0:
296,326,113690,1,2,0:0:0:0:
285,351,114033,1,10,0:0:0:0:
281,355,114118,1,8,0:0:0:0:
277,359,114204,6,0,P|233:345|167:332,1,105.000004005432,2|2,1:0|0:0,0:0:0:0:
73,372,114718,2,0,P|66:346|67:320,1,52.5000020027161,10|0,0:0|0:0,0:0:0:0:
85,209,115061,2,0,P|65:226|43:239,1,52.5000020027161,10|0,0:0|1:0,0:0:0:0:
73,123,115404,2,0,P|118:125|169:181,1,105.000004005432,2|0,0:0|0:0,0:0:0:0:
172,186,116090,1,0,1:0:0:0:
43,239,116261,1,8,0:0:0:0:
106,0,116604,1,2,0:0:0:0:
8,36,116776,1,8,0:0:0:0:
4,40,116861,1,8,0:0:0:0:
0,44,116947,6,0,L|126:30,1,105.000004005432,2|2,1:0|0:0,0:0:0:0:
230,13,117461,2,0,P|224:39|221:65,1,52.5000020027161,10|0,0:0|0:0,0:0:0:0:
137,137,117804,2,0,P|142:162|145:188,1,52.5000020027161,10|0,0:0|1:0,0:0:0:0:
203,299,118147,2,0,P|234:271|303:278,1,105.000004005432,2|0,0:0|0:0,0:0:0:0:
367,347,118661,1,2,0:0:0:0:
413,254,118833,2,0,L|420:200,1,52.5000020027161,2|8,1:0|0:0,0:0:0:0:
488,350,119176,1,2,0:0:0:0:
504,369,119518,1,10,0:0:0:0:
508,373,119604,1,8,0:0:0:0:
512,377,119690,6,0,B|468:354|449:391|401:366,1,105.000004005432,2|2,1:0|0:0,0:0:0:0:
361,245,120204,2,0,P|387:246|412:253,1,52.5000020027161,10|0,0:0|0:0,0:0:0:0:
275,299,120547,2,0,P|262:275|256:250,1,52.5000020027161,2|0,0:0|1:0,0:0:0:0:
353,146,120890,1,2,0:0:0:0:
368,127,121233,1,8,0:0:0:0:
463,171,121404,5,0,1:0:0:0:
451,68,121576,2,0,L|458:38,2,26.2500010013581,8|0|0,0:0|0:0|0:0,0:0:0:0:
368,127,121918,1,0,1:0:0:0:
281,90,122090,1,2,1:0:0:0:
259,35,122261,1,0,0:0:0:0:
279,21,122433,6,0,P|226:28|157:32,1,119.000002269745,2|2,1:0|0:0,0:0:0:0:
47,7,122947,2,0,P|61:52|66:77,1,59.5000011348725,10|0,0:0|0:0,0:0:0:0:
142,131,123290,2,0,P|128:176|123:201,1,59.5000011348725,10|0,0:0|1:0,0:0:0:0:
22,283,123633,2,0,B|77:259|82:314|159:282,1,119.000002269745,2|2,0:0|0:0,0:0:0:0:
161,285,124318,1,2,1:0:0:0:
39,384,124490,1,8,0:0:0:0:
346,376,125004,1,10,0:0:0:0:
350,380,125090,1,8,0:0:0:0:
354,384,125176,6,0,P|360:338|386:266,1,119.000002269745,2|2,1:0|0:0,0:0:0:0:
458,170,125690,2,0,P|429:177|399:180,1,59.5000011348725,10|0,0:0|0:0,0:0:0:0:
274,161,126033,2,0,P|294:182|311:206,1,59.5000011348725,2|0,0:0|1:0,0:0:0:0:
356,81,126376,5,2,0:0:0:0:
365,59,126718,1,8,0:0:0:0:
231,241,127061,1,0,1:0:0:0:
229,247,127147,1,0,1:0:0:0:
227,253,127233,1,8,0:0:0:0:
227,253,127918,5,2,0:0:0:0:
144,275,128090,1,0,0:0:0:0:
78,219,128261,1,2,0:0:0:0:
224,283,128433,5,2,0:0:0:0:
138,282,128604,1,0,0:0:0:0:
88,211,128776,1,2,0:0:0:0:
204,144,128947,6,0,L|184:192,1,38.5000011749268,0|2,0:0|0:0,0:0:0:0:
90,384,130661,5,6,1:2:0:0:
90,384,130833,1,0,0:0:0:0:
138,282,131004,1,8,0:0:0:0:
138,282,131176,1,8,0:0:0:0:
204,363,131347,5,8,0:0:0:0:
29,291,131518,1,8,0:0:0:0:
249,243,131690,1,8,0:0:0:0:
73,181,131861,1,8,0:0:0:0:
240,86,132033,5,8,0:0:0:0:
247,93,132118,1,0,1:0:0:0:
254,100,132204,2,0,L|253:137,1,33.2499991121292,0|0,1:0|1:0,0:0:0:0:
249,243,132376,1,8,0:0:0:0:
169,22,132718,5,10,0:0:0:0:
196,3,132804,1,8,0:0:0:0:
228,0,132890,1,10,0:0:0:0:
261,0,132976,1,0,1:0:0:0:
291,11,133061,1,0,1:0:0:0:
316,33,133147,1,0,1:0:0:0:
330,62,133233,6,0,B|383:52|383:52|431:70|431:70|490:57,1,161.000003070831,6|2,1:0|1:0,0:0:0:0:
511,193,133747,1,10,0:0:0:0:
373,147,133918,1,2,0:0:0:0:
380,284,134090,2,0,P|423:273|474:266,1,80.5000015354157,2|0,1:0|1:0,0:0:0:0:
273,230,134433,1,10,0:0:0:0:
373,147,134604,1,2,0:0:0:0:
227,130,134776,6,0,P|240:167|250:206,1,80.5000015354157,2|2,1:0|0:0,0:0:0:0:
269,348,135118,1,10,0:0:0:0:
380,284,135290,1,2,0:0:0:0:
439,384,135461,2,0,B|383:373|383:373|336:386|336:386|277:372,1,161.000003070831,2|8,1:0|0:0,0:0:0:0:
144,247,135976,6,0,P|182:308|148:387,1,161.000003070831,6|2,1:2|1:0,0:0:0:0:
0,292,136490,1,10,0:0:0:0:
95,318,136661,1,2,0:0:0:0:
41,197,136833,2,0,P|24:233|14:272,1,80.5000015354157,2|0,1:0|1:0,0:0:0:0:
143,137,137176,1,10,0:0:0:0:
143,137,137347,1,2,0:0:0:0:
30,81,137518,5,2,1:0:0:0:
195,66,137690,2,0,P|157:48|117:52,1,80.5000015354157,2|8,0:0|0:0,0:0:0:0:
297,78,138033,2,0,P|293:36|270:3,1,80.5000015354157,2|0,0:0|1:0,0:0:0:0:
337,172,138376,2,0,P|371:148|388:111,1,80.5000015354157,2|8,1:0|0:0,0:0:0:0:
512,0,138718,6,0,B|501:56|501:56|510:99|510:99|491:181,1,161.000003070831,6|2,1:0|1:0,0:0:0:0:
512,286,139233,1,10,0:0:0:0:
408,237,139404,1,2,0:0:0:0:
336,344,139576,2,0,L|253:329,1,80.5000015354157,2|0,1:0|1:0,0:0:0:0:
154,182,139918,1,10,0:0:0:0:
146,315,140090,1,2,0:0:0:0:
280,237,140261,1,2,1:0:0:0:
198,103,140433,6,0,P|185:146|180:196,1,80.5000015354157,2|8,0:0|0:0,0:0:0:0:
351,108,140776,2,0,P|345:68|333:29,1,80.5000015354157,2|0,0:0|1:0,0:0:0:0:
221,89,141118,1,2,1:0:0:0:
96,30,141290,1,8,0:0:0:0:
26,217,141461,6,0,B|55:207|85:210|85:210|119:190|119:190|150:190|183:180,1,161.000003070831,6|2,1:2|1:0,0:0:0:0:
351,108,141976,2,0,P|339:146|331:185,1,80.5000015354157,8|2,0:0|1:0,0:0:0:0:
338,192,142233,1,0,1:0:0:0:
345,199,142318,1,8,0:0:0:0:
478,165,142490,1,6,1:0:0:0:
419,254,142661,2,0,L|412:311,1,40.2500007677078,4|0,1:2|0:0,0:0:0:0:
450,360,142833,6,0,L|474:196,1,161.000003070831,6|0,1:0|1:0,0:0:0:0:
512,38,143347,2,0,P|474:48|431:53,1,80.5000015354157,8|0,0:0|0:0,0:0:0:0:
245,18,143690,1,0,1:0:0:0:
249,47,143776,1,0,1:0:0:0:
254,77,143861,1,8,0:0:0:0:
259,107,143947,1,8,0:0:0:0:
264,137,144033,1,8,0:0:0:0:
171,219,144204,6,0,P|164:146|90:139,1,161.000003070831,6|2,1:2|1:0,0:0:0:0:
4,202,144718,1,10,0:0:0:0:
76,281,144890,1,2,0:0:0:0:
0,384,145061,2,0,P|36:382|88:378,1,80.5000015354157,2|0,1:0|1:0,0:0:0:0:
185,332,145404,1,10,0:0:0:0:
298,384,145576,1,2,0:0:0:0:
379,272,145747,5,2,1:0:0:0:
447,357,145918,1,2,0:0:0:0:
484,215,146090,1,10,0:0:0:0:
462,376,146261,1,2,0:0:0:0:
357,279,146433,2,0,L|270:266,1,80.5000015354157,2|0,1:0|0:0,0:0:0:0:
153,194,146776,1,8,0:0:0:0:
247,83,146947,6,0,P|263:161|272:241,1,161.000003070831,6|2,1:2|1:0,0:0:0:0:
368,156,147461,1,10,0:0:0:0:
241,55,147633,1,2,0:0:0:0:
156,107,147804,2,0,P|119:102|70:97,1,80.5000015354157,2|0,1:0|1:0,0:0:0:0:
0,0,148147,1,10,0:0:0:0:
0,0,148318,1,2,0:0:0:0:
147,0,148490,5,2,1:0:0:0:
39,163,148661,2,0,P|50:124|54:84,1,80.5000015354157,2|8,0:0|0:0,0:0:0:0:
146,265,149004,2,0,P|134:226|130:186,1,80.5000015354157,2|0,0:0|1:0,0:0:0:0:
0,375,149347,2,0,P|11:336|15:296,1,80.5000015354157,2|8,1:0|0:0,0:0:0:0:
133,367,149690,6,0,B|210:380|212:311|282:326,1,161.000003070831,6|2,1:0|1:0,0:0:0:0:
403,384,150204,1,10,0:0:0:0:
482,269,150376,1,2,0:0:0:0:
358,212,150547,2,0,P|368:250|376:290,1,80.5000015354157,2|0,1:0|1:0,0:0:0:0:
469,148,150890,1,10,0:0:0:0:
345,178,151061,1,2,1:0:0:0:
471,128,151233,5,10,0:0:0:0:
473,108,151318,1,8,0:0:0:0:
476,88,151404,1,2,1:0:0:0:
479,68,151490,1,0,1:0:0:0:
482,48,151576,1,8,0:0:0:0:
361,23,151747,5,2,1:0:0:0:
363,43,151833,1,0,1:0:0:0:
366,64,151918,2,0,L|320:60,3,40.2500007677078,8|8|10|8,0:0|0:0|0:0|0:0,0:0:0:0:
250,0,152261,2,0,L|204:4,1,40.2500007677078,8|8,0:0|0:0,0:0:0:0:
81,42,152433,6,0,L|251:26,1,161.000003070831,4|2,1:0|1:0,0:0:0:0:
249,187,152947,2,0,B|237:148|237:148|250:106,1,80.5000015354157,10|2,0:0|0:0,0:0:0:0:
415,157,153290,1,2,1:0:0:0:
331,151,153461,1,2,1:0:0:0:
499,163,153633,1,10,0:0:0:0:
369,250,153804,6,0,P|408:244|444:259,1,80.5000015354157,2|0,0:0|1:0,0:0:0:0:
512,188,154147,1,0,0:0:0:0:
390,332,154318,2,0,P|350:338|314:323,1,80.5000015354157,10|0,0:0|0:0,0:0:0:0:
221,199,154661,2,0,L|227:285,1,80.5000015354157,2|0,1:0|1:0,0:0:0:0:
132,352,155004,1,10,0:0:0:0:
41,226,155176,6,0,B|93:211|93:211|144:223|144:223|205:204,1,161.000003070831,6|0,1:2|1:0,0:0:0:0:
232,124,155690,2,0,B|193:112|193:112|155:123,1,80.5000015354157,10|2,0:0|0:0,0:0:0:0:
208,374,156033,1,2,1:0:0:0:
202,290,156204,1,2,1:0:0:0:
196,206,156376,1,10,0:0:0:0:
318,93,156547,6,0,P|324:137|308:175,1,80.5000015354157,2|0,0:0|1:0,0:0:0:0:
423,142,156890,1,0,0:0:0:0:
386,294,157061,2,0,P|380:250|396:212,1,80.5000015354157,10|0,0:0|0:0,0:0:0:0:
482,56,157404,2,0,L|401:44,1,80.5000015354157,2|0,1:0|0:0,0:0:0:0:
297,0,157747,1,10,0:0:0:0:
219,85,157918,6,0,B|183:57|183:57|64:46,1,161.000003070831,6|0,1:0|1:0,0:0:0:0:
189,251,158433,2,0,B|228:263|228:263|265:251,1,80.5000015354157,10|2,0:0|0:0,0:0:0:0:
219,85,158776,1,2,1:0:0:0:
225,169,158947,1,2,1:0:0:0:
213,1,159118,1,10,0:0:0:0:
311,122,159290,1,2,0:0:0:0:
186,274,159461,6,0,B|116:277|125:197|35:219,1,161.000003070831,2|8,1:0|0:0,0:0:0:0:
50,330,159976,1,0,1:0:0:0:
52,339,160061,1,0,1:0:0:0:
55,349,160147,1,10,0:0:0:0:
194,384,160318,6,0,B|208:340|208:340|192:295,1,89.2500017023087,6|0,1:2|0:0,0:0:0:0:
186,274,160661,6,0,B|224:268|248:285|248:285|267:273|284:268|284:268|313:277|341:268,1,161.000003070831,6|0,1:0|1:0,0:0:0:0:
469,156,161176,2,0,B|481:195|481:195|469:232,1,80.5000015354157,10|2,0:0|0:0,0:0:0:0:
219,180,161518,1,2,1:0:0:0:
303,186,161690,1,2,1:0:0:0:
387,192,161861,1,10,0:0:0:0:
265,101,162033,1,0,0:0:0:0:
398,88,162204,6,0,P|389:127|386:167,1,80.5000015354157,2|0,1:0|1:0,0:0:0:0:
480,0,162547,1,8,0:0:0:0:
324,24,162718,1,8,0:0:0:0:
315,20,162804,1,8,0:0:0:0:
306,15,162890,1,8,0:0:0:0:
173,67,163061,1,0,1:0:0:0:
227,177,163233,1,0,1:0:0:0:
330,163,163404,6,0,B|258:147|270:219|186:196,1,140,6|0,1:0|1:0,0:0:0:0:
76,123,163918,1,2,1:0:0:0:
105,212,164090,1,2,0:0:0:0:
21,333,164261,2,0,B|93:320|93:320|164:347,1,140,10|2,0:0|0:0,0:0:0:0:
255,380,164776,1,2,0:0:0:0:
351,333,164947,1,2,1:0:0:0:
322,244,165118,1,10,0:0:0:0:
406,123,165290,2,0,B|356:133|356:133|276:113,1,105,2|0,1:0|0:0,0:0:0:0:
276,115,165633,5,8,0:0:0:0:
202,198,165804,1,0,1:0:0:0:
175,80,165976,1,0,1:0:0:0:
83,141,166147,6,0,P|89:94|14:114,1,140,6|0,1:2|1:0,0:0:0:0:
112,270,166661,1,2,1:0:0:0:
0,247,166833,1,2,0:0:0:0:
129,300,167004,2,0,B|173:291|173:291|221:307|221:307|289:292,1,140,10|2,0:0|0:0,0:0:0:0:
380,187,167518,1,2,0:0:0:0:
294,92,167690,1,2,1:0:0:0:
406,69,167861,1,10,0:0:0:0:
251,67,168033,2,0,B|265:104|265:104|252:151,1,70,2|0,1:0|0:0,0:0:0:0:
136,176,168376,5,10,0:0:0:0:
113,187,168490,2,0,L|118:105,1,46.6666666666667,8|0,0:0|1:0,0:0:0:0:
56,75,168718,5,2,1:0:0:0:
33,64,168833,2,0,L|38:146,1,46.6666666666667,0|0,1:0|1:0,0:0:0:0:
146,57,169061,1,6,1:2:0:0:
146,57,180033,5,0,1:0:0:0:
146,57,180204,1,0,1:0:0:0:
253,147,180376,1,10,0:0:0:0:
282,139,181061,1,10,0:0:0:0:
311,131,181747,1,10,0:0:0:0:
340,123,182433,1,10,0:0:0:0:
466,201,182776,5,2,1:0:0:0:
466,201,182947,1,0,1:0:0:0:
360,339,183118,1,10,0:0:0:0:
331,331,183804,1,8,0:0:0:0:
302,323,184490,1,8,0:0:0:0:
176,377,184833,5,0,1:0:0:0:
176,377,185004,1,0,1:0:0:0:
99,240,185176,1,8,0:0:0:0:
282,140,185518,5,0,1:0:0:0:
282,140,185690,1,0,1:0:0:0:
205,277,185861,1,10,0:0:0:0:
194,249,186547,1,10,0:0:0:0:
0,235,186890,5,2,1:0:0:0:
0,235,187061,1,0,1:0:0:0:
103,151,187233,2,0,L|111:93,1,52.5000020027161,10|2,0:0|0:0,0:0:0:0:
32,17,187576,5,8,0:0:0:0:
34,50,187661,1,8,0:0:0:0:
51,78,187747,1,2,1:0:0:0:
78,95,187833,1,0,1:0:0:0:
110,98,187918,2,0,L|173:73,1,66.4999982242585,8|0,0:0|0:0,0:0:0:0:
278,0,188261,5,12,0:2:0:0:
358,64,188433,1,0,1:0:0:0:
246,197,188604,5,8,0:0:0:0:
261,95,188776,1,0,1:0:0:0:
439,125,188947,5,8,0:0:0:0:
343,163,189118,1,0,1:0:0:0:
194,89,189290,2,0,L|261:95,1,66.4999982242585,8|0,0:0|1:0,0:0:0:0:
427,230,189633,5,8,0:0:0:0:
439,125,189804,1,0,1:0:0:0:
331,268,189976,5,8,0:0:0:0:
343,163,190147,1,0,1:0:0:0:
234,302,190318,5,8,0:0:0:0:
246,197,190490,1,0,1:0:0:0:
316,376,190661,2,0,L|391:357,1,66.4999982242585,8|0,0:0|1:0,0:0:0:0:
404,358,190918,1,0,1:0:0:0:
404,358,191004,5,14,0:1:0:0:
234,302,191176,1,0,1:0:0:0:
295,93,191347,5,8,0:0:0:0:
331,268,191518,1,0,1:0:0:0:
121,305,191690,5,8,0:0:0:0:
254,186,191861,1,0,1:0:0:0:
151,380,192033,2,0,L|143:298,1,66.4999982242585,8|0,0:0|1:0,0:0:0:0:
97,121,192376,5,8,0:0:0:0:
254,186,192547,1,0,1:0:0:0:
59,211,192718,5,8,0:0:0:0:
136,31,192890,1,8,0:0:0:0:
135,24,192976,1,8,0:0:0:0:
134,17,193061,1,8,0:0:0:0:
254,186,193233,5,8,0:0:0:0:
156,200,193404,1,8,0:0:0:0:
59,211,193576,1,8,0:0:0:0:
229,12,193747,5,4,1:0:0:0:
212,272,194261,5,4,1:2:0:0:
0,142,194776,5,4,1:0:0:0:
0,142,196318,6,0,P|46:138|91:127,1,77.0000023498536,2|2,0:0|0:0,0:0:0:0:
160,213,196833,2,0,P|140:208|107:202,2,38.5000011749268,2|2|2,0:0|0:0|0:0,0:0:0:0:
188,219,197518,1,2,0:0:0:0:
159,366,197861,6,0,P|181:359|200:354,1,38.5000011749268,2|0,0:0|0:0,0:0:0:0:
273,285,198204,2,0,L|319:295,1,38.5000011749268,2|0,0:0|0:0,0:0:0:0:
463,349,198547,1,2,0:0:0:0:
463,349,199061,6,0,P|486:303|485:263,1,77.0000023498536,2|2,0:0|0:0,0:0:0:0:
394,246,199576,2,0,P|384:226|380:200,1,38.5000011749268,2|2,0:0|0:0,0:0:0:0:
421,125,199918,1,2,0:0:0:0:
430,102,200261,2,0,L|383:92,1,38.5000011749268,2|2,0:0|0:0,0:0:0:0:
336,26,200604,5,2,0:0:0:0:
291,103,200776,2,0,L|243:94,1,38.5000011749268,2|0,0:0|0:0,0:0:0:0:
176,176,201118,1,2,1:0:0:0:
194,179,201204,1,0,1:0:0:0:
213,183,201290,1,8,0:0:0:0:
103,115,201461,2,0,P|85:150|82:189,1,78.7500030040742,2|0,1:0|0:0,0:0:0:0:
93,218,201804,5,2,1:0:0:0:
29,67,202147,1,10,0:0:0:0:
103,115,202318,1,2,1:0:0:0:
169,52,202490,1,2,1:0:0:0:
255,122,202661,1,10,0:0:0:0:
281,125,203004,2,0,L|273:181,1,52.5000020027161,2|2,0:0|1:0,0:0:0:0:
246,297,203347,5,2,1:0:0:0:
169,264,203518,1,2,1:0:0:0:
127,341,203690,1,2,1:0:0:0:
46,288,203861,1,2,1:0:0:0:
43,384,204033,2,0,P|41:344|15:281,1,105.000004005432,10|0,0:0|1:0,0:0:0:0:
206,380,204547,6,0,B|249:375|249:375|297:389|297:389|346:380,1,140,6|10,1:0|0:0,0:0:0:0:
362,377,204976,1,8,0:0:0:0:
379,373,205061,2,0,L|426:361,3,35,8|0|10|8,0:0|0:0|0:0|0:0,0:0:0:0:
494,293,205404,2,0,L|447:281,3,35,8|0|10|8,0:0|0:0|0:0|0:0,0:0:0:0:
350,202,205747,2,0,L|397:190,3,35,8|0|10|8,0:0|0:0|0:0|0:0,0:0:0:0:
500,176,206090,5,8,0:0:0:0:
497,158,206176,1,8,0:0:0:0:
492,141,206261,1,8,0:0:0:0:
485,126,206347,1,8,0:0:0:0:
472,110,206433,2,0,L|473:61,3,35,8|8|8|8,0:0|0:0|0:0|0:0,0:0:0:0:
350,96,206776,5,10,0:0:0:0:
315,103,206861,1,0,1:0:0:0:
282,95,206947,1,2,1:0:0:0:
251,78,207033,1,0,1:0:0:0:
217,71,207118,1,0,1:0:0:0:
183,78,207204,1,0,1:0:0:0:
152,94,207290,6,0,L|174:259,1,161.000003070831,4|2,1:0|1:0,0:0:0:0:
255,349,207804,1,10,0:0:0:0:
312,222,207976,1,2,0:0:0:0:
155,348,208147,2,0,L|64:343,1,80.5000015354157,2|0,1:0|1:0,0:0:0:0:
0,210,208490,1,10,0:0:0:0:
112,142,208661,1,2,0:0:0:0:
173,253,208833,6,0,P|181:211|191:174,1,80.5000015354157,2|0,1:0|0:0,0:0:0:0:
276,83,209176,1,10,0:0:0:0:
151,16,209347,1,2,0:0:0:0:
23,110,209518,2,0,P|111:103|123:17,1,161.000003070831,2|8,1:0|0:0,0:0:0:0:
328,5,210033,6,0,P|314:84|309:164,1,161.000003070831,6|2,1:2|1:0,0:0:0:0:
346,299,210547,1,10,0:0:0:0:
488,253,210718,1,2,0:0:0:0:
388,384,210890,2,0,P|383:344|373:305,1,80.5000015354157,2|0,1:0|1:0,0:0:0:0:
239,262,211233,1,10,0:0:0:0:
239,262,211404,1,2,0:0:0:0:
400,207,211576,5,2,1:0:0:0:
297,128,211747,2,0,B|337:115|337:115|379:116,1,80.5000015354157,2|8,0:0|0:0,0:0:0:0:
202,103,212090,2,0,B|227:70|227:70|263:51,1,80.5000015354157,2|0,0:0|1:0,0:0:0:0:
109,129,212433,2,0,B|112:87|112:87|131:49,1,80.5000015354157,2|8,1:0|0:0,0:0:0:0:
148,252,212776,6,0,B|120:223|120:223|-5:210,1,161.000003070831,6|2,1:0|1:0,0:0:0:0:
19,363,213290,1,10,0:0:0:0:
159,277,213461,1,2,0:0:0:0:
259,384,213633,2,0,P|302:372|338:364,1,80.5000015354157,2|0,1:0|1:0,0:0:0:0:
437,276,213976,1,10,0:0:0:0:
331,195,214147,1,2,0:0:0:0:
422,102,214318,1,2,1:0:0:0:
333,175,214490,6,0,L|228:153,1,80.5000015354157,2|8,1:0|0:0,0:0:0:0:
219,3,214833,2,0,L|297:19,1,80.5000015354157,2|0,0:0|1:0,0:0:0:0:
422,102,215176,1,2,1:0:0:0:
512,0,215347,1,8,0:0:0:0:
297,19,215518,6,0,B|334:176,1,161.000003070831,6|2,1:2|1:0,0:0:0:0:
404,295,216033,1,8,0:0:0:0:
425,282,216118,1,0,1:0:0:0:
443,264,216204,1,2,1:0:0:0:
455,242,216290,1,0,1:0:0:0:
460,217,216376,2,0,L|451:175,1,40.2500007677078,0|0,1:0|1:0,0:0:0:0:
333,175,216547,5,10,0:0:0:0:
312,188,216633,1,0,1:0:0:0:
294,206,216718,1,0,1:0:0:0:
282,228,216804,1,0,1:0:0:0:
277,253,216890,2,0,L|286:295,1,40.2500007677078,2|0,1:0|1:0,0:0:0:0:
343,384,217061,1,8,0:0:0:0:
190,340,217233,1,8,0:0:0:0:
183,347,217318,1,8,0:0:0:0:
176,354,217404,6,0,L|127:361,3,40.2500007677078,8|8|8|8,0:0|0:0|0:0|0:0,0:0:0:0:
26,383,217747,5,0,1:0:0:0:
23,343,217833,1,0,1:0:0:0:
35,305,217918,1,0,1:0:0:0:
62,278,218004,1,0,1:0:0:0:
88,247,218090,1,0,1:0:0:0:
100,209,218176,1,0,1:0:0:0:
73,173,218261,6,0,B|150:191|151:132|231:151,1,161.000003070831,6|2,1:0|1:0,0:0:0:0:
344,208,218776,1,10,0:0:0:0:
425,67,218947,1,2,0:0:0:0:
318,0,219118,2,0,P|312:33|305:79,1,80.5000015354157,2|0,1:0|1:0,0:0:0:0:
255,235,219461,1,10,0:0:0:0:
203,126,219633,1,2,0:0:0:0:
437,161,219804,5,2,1:0:0:0:
425,67,219976,1,2,0:0:0:0:
450,186,220147,1,10,0:0:0:0:
304,79,220318,1,2,0:0:0:0:
255,235,220490,2,0,L|343:216,1,80.5000015354157,2|0,1:0|0:0,0:0:0:0:
191,324,220833,1,8,0:0:0:0:
364,356,221004,6,0,B|302:345|302:345|263:358|263:358|175:343,1,161.000003070831,6|2,1:2|1:0,0:0:0:0:
96,273,221518,1,10,0:0:0:0:
0,360,221690,1,2,0:0:0:0:
116,188,221861,2,0,P|127:235|131:276,1,80.5000015354157,2|0,1:0|1:0,0:0:0:0:
176,108,222204,1,10,0:0:0:0:
176,108,222376,1,2,0:0:0:0:
65,107,222547,5,2,1:0:0:0:
232,196,222718,1,10,0:0:0:0:
226,19,222890,1,8,0:0:0:0:
332,100,223061,1,10,0:0:0:0:
335,90,223147,1,8,0:0:0:0:
338,80,223233,1,8,0:0:0:0:
471,110,223404,1,10,0:0:0:0:
474,120,223490,1,8,0:0:0:0:
480,131,223576,2,0,L|470:172,1,40.2500007677078,8|8,0:0|0:0,0:0:0:0:
490,28,223747,6,0,B|409:19|413:87|333:67,1,161.000003070831,6|2,1:0|1:0,0:0:0:0:
209,0,224261,1,10,0:0:0:0:
120,114,224433,1,2,0:0:0:0:
249,194,224604,2,0,L|255:109,1,80.5000015354157,2|0,1:0|1:0,0:0:0:0:
384,230,224947,1,10,0:0:0:0:
277,325,225118,1,2,1:0:0:0:
142,162,225290,5,10,0:0:0:0:
85,291,225461,2,0,P|121:283|165:276,1,80.5000015354157,2|0,1:0|1:0,0:0:0:0:
296,330,225804,1,2,1:0:0:0:
286,327,225890,1,0,1:0:0:0:
277,325,225976,1,8,0:0:0:0:
179,275,226147,5,2,1:0:0:0:
256,192,226318,1,8,0:0:0:0:
189,384,226490,1,6,1:0:0:0:
256,192,226661,12,0,234889,0:0:0:0:
