osu file format v14

[General]
AudioFilename: audio.mp3
AudioLeadIn: 0
PreviewTime: 64061
Countdown: 1
SampleSet: Soft
StackLeniency: 0.7
Mode: 0
LetterboxInBreaks: 0
WidescreenStoryboard: 1

[Editor]
DistanceSpacing: 1.6
BeatDivisor: 4
GridSize: 32
TimelineZoom: 1.7

[Metadata]
Title:Home
TitleUnicode:Home
Artist:MY FIRST STORY
ArtistUnicode:MY FIRST STORY
Creator:HowRengar
Version:Hard
Source:
Tags:Jrock japanese rock antithese track 13
BeatmapID:2153403
BeatmapSetID:1029822

[Difficulty]
HPDrainRate:4.5
CircleSize:3.8
OverallDifficulty:6.5
ApproachRate:8
SliderMultiplier:1.25
SliderTickRate:1

[Events]
//Background and Video events
0,0,"Home.jpg",0,0
//Break Periods
2,169261,178661
//Storyboard Layer 0 (Background)
//Storyboard Layer 1 (Fail)
//Storyboard Layer 2 (Pass)
//Storyboard Layer 3 (Foreground)
//Storyboard Layer 4 (Overlay)
//Storyboard Sound Samples

[TimingPoints]
376,342.857142857143,4,2,1,45,1,0
1747,-125,4,2,1,45,0,0
5861,-100,4,2,1,60,0,0
7061,-95.2380952380952,4,2,1,70,0,0
23004,-95.2380952380952,4,2,1,60,0,0
23518,-117.647058823529,4,2,1,50,0,0
34490,-105.263157894737,4,2,1,60,0,0
45633,-133.333333333333,4,2,1,40,0,0
51118,-111.111111111111,4,2,1,50,0,0
56604,-100,4,2,1,60,0,0
62347,-100,4,2,1,5,0,0
62433,-100,4,2,1,60,0,0
64661,-90.9090909090909,4,2,1,80,0,1
83861,-125,4,2,1,80,0,0
85747,-125,4,2,1,60,0,0
86604,-125,4,2,1,70,0,0
86861,-125,4,2,1,5,0,0
86947,-125,4,2,1,70,0,0
87376,-125,4,2,1,5,0,0
87461,-125,4,2,1,70,0,0
87976,-100,4,2,1,70,0,0
89347,-125,4,2,1,50,0,0
100318,-100,4,2,1,60,0,0
111461,-133.333333333333,4,2,1,40,0,0
122433,-117.647058823529,4,2,1,50,0,0
130661,-117.647058823529,4,2,1,60,0,0
131347,-105.263157894737,4,2,1,60,0,0
132033,-105.263157894737,4,2,1,70,0,0
133233,-90.9090909090909,4,2,1,80,0,1
160576,-90.9090909090909,4,2,1,5,0,1
160661,-90.9090909090909,4,2,1,80,0,1
163404,-100,4,2,1,80,0,1
169061,-133.333333333333,4,2,1,50,0,0
187918,-105.263157894737,4,2,1,60,0,0
188261,-105.263157894737,4,2,1,70,0,0
191004,-105.263157894737,4,2,1,80,0,0
194947,-105.263157894737,4,2,1,50,0,0
196318,-133.333333333333,4,2,1,50,0,0
201118,-133.333333333333,4,2,1,60,0,0
204547,-100,4,2,1,70,0,0
206090,-100,4,2,1,80,0,0
207290,-90.9090909090909,4,2,1,90,0,1
227347,-90.9090909090909,4,2,1,85,0,0
228033,-90.9090909090909,4,2,1,80,0,0
228718,-90.9090909090909,4,2,1,75,0,0
229404,-90.9090909090909,4,2,1,70,0,0
230090,-90.9090909090909,4,2,1,65,0,0
230776,-90.9090909090909,4,2,1,60,0,0
231461,-90.9090909090909,4,2,1,55,0,0
232147,-90.9090909090909,4,2,1,50,0,0
232833,-90.9090909090909,4,2,1,40,0,0
233518,-90.9090909090909,4,2,1,40,0,0
234204,-90.9090909090909,4,2,1,20,0,0
234890,-90.9090909090909,4,2,1,5,0,0

[Colours]
Combo1 : 243,134,118
Combo2 : 150,196,222
Combo3 : 195,195,195
Combo4 : 105,155,248
Combo5 : 216,185,150

[HitObjects]
83,113,1747,6,0,P|88:141|93:171,1,50,2|0,0:0|0:0,0:0:0:0:
78,241,2090,2,0,P|127:247|177:249,2,100,2|2|2,0:0|0:0|0:0,0:0:0:0:
325,74,3118,6,0,P|297:79|267:84,1,50,2|0,0:0|0:0,0:0:0:0:
197,69,3461,2,0,P|190:118|188:168,2,100,2|2|2,0:0|0:0|0:0,0:0:0:0:
333,254,4490,5,2,0:0:0:0:
408,381,4833,2,0,P|457:371|505:358,2,100,2|2|2,0:0|0:0|0:0,0:0:0:0:
236,364,5861,5,0,1:0:0:0:
169,295,6033,1,8,0:0:0:0:
169,295,6118,1,8,0:0:0:0:
169,295,6204,2,0,L|149:324,3,31.25,8|8|0|0,0:0|0:0|1:0|1:0,0:0:0:0:
133,351,6547,2,0,L|101:337,3,31.25,0|0|0|0,1:0|1:0|1:0|1:0,0:0:0:0:
69,321,6890,1,0,0:0:0:0:
16,248,7061,6,0,P|35:186|41:121,1,131.249995994568,6|2,1:0|1:0,0:0:0:0:
16,32,7576,2,0,P|48:38|80:43,1,65.624997997284,8|2,0:0|0:0,0:0:0:0:
173,54,7918,1,2,1:0:0:0:
173,54,8090,1,2,1:0:0:0:
204,140,8261,2,0,P|236:133|268:128,1,65.624997997284,8|2,0:0|0:0,0:0:0:0:
335,48,8604,6,0,P|302:43|270:36,1,65.624997997284,2|2,1:0|1:0,0:0:0:0:
420,5,8947,2,0,P|426:37|431:69,1,65.624997997284,8|2,0:0|0:0,0:0:0:0:
370,136,9290,1,2,1:0:0:0:
447,182,9461,2,0,L|525:172,1,65.624997997284,2|8,1:0|0:0,0:0:0:0:
333,235,9804,6,0,B|381:241|381:241|413:264|413:264|456:270,1,131.249995994568,6|2,1:2|1:0,0:0:0:0:
512,362,10318,2,0,L|434:352,1,65.624997997284,8|2,0:0|0:0,0:0:0:0:
349,336,10661,1,2,1:0:0:0:
349,336,10833,1,2,1:0:0:0:
257,384,11004,2,0,P|255:351|250:318,1,65.624997997284,8|2,0:0|0:0,0:0:0:0:
172,223,11347,2,0,P|170:255|165:288,1,65.624997997284,2|0,1:0|0:0,0:0:0:0:
119,381,11690,1,8,0:0:0:0:
24,182,12033,6,0,P|56:176|89:175,1,65.624997997284,2|10,1:0|0:0,0:0:0:0:
172,223,12376,1,8,0:0:0:0:
259,182,12547,6,0,L|253:35,1,131.249995994568,6|2,1:0|1:0,0:0:0:0:
170,4,13061,2,0,P|138:11|106:13,1,65.624997997284,8|2,0:0|0:0,0:0:0:0:
12,15,13404,1,2,1:0:0:0:
12,15,13576,1,2,1:0:0:0:
57,97,13747,2,0,P|47:128|39:160,1,65.624997997284,8|2,0:0|0:0,0:0:0:0:
8,247,14090,5,2,1:0:0:0:
8,247,14261,1,2,1:0:0:0:
101,232,14433,1,8,0:0:0:0:
59,326,14604,2,0,L|49:360,2,32.812498998642,2|2|10,1:0|1:0|0:0,0:0:0:0:
113,203,14947,1,4,1:2:0:0:
165,382,15290,6,0,B|211:369|211:369|250:378|250:378|291:365,1,131.249995994568,6|2,1:0|1:0,0:0:0:0:
400,309,15804,2,0,L|335:289,1,65.624997997284,8|2,0:0|0:0,0:0:0:0:
275,224,16147,1,2,1:0:0:0:
275,224,16318,1,2,1:0:0:0:
363,199,16490,2,0,L|377:135,1,65.624997997284,8|2,0:0|0:0,0:0:0:0:
399,41,16833,5,2,1:0:0:0:
399,41,17004,1,2,1:0:0:0:
293,8,17176,2,0,L|307:71,1,65.624997997284,8|2,0:0|0:0,0:0:0:0:
377,135,17518,2,0,B|408:137|408:137|440:126,1,65.624997997284,2|2,1:0|1:0,0:0:0:0:
470,113,17776,1,8,0:0:0:0:
470,113,17861,1,8,0:0:0:0:
512,218,18033,6,0,B|455:193|435:238|384:219,1,131.249995994568,6|2,1:0|1:0,0:0:0:0:
297,179,18547,2,0,P|266:191|234:194,1,65.624997997284,8|2,0:0|0:0,0:0:0:0:
152,145,18890,1,2,1:0:0:0:
152,145,19061,1,2,1:0:0:0:
48,123,19233,2,0,P|58:154|63:186,1,65.624997997284,8|2,0:0|0:0,0:0:0:0:
77,287,19576,5,2,1:0:0:0:
0,245,19747,1,2,1:0:0:0:
102,297,19918,2,0,P|95:329|83:359,1,65.624997997284,8|0,0:0|1:0,0:0:0:0:
195,278,20261,2,0,L|232:285,3,32.812498998642,10|8|0|0,0:0|0:0|1:0|1:0,0:0:0:0:
255,315,20604,2,0,L|287:308,3,32.812498998642,10|8|0|0,0:0|0:0|1:0|1:0,0:0:0:0:
322,303,20947,1,6,1:2:0:0:
256,192,21118,12,0,22490,0:0:0:0:
211,146,23004,6,0,L|198:73,2,65.624997997284,10|8|10,0:0|0:0|0:0,0:0:0:0:
273,207,23518,6,0,P|316:193|392:181,1,106.250002026558,6|0,1:2|1:0,0:0:0:0:
462,223,24033,1,10,0:0:0:0:
462,223,24204,2,0,P|471:198|471:171,1,53.125001013279,2|0,0:0|1:0,0:0:0:0:
412,96,24547,2,0,P|402:71|402:44,1,53.125001013279,2|8,1:0|0:0,0:0:0:0:
490,0,24890,2,0,P|439:12|386:17,1,106.250002026558,2|0,1:0|1:0,0:0:0:0:
290,7,25404,1,8,0:0:0:0:
160,134,25747,6,0,P|149:158|143:184,2,53.125001013279,2|2|10,1:0|1:0|0:0,0:0:0:0:
174,48,26261,2,0,B|121:37|121:73|71:65,1,106.250002026558,2|0,1:0|1:0,0:0:0:0:
0,20,26776,1,10,0:0:0:0:
52,89,26947,2,0,P|41:113|32:138,1,53.125001013279,2|0,0:0|1:0,0:0:0:0:
0,220,27290,2,0,P|10:244|19:269,1,53.125001013279,2|8,1:0|0:0,0:0:0:0:
173,250,27633,2,0,P|122:247|91:206,1,106.250002026558,2|0,1:0|1:0,0:0:0:0:
125,123,28147,1,8,0:0:0:0:
207,330,28490,6,0,L|195:383,2,53.125001013279,2|2|10,1:0|1:0|0:0,0:0:0:0:
269,265,29004,2,0,P|320:276|373:282,1,106.250002026558,6|0,1:2|1:0,0:0:0:0:
466,251,29518,1,10,0:0:0:0:
466,250,29690,2,0,P|468:277|473:303,1,53.125001013279,2|0,0:0|1:0,0:0:0:0:
390,196,30033,2,0,P|395:169|397:143,1,53.125001013279,2|8,1:0|0:0,0:0:0:0:
295,130,30376,2,0,P|347:124|399:112,1,106.250002026558,2|0,1:0|1:0,0:0:0:0:
490,72,30890,1,8,0:0:0:0:
213,47,31233,6,0,P|187:53|160:54,2,53.125001013279,2|2|10,1:0|1:0|0:0,0:0:0:0:
306,0,31747,2,0,L|297:109,1,106.250002026558,2|0,1:0|1:0,0:0:0:0:
253,201,32261,2,0,P|279:196|305:193,1,53.125001013279,10|0,0:0|0:0,0:0:0:0:
315,283,32604,1,2,1:0:0:0:
223,287,32776,2,0,P|196:282|170:279,1,53.125001013279,2|8,1:0|0:0,0:0:0:0:
133,358,33118,2,0,P|150:303|124:245,1,106.250002026558,2|0,0:0|1:0,0:0:0:0:
120,249,33547,1,8,0:0:0:0:
106,252,33633,1,8,0:0:0:0:
0,216,33804,1,0,1:0:0:0:
27,139,33976,6,0,L|35:204,1,53.125001013279,10|2,0:0|1:0,0:0:0:0:
109,107,34318,1,10,0:0:0:0:
10,40,34490,6,0,B|48:44|48:44|84:27|84:27|125:27,1,118.749996829033,6|0,1:0|1:0,0:0:0:0:
192,83,35004,1,10,0:0:0:0:
251,12,35176,2,0,B|282:23|282:23|308:18,1,59.3749984145165,2|0,0:0|1:0,0:0:0:0:
376,107,35518,2,0,B|345:96|345:96|318:100,1,59.3749984145165,2|8,0:0|0:0,0:0:0:0:
397,196,35861,2,0,L|404:60,1,118.749996829033,2|0,0:0|0:0,0:0:0:0:
495,26,36376,1,8,0:0:0:0:
473,272,36718,5,2,1:0:0:0:
473,272,36890,1,2,1:0:0:0:
397,196,37061,1,10,0:0:0:0:
370,294,37233,2,0,B|338:276|338:276|249:267,1,118.749996829033,6|0,1:2|1:0,0:0:0:0:
184,329,37747,1,10,0:0:0:0:
122,251,37918,2,0,L|130:183,1,59.3749984145165,2|0,0:0|1:0,0:0:0:0:
40,117,38261,2,0,L|32:175,1,59.3749984145165,2|8,0:0|0:0,0:0:0:0:
0,299,38604,2,0,P|60:276|128:280,1,118.749996829033,2|0,0:0|0:0,0:0:0:0:
184,329,39118,1,8,0:0:0:0:
419,259,39461,6,0,P|389:258|362:247,1,59.3749984145165,2|2,1:0|0:0,0:0:0:0:
343,237,39718,1,8,0:0:0:0:
335,222,39804,1,8,0:0:0:0:
235,153,39976,2,0,P|246:211|250:270,1,118.749996829033,6|0,1:2|1:0,0:0:0:0:
211,359,40490,1,10,0:0:0:0:
326,331,40661,2,0,P|355:334|385:337,1,59.3749984145165,2|0,0:0|1:0,0:0:0:0:
478,252,41004,2,0,P|448:255|418:258,1,59.3749984145165,2|8,0:0|0:0,0:0:0:0:
335,222,41347,2,0,L|355:90,1,118.749996829033,2|0,0:0|0:0,0:0:0:0:
426,39,41861,1,10,0:0:0:0:
448,27,42204,5,2,1:0:0:0:
341,26,42376,2,0,L|279:19,1,59.3749984145165,2|8,1:0|0:0,0:0:0:0:
220,142,42718,6,0,P|257:97|254:39,1,118.749996829033,6|0,1:2|1:0,0:0:0:0:
156,13,43233,1,8,0:0:0:0:
77,234,43576,2,0,B|117:224|117:224|207:235,1,118.749996829033,2|8,1:0|0:0,0:0:0:0:
223,70,44261,2,0,B|292:78,2,59.3749984145165,2|8|0,1:0|0:0|1:0,0:0:0:0:
126,126,44776,1,8,0:0:0:0:
126,126,44861,1,8,0:0:0:0:
126,126,44947,5,8,0:0:0:0:
29,96,45118,1,0,1:0:0:0:
52,188,45290,2,0,L|41:246,1,59.3749984145165,2|0,1:0|1:0,0:0:0:0:
32,275,45547,1,0,1:0:0:0:
32,275,45633,6,0,P|56:275|78:267,1,46.8750017881394,6|0,1:2|0:0,0:0:0:0:
156,241,45976,1,2,1:0:0:0:
152,313,46147,2,0,P|162:292|166:269,1,46.8750017881394,2|0,0:0|1:0,0:0:0:0:
250,231,46490,2,0,P|237:211|219:196,1,46.8750017881394,2|0,0:0|1:0,0:0:0:0:
242,316,46833,2,0,P|286:320|306:361,1,93.7500035762788,2|0,0:0|0:0,0:0:0:0:
376,301,47347,1,2,1:0:0:0:
428,357,47518,2,0,P|405:351|386:338,1,46.8750017881394,2|0,0:0|1:0,0:0:0:0:
319,241,47861,1,2,0:0:0:0:
489,207,48204,5,2,0:0:0:0:
503,296,48376,2,0,L|515:181,1,93.7500035762788,2|2,1:0|1:0,0:0:0:0:
427,136,48890,2,0,L|420:200,1,46.8750017881394,2|0,0:0|1:0,0:0:0:0:
346,87,49233,2,0,L|339:151,1,46.8750017881394,2|0,0:0|1:0,0:0:0:0:
289,23,49576,2,0,P|359:2|422:45,1,140.625005364418,2|0,0:0|1:0,0:0:0:0:
255,104,50433,2,0,L|198:92,1,46.8750017881394,0|0,1:0|0:0,0:0:0:0:
124,32,50776,1,10,0:0:0:0:
92,6,51118,6,0,P|104:60|112:116,1,112.499996566773,10|10,0:0|0:0,0:0:0:0:
108,204,51633,2,0,P|85:197|51:188,1,56.2499982833863,10|0,0:0|1:0,0:0:0:0:
0,254,51976,1,2,0:0:0:0:
72,306,52147,2,0,P|94:299|130:292,1,56.2499982833863,8|0,0:0|0:0,0:0:0:0:
243,369,52490,6,0,P|212:334|221:269,1,112.499996566773,10|10,0:0|0:0,0:0:0:0:
262,200,53004,2,0,P|284:206|316:216,1,56.2499982833863,10|0,0:0|1:0,0:0:0:0:
376,282,53347,1,2,0:0:0:0:
409,191,53518,2,0,P|431:184|465:171,1,56.2499982833863,8|2,0:0|0:0,0:0:0:0:
497,69,53861,6,0,L|487:203,1,112.499996566773,10|2,0:0|1:0,0:0:0:0:
472,271,54376,1,10,0:0:0:0:
346,114,54718,1,2,0:0:0:0:
278,304,55061,1,2,0:0:0:0:
200,361,55233,6,0,P|144:351|88:343,1,112.499996566773,10|0,0:0|1:0,0:0:0:0:
1,302,55747,1,8,0:0:0:0:
32,228,55918,2,0,P|33:256|31:284,1,56.2499982833863,0|0,1:0|0:0,0:0:0:0:
128,210,56261,2,0,P|126:181|127:153,1,56.2499982833863,10|0,0:0|0:0,0:0:0:0:
146,127,56518,1,0,0:0:0:0:
146,127,56604,6,0,B|78:142|78:142|4:127,1,125,10|2,1:0|1:0,0:0:0:0:
0,34,57118,2,0,L|71:50,1,62.5,10|0,1:0|1:0,0:0:0:0:
174,2,57461,2,0,P|161:62|187:117,1,125,2|0,1:0|1:0,0:0:0:0:
326,39,57976,6,0,L|245:53,1,62.5,2|8,1:0|0:0,0:0:0:0:
251,56,58233,1,8,0:0:0:0:
251,56,58318,1,10,0:0:0:0:
317,135,58490,2,0,L|378:124,1,62.5,2|10,1:0|0:0,0:0:0:0:
267,236,58833,2,0,L|328:225,1,62.5,0|10,1:0|0:0,0:0:0:0:
477,197,59176,1,0,1:0:0:0:
477,197,59261,1,0,1:0:0:0:
477,196,59347,6,0,P|471:227|467:258,1,62.5,10|0,0:0|1:0,0:0:0:0:
400,355,59690,2,0,P|396:323|390:293,1,62.5,8|0,0:0|1:0,0:0:0:0:
302,247,60033,2,0,P|296:277|292:308,1,62.5,8|0,0:0|1:0,0:0:0:0:
203,361,60376,2,0,P|199:329|193:299,1,62.5,8|0,0:0|1:0,0:0:0:0:
142,227,60718,5,8,0:0:0:0:
142,227,60890,1,0,1:0:0:0:
42,212,61061,1,8,0:0:0:0:
96,129,61233,1,0,1:0:0:0:
96,129,61318,1,0,1:0:0:0:
96,129,61404,2,0,L|168:110,1,62.5,8|0,0:0|0:0,0:0:0:0:
193,23,61747,2,0,L|115:9,1,62.5,10|0,0:0|1:0,0:0:0:0:
6,1,62090,6,0,P|22:55|6:113,1,93.75,6|0,1:0|0:0,0:0:0:0:
3,108,62433,1,0,0:0:0:0:
48,186,62604,2,0,P|96:189|54:228,1,125,6|0,1:2|0:0,0:0:0:0:
103,87,63118,1,6,1:0:0:0:
103,87,64490,1,8,0:0:0:0:
194,166,64661,6,0,B|236:157|236:157|290:175|290:175|327:168,1,137.500004196167,6|2,1:0|1:0,0:0:0:0:
451,140,65176,1,10,0:0:0:0:
395,62,65347,1,2,0:0:0:0:
495,54,65518,2,0,P|483:86|476:119,1,68.7500020980836,2|0,1:0|1:0,0:0:0:0:
453,230,65861,1,10,0:0:0:0:
361,241,66033,1,2,0:0:0:0:
406,321,66204,6,0,B|445:315|445:315|472:325,1,68.7500020980836,2|0,1:0|0:0,0:0:0:0:
327,384,66547,1,10,0:0:0:0:
268,323,66718,1,2,0:0:0:0:
207,384,66890,2,0,B|241:328|241:328|208:263,1,137.500004196167,2|8,1:0|0:0,0:0:0:0:
56,234,67404,6,0,B|109:265|128:207|197:248,1,137.500004196167,6|2,1:2|1:0,0:0:0:0:
186,384,67918,1,10,0:0:0:0:
144,316,68090,1,2,0:0:0:0:
55,346,68261,2,0,P|88:337|122:339,1,68.7500020980836,2|0,1:0|1:0,0:0:0:0:
56,234,68604,1,10,0:0:0:0:
56,234,68776,1,2,0:0:0:0:
169,217,68947,5,2,1:0:0:0:
102,149,69118,2,0,P|96:182|84:214,1,68.7500020980836,2|8,0:0|0:0,0:0:0:0:
163,84,69461,2,0,P|183:111|196:143,1,68.7500020980836,2|0,0:0|1:0,0:0:0:0:
162,0,69804,2,0,P|195:5|227:17,1,68.7500020980836,2|8,1:0|0:0,0:0:0:0:
401,72,70147,6,0,P|334:90|267:103,1,137.500004196167,6|2,1:2|1:0,0:0:0:0:
163,84,70661,1,10,0:0:0:0:
227,17,70833,1,2,0:0:0:0:
110,0,71004,2,0,P|119:33|124:67,1,68.7500020980836,2|0,1:0|1:0,0:0:0:0:
88,162,71347,1,10,0:0:0:0:
88,162,71518,1,2,0:0:0:0:
0,122,71690,5,2,1:0:0:0:
0,215,71861,2,0,L|90:189,1,68.7500020980836,2|8,0:0|0:0,0:0:0:0:
80,296,72204,2,0,L|170:270,1,68.7500020980836,2|0,0:0|1:0,0:0:0:0:
160,377,72547,2,0,L|250:351,1,68.7500020980836,2|8,1:0|0:0,0:0:0:0:
376,377,72890,6,0,P|321:337|308:271,1,137.500004196167,6|2,1:0|1:0,0:0:0:0:
422,205,73404,2,0,P|421:239|417:273,1,68.7500020980836,8|2,0:0|1:0,0:0:0:0:
402,292,73661,1,0,1:0:0:0:
402,292,73747,1,8,0:0:0:0:
465,355,73918,1,6,1:0:0:0:
509,271,74090,1,4,1:2:0:0:
448,200,74261,6,0,B|451:150|451:150|468:118|468:118|471:67,1,137.500004196167,6|0,1:0|1:0,0:0:0:0:
383,0,74776,2,0,L|379:75,1,68.7500020980836,8|0,0:0|1:0,0:0:0:0:
368,172,75118,1,0,1:0:0:0:
274,154,75290,1,8,0:0:0:0:
274,154,75376,1,8,0:0:0:0:
274,154,75461,1,8,0:0:0:0:
281,251,75633,6,0,P|213:238|145:227,1,137.500004196167,6|2,1:0|1:0,0:0:0:0:
35,264,76147,1,10,0:0:0:0:
16,183,76318,1,2,0:0:0:0:
98,144,76490,2,0,P|104:177|109:211,1,68.7500020980836,2|0,1:0|1:0,0:0:0:0:
182,81,76833,1,10,0:0:0:0:
90,122,77004,1,2,0:0:0:0:
17,61,77176,5,2,1:0:0:0:
17,61,77347,1,2,0:0:0:0:
107,13,77518,1,10,0:0:0:0:
107,13,77690,1,2,0:0:0:0:
181,80,77861,2,0,P|249:93|318:95,1,137.500004196167,2|8,1:0|0:0,0:0:0:0:
442,3,78376,6,0,P|415:64|428:131,1,137.500004196167,6|2,1:2|1:0,0:0:0:0:
512,210,78890,1,10,0:0:0:0:
438,254,79061,1,2,0:0:0:0:
496,343,79233,2,0,P|462:337|427:335,1,68.7500020980836,2|0,1:0|1:0,0:0:0:0:
306,362,79576,1,10,0:0:0:0:
306,362,79747,1,2,0:0:0:0:
314,261,79918,5,2,1:0:0:0:
206,254,80090,2,0,B|230:270|230:270|242:308,1,68.7500020980836,2|8,0:0|0:0,0:0:0:0:
172,173,80433,2,0,B|198:160|198:160|236:168,1,68.7500020980836,2|0,0:0|1:0,0:0:0:0:
104,247,80776,1,10,0:0:0:0:
97,240,80861,1,8,0:0:0:0:
90,233,80947,1,8,0:0:0:0:
81,138,81118,6,0,P|101:87|66:14,1,137.500004196167,6|2,1:0|1:0,0:0:0:0:
52,16,81547,1,0,1:0:0:0:
42,25,81633,1,10,0:0:0:0:
141,74,81804,1,2,1:0:0:0:
197,0,81976,2,0,L|177:75,1,68.7500020980836,10|0,0:0|1:0,0:0:0:0:
257,170,82318,2,0,L|274:103,1,68.7500020980836,10|2,0:0|1:0,0:0:0:0:
314,0,82661,5,10,0:0:0:0:
406,44,82833,2,0,L|389:111,1,68.7500020980836,2|8,1:0|0:0,0:0:0:0:
411,218,83176,1,10,0:0:0:0:
420,216,83261,1,8,0:0:0:0:
430,213,83347,1,8,0:0:0:0:
512,188,83518,5,2,1:0:0:0:
487,274,83690,1,8,1:0:0:0:
512,358,83861,1,6,1:0:0:0:
256,192,84033,12,0,85404,0:0:0:0:
165,136,85918,5,0,1:0:0:0:
163,145,86004,1,0,1:0:0:0:
160,155,86090,1,8,0:0:0:0:
215,222,86261,1,0,1:0:0:0:
308,220,86433,1,0,1:0:0:0:
340,136,86604,6,0,B|322:171|322:171|331:214,1,75,4|0,1:0|0:0,0:0:0:0:
346,232,86947,1,0,1:0:0:0:
512,183,87118,2,0,B|477:165|477:165|434:174,1,75,4|0,1:2|0:0,0:0:0:0:
419,184,87461,1,8,0:0:0:0:
440,38,87633,1,4,1:2:0:0:
466,17,87976,6,0,B|436:40|407:36|407:36|385:16|334:19,1,125,4|8,1:0|0:0,0:0:0:0:
243,17,88490,2,0,P|252:47|259:78,1,62.5,0|8,1:0|0:0,0:0:0:0:
261,111,88747,1,8,0:0:0:0:
258,125,88833,5,10,0:0:0:0:
170,115,89004,1,8,0:0:0:0:
82,105,89176,1,10,0:0:0:0:
19,34,89347,6,0,P|34:81|44:130,1,100,6|0,1:2|1:0,0:0:0:0:
5,214,89861,1,2,1:0:0:0:
3,241,90204,2,0,L|62:227,1,50,8|2,0:0|0:0,0:0:0:0:
212,347,90718,2,0,P|194:300|203:251,1,100,2|0,1:0|0:0,0:0:0:0:
301,189,91233,2,0,L|241:175,1,50,0|0,1:0|0:0,0:0:0:0:
294,292,91576,1,10,0:0:0:0:
405,57,92090,6,0,P|355:65|307:78,1,100,2|0,1:0|0:0,0:0:0:0:
210,111,92604,2,0,P|214:86|216:61,1,50,2|0,1:0|0:0,0:0:0:0:
143,0,92947,1,8,0:0:0:0:
6,207,93461,2,0,P|36:169|84:161,1,100,2|0,1:0|0:0,0:0:0:0:
177,218,93976,2,0,P|168:241|161:265,1,50,0|0,1:0|0:0,0:0:0:0:
187,371,94318,1,10,0:0:0:0:
512,331,94833,6,0,B|482:320|482:320|446:327|446:327|415:318,1,100,6|0,1:2|1:0,0:0:0:0:
311,350,95347,1,2,1:0:0:0:
282,373,95690,2,0,L|291:313,1,50,8|2,0:0|0:0,0:0:0:0:
353,122,96204,2,0,L|336:240,1,100,2|0,1:0|0:0,0:0:0:0:
415,318,96718,2,0,L|424:253,1,50,0|0,1:0|0:0,0:0:0:0:
486,384,97061,1,10,0:0:0:0:
451,127,97576,6,0,B|406:111|400:141|338:117,1,100,2|0,1:0|0:0,0:0:0:0:
248,95,98090,2,0,P|258:117|263:141,1,50,2|0,1:0|0:0,0:0:0:0:
321,34,98433,1,10,0:0:0:0:
0,13,98947,2,0,P|48:26|97:34,1,100,2|0,1:0|0:0,0:0:0:0:
196,0,99461,2,0,P|186:23|179:46,1,50,0|0,1:0|0:0,0:0:0:0:
171,79,99718,1,8,0:0:0:0:
171,79,99804,1,10,0:0:0:0:
90,124,99976,1,2,1:0:0:0:
160,193,100147,1,10,0:0:0:0:
74,220,100318,6,0,P|70:161|56:91,1,125,6|0,1:0|1:0,0:0:0:0:
159,192,100833,2,0,P|190:187|221:181,1,62.5,10|2,0:0|0:0,0:0:0:0:
286,88,101176,2,0,P|316:93|347:99,1,62.5,0|2,1:0|0:0,0:0:0:0:
428,161,101518,1,8,0:0:0:0:
380,382,101861,6,0,P|352:366|323:356,1,62.5
251,289,102204,2,0,P|223:304|194:314,1,62.5,8|0,0:0|0:0,0:0:0:0:
97,316,102547,2,0,P|101:347|112:377,2,62.5,2|2|10,1:0|1:0|0:0,0:0:0:0:
0,295,103061,6,0,L|133:273,1,125,6|0,1:2|1:0,0:0:0:0:
251,289,103576,1,10,0:0:0:0:
261,209,103747,2,0,P|270:240|273:271,1,62.5,2|0,0:0|1:0,0:0:0:0:
322,148,104090,2,0,P|293:134|263:127,1,62.5,2|8,0:0|0:0,0:0:0:0:
149,116,104433,6,0,P|210:106|267:80,1,125,2|0,0:0|0:0,0:0:0:0:
360,3,104947,1,8,0:0:0:0:
149,116,105290,2,0,L|156:184,1,62.5,2|10,1:0|0:0,0:0:0:0:
162,205,105547,1,10,0:0:0:0:
162,205,105633,1,10,0:0:0:0:
321,214,105804,6,0,P|296:161|240:176,1,125,6|0,1:0|1:0,0:0:0:0:
255,296,106318,1,10,0:0:0:0:
341,313,106490,2,0,P|370:300|400:292,1,62.5,2|0,0:0|1:0,0:0:0:0:
486,230,106833,2,0,P|455:222|427:209,1,62.5,2|8,0:0|0:0,0:0:0:0:
377,72,107176,6,0,P|395:131|408:192,1,125
482,85,107690,1,10,0:0:0:0:
274,0,108033,1,2,1:0:0:0:
188,53,108204,2,0,L|177:24,2,31.25,2|8|8,0:0|0:0|0:0,0:0:0:0:
191,143,108547,6,0,B|139:150|126:98|76:103,1,125,6|0,1:2|1:0,0:0:0:0:
63,195,109061,2,0,P|60:163|55:133,1,62.5,8|0,0:0|1:0,0:0:0:0:
21,275,109404,1,2,1:0:0:0:
132,250,109576,1,8,0:0:0:0:
24,299,109747,1,0,0:0:0:0:
25,330,110090,6,0,P|57:327|88:327,1,62.5,10|0,0:0|1:0,0:0:0:0:
194,252,110433,2,0,P|162:252|131:249,1,62.5,8|0,0:0|1:0,0:0:0:0:
288,213,110776,2,0,B|293:262|293:262|279:304,2,93.75,8|10|8,0:0|0:0|0:0,0:0:0:0:
223,146,111461,6,0,P|260:124|314:123,1,93.7500035762788,6|2,1:2|1:0,0:0:0:0:
372,176,111976,2,0,P|396:173|419:162,1,46.8750017881394,10|0,0:0|0:0,0:0:0:0:
481,116,112318,1,10,0:0:0:0:
389,264,112661,2,0,P|342:262|304:236,1,93.7500035762788,2|0,0:0|0:0,0:0:0:0:
288,153,113176,1,2,0:0:0:0:
288,153,113347,1,2,1:0:0:0:
474,262,113690,1,2,0:0:0:0:
303,349,114033,1,10,0:0:0:0:
303,349,114204,6,0,P|265:341|202:342,1,93.7500035762788,2|2,1:0|0:0,0:0:0:0:
130,370,114718,2,0,P|122:331|151:279,2,93.7500035762788,10|10|2,0:0|0:0|0:0,0:0:0:0:
31,59,116604,1,2,0:0:0:0:
16,42,116947,6,0,B|51:25|71:59|128:25,1,93.7500035762788,2|2,1:0|0:0,0:0:0:0:
197,12,117461,2,0,P|191:35|190:59,1,46.8750017881394,10|0,0:0|0:0,0:0:0:0:
218,137,117804,1,10,0:0:0:0:
0,125,118147,2,0,P|13:168|21:224,1,93.7500035762788,2|0,0:0|0:0,0:0:0:0:
104,253,118661,1,2,0:0:0:0:
104,253,118833,1,2,1:0:0:0:
0,380,119176,1,2,0:0:0:0:
171,384,119518,1,10,0:0:0:0:
171,384,119690,6,0,P|219:372|276:361,1,93.7500035762788,2|2,1:0|0:0,0:0:0:0:
359,370,120204,2,0,P|367:323|378:278,2,93.7500035762788,10|2|2,0:0|0:0|0:0,0:0:0:0:
488,174,121233,1,8,0:0:0:0:
488,174,121404,1,0,1:0:0:0:
401,118,121576,2,0,L|409:87,2,23.4375008940697,8|8|8,0:0|0:0|0:0,0:0:0:0:
308,173,121918,2,0,L|295:236,2,46.8750017881394,0|2|0,1:0|1:0|0:0,0:0:0:0:
313,81,122433,6,0,P|260:88|207:92,1,106.250002026558,2|2,1:0|0:0,0:0:0:0:
144,151,122947,2,0,P|119:141|93:133,1,53.125001013279,10|0,0:0|0:0,0:0:0:0:
17,110,123290,1,10,0:0:0:0:
220,193,123633,2,0,P|228:155|206:92,1,106.250002026558,2|2,0:0|0:0,0:0:0:0:
393,15,124318,1,2,1:0:0:0:
393,14,124490,2,0,P|396:41|402:67,1,53.125001013279,8|2,0:0|0:0,0:0:0:0:
507,218,125004,1,10,0:0:0:0:
507,218,125176,6,0,P|454:213|405:234,1,106.250002026558,2|2,1:0|0:0,0:0:0:0:
391,346,125690,2,0,L|370:234,2,106.250002026558,10|2|2,0:0|0:0|0:0,0:0:0:0:
287,201,126718,1,8,0:0:0:0:
485,314,127061,1,0,1:0:0:0:
485,314,127147,1,0,1:0:0:0:
485,314,127233,1,8,0:0:0:0:
485,314,127918,6,0,B|455:306|455:306|419:314,2,53.125001013279,2|0|2,0:0|0:0|0:0,0:0:0:0:
425,220,128433,2,0,B|395:228|395:228|359:220,2,53.125001013279,2|0|2,0:0|0:0|0:0,0:0:0:0:
345,300,128947,2,0,B|315:292|315:292|279:300,1,53.125001013279,0|2,0:0|0:0,0:0:0:0:
205,368,130661,6,0,L|197:313,1,53.125001013279,6|0,1:2|0:0,0:0:0:0:
104,276,131004,2,0,L|111:328,1,53.125001013279,8|8,0:0|0:0,0:0:0:0:
181,215,131347,1,8,0:0:0:0:
181,215,131518,1,8,0:0:0:0:
81,175,131690,1,8,0:0:0:0:
81,175,131861,1,8,0:0:0:0:
165,110,132033,5,8,0:0:0:0:
172,103,132118,1,0,1:0:0:0:
179,96,132204,2,0,L|176:62,1,29.6874992072582,0|0,1:0|1:0,0:0:0:0:
171,33,132376,1,8,0:0:0:0:
355,0,132718,1,10,0:0:0:0:
362,7,132804,1,8,0:0:0:0:
369,14,132890,2,0,L|366:48,3,29.6874992072582,10|0|0|0,0:0|1:0|1:0|1:0,0:0:0:0:
344,70,133233,6,0,B|353:112|353:112|335:166|335:166|342:203,1,137.500004196167,6|2,1:0|1:0,0:0:0:0:
470,199,133747,1,10,0:0:0:0:
512,281,133918,1,2,0:0:0:0:
426,313,134090,2,0,P|394:300|361:293,1,68.7500020980836,2|0,1:0|1:0,0:0:0:0:
280,347,134433,1,10,0:0:0:0:
246,272,134604,1,2,0:0:0:0:
207,371,134776,6,0,B|246:365|246:365|273:375,1,68.7500020980836,2|2,1:0|0:0,0:0:0:0:
360,292,135118,1,10,0:0:0:0:
318,214,135290,1,2,0:0:0:0:
223,274,135461,2,0,B|156:280|156:280|72:254,1,137.500004196167,2|8,1:0|0:0,0:0:0:0:
40,141,135976,6,0,P|55:206|67:281,1,137.500004196167,6|2,1:2|1:0,0:0:0:0:
172,195,136490,1,10,0:0:0:0:
251,234,136661,1,2,0:0:0:0:
322,168,136833,2,0,P|318:134|316:100,1,68.7500020980836,2|0,1:0|1:0,0:0:0:0:
237,22,137176,1,10,0:0:0:0:
237,22,137347,1,2,0:0:0:0:
231,101,137518,5,2,1:0:0:0:
148,171,137690,2,0,P|181:177|213:189,1,68.7500020980836,2|8,0:0|0:0,0:0:0:0:
93,93,138033,2,0,P|120:72|152:59,1,68.7500020980836,2|0,0:0|1:0,0:0:0:0:
0,95,138376,2,0,P|5:61|17:29,1,68.7500020980836,2|8,1:0|0:0,0:0:0:0:
59,171,138718,6,0,P|41:238|28:305,1,137.500004196167,6|2,1:0|1:0,0:0:0:0:
0,384,139233,1,10,0:0:0:0:
105,384,139404,1,2,0:0:0:0:
143,279,139576,2,0,P|134:312|129:346,1,68.7500020980836,2|0,1:0|1:0,0:0:0:0:
225,384,139918,1,10,0:0:0:0:
225,384,140090,1,2,0:0:0:0:
286,295,140261,5,2,1:0:0:0:
394,300,140433,2,0,L|374:233,1,68.7500020980836,2|8,0:0|0:0,0:0:0:0:
292,184,140776,2,0,L|311:117,1,68.7500020980836,2|0,0:0|1:0,0:0:0:0:
393,76,141118,2,0,L|373:9,1,68.7500020980836,2|8,1:0|0:0,0:0:0:0:
186,111,141461,6,0,P|248:138|311:116,1,137.500004196167,6|2,1:2|1:0,0:0:0:0:
432,73,141976,2,0,P|427:107|426:141,1,68.7500020980836,8|2,0:0|1:0,0:0:0:0:
430,172,142233,1,0,1:0:0:0:
430,172,142318,1,8,0:0:0:0:
489,251,142490,1,6,1:0:0:0:
395,278,142661,1,4,1:2:0:0:
333,214,142833,6,0,B|279:212|279:212|251:226|251:226|199:221,1,137.500004196167,6|0,1:0|1:0,0:0:0:0:
146,122,143347,2,0,L|221:126,1,68.7500020980836,8|0,0:0|0:0,0:0:0:0:
289,66,143690,1,0,1:0:0:0:
202,23,143861,1,8,0:0:0:0:
202,23,143947,1,8,0:0:0:0:
202,23,144033,1,8,0:0:0:0:
101,0,144204,6,0,P|110:50|122:139,1,137.500004196167,6|2,1:2|1:0,0:0:0:0:
70,239,144718,1,10,0:0:0:0:
138,290,144890,1,2,0:0:0:0:
54,327,145061,2,0,P|87:321|121:316,1,68.7500020980836,2|0,1:0|1:0,0:0:0:0:
248,368,145404,1,10,0:0:0:0:
283,284,145576,1,2,0:0:0:0:
385,316,145747,5,2,1:0:0:0:
385,316,145918,1,2,0:0:0:0:
423,215,146090,1,10,0:0:0:0:
423,215,146261,1,2,0:0:0:0:
310,150,146433,2,0,P|377:140|449:106,1,137.500004196167,2|8,1:0|0:0,0:0:0:0:
484,30,146947,6,0,B|491:69|471:95|471:95|498:112|514:160,1,137.500004196167,6|2,1:2|1:0,0:0:0:0:
501,275,147461,1,10,0:0:0:0:
418,242,147633,1,2,0:0:0:0:
422,333,147804,2,0,P|388:327|353:325,1,68.7500020980836,2|0,1:0|1:0,0:0:0:0:
273,371,148147,1,10,0:0:0:0:
273,371,148318,1,2,0:0:0:0:
258,271,148490,5,2,1:0:0:0:
172,307,148661,2,0,P|204:294|237:288,1,68.7500020980836,2|8,0:0|0:0,0:0:0:0:
308,200,149004,2,0,P|274:193|242:181,1,68.7500020980836,2|0,0:0|1:0,0:0:0:0:
135,147,149347,2,0,P|147:179|153:212,1,68.7500020980836,2|8,1:0|0:0,0:0:0:0:
65,89,149690,6,0,P|123:56|187:76,1,137.500004196167,6|2,1:0|1:0,0:0:0:0:
242,181,150204,1,10,0:0:0:0:
293,112,150376,1,2,0:0:0:0:
359,166,150547,2,0,L|425:148,1,68.7500020980836,2|0,1:0|1:0,0:0:0:0:
508,91,150890,1,10,0:0:0:0:
508,91,151061,1,2,1:0:0:0:
425,13,151233,5,10,0:0:0:0:
418,20,151318,1,8,0:0:0:0:
411,27,151404,2,0,L|407:69,2,34.3750010490418,2|0|8,1:0|1:0|0:0,0:0:0:0:
309,88,151747,1,2,1:0:0:0:
302,81,151833,1,0,1:0:0:0:
295,74,151918,2,0,L|291:32,3,34.3750010490418,8|8|10|8,0:0|0:0|0:0|0:0,0:0:0:0:
284,7,152261,1,8,0:0:0:0:
192,61,152433,6,0,B|161:37|161:37|53:27,1,137.500004196167,4|2,1:0|1:0,0:0:0:0:
14,120,152947,2,0,L|101:129,1,68.7500020980836,10|2,0:0|0:0,0:0:0:0:
192,152,153290,1,2,1:0:0:0:
192,152,153461,1,2,1:0:0:0:
113,228,153633,2,0,L|44:220,1,68.7500020980836,10|2,0:0|0:0,0:0:0:0:
3,331,153976,6,0,P|39:313|122:371,1,137.500004196167,0|10,1:0|0:0,0:0:0:0:
199,294,154490,1,0,0:0:0:0:
249,368,154661,2,0,P|234:330|242:290,1,68.7500020980836,2|0,1:0|1:0,0:0:0:0:
306,222,155004,1,10,0:0:0:0:
336,322,155176,6,0,B|385:309|385:309|420:318|420:318|479:303,1,137.500004196167,6|0,1:2|1:0,0:0:0:0:
461,209,155690,2,0,B|422:218|422:218|373:208,1,68.7500020980836,10|2,0:0|0:0,0:0:0:0:
339,141,156033,1,2,1:0:0:0:
339,141,156204,1,2,1:0:0:0:
295,61,156376,2,0,B|330:52|330:52|383:62,1,68.7500020980836,10|2,0:0|0:0,0:0:0:0:
440,122,156718,6,0,B|455:69|455:69|446:38|446:38|460:-12,1,137.500004196167,0|10,1:0|0:0,0:0:0:0:
242,136,157404,2,0,L|169:125,1,68.7500020980836,2|0,1:0|1:0,0:0:0:0:
73,145,157747,1,10,0:0:0:0:
18,79,157918,6,0,P|32:116|40:217,1,137.500004196167,6|0,1:0|1:0,0:0:0:0:
0,335,158433,2,0,P|32:322|65:314,1,68.7500020980836,10|2,0:0|0:0,0:0:0:0:
159,361,158776,1,2,1:0:0:0:
236,299,158947,1,2,1:0:0:0:
274,384,159118,2,0,P|268:343|271:301,1,68.7500020980836,10|2,0:0|0:0,0:0:0:0:
390,255,159461,6,0,B|336:276|326:178|237:217,1,137.500004196167,2|8,1:0|0:0,0:0:0:0:
158,201,159976,1,0,1:0:0:0:
160,210,160061,1,0,1:0:0:0:
163,220,160147,1,10,0:0:0:0:
224,128,160318,6,0,P|271:118|342:152,1,103.125003147125,6|0,1:2|0:0,0:0:0:0:
343,151,160661,6,0,B|338:118|342:89|342:89|336:76|336:76|346:51|339:15,1,137.500004196167,6|0,1:0|1:0,0:0:0:0:
239,27,161176,2,0,P|199:31|164:25,1,68.7500020980836,10|2,0:0|0:0,0:0:0:0:
40,3,161518,1,2,1:0:0:0:
40,3,161690,1,2,1:0:0:0:
5,96,161861,2,0,P|39:91|73:95,1,68.7500020980836,10|0,0:0|0:0,0:0:0:0:
176,172,162204,6,0,L|161:331,1,137.500004196167,2|8,1:0|0:0,0:0:0:0:
283,371,162718,1,8,0:0:0:0:
292,369,162804,1,8,0:0:0:0:
302,366,162890,1,8,0:0:0:0:
353,291,163061,1,0,1:0:0:0:
443,302,163233,1,0,1:0:0:0:
491,363,163404,6,0,B|472:302|472:302|490:243,1,125,6|0,1:0|1:0,0:0:0:0:
434,157,163918,2,0,L|410:224,1,62.5,2|2,1:0|0:0,0:0:0:0:
386,88,164261,2,0,P|444:72|498:101,1,125,10|2,0:0|0:0,0:0:0:0:
300,105,164947,1,2,1:0:0:0:
328,184,165118,2,0,L|266:192,1,62.5,10|2,0:0|1:0,0:0:0:0:
239,194,165633,5,8,0:0:0:0:
261,274,165804,1,0,1:0:0:0:
225,348,165976,1,0,1:0:0:0:
136,381,166147,6,0,P|79:354|18:344,1,125,6|0,1:2|1:0,0:0:0:0:
155,290,166661,1,2,1:0:0:0:
178,282,167004,2,0,P|168:252|161:221,1,62.5,10|0,0:0|0:0,0:0:0:0:
87,154,167347,2,0,P|80:184|70:214,1,62.5,2|2,0:0|0:0,0:0:0:0:
20,81,167690,6,0,P|49:71|80:64,1,62.5,2|10,1:0|0:0,0:0:0:0:
178,104,168033,1,2,1:0:0:0:
257,280,168376,2,0,L|311:269,2,41.6666666666667,10|8|0,0:0|0:0|1:0,0:0:0:0:
238,318,168718,2,0,L|197:325,2,41.6666666666667,2|0|0,1:0|1:0|1:0,0:0:0:0:
283,316,169061,1,6,1:2:0:0:
88,75,180033,6,0,P|92:106|97:143,1,46.8750017881394,0|0,1:0|1:0,0:0:0:0:
93,219,180376,1,10,0:0:0:0:
85,248,181061,1,10,0:0:0:0:
77,277,181747,1,10,0:0:0:0:
69,306,182433,1,10,0:0:0:0:
226,336,182776,6,0,P|253:324|287:312,1,46.8750017881394,2|0,1:0|1:0,0:0:0:0:
378,289,183118,1,10,0:0:0:0:
407,281,183804,1,8,0:0:0:0:
436,273,184490,1,8,0:0:0:0:
501,153,184833,2,0,L|492:100,2,46.8750017881394,0|0|8,1:0|1:0|0:0,0:0:0:0:
359,158,185518,6,0,L|296:148,1,46.8750017881394,0|0,1:0|1:0,0:0:0:0:
206,129,185861,1,10,0:0:0:0:
177,121,186547,1,10,0:0:0:0:
148,113,187233,1,10,0:0:0:0:
171,234,187576,2,0,L|160:261,3,23.4375008940697,8|8|2|0,0:0|0:0|1:0|1:0,0:0:0:0:
151,281,187918,2,0,P|121:276|76:273,1,59.3749984145165,8|2,0:0|1:0,0:0:0:0:
63,130,188261,6,0,L|77:194,1,59.3749984145165,12|0,0:2|1:0,0:0:0:0:
135,54,188604,2,0,L|149:118,1,59.3749984145165,8|0,0:0|1:0,0:0:0:0:
265,173,188947,2,0,L|251:109,1,59.3749984145165,8|0,0:0|1:0,0:0:0:0:
337,97,189290,2,0,L|323:33,1,59.3749984145165,8|0,0:0|1:0,0:0:0:0:
484,136,189633,6,0,L|427:117,1,59.3749984145165,8|0,0:0|1:0,0:0:0:0:
362,186,189976,2,0,L|418:204,1,59.3749984145165,8|0,0:0|1:0,0:0:0:0:
270,250,190318,2,0,L|213:231,1,59.3749984145165,8|0,0:0|1:0,0:0:0:0:
137,119,190661,2,0,L|193:137,1,59.3749984145165,8|0,0:0|1:0,0:0:0:0:
230,149,190918,1,0,1:0:0:0:
230,149,191004,6,0,B|227:180|227:180|202:222,1,59.3749984145165,14|0,0:1|1:0,0:0:0:0:
270,318,191347,2,0,B|273:287|273:287|298:245,1,59.3749984145165,8|0,0:0|1:0,0:0:0:0:
413,195,191690,2,0,B|410:226|410:226|385:268,1,59.3749984145165,8|0,0:1|1:0,0:0:0:0:
453,364,192033,2,0,B|456:333|456:333|481:291,1,59.3749984145165,8|0,0:0|1:0,0:0:0:0:
512,206,192376,5,8,0:0:0:0:
413,195,192547,1,0,1:0:0:0:
464,123,192718,1,8,0:0:0:0:
367,106,192890,1,8,0:0:0:0:
369,99,192976,1,8,0:0:0:0:
371,92,193061,5,8,0:0:0:0:
304,33,193233,1,8,0:0:0:0:
272,112,193404,2,0,L|197:102,1,59.3749984145165,8|8,0:0|0:0,0:0:0:0:
139,51,193747,5,4,1:0:0:0:
235,312,194261,1,4,1:2:0:0:
464,123,194776,1,4,1:0:0:0:
175,36,196318,6,0,P|182:84|186:136,1,93.7500035762788,2|2,0:0|0:0,0:0:0:0:
131,202,196833,2,0,L|75:183,2,46.8750017881394,2|2|2,0:0|0:0|0:0,0:0:0:0:
160,213,197518,2,0,P|152:236|147:259,1,46.8750017881394,2|2,0:0|0:0,0:0:0:0:
127,364,197861,2,0,P|149:357|172:351,1,46.8750017881394,2|0,0:0|0:0,0:0:0:0:
247,283,198204,2,0,L|300:293,2,46.8750017881394,2|0|2,0:0|0:0|0:0,0:0:0:0:
385,370,199061,6,0,P|408:324|409:273,1,93.7500035762788,2|2,0:0|0:0,0:0:0:0:
337,197,199576,2,0,L|329:142,2,46.8750017881394,2|2|2,0:0|0:0|0:0,0:0:0:0:
467,150,200261,2,0,L|459:95,1,46.8750017881394,2|2,0:0|0:0,0:0:0:0:
436,17,200604,1,2,0:0:0:0:
374,76,200776,2,0,P|328:67|272:53,1,93.7500035762788,2|2,0:0|1:0,0:0:0:0:
262,51,201204,1,0,1:0:0:0:
244,47,201290,1,8,0:0:0:0:
150,13,201461,2,0,P|155:47|112:78,1,70.3125026822091,2|0,1:0|0:0,0:0:0:0:
111,73,201804,5,2,1:0:0:0:
0,221,202147,2,0,P|22:213|45:208,1,46.8750017881394,10|2,0:0|1:0,0:0:0:0:
134,244,202490,1,2,1:0:0:0:
224,180,202661,1,10,0:0:0:0:
256,169,203004,2,0,L|247:225,1,46.8750017881394,2|2,0:0|1:0,0:0:0:0:
204,302,203347,2,0,L|260:311,1,46.8750017881394,2|2,1:0|1:0,0:0:0:0:
330,359,203690,2,0,L|376:351,1,46.8750017881394,2|2,1:0|1:0,0:0:0:0:
475,372,204033,2,0,P|475:329|446:279,1,93.7500035762788,10|0,0:0|1:0,0:0:0:0:
354,259,204547,6,0,B|357:215|357:215|377:185|377:185|380:125,1,125,6|10,1:0|0:0,0:0:0:0:
290,65,205061,2,0,L|288:135,1,62.5,8|10,0:0|0:0,0:0:0:0:
292,151,205318,1,8,0:0:0:0:
292,151,205404,1,8,0:0:0:0:
198,101,205576,1,10,0:0:0:0:
198,101,205661,1,8,0:0:0:0:
198,101,205747,1,8,0:0:0:0:
195,203,205918,1,10,0:0:0:0:
195,203,206004,1,8,0:0:0:0:
195,203,206090,6,0,L|199:247,3,31.25,8|8|8|8,0:0|0:0|0:0|0:0,0:0:0:0:
211,263,206433,2,0,L|207:307,3,31.25,8|8|8|8,0:0|0:0|0:0|0:0,0:0:0:0:
187,318,206776,2,0,L|191:362,3,31.25,10|0|2|0,0:0|1:0|1:0|1:0,0:0:0:0:
203,380,207118,1,0,1:0:0:0:
293,338,207290,6,0,B|335:329|335:329|389:347|389:347|426:340,1,137.500004196167,4|2,1:0|1:0,0:0:0:0:
508,251,207804,1,10,0:0:0:0:
434,202,207976,1,2,0:0:0:0:
507,154,208147,2,0,L|513:79,1,68.7500020980836,2|0,1:0|1:0,0:0:0:0:
448,6,208490,1,10,0:0:0:0:
396,80,208661,1,2,0:0:0:0:
352,5,208833,6,0,L|427:-1,1,68.7500020980836,2|0,1:0|0:0,0:0:0:0:
367,90,209176,1,10,0:0:0:0:
319,9,209347,1,2,0:0:0:0:
273,93,209518,2,0,P|205:78|137:70,1,137.500004196167,2|8,1:0|0:0,0:0:0:0:
0,7,210033,6,0,P|41:53|7:145,1,137.500004196167,6|2,1:2|1:0,0:0:0:0:
26,259,210547,1,10,0:0:0:0:
110,219,210718,1,2,0:0:0:0:
168,291,210890,2,0,P|205:286|243:283,1,68.7500020980836,2|0,1:0|1:0,0:0:0:0:
377,279,211233,1,10,0:0:0:0:
377,279,211404,1,2,0:0:0:0:
405,184,211576,5,2,1:0:0:0:
321,136,211747,2,0,P|315:169|303:201,1,68.7500020980836,2|8,0:0|0:0,0:0:0:0:
201,83,212090,2,0,P|220:110|234:141,1,68.7500020980836,2|0,0:0|1:0,0:0:0:0:
78,130,212433,2,0,P|111:135|143:147,1,68.7500020980836,2|8,1:0|0:0,0:0:0:0:
309,40,212776,6,0,P|241:52|172:56,1,137.500004196167,6|2,1:0|1:0,0:0:0:0:
50,1,213290,1,10,0:0:0:0:
10,76,213461,1,2,0:0:0:0:
87,123,213633,2,0,P|77:171|72:212,1,68.7500020980836,2|0,1:0|1:0,0:0:0:0:
85,312,213976,1,10,0:0:0:0:
85,312,214147,1,2,0:0:0:0:
159,256,214318,5,2,1:0:0:0:
194,336,214490,2,0,P|231:323|288:313,1,68.7500020980836,2|8,1:0|0:0,0:0:0:0:
320,240,214833,2,0,P|352:250|386:258,1,68.7500020980836,2|0,0:0|1:0,0:0:0:0:
466,330,215176,2,0,P|484:302|492:269,1,68.7500020980836,2|8,1:0|0:0,0:0:0:0:
442,158,215518,6,0,B|396:150|396:150|357:125|357:125|307:117,1,137.500004196167,6|2,1:2|1:0,0:0:0:0:
190,180,216033,1,8,0:0:0:0:
183,187,216118,1,0,1:0:0:0:
176,194,216204,2,0,L|180:236,2,34.3750010490418,2|0|0,1:0|1:0|1:0,0:0:0:0:
138,109,216547,1,10,0:0:0:0:
128,111,216633,1,0,1:0:0:0:
118,114,216718,2,0,L|100:152,2,34.3750010490418,0|0|2,1:0|1:0|1:0,0:0:0:0:
259,124,217061,6,0,L|267:88,3,34.3750010490418,8|8|8|8,0:0|0:0|0:0|0:0,0:0:0:0:
246,66,217404,2,0,L|240:28,3,34.3750010490418,8|8|8|8,0:0|0:0|0:0|0:0,0:0:0:0:
220,11,217747,2,0,L|174:22,3,34.3750010490418,0|0|0|0,1:0|1:0|1:0|1:0,0:0:0:0:
154,39,218090,2,0,L|115:31,1,34.3750010490418,0|0,1:0|1:0,0:0:0:0:
73,24,218261,6,0,P|57:90|45:158,1,137.500004196167,6|2,1:0|1:0,0:0:0:0:
85,294,218776,1,10,0:0:0:0:
161,244,218947,1,2,0:0:0:0:
221,306,219118,2,0,P|254:300|288:295,1,68.7500020980836,2|0,1:0|1:0,0:0:0:0:
399,308,219461,1,10,0:0:0:0:
419,219,219633,1,2,0:0:0:0:
337,187,219804,5,2,1:0:0:0:
337,187,219976,1,2,0:0:0:0:
349,94,220147,1,10,0:0:0:0:
349,94,220318,1,2,0:0:0:0:
241,86,220490,2,0,B|301:98|301:98|370:67,1,137.500004196167,2|8,1:0|0:0,0:0:0:0:
511,0,221004,6,0,P|485:63|475:130,1,137.500004196167,6|2,1:2|1:0,0:0:0:0:
512,274,221518,1,10,0:0:0:0:
420,280,221690,1,2,0:0:0:0:
442,370,221861,2,0,P|408:364|373:362,1,68.7500020980836,2|0,1:0|1:0,0:0:0:0:
255,374,222204,1,10,0:0:0:0:
255,374,222376,1,2,0:0:0:0:
297,275,222547,5,2,1:0:0:0:
190,285,222718,1,10,0:0:0:0:
233,189,222890,1,8,0:0:0:0:
125,199,223061,2,0,L|78:191,2,34.3750010490418,10|8|8,0:0|0:0|0:0,0:0:0:0:
233,154,223404,2,0,L|280:146,2,34.3750010490418,10|8|8,0:0|0:0|0:0,0:0:0:0:
151,42,223747,6,0,L|132:182,1,137.500004196167,6|2,1:0|1:0,0:0:0:0:
8,216,224261,2,0,P|18:248|24:282,1,68.7500020980836,10|2,0:0|0:0,0:0:0:0:
107,368,224604,2,0,P|113:334|123:301,1,68.7500020980836,2|0,1:0|1:0,0:0:0:0:
236,225,224947,1,10,0:0:0:0:
236,225,225118,1,2,1:0:0:0:
312,293,225290,5,10,0:0:0:0:
389,229,225461,2,0,L|455:210,1,68.7500020980836,2|0,1:0|1:0,0:0:0:0:
485,108,225804,2,0,L|418:126,1,68.7500020980836,2|8,1:0|0:0,0:0:0:0:
321,153,226147,1,2,1:0:0:0:
348,55,226318,1,8,0:0:0:0:
262,3,226490,1,6,1:0:0:0:
256,192,226661,12,0,234889,0:0:0:0:
