osu file format v14

[General]
AudioFilename: audio.mp3
AudioLeadIn: 0
PreviewTime: 69925
Countdown: 1
SampleSet: Normal
StackLeniency: 0.7
Mode: 1
LetterboxInBreaks: 0
WidescreenStoryboard: 0

[Editor]
Bookmarks: 13075,22600,41950,51325,60700,70600
DistanceSpacing: 1.1
BeatDivisor: 4
GridSize: 8
TimelineZoom: 1.6

[Metadata]
Title:Fukagyaku Replace (TV Size)
TitleUnicode:不可逆リプレイス (TV Size)
Artist:MY FIRST STORY
ArtistUnicode:MY FIRST STORY
Creator:Nao Tomori
Version:Oni
Source:信長協奏曲
Tags:nobunaga concerto ending ed j-rock jrock rock mfs japanese anime taiko コンツェルト
BeatmapID:1927763
BeatmapSetID:923135

[Difficulty]
HPDrainRate:5
CircleSize:5
OverallDifficulty:6
ApproachRate:5
SliderMultiplier:1.4
SliderTickRate:1

[Events]
//Background and Video events
0,0,"fukagyaku wallpaper.jpg",0,0
//Break Periods
//Storyboard Layer 0 (Background)
//Storyboard Layer 1 (Fail)
//Storyboard Layer 2 (Pass)
//Storyboard Layer 3 (Foreground)
//Storyboard Layer 4 (Overlay)
//Storyboard Sound Samples

[TimingPoints]
403,300,4,1,0,60,1,8
1603,300,4,1,0,60,1,0
1603,-133.333333333333,4,1,0,60,0,0
12403,300,4,1,0,90,1,8
12994,300,4,1,0,90,1,0
12994,-100,4,1,0,90,0,0
69994,-114.285714285714,4,1,0,70,0,0
70594,-95.2380952380952,4,1,0,94,0,1
87244,-95.2380952380952,4,1,0,100,0,0
87544,-133.333333333333,4,1,0,60,0,0
90019,-133.333333333333,4,1,0,23,0,0

[HitObjects]
256,192,1603,5,8,0:0:0:0:
256,192,2053,1,0,0:0:0:0:
256,192,2503,1,8,0:0:0:0:
256,192,2953,1,0,0:0:0:0:
256,192,3403,1,0,0:0:0:0:
256,192,3703,1,0,0:0:0:0:
256,192,4003,1,8,0:0:0:0:
256,192,4453,1,0,0:0:0:0:
256,192,4903,1,8,0:0:0:0:
256,192,5203,1,0,0:0:0:0:
256,192,5803,1,0,0:0:0:0:
256,192,6103,1,0,0:0:0:0:
256,192,6403,1,8,0:0:0:0:
256,192,6853,1,0,0:0:0:0:
256,192,7303,1,8,0:0:0:0:
256,192,7753,1,0,0:0:0:0:
256,192,8203,1,0,0:0:0:0:
256,192,8503,1,0,0:0:0:0:
256,192,8803,1,8,0:0:0:0:
256,192,9253,1,0,0:0:0:0:
256,192,9703,1,8,0:0:0:0:
256,192,9853,12,0,12853,0:0:0:0:
256,192,12994,5,12,0:0:0:0:
256,192,13144,1,0,0:0:0:0:
256,192,13294,1,8,0:0:0:0:
256,192,13444,1,0,0:0:0:0:
256,192,13519,1,0,0:0:0:0:
256,192,13594,1,8,0:0:0:0:
256,192,13744,1,0,0:0:0:0:
256,192,13894,1,8,0:0:0:0:
256,192,14044,1,0,0:0:0:0:
256,192,14194,1,8,0:0:0:0:
256,192,14344,1,0,0:0:0:0:
256,192,14419,1,0,0:0:0:0:
256,192,14494,1,8,0:0:0:0:
256,192,14644,1,0,0:0:0:0:
256,192,14794,1,8,0:0:0:0:
256,192,14869,1,0,0:0:0:0:
256,192,14944,1,8,0:0:0:0:
256,192,15019,1,8,0:0:0:0:
256,192,15094,1,0,0:0:0:0:
256,192,15244,1,8,0:0:0:0:
256,192,15394,1,4,0:0:0:0:
256,192,15694,1,8,0:0:0:0:
256,192,15844,1,0,0:0:0:0:
256,192,15919,1,0,0:0:0:0:
256,192,15994,1,8,0:0:0:0:
256,192,16144,1,0,0:0:0:0:
256,192,16294,1,8,0:0:0:0:
256,192,16444,1,8,0:0:0:0:
256,192,16519,1,8,0:0:0:0:
256,192,16594,1,0,0:0:0:0:
256,192,16744,1,0,0:0:0:0:
256,192,16894,1,8,0:0:0:0:
256,192,17044,1,0,0:0:0:0:
256,192,17194,1,8,0:0:0:0:
256,192,17344,1,8,0:0:0:0:
256,192,17494,1,0,0:0:0:0:
256,192,17644,1,0,0:0:0:0:
256,192,17719,1,0,0:0:0:0:
256,192,17794,1,8,0:0:0:0:
256,192,18094,1,0,0:0:0:0:
256,192,18244,1,8,0:0:0:0:
256,192,18394,1,0,0:0:0:0:
312,176,18544,1,0,0:0:0:0:
312,176,18619,1,0,0:0:0:0:
312,176,18694,1,8,0:0:0:0:
312,176,18844,1,0,0:0:0:0:
312,176,18994,1,8,0:0:0:0:
312,176,19144,1,0,0:0:0:0:
312,176,19294,1,0,0:0:0:0:
312,176,19444,1,8,0:0:0:0:
312,176,19594,1,0,0:0:0:0:
264,132,19669,1,8,0:0:0:0:
312,176,19744,1,0,0:0:0:0:
312,176,19819,1,0,0:0:0:0:
312,176,19894,1,8,0:0:0:0:
312,176,20044,1,0,0:0:0:0:
264,112,20194,1,8,0:0:0:0:
264,112,20269,1,8,0:0:0:0:
264,112,20344,1,0,0:0:0:0:
264,112,20419,1,0,0:0:0:0:
264,112,20494,1,0,0:0:0:0:
264,112,20644,1,8,0:0:0:0:
264,112,20794,1,0,0:0:0:0:
264,112,20869,1,0,0:0:0:0:
264,112,20944,1,0,0:0:0:0:
264,112,21019,1,0,0:0:0:0:
264,112,21094,1,8,0:0:0:0:
264,112,21244,1,4,0:0:0:0:
256,192,22444,1,4,0:0:0:0:
224,184,22744,1,0,0:0:0:0:
224,184,22894,1,8,0:0:0:0:
224,184,23044,1,0,0:0:0:0:
224,184,23119,1,0,0:0:0:0:
224,184,23194,1,8,0:0:0:0:
224,184,23344,1,0,0:0:0:0:
224,184,23494,1,0,0:0:0:0:
224,184,23644,1,8,0:0:0:0:
224,184,23944,1,0,0:0:0:0:
224,184,24094,1,8,0:0:0:0:
224,184,24244,1,0,0:0:0:0:
224,184,24319,1,0,0:0:0:0:
224,184,24394,1,8,0:0:0:0:
280,192,24544,1,8,0:0:0:0:
280,192,24694,1,0,0:0:0:0:
280,192,24844,1,12,0:0:0:0:
280,192,25144,1,8,0:0:0:0:
280,192,25294,1,0,0:0:0:0:
280,192,25444,1,0,0:0:0:0:
280,192,25519,1,0,0:0:0:0:
280,192,25594,1,8,0:0:0:0:
280,192,25744,1,0,0:0:0:0:
280,192,25894,1,8,0:0:0:0:
280,192,26044,1,0,0:0:0:0:
280,192,26119,1,8,0:0:0:0:
280,192,26194,1,0,0:0:0:0:
280,192,26344,1,0,0:0:0:0:
320,192,26494,1,8,0:0:0:0:
320,192,26644,1,8,0:0:0:0:
320,192,26794,1,0,0:0:0:0:
320,192,26944,1,8,0:0:0:0:
224,128,27019,1,8,0:0:0:0:
320,192,27094,1,0,0:0:0:0:
320,192,27244,1,12,0:0:0:0:
224,128,27544,1,0,0:0:0:0:
224,128,27694,1,8,0:0:0:0:
224,128,27844,1,8,0:0:0:0:
240,120,27919,1,8,0:0:0:0:
224,128,27994,1,0,0:0:0:0:
224,128,28144,1,0,0:0:0:0:
256,104,28294,1,8,0:0:0:0:
256,104,28444,1,0,0:0:0:0:
280,144,28744,1,0,0:0:0:0:
280,144,28894,1,8,0:0:0:0:
280,144,29044,1,0,0:0:0:0:
280,144,29119,1,0,0:0:0:0:
280,144,29194,1,0,0:0:0:0:
280,144,29344,1,0,0:0:0:0:
280,144,29494,1,8,0:0:0:0:
280,144,29644,1,4,0:0:0:0:
280,144,29944,1,0,0:0:0:0:
280,144,30094,1,8,0:0:0:0:
280,144,30244,1,0,0:0:0:0:
280,144,30319,1,8,0:0:0:0:
280,144,30394,1,0,0:0:0:0:
280,144,30544,1,0,0:0:0:0:
280,144,30694,1,8,0:0:0:0:
280,144,30844,1,0,0:0:0:0:
280,144,30919,1,0,0:0:0:0:
280,144,30994,1,8,0:0:0:0:
280,144,31144,1,0,0:0:0:0:
280,144,31294,1,8,0:0:0:0:
280,144,31444,1,0,0:0:0:0:
280,144,31594,1,0,0:0:0:0:
280,144,31744,1,8,0:0:0:0:
280,144,31894,1,0,0:0:0:0:
280,144,32044,1,12,0:0:0:0:
264,160,32344,1,0,0:0:0:0:
264,160,32494,1,8,0:0:0:0:
264,160,32644,1,0,0:0:0:0:
264,160,32719,1,0,0:0:0:0:
264,160,32794,1,8,0:0:0:0:
264,160,32944,1,8,0:0:0:0:
264,160,33094,1,0,0:0:0:0:
264,160,33244,1,8,0:0:0:0:
264,160,33544,1,0,0:0:0:0:
264,160,33694,1,8,0:0:0:0:
264,160,33844,1,0,0:0:0:0:
264,160,33994,1,8,0:0:0:0:
264,160,34069,1,8,0:0:0:0:
264,160,34144,1,0,0:0:0:0:
264,160,34219,1,0,0:0:0:0:
264,160,34294,1,8,0:0:0:0:
264,160,34444,1,12,0:0:0:0:
264,160,34744,1,0,0:0:0:0:
264,160,34894,1,8,0:0:0:0:
288,112,35044,1,0,0:0:0:0:
288,112,35119,1,8,0:0:0:0:
288,112,35194,1,0,0:0:0:0:
288,112,35344,1,0,0:0:0:0:
288,112,35494,1,8,0:0:0:0:
288,112,35644,1,0,0:0:0:0:
288,112,35719,1,0,0:0:0:0:
288,112,35794,1,0,0:0:0:0:
288,112,35944,1,8,0:0:0:0:
288,112,36094,1,0,0:0:0:0:
288,112,36244,1,8,0:0:0:0:
288,112,36394,1,8,0:0:0:0:
288,112,36544,1,0,0:0:0:0:
288,112,36619,1,0,0:0:0:0:
288,112,36694,1,8,0:0:0:0:
288,112,36844,1,4,0:0:0:0:
248,208,37144,1,0,0:0:0:0:
248,208,37294,1,8,0:0:0:0:
248,208,37444,1,0,0:0:0:0:
248,208,37519,1,0,0:0:0:0:
248,208,37594,1,0,0:0:0:0:
248,208,37744,1,0,0:0:0:0:
248,208,37894,1,8,0:0:0:0:
248,208,38044,1,0,0:0:0:0:
248,208,38344,1,0,0:0:0:0:
248,208,38494,1,8,0:0:0:0:
248,208,38644,1,0,0:0:0:0:
248,208,38719,1,8,0:0:0:0:
248,208,38794,1,0,0:0:0:0:
248,208,38944,1,0,0:0:0:0:
248,208,39094,1,8,0:0:0:0:
248,208,39244,1,4,0:0:0:0:
248,208,39544,1,0,0:0:0:0:
248,208,39844,1,0,0:0:0:0:
248,208,39919,1,0,0:0:0:0:
248,208,39994,1,8,0:0:0:0:
248,208,40144,1,8,0:0:0:0:
248,208,40294,1,0,0:0:0:0:
248,208,40444,1,8,0:0:0:0:
248,208,40744,1,8,0:0:0:0:
248,208,40894,1,0,0:0:0:0:
248,208,41044,1,0,0:0:0:0:
248,208,41119,1,0,0:0:0:0:
248,208,41194,1,8,0:0:0:0:
248,208,41344,1,8,0:0:0:0:
248,208,41494,1,0,0:0:0:0:
288,136,41644,1,8,0:0:0:0:
288,136,41794,1,0,0:0:0:0:
288,136,41944,1,0,0:0:0:0:
248,208,42094,1,8,0:0:0:0:
288,136,42394,1,8,0:0:0:0:
288,136,42694,1,8,0:0:0:0:
288,136,42844,1,0,0:0:0:0:
288,136,42994,1,8,0:0:0:0:
288,136,43294,1,8,0:0:0:0:
288,136,43594,1,8,0:0:0:0:
288,136,43744,1,0,0:0:0:0:
288,136,43819,1,0,0:0:0:0:
288,136,43894,1,8,0:0:0:0:
288,136,44194,1,8,0:0:0:0:
288,136,44344,1,0,0:0:0:0:
288,136,44494,1,8,0:0:0:0:
256,128,44794,1,8,0:0:0:0:
256,128,45094,1,8,0:0:0:0:
256,128,45244,1,0,0:0:0:0:
256,128,45394,1,8,0:0:0:0:
256,128,45544,1,0,0:0:0:0:
256,128,45694,1,8,0:0:0:0:
256,128,45994,1,8,0:0:0:0:
248,128,46144,1,0,0:0:0:0:
248,128,46294,1,8,0:0:0:0:
248,128,46594,1,0,0:0:0:0:
248,128,46744,1,0,0:0:0:0:
248,128,46894,1,8,0:0:0:0:
248,128,47194,1,8,0:0:0:0:
248,128,47494,1,8,0:0:0:0:
248,128,47794,1,8,0:0:0:0:
248,128,47944,1,0,0:0:0:0:
248,128,48094,1,8,0:0:0:0:
248,128,48394,1,8,0:0:0:0:
248,128,48544,1,0,0:0:0:0:
248,128,48694,1,8,0:0:0:0:
248,128,48844,1,4,0:0:0:0:
248,128,49144,1,0,0:0:0:0:
248,128,49294,1,8,0:0:0:0:
296,128,49594,1,8,0:0:0:0:
296,128,49744,1,0,0:0:0:0:
296,128,49894,1,8,0:0:0:0:
296,128,50044,1,12,0:0:0:0:
296,128,50344,1,0,0:0:0:0:
296,128,50494,1,8,0:0:0:0:
296,128,50644,1,0,0:0:0:0:
296,128,50719,1,0,0:0:0:0:
296,128,50794,1,8,0:0:0:0:
296,128,50944,1,8,0:0:0:0:
296,128,51094,1,0,0:0:0:0:
296,128,51244,1,12,0:0:0:0:
272,152,51544,1,0,0:0:0:0:
272,152,51694,1,8,0:0:0:0:
272,152,51844,1,0,0:0:0:0:
272,152,51994,1,8,0:0:0:0:
272,152,52294,1,0,0:0:0:0:
272,152,52444,1,0,0:0:0:0:
272,152,52519,1,0,0:0:0:0:
272,152,52594,1,8,0:0:0:0:
272,152,52744,1,0,0:0:0:0:
272,152,52894,1,8,0:0:0:0:
272,152,53044,1,0,0:0:0:0:
272,152,53119,1,0,0:0:0:0:
272,152,53194,1,0,0:0:0:0:
272,152,53344,1,8,0:0:0:0:
272,152,53494,1,8,0:0:0:0:
272,152,53644,1,0,0:0:0:0:
272,152,53944,1,0,0:0:0:0:
272,152,54094,1,8,0:0:0:0:
272,152,54244,1,8,0:0:0:0:
272,152,54319,1,8,0:0:0:0:
272,152,54394,1,0,0:0:0:0:
272,152,54544,1,0,0:0:0:0:
272,152,54694,1,8,0:0:0:0:
272,152,54844,1,0,0:0:0:0:
272,152,54994,1,8,0:0:0:0:
272,152,55294,1,0,0:0:0:0:
272,152,55444,1,8,0:0:0:0:
272,152,55594,1,0,0:0:0:0:
272,152,55744,1,0,0:0:0:0:
253,129,55819,1,8,0:0:0:0:
272,152,55894,1,8,0:0:0:0:
272,152,56044,1,0,0:0:0:0:
256,144,56344,1,0,0:0:0:0:
256,144,56494,1,8,0:0:0:0:
256,144,56644,1,8,0:0:0:0:
256,144,56794,1,0,0:0:0:0:
256,144,56944,1,0,0:0:0:0:
256,144,57019,1,0,0:0:0:0:
256,144,57094,1,8,0:0:0:0:
256,144,57244,1,0,0:0:0:0:
256,144,57544,1,0,0:0:0:0:
256,144,57694,1,8,0:0:0:0:
256,144,57844,1,0,0:0:0:0:
256,144,57919,1,0,0:0:0:0:
256,144,57994,1,8,0:0:0:0:
256,144,58144,1,8,0:0:0:0:
256,144,58294,1,0,0:0:0:0:
256,144,58444,1,12,0:0:0:0:
256,144,58744,1,0,0:0:0:0:
256,144,58894,1,8,0:0:0:0:
256,144,59044,1,0,0:0:0:0:
256,144,59119,1,0,0:0:0:0:
256,144,59194,1,0,0:0:0:0:
256,144,59344,1,8,0:0:0:0:
256,144,59494,1,0,0:0:0:0:
256,144,59644,1,8,0:0:0:0:
256,144,59719,1,8,0:0:0:0:
256,144,59794,1,0,0:0:0:0:
256,144,59944,1,8,0:0:0:0:
256,144,60019,1,8,0:0:0:0:
256,144,60094,1,0,0:0:0:0:
256,144,60169,1,0,0:0:0:0:
256,144,60244,1,8,0:0:0:0:
256,144,60394,1,0,0:0:0:0:
256,144,60544,1,8,0:0:0:0:
256,144,60619,1,8,0:0:0:0:
256,144,60694,1,8,0:0:0:0:
256,144,60769,1,8,0:0:0:0:
256,144,60844,1,0,0:0:0:0:
256,144,60994,1,8,0:0:0:0:
256,144,61294,1,8,0:0:0:0:
240,128,61444,1,0,0:0:0:0:
240,128,61594,1,8,0:0:0:0:
240,128,61744,1,8,0:0:0:0:
240,128,61819,1,8,0:0:0:0:
240,128,61894,1,0,0:0:0:0:
240,128,62044,1,0,0:0:0:0:
240,128,62194,1,8,0:0:0:0:
240,128,62494,1,8,0:0:0:0:
240,128,62644,1,0,0:0:0:0:
240,128,62794,1,8,0:0:0:0:
240,128,62944,1,8,0:0:0:0:
240,128,63094,1,0,0:0:0:0:
240,128,63244,1,0,0:0:0:0:
240,128,63319,1,0,0:0:0:0:
240,128,63394,1,8,0:0:0:0:
240,128,63694,1,8,0:0:0:0:
240,128,63844,1,0,0:0:0:0:
240,128,64144,1,0,0:0:0:0:
240,128,64294,1,8,0:0:0:0:
240,128,64444,1,0,0:0:0:0:
240,128,64519,1,0,0:0:0:0:
240,128,64594,1,8,0:0:0:0:
232,128,64744,1,8,0:0:0:0:
232,128,64894,1,0,0:0:0:0:
232,128,65044,1,0,0:0:0:0:
232,128,65194,1,8,0:0:0:0:
232,128,65494,1,0,0:0:0:0:
232,128,65644,1,0,0:0:0:0:
232,128,65794,1,8,0:0:0:0:
232,128,66094,1,0,0:0:0:0:
232,128,66244,1,8,0:0:0:0:
232,128,66319,1,8,0:0:0:0:
232,128,66394,1,0,0:0:0:0:
232,128,66544,1,0,0:0:0:0:
232,128,66694,1,8,0:0:0:0:
232,128,66994,1,8,0:0:0:0:
232,128,67144,1,0,0:0:0:0:
232,128,67294,1,8,0:0:0:0:
232,128,67594,1,0,0:0:0:0:
232,128,67744,1,0,0:0:0:0:
232,128,67819,1,0,0:0:0:0:
232,128,67894,1,8,0:0:0:0:
232,128,68044,1,0,0:0:0:0:
232,128,68194,1,8,0:0:0:0:
232,128,68269,1,8,0:0:0:0:
232,128,68344,1,0,0:0:0:0:
232,128,68419,1,0,0:0:0:0:
232,128,68494,1,0,0:0:0:0:
232,128,68644,1,8,0:0:0:0:
232,128,68719,1,8,0:0:0:0:
232,128,68794,1,0,0:0:0:0:
182,80,68869,1,0,0:0:0:0:
232,128,68944,1,0,0:0:0:0:
232,128,69019,1,0,0:0:0:0:
232,128,69094,1,8,0:0:0:0:
216,64,69244,1,4,0:0:0:0:
256,192,69994,1,0,0:0:0:0:
256,192,70294,1,0,0:0:0:0:
256,192,70594,1,12,0:0:0:0:
320,160,70894,1,8,0:0:0:0:
320,160,71044,1,8,0:0:0:0:
320,160,71119,1,8,0:0:0:0:
320,160,71194,1,0,0:0:0:0:
320,160,71344,1,0,0:0:0:0:
320,160,71494,1,8,0:0:0:0:
288,144,71644,5,0,0:0:0:0:
320,160,71794,1,8,0:0:0:0:
264,64,71869,1,8,0:0:0:0:
288,144,71944,1,0,0:0:0:0:
320,160,72019,1,0,0:0:0:0:
288,144,72094,1,8,0:0:0:0:
288,144,72394,1,0,0:0:0:0:
288,144,72544,1,8,0:0:0:0:
288,144,72619,1,0,0:0:0:0:
288,144,72694,1,8,0:0:0:0:
208,72,72769,1,8,0:0:0:0:
288,144,72844,1,0,0:0:0:0:
288,144,72994,1,12,0:0:0:0:
288,144,73294,1,8,0:0:0:0:
288,144,73444,1,8,0:0:0:0:
288,144,73519,1,8,0:0:0:0:
288,144,73594,1,0,0:0:0:0:
288,144,73744,1,0,0:0:0:0:
288,144,73894,1,8,0:0:0:0:
288,144,73969,1,8,0:0:0:0:
288,144,74044,1,8,0:0:0:0:
171,192,74119,1,8,0:0:0:0:
288,144,74194,1,0,0:0:0:0:
288,144,74344,1,0,0:0:0:0:
288,144,74644,1,8,0:0:0:0:
288,144,74794,1,0,0:0:0:0:
208,112,74869,1,0,0:0:0:0:
288,144,74944,1,0,0:0:0:0:
288,144,75019,1,0,0:0:0:0:
288,144,75094,1,8,0:0:0:0:
288,144,75244,1,8,0:0:0:0:
288,144,75394,1,4,0:0:0:0:
216,160,75694,1,8,0:0:0:0:
216,160,75844,1,8,0:0:0:0:
216,160,75919,1,8,0:0:0:0:
216,160,75994,1,0,0:0:0:0:
216,160,76144,1,0,0:0:0:0:
216,160,76294,1,8,0:0:0:0:
216,160,76444,1,8,0:0:0:0:
216,160,76594,1,0,0:0:0:0:
216,160,76744,1,8,0:0:0:0:
216,160,76819,1,8,0:0:0:0:
216,160,76894,1,0,0:0:0:0:
216,160,77044,1,0,0:0:0:0:
216,160,77194,1,8,0:0:0:0:
216,160,77269,1,8,0:0:0:0:
216,160,77344,1,0,0:0:0:0:
216,160,77419,1,0,0:0:0:0:
216,160,77494,1,8,0:0:0:0:
216,160,77644,1,4,0:0:0:0:
216,160,77944,1,0,0:0:0:0:
216,160,78094,1,8,0:0:0:0:
216,160,78244,1,0,0:0:0:0:
216,160,78319,1,0,0:0:0:0:
216,160,78394,1,0,0:0:0:0:
216,160,78544,1,8,0:0:0:0:
216,160,78619,1,0,0:0:0:0:
216,160,78694,1,8,0:0:0:0:
216,160,78844,1,4,0:0:0:0:
216,160,79144,1,0,0:0:0:0:
216,160,79219,1,0,0:0:0:0:
216,160,79294,1,8,0:0:0:0:
216,160,79369,1,0,0:0:0:0:
216,160,79444,1,8,0:0:0:0:
216,160,79594,1,0,0:0:0:0:
248,144,79669,1,0,0:0:0:0:
216,160,79744,1,8,0:0:0:0:
216,160,79819,1,8,0:0:0:0:
216,160,79894,1,0,0:0:0:0:
216,160,80044,1,0,0:0:0:0:
216,160,80194,1,12,0:0:0:0:
256,184,80494,1,8,0:0:0:0:
256,184,80644,1,8,0:0:0:0:
256,184,80719,1,8,0:0:0:0:
256,184,80794,1,0,0:0:0:0:
256,184,80944,1,0,0:0:0:0:
256,184,81094,1,8,0:0:0:0:
208,97,81169,1,8,0:0:0:0:
256,184,81244,1,8,0:0:0:0:
205,107,81319,1,8,0:0:0:0:
256,184,81394,1,0,0:0:0:0:
256,184,81544,1,8,0:0:0:0:
224,144,81694,1,0,0:0:0:0:
224,144,81844,1,0,0:0:0:0:
224,144,81994,1,8,0:0:0:0:
224,144,82069,1,0,0:0:0:0:
224,144,82144,1,0,0:0:0:0:
224,144,82219,1,0,0:0:0:0:
224,144,82294,1,8,0:0:0:0:
224,144,82444,1,8,0:0:0:0:
224,144,82594,1,4,0:0:0:0:
224,144,82894,1,8,0:0:0:0:
224,144,83044,1,0,0:0:0:0:
224,144,83119,1,0,0:0:0:0:
224,144,83194,1,0,0:0:0:0:
224,144,83344,1,0,0:0:0:0:
224,144,83494,1,8,0:0:0:0:
206,129,83569,1,8,0:0:0:0:
272,136,83644,5,0,0:0:0:0:
272,136,83719,1,0,0:0:0:0:
272,136,83794,1,8,0:0:0:0:
272,136,83944,1,0,0:0:0:0:
272,136,84244,1,8,0:0:0:0:
272,136,84394,1,0,0:0:0:0:
256,120,84469,1,0,0:0:0:0:
272,136,84544,1,0,0:0:0:0:
272,136,84619,1,0,0:0:0:0:
272,136,84694,1,8,0:0:0:0:
272,136,84844,1,8,0:0:0:0:
296,88,84919,1,8,0:0:0:0:
296,88,84994,1,0,0:0:0:0:
296,88,85144,1,0,0:0:0:0:
296,88,85294,1,8,0:0:0:0:
296,88,85594,1,8,0:0:0:0:
296,88,85744,1,0,0:0:0:0:
296,88,85819,1,0,0:0:0:0:
296,88,85894,1,8,0:0:0:0:
183,100,85969,1,0,0:0:0:0:
296,88,86044,1,8,0:0:0:0:
256,120,86194,1,0,0:0:0:0:
256,120,86344,1,0,0:0:0:0:
304,184,86419,1,0,0:0:0:0:
304,184,86494,1,8,0:0:0:0:
304,184,86644,1,0,0:0:0:0:
304,184,86794,1,8,0:0:0:0:
304,184,86869,1,0,0:0:0:0:
304,184,86944,1,8,0:0:0:0:
304,184,87019,1,0,0:0:0:0:
304,184,87094,1,8,0:0:0:0:
304,184,87244,1,4,0:0:0:0:
256,192,89944,12,8,94594,0:0:0:0:
