osu file format v14

[General]
AudioFilename: audio.mp3
AudioLeadIn: 0
PreviewTime: 69349
Countdown: 0
SampleSet: Soft
StackLeniency: 0.4
Mode: 0
LetterboxInBreaks: 0
WidescreenStoryboard: 1

[Editor]
DistanceSpacing: 1.8
BeatDivisor: 4
GridSize: 8
TimelineZoom: 2.699999

[Metadata]
Title:Fukagyaku Replace
TitleUnicode:不可逆リプレイス
Artist:MY FIRST STORY
ArtistUnicode:MY FIRST STORY
Creator:Nevo
Version:Fudosu's Extra
Source:信長協奏曲
Tags:agatsu kudosu s00p fuju elinor [_eli_] eli maiev japanese rock Nobunaga Concerto Ending
BeatmapID:2669351
BeatmapSetID:1198125

[Difficulty]
HPDrainRate:5.5
CircleSize:4
OverallDifficulty:8.7
ApproachRate:9.4
SliderMultiplier:1.85
SliderTickRate:1

[Events]
//Background and Video events
0,0,"50033013_p0_master1200.jpg",0,0
//Break Periods
2,96622,102483
2,144322,151083
2,193823,200133
//Storyboard Layer 0 (Background)
//Storyboard Layer 1 (Fail)
//Storyboard Layer 2 (Pass)
//Storyboard Layer 3 (Foreground)
//Storyboard Layer 4 (Overlay)
//Storyboard Sound Samples

[TimingPoints]
1074,300,4,2,1,70,1,0
9324,-100,4,2,1,5,0,0
12423,300,4,2,1,70,1,0
12423,-111.111111111111,4,2,1,70,0,0
20073,-90.9090909090908,4,2,1,70,0,0
20673,-90.9090909090908,4,2,1,50,0,0
21123,-90.9090909090908,4,2,1,60,0,0
21273,-200,4,2,1,60,0,0
21873,-95.2380952380952,4,2,1,80,0,0
24273,-86.9565217391304,4,2,1,80,0,0
24723,-95.2380952380952,4,2,1,80,0,0
24947,-95.2380952380952,4,2,1,80,0,0
25023,-95.2380952380952,4,2,1,80,0,0
25847,-95.2380952380952,4,2,1,80,0,0
25923,-95.2380952380952,4,2,1,80,0,0
29297,-95.2380952380952,4,2,1,80,0,0
29373,-95.2380952380952,4,2,1,80,0,0
33873,-86.9565217391304,4,2,1,80,0,0
34323,-95.2380952380952,4,2,1,80,0,0
34547,-95.2380952380952,4,2,1,80,0,0
34623,-95.2380952380952,4,2,1,80,0,0
38673,-111.111111111111,4,2,1,80,0,0
40097,-111.111111111111,4,2,1,80,0,0
40173,-111.111111111111,4,2,1,80,0,0
41223,-142.857142857143,4,2,1,70,0,0
48873,-142.857142857143,4,2,1,70,0,0
49023,-142.857142857143,4,2,1,70,0,0
50673,-105.263157894737,4,2,1,75,0,0
50898,-105.263157894737,4,2,1,75,0,0
50973,-105.263157894737,4,2,1,75,0,0
56073,-105.263157894737,4,2,1,75,0,0
56223,-105.263157894737,4,2,1,75,0,0
57273,-105.263157894737,4,2,1,75,0,0
57423,-105.263157894737,4,2,1,75,0,0
59298,-105.263157894737,4,2,1,75,0,0
59373,-105.263157894737,4,2,1,75,0,0
60423,-111.111111111111,4,2,1,70,0,0
64473,-111.111111111111,4,2,1,70,0,0
64623,-111.111111111111,4,2,1,70,0,0
65373,-111.111111111111,4,2,1,70,0,0
65523,-111.111111111111,4,2,1,70,0,0
66273,-111.111111111111,4,2,1,70,0,0
66423,-111.111111111111,4,2,1,70,0,0
69423,-333.333333333333,4,2,1,70,0,0
69647,-333.333333333333,4,2,1,70,0,0
69696,-333.333333333333,4,2,1,70,0,0
69948,-333.333333333333,4,2,1,70,0,0
70023,-86.9565217391304,4,2,1,85,0,0
79847,-86.9565217391304,4,2,1,85,0,0
79923,-86.9565217391304,4,2,1,85,0,0
80747,-86.9565217391304,4,2,1,85,0,0
80823,-86.9565217391304,4,2,1,85,0,0
84423,-95.2380952380952,4,2,1,85,0,0
84647,-95.2380952380952,4,2,1,85,0,0
84723,-95.2380952380952,4,2,1,85,0,0
85772,-95.2380952380952,4,2,1,85,0,0
85923,-95.2380952380952,4,2,1,85,0,0
86673,-86.9565217391304,4,2,1,85,0,0
88773,-86.9565217391304,4,2,1,70,0,0
91023,-105.263157894737,4,2,1,70,0,0
94023,-371.747211895911,4,2,1,70,0,0
94041,-371.747211895911,4,2,1,70,0,0
96422,-371.747211895911,4,2,1,70,0,0
103023,-105.263157894737,4,2,1,70,0,0
104073,-105.263157894737,4,2,1,70,0,0
104223,-105.263157894737,4,2,1,70,0,0
106323,-95.2380952380954,4,2,1,70,0,0
106773,-95.2380952380954,4,2,1,70,0,0
106923,-95.2380952380954,4,2,1,70,0,0
107073,-95.2380952380954,4,2,1,70,0,0
107223,-95.2380952380954,4,2,1,70,0,0
108273,-105.263157894737,4,2,1,70,0,0
108873,-105.263157894737,4,2,1,70,0,0
109023,-105.263157894737,4,2,1,70,0,0
109173,-105.263157894737,4,2,1,70,0,0
109323,-105.263157894737,4,2,1,70,0,0
109773,-105.263157894737,4,2,1,70,0,0
109923,-105.263157894737,4,2,1,70,0,0
113223,-117.64705882353,4,2,1,70,0,0
114573,-117.64705882353,4,2,1,70,0,0
114873,-117.64705882353,4,2,1,70,0,0
117273,-117.64705882353,4,2,1,70,0,0
118023,-105.263157894737,4,2,1,70,0,0
120423,-105.263157894737,4,2,1,75,0,0
122223,-333.333333333333,4,2,1,60,0,0
122448,-333.333333333333,4,2,1,60,0,0
122523,-333.333333333333,4,2,1,60,0,0
122748,-333.333333333333,4,2,1,60,0,0
122823,-86.9565217391304,4,2,1,85,0,0
123047,-86.9565217391304,4,2,1,85,0,0
123123,-86.9565217391304,4,2,1,85,0,0
125447,-86.9565217391304,4,2,1,85,0,0
125523,-86.9565217391304,4,2,1,85,0,0
135048,-86.9565217391304,4,2,1,85,0,0
135123,-86.9565217391304,4,2,1,85,0,0
137223,-95.2380952380952,4,2,1,85,0,0
139772,-95.2380952380952,4,2,1,85,0,0
139923,-95.2380952380952,4,2,1,85,0,0
140897,-95.2380952380952,4,2,1,85,0,0
140973,-95.2380952380952,4,2,1,85,0,0
141197,-95.2380952380952,4,2,1,85,0,0
141273,-95.2380952380952,4,2,1,85,0,0
141573,-95.2380952380952,4,2,1,70,0,0
142023,-285.714285714286,4,2,1,70,0,0
142098,-285.714285714286,4,2,1,5,0,0
146823,-285.714285714286,4,2,1,30,0,0
151623,-153.846153846154,4,2,1,30,0,0
152372,-153.846153846154,4,2,1,30,0,0
152523,-153.846153846154,4,2,1,30,0,0
152972,-153.846153846154,4,2,1,30,0,0
153423,-153.846153846154,4,2,1,30,0,0
154772,-153.846153846154,4,2,1,30,0,0
154923,-153.846153846154,4,2,1,30,0,0
157172,-153.846153846154,4,2,1,30,0,0
157323,-153.846153846154,4,2,1,30,0,0
158072,-153.846153846154,4,2,1,30,0,0
158223,-153.846153846154,4,2,1,30,0,0
159572,-153.846153846154,4,2,1,30,0,0
159723,-153.846153846154,4,2,1,30,0,0
161972,-153.846153846154,4,2,1,30,0,0
162123,-153.846153846154,4,2,1,30,0,0
164372,-153.846153846154,4,2,1,30,0,0
164523,-153.846153846154,4,2,1,30,0,0
165272,-153.846153846154,4,2,1,30,0,0
165423,-153.846153846154,4,2,1,30,0,0
166772,-153.846153846154,4,2,1,30,0,0
166923,-153.846153846154,4,2,1,30,0,0
167672,-153.846153846154,4,2,1,30,0,0
167823,-153.846153846154,4,2,1,30,0,0
169172,-153.846153846154,4,2,1,30,0,0
169323,-153.846153846154,4,2,1,30,0,0
170072,-153.846153846154,4,2,1,30,0,0
170223,-153.846153846154,4,2,1,30,0,0
170823,-117.64705882353,4,2,1,70,0,0
170973,-117.64705882353,4,2,1,70,0,0
171123,-117.64705882353,4,2,1,70,0,0
171873,-117.64705882353,4,2,1,70,0,0
172023,-117.64705882353,4,2,1,70,0,0
172473,-117.64705882353,4,2,1,70,0,0
172623,-117.64705882353,4,2,1,70,0,0
180648,-117.64705882353,4,2,1,70,0,0
180723,-117.64705882353,4,2,1,70,0,0
181548,-117.64705882353,4,2,1,70,0,0
181623,-117.64705882353,4,2,1,70,0,0
183048,-117.64705882353,4,2,1,70,0,0
183123,-117.64705882353,4,2,1,70,0,0
183948,-117.64705882353,4,2,1,70,0,0
184023,-117.64705882353,4,2,1,70,0,0
185448,-117.64705882353,4,2,1,70,0,0
185523,-117.64705882353,4,2,1,70,0,0
186348,-117.64705882353,4,2,1,70,0,0
186423,-117.64705882353,4,2,1,70,0,0
187923,-117.64705882353,4,2,1,50,0,0
190098,-117.64705882353,4,2,1,5,0,0
193623,-117.64705882353,4,2,1,30,0,0
196772,-117.64705882353,4,2,1,30,0,0
196923,-117.64705882353,4,2,1,30,0,0
200823,-95.2380952380956,4,2,1,70,0,0
200973,-95.2380952380956,4,2,1,70,0,0
201123,-95.2380952380956,4,2,1,70,0,0
203223,-95.2380952380956,4,2,1,75,0,0
205023,-333.333333333333,4,2,1,75,0,0
205248,-333.333333333333,4,2,1,75,0,0
205303,-333.333333333333,4,2,1,75,0,0
205548,-333.333333333333,4,2,1,75,0,0
205623,-86.9565217391304,4,2,1,85,0,0
220023,-95.2380952380952,4,2,1,70,0,0
221372,-95.2380952380952,4,2,1,70,0,0
221523,-95.2380952380952,4,2,1,70,0,0
223023,-95.2380952380952,4,2,1,30,0,0
223398,300,4,2,1,40,1,0
223548,-100,4,2,1,5,0,0
223698,-100,4,2,1,40,0,0
223848,-100,4,2,1,5,0,0
223998,-100,4,2,1,40,0,0
224898,-100,4,2,1,40,0,0
224973,-100,4,2,1,5,0,0
229698,-100,4,2,1,5,0,0

[Colours]
Combo1 : 255,128,192
Combo2 : 192,192,192
Combo3 : 255,83,83

[HitObjects]
278,368,12423,5,10,0:2:0:0:
422,288,12573,2,0,L|532:305,1,83.2499974594117,2|8,1:2|0:2,0:0:0:0:
281,187,12873,2,0,B|217:197|217:197|175:187|175:187|114:197,1,166.499994918823,2|2,1:2|1:2,0:0:0:0:
28,143,13323,1,10,0:2:0:0:
173,289,13473,1,2,1:2:0:0:
229,94,13623,6,0,L|213:0,1,83.2499974594117,10|0,0:2|1:2,0:0:0:0:
380,196,13923,2,0,L|364:290,1,83.2499974594117,10|0,0:2|1:2,0:0:0:0:
465,120,14223,1,10,0:2:0:0:
268,218,14373,1,2,1:2:0:0:
452,340,14523,1,10,0:2:0:0:
328,96,14673,1,0,1:2:0:0:
328,96,14748,1,0,0:0:0:0:
328,96,14823,6,0,P|318:31|344:3,1,83.2499974594117,10|0,0:2|1:2,0:0:0:0:
139,261,15123,2,0,P|154:222|140:182,1,83.2499974594117,10|0,0:2|1:2,0:0:0:0:
226,343,15423,1,10,0:2:0:0:
37,221,15573,1,0,1:2:0:0:
233,340,15723,1,10,0:2:0:0:
166,36,15873,6,0,B|127:40|109:65|109:65|137:168,1,166.499994918823,2|0,1:2|1:2,0:0:0:0:
337,268,16323,2,0,B|421:251|416:319|494:302,1,166.499994918823,10|10,0:2|0:2,0:0:0:0:
232,355,16773,1,2,1:2:0:0:
436,185,16923,1,10,0:2:0:0:
219,98,17073,1,2,1:2:0:0:
219,98,17148,1,0,1:2:0:0:
219,98,17223,6,0,L|234:192,1,83.2499974594117,14|0,0:2|1:2,0:0:0:0:
465,31,17523,1,8,0:2:0:0:
465,31,17673,2,0,L|449:125,1,83.2499974594117,2|8,1:2|0:2,0:0:0:0:
243,253,17973,1,0,1:2:0:0:
350,366,18123,2,0,L|363:284,1,83.2499974594117,10|0,0:2|1:2,0:0:0:0:
110,144,18423,6,0,L|125:238,1,83.2499974594117,10|0,0:2|1:2,0:0:0:0:
331,104,18723,1,8,0:2:0:0:
331,104,18873,2,0,P|335:49|311:21,1,83.2499974594117,2|10,1:2|0:2,0:0:0:0:
503,166,19173,1,2,1:2:0:0:
223,84,19323,2,0,L|210:167,1,83.2499974594117,10|2,0:2|1:2,0:0:0:0:
67,358,19623,5,14,0:2:0:0:
85,333,19698,1,8,0:3:0:0:
112,318,19773,1,4,0:3:0:0:
143,315,19848,1,4,0:3:0:0:
173,325,19923,2,0,L|165:372,1,41.6249987297059,0|0,1:0|1:0,0:0:0:0:
494,201,20073,1,10,0:2:0:0:
455,216,20148,1,8,0:3:0:0:
414,213,20223,1,4,0:3:0:0:
379,192,20298,1,4,0:3:0:0:
356,157,20373,2,0,L|366:93,1,50.8750015525818,0|0,1:0|1:0,0:0:0:0:
370,352,20523,5,10,0:2:0:0:
469,41,20673,1,2,0:3:0:0:
151,111,21273,5,2,0:2:0:0:
151,111,21348,1,2,0:2:0:0:
151,111,21423,2,0,L|46:94,1,92.5,2|0,0:2|0:0,0:0:0:0:
372,341,21873,6,0,B|383:269|383:269|366:222|366:222|377:151,1,194.249994071961,6|0,1:2|1:2,0:0:0:0:
265,284,22323,2,0,B|215:292|215:292|172:269,1,97.1249970359803,10|0,0:2|0:0,0:0:0:0:
487,121,22623,1,2,1:2:0:0:
226,49,22773,2,0,L|243:159,1,97.1249970359803,0|10,1:2|0:2,0:0:0:0:
99,324,23073,6,0,B|45:340|45:340|-25:285|22:206,1,194.249994071961,2|0,1:2|1:2,0:0:0:0:
265,284,23523,2,0,L|247:394,1,97.1249970359803,10|0,0:2|0:0,0:0:0:0:
324,152,23823,1,2,1:2:0:0:
167,241,23973,1,0,1:2:0:0:
363,327,24123,1,10,0:2:0:0:
128,66,24273,6,0,B|87:20|22:40|2:82|2:82|24:116|55:114,1,212.750004057884,6|0,1:2|1:2,0:0:0:0:
286,283,24723,2,0,P|358:237|415:256,1,145.68749555397,10|0,0:2|0:0,0:0:0:0:
458,342,25023,2,0,L|362:326,1,97.1249970359803,2|0,1:2|0:0,0:0:0:0:
135,375,25323,2,0,L|230:359,1,97.1249970359803,10|0,0:2|0:0,0:0:0:0:
344,48,25623,2,0,B|295:82|295:82|337:211,1,194.249994071961,2|10,1:2|0:2,0:0:0:0:
337,211,26223,5,2,1:2:0:0:
199,123,26373,1,0,1:2:0:0:
443,12,26523,1,10,0:2:0:0:
224,239,26673,6,0,B|172:218|111:247|154:264|96:294|38:272,1,194.249994071961,6|2,1:2|1:2,0:0:0:0:
312,95,27123,1,10,0:2:0:0:
312,95,27423,6,0,L|294:-16,1,97.1249970359803,2|2,1:2|1:2,0:0:0:0:
440,174,27723,1,8,0:0:0:0:
373,354,27873,6,0,B|331:372|295:334|306:296|306:296|327:216,1,194.249994071961,6|2,1:2|1:2,0:0:0:0:
161,90,28323,1,10,0:2:0:0:
161,90,28623,6,0,P|95:75|63:93,1,97.1249970359803,2|2,1:2|1:2,0:0:0:0:
296,0,28923,1,8,0:2:0:0:
112,180,29073,6,0,L|134:323,1,145.68749555397,6|0,1:2|0:0,0:0:0:0:
223,370,29373,2,0,P|238:324|224:279,1,97.1249970359803,2|10,1:2|0:2,0:0:0:0:
17,146,29673,1,0,1:2:0:0:
17,146,29748,1,0,1:2:0:0:
17,146,29823,1,4,0:3:0:0:
102,0,29973,2,0,P|90:64|107:97,1,97.1249970359803,4|8,0:3|0:2,0:0:0:0:
309,224,30273,1,2,1:2:0:0:
309,224,30348,1,0,1:2:0:0:
309,224,30423,6,0,L|404:208,1,97.1249970359803,10|2,0:2|1:2,0:0:0:0:
219,366,30723,2,0,B|203:317|203:317|218:273,1,97.1249970359803,2|8,1:2|0:3,0:0:0:0:
471,283,31023,2,0,B|486:326|486:326|470:375,1,97.1249970359803,2|2,1:2|1:2,0:0:0:0:
345,133,31323,1,8,0:2:0:0:
204,260,31473,6,0,B|133:249|133:249|86:266|86:266|14:255,1,194.249994071961,6|0,1:2|1:2,0:0:0:0:
360,37,31923,2,0,L|339:163,1,97.1249970359803,10|0,0:2|0:0,0:0:0:0:
279,202,32223,1,2,1:2:0:0:
447,94,32373,2,0,B|463:45|463:45|448:1,1,97.1249970359803,0|10,1:2|0:2,0:0:0:0:
279,202,32673,6,0,B|230:236|230:236|271:363,1,194.249994071961,2|0,1:2|1:2,0:0:0:0:
125,209,33123,2,0,B|109:164|109:164|125:117,1,97.1249970359803,10|0,0:2|0:0,0:0:0:0:
38,277,33423,1,2,1:2:0:0:
233,104,33573,1,0,1:2:0:0:
37,53,33723,1,10,0:2:0:0:
270,251,33873,6,0,B|326:245|366:286|366:286|382:237|443:219,1,212.750004057884,6|0,1:2|1:2,0:0:0:0:
282,353,34323,2,0,L|138:330,1,145.68749555397,10|0,0:2|0:0,0:0:0:0:
78,248,34623,2,0,P|121:226|168:235,1,97.1249970359803,2|0,1:2|0:0,0:0:0:0:
342,157,34923,2,0,P|355:112|338:67,1,97.1249970359803,10|0,0:2|0:0,0:0:0:0:
478,365,35223,6,0,B|468:326|437:309|437:309|319:346,1,194.249994071961,2|10,1:2|0:2,0:0:0:0:
319,346,35823,5,2,1:2:0:0:
438,279,35973,1,0,1:2:0:0:
206,201,36123,1,10,0:2:0:0:
299,47,36273,6,0,B|353:31|353:31|423:86|376:165,1,194.249994071961,6|2,1:2|1:2,0:0:0:0:
119,50,36723,1,10,0:2:0:0:
119,50,37023,2,0,L|15:66,1,97.1249970359803,2|2,1:2|1:2,0:0:0:0:
206,201,37323,1,8,0:0:0:0:
115,363,37473,6,0,B|135:310|105:252|88:295|59:234|80:182,1,194.249994071961,6|2,1:2|1:2,0:0:0:0:
315,131,37923,1,10,0:2:0:0:
315,131,38223,5,2,1:2:0:0:
200,71,38373,1,2,1:2:0:0:
321,260,38523,1,8,0:2:0:0:
452,40,38673,6,0,B|461:97|461:97|451:139|451:139|461:203,2,166.499994918823,6|6|0,1:2|1:2|1:2,0:0:0:0:
315,131,39423,1,12,0:2:0:0:
20,104,39873,6,0,P|82:53|169:67,1,166.499994918823,6|8,1:2|0:2,0:0:0:0:
114,168,40323,1,4,0:3:0:0:
114,168,40623,5,10,0:2:0:0:
279,0,40773,1,10,0:2:0:0:
320,143,40923,1,4,0:3:0:0:
73,25,41073,1,8,0:2:0:0:
225,222,41223,6,0,L|214:285,1,64.7499980239869,4|0,1:2|1:2,0:0:0:0:
319,348,41523,2,0,P|365:310|441:326,2,129.499996047974,8|8|10,0:2|0:2|0:2,0:0:0:0:
319,348,42273,1,2,0:0:0:0:
228,383,42423,2,0,L|164:372,1,64.7499980239869,10|0,0:2|0:0,0:0:0:0:
17,333,42723,1,10,0:2:0:0:
17,333,42873,2,0,L|80:322,1,64.7499980239869,2|8,0:0|0:2,0:0:0:0:
130,238,43173,1,2,0:0:0:0:
130,238,43323,2,0,L|119:174,1,64.7499980239869,8|2,0:2|0:0,0:0:0:0:
213,60,43623,6,0,L|202:123,1,64.7499980239869,8|0,0:2|1:2,0:0:0:0:
285,174,43923,2,0,B|328:167|328:167|367:185|367:185|408:178,2,129.499996047974,8|8|10,0:2|0:2|0:2,0:0:0:0:
285,174,44673,1,2,0:0:0:0:
377,282,44823,2,0,L|440:271,1,64.7499980239869,10|2,0:2|0:0,0:0:0:0:
298,340,45123,2,0,L|235:329,1,64.7499980239869,10|2,0:2|0:0,0:0:0:0:
137,346,45423,2,0,L|148:283,1,64.7499980239869,10|2,0:2|1:2,0:0:0:0:
42,185,45723,2,0,L|53:248,1,64.7499980239869,8|2,0:2|0:0,0:0:0:0:
192,124,46023,6,0,L|181:187,1,64.7499980239869,8|0,0:2|1:2,0:0:0:0:
289,105,46323,2,0,P|310:37|254:3,2,129.499996047974,8|8|10,0:2|0:2|0:2,0:0:0:0:
289,105,47073,1,2,0:0:0:0:
364,170,47223,2,0,L|491:149,2,129.499996047974,8|8|8,0:2|0:2|0:2,0:0:0:0:
364,170,47973,1,0,1:2:0:0:
300,244,48123,1,10,0:2:0:0:
116,212,48273,6,0,P|162:170|224:177,1,129.499996047974,4|0,1:2|1:2,0:0:0:0:
195,275,48723,1,8,0:2:0:0:
195,275,49023,6,0,L|210:369,1,64.7499980239869,0|0,1:2|1:2,0:0:0:0:
100,369,49323,1,10,0:2:0:0:
300,244,49473,6,0,B|343:251|343:251|382:233|382:233|423:240,1,129.499996047974,4|0,1:2|1:2,0:0:0:0:
212,135,49923,1,8,0:2:0:0:
399,328,50073,1,0,1:2:0:0:
326,80,50223,5,8,0:2:0:0:
285,383,50373,1,0,1:2:0:0:
332,89,50523,1,8,0:2:0:0:
173,280,50673,6,0,B|126:261|71:287|110:302|57:329|5:309,1,175.749995306969,4|0,1:2|1:2,0:0:0:0:
195,384,51123,2,0,L|281:370,1,87.8749976534844,10|0,0:2|0:0,0:0:0:0:
467,350,51423,2,0,L|382:330,1,87.8749976534844,2|0,1:2|1:2,0:0:0:0:
292,172,51723,2,0,P|280:213|294:255,1,87.8749976534844,10|2,0:2|0:2,0:0:0:0:
380,113,52023,5,2,1:2:0:0:
195,219,52173,2,0,P|152:229|112:213,1,87.8749976534844,2|10,1:2|0:2,0:0:0:0:
8,17,52473,2,0,B|52:48|52:48|15:164,1,175.749995306969,2|2,0:2|1:2,0:0:0:0:
21,275,52923,1,8,0:2:0:0:
163,125,53073,6,0,P|234:66|308:100,1,175.749995306969,2|0,1:2|1:2,0:0:0:0:
426,178,53523,2,0,L|520:162,1,87.8749976534844,10|2,0:2|0:2,0:0:0:0:
262,238,53823,1,2,1:2:0:0:
403,77,53973,1,2,1:2:0:0:
496,280,54123,2,0,L|480:374,1,87.8749976534844,10|2,0:2|0:2,0:0:0:0:
262,238,54423,6,0,L|246:143,1,87.8749976534844,2|2,1:2|1:2,0:0:0:0:
369,317,54723,1,10,0:2:0:0:
145,207,54873,2,0,B|116:164|55:158|55:158|31:192|0:196,1,175.749995306969,2|2,0:2|1:2,0:0:0:0:
160,54,55323,1,10,0:2:0:0:
77,261,55473,6,0,B|58:332|58:332|48:367|80:401|118:385,1,175.749995306969,6|0,1:2|1:2,0:0:0:0:
5,150,55923,1,8,0:2:0:0:
5,150,56223,5,0,1:2:0:0:
183,260,56373,1,0,1:2:0:0:
35,357,56523,1,10,0:2:0:0:
127,152,56673,6,0,B|191:161|191:161|233:146|233:146|297:156,1,175.749995306969,2|0,0:2|1:2,0:0:0:0:
69,247,57123,1,8,0:2:0:0:
69,247,57423,5,2,1:2:0:0:
179,80,57573,2,0,P|183:37|147:-10,1,87.8749976534844,0|10,1:2|0:2,0:0:0:0:
339,207,57873,6,0,B|386:188|441:214|402:229|455:256|507:236,1,175.749995306969,6|0,1:2|1:2,0:0:0:0:
284,103,58323,1,10,0:2:0:0:
365,308,58473,1,2,1:2:0:0:
389,56,58623,5,8,0:2:0:0:
250,347,58773,1,2,1:2:0:0:
485,153,58923,1,8,0:2:0:0:
164,52,59073,6,0,L|181:162,1,87.8749976534844,6|8,1:2|0:2,0:0:0:0:
48,220,59373,1,10,0:2:0:0:
48,220,59448,1,8,0:2:0:0:
48,220,59523,2,0,L|0:212,1,43.9374988267422,8|8,0:2|0:2,0:0:0:0:
172,308,59673,1,10,0:2:0:0:
191,281,59748,1,8,0:2:0:0:
219,265,59823,1,8,0:3:0:0:
252,260,59898,1,8,0:3:0:0:
283,269,59973,2,0,L|275:316,1,43.9374988267422,8|8,0:3|0:3,0:0:0:0:
407,357,60123,1,4,0:3:0:0:
407,357,60198,1,4,0:3:0:0:
407,357,60273,2,0,L|455:349,1,43.9374988267422,4|4,0:3|0:3,0:0:0:0:
188,171,60423,6,0,B|196:115|196:115|179:73|179:73|189:9,1,166.499994918823,6|8,1:2|0:2,0:0:0:0:
96,127,60873,1,0,1:2:0:0:
279,62,61023,2,0,P|333:51|377:82,1,83.2499974594117,8|0,0:2|1:2,0:0:0:0:
511,1,61323,2,0,P|472:13|433:1,1,83.2499974594117,8|0,0:2|1:2,0:0:0:0:
319,151,61623,6,0,L|334:245,1,83.2499974594117,8|0,0:2|1:2,0:0:0:0:
186,89,61923,2,0,L|199:6,1,83.2499974594117,8|0,0:2|1:2,0:0:0:0:
71,162,62223,1,8,0:2:0:0:
279,62,62373,1,0,1:2:0:0:
66,157,62523,1,8,0:2:0:0:
261,292,62673,1,0,1:2:0:0:
261,292,62748,1,0,0:0:0:0:
261,292,62823,6,0,L|274:374,1,83.2499974594117,8|0,0:2|1:2,0:0:0:0:
468,192,63123,2,0,L|454:274,1,83.2499974594117,8|0,0:2|1:2,0:0:0:0:
310,112,63423,1,8,0:2:0:0:
369,326,63573,1,0,1:2:0:0:
424,77,63723,1,8,0:2:0:0:
196,147,63873,6,0,B|112:130|117:198|39:181,1,166.499994918823,0|0,1:2|1:2,0:0:0:0:
278,43,64323,2,0,B|322:73|322:73|286:182,1,166.499994918823,8|10,0:2|0:2,0:0:0:0:
213,243,64773,1,0,1:2:0:0:
352,344,64923,2,0,L|339:262,1,83.2499974594117,10|0,0:2|1:2,0:0:0:0:
454,168,65223,6,0,B|390:177|390:177|346:161|346:161|291:169,1,166.499994918823,14|8,0:2|0:2,0:0:0:0:
189,139,65673,1,2,1:2:0:0:
401,0,65823,2,0,P|412:39|397:77,1,83.2499974594117,8|0,0:2|1:2,0:0:0:0:
93,193,66123,6,0,B|200:158|200:158|225:178|230:202,1,166.499994918823,10|8,0:2|0:2,0:0:0:0:
116,86,66573,1,0,1:2:0:0:
197,294,66723,2,0,P|236:305|274:289,1,83.2499974594117,8|0,0:2|1:2,0:0:0:0:
502,373,67023,6,0,P|438:323|359:337,1,166.499994918823,10|10,0:2|0:2,0:0:0:0:
358,337,67473,1,0,1:2:0:0:
229,201,67623,5,10,0:2:0:0:
215,172,67698,1,8,0:3:0:0:
215,141,67773,1,4,0:3:0:0:
229,111,67848,1,4,0:3:0:0:
253,92,67923,2,0,L|293:98,1,41.6249987297059,8|8,0:2|0:3,0:0:0:0:
10,214,68073,1,4,0:3:0:0:
38,194,68148,1,4,0:3:0:0:
79,197,68223,1,8,0:2:0:0:
114,218,68298,1,8,0:2:0:0:
137,253,68373,1,8,0:2:0:0:
160,288,68448,1,8,0:2:0:0:
195,308,68523,1,10,0:2:0:0:
236,312,68598,1,8,0:2:0:0:
274,296,68673,2,0,L|326:303,1,41.6249987297059,4|0,1:2|0:0,0:0:0:0:
66,382,69423,6,0,L|56:319,1,55.4999983062745,2|2,0:2|0:2,0:0:0:0:
373,67,70023,6,0,B|424:124|424:124|373:270,1,212.750004057884,6|8,1:2|0:2,0:0:0:0:
186,104,70473,2,0,L|203:0,1,106.375002028942,2|0,1:2|0:0,0:0:0:0:
293,151,70773,1,0,1:2:0:0:
198,220,70923,6,0,B|141:243|74:211|121:192|58:159|-6:183,1,212.750004057884,10|0,0:2|0:0,0:0:0:0:
305,267,71373,1,2,1:2:0:0:
47,384,71523,2,0,L|30:280,1,106.375002028942,8|0,0:2|0:0,0:0:0:0:
293,151,71823,1,2,1:2:0:0:
140,306,71973,1,2,1:2:0:0:
51,150,72123,2,0,L|68:45,1,106.375002028942,10|0,0:2|0:0,0:0:0:0:
399,198,72423,6,0,B|459:215|459:215|536:155|484:68,1,212.750004057884,2|10,1:2|0:2,0:0:0:0:
203,175,72873,2,0,L|237:384,1,212.750004057884,2|2,1:2|1:2,0:0:0:0:
100,201,73323,2,0,B|80:150|80:150|99:98,1,106.375002028942,10|0,0:2|0:0,0:0:0:0:
329,247,73623,6,0,B|348:296|348:296|330:350,1,106.375002028942,2|0,1:2|1:2,0:0:0:0:
434,194,73923,1,0,0:0:0:0:
224,300,74073,1,8,0:2:0:0:
380,89,74223,2,0,P|436:71|494:99,1,106.375002028942,2|0,1:2|1:2,0:0:0:0:
250,0,74523,2,0,L|266:105,1,106.375002028942,10|0,0:2|0:0,0:0:0:0:
26,262,74823,6,0,B|2:218|38:174|81:182|81:182|171:195,1,212.750004057884,6|10,1:2|0:2,0:0:0:0:
339,296,75273,1,2,0:2:0:0:
287,105,75423,2,0,L|271:211,1,106.375002028942,0|0,1:2|0:0,0:0:0:0:
453,18,75723,2,0,B|370:30|370:30|315:11|315:11|231:23,1,212.750004057884,10|2,0:2|1:2,0:0:0:0:
160,95,76173,1,2,0:2:0:0:
357,186,76323,2,0,P|379:233|363:282,1,106.375002028942,8|0,0:2|0:0,0:0:0:0:
129,205,76623,2,0,P|114:156|137:109,1,106.375002028942,2|0,1:2|1:2,0:0:0:0:
23,265,76923,1,10,0:2:0:0:
226,0,77073,6,0,B|268:11|287:45|287:45|246:174,1,212.750004057884,4|0,1:2|1:2,0:0:0:0:
459,141,77523,1,10,0:2:0:0:
209,268,77673,1,2,1:2:0:0:
507,298,77823,5,8,0:2:0:0:
161,111,77973,1,2,1:2:0:0:
350,363,78123,1,10,0:2:0:0:
120,210,78273,6,0,L|14:226,1,106.375002028942,4|2,1:2|0:2,0:0:0:0:
202,12,78573,1,8,0:2:0:0:
202,12,78648,1,8,0:2:0:0:
202,12,78723,1,8,0:2:0:0:
406,150,78873,2,0,L|458:141,1,53.1875010144711,8|8,0:0|0:0,0:0:0:0:
298,182,79023,1,8,0:3:0:0:
298,182,79098,1,8,0:3:0:0:
298,182,79173,2,0,L|245:173,1,53.1875010144711,8|8,0:3|0:3,0:0:0:0:
375,337,79323,1,4,0:3:0:0:
375,337,79398,1,4,0:3:0:0:
375,337,79473,2,0,L|383:284,1,53.1875010144711,4|4,0:3|0:3,0:0:0:0:
315,50,79623,6,0,B|258:27|191:59|238:78|175:111|111:87,1,212.750004057884,6|8,1:2|0:2,0:0:0:0:
298,182,80073,2,0,L|403:165,1,106.375002028942,2|0,1:2|0:0,0:0:0:0:
187,266,80373,1,0,1:2:0:0:
85,173,80523,6,0,B|34:230|34:230|78:358,1,212.750004057884,10|0,0:2|0:0,0:0:0:0:
196,89,80973,1,2,1:2:0:0:
292,282,81123,2,0,L|187:266,1,106.375002028942,8|0,0:2|0:0,0:0:0:0:
422,226,81423,1,2,1:2:0:0:
182,370,81573,1,2,1:2:0:0:
309,142,81723,1,10,0:2:0:0:
406,366,81873,1,2,0:2:0:0:
178,198,82023,6,0,B|137:69|137:69|156:35|198:24,1,212.750004057884,2|10,1:2|0:2,0:0:0:0:
31,305,82473,2,0,B|110:292|110:292|162:316|162:316|241:304,1,212.750004057884,2|0,1:2|1:2,0:0:0:0:
443,367,82923,2,0,P|390:376|338:384,1,106.375002028942,10|0,0:2|0:0,0:0:0:0:
325,206,83223,6,0,P|377:214|430:222,1,106.375002028942,2|0,1:2|1:2,0:0:0:0:
256,126,83523,1,0,0:0:0:0:
379,296,83673,1,8,0:2:0:0:
431,93,83823,1,2,1:2:0:0:
204,329,83973,2,0,B|150:340|150:340|105:316,1,106.375002028942,2|8,1:2|0:2,0:0:0:0:
305,379,84273,1,2,0:2:0:0:
167,240,84423,6,0,B|204:122|204:122|187:91|148:81,2,194.249994071961,4|10|2,1:2|0:2|1:2,0:0:0:0:
167,240,85323,1,10,0:2:0:0:
302,131,85473,1,2,0:2:0:0:
302,131,85623,2,0,B|353:110|413:139|371:156|427:185|485:164,2,194.249994071961,0|10|2,1:2|0:2|1:2,0:0:0:0:
452,67,86373,1,2,1:2:0:0:
331,227,86523,1,10,0:2:0:0:
113,64,86673,6,0,B|169:58|209:99|209:99|225:50|286:32,1,212.750004057884,6|0,1:2|1:2,0:0:0:0:
159,268,87123,1,8,0:2:0:0:
302,131,87273,1,0,1:2:0:0:
270,351,87423,5,8,0:2:0:0:
191,48,87573,1,0,1:2:0:0:
400,304,87723,1,10,0:2:0:0:
423,65,87873,6,0,B|363:48|363:48|286:108|338:195,2,212.750004057884,6|6|6,1:2|1:2|1:2,0:0:0:0:
423,65,88773,5,0,1:2:0:0:
267,241,88923,1,8,0:2:0:0:
404,295,89073,1,0,1:2:0:0:
286,11,89223,1,4,1:2:0:0:
132,300,91023,6,0,L|26:283,1,87.8749976534844,8|0,0:2|0:0,0:0:0:0:
219,383,91323,1,0,1:2:0:0:
98,182,91473,2,0,B|61:66|61:66|105:35,1,175.749995306969,4|0,1:2|1:2,0:0:0:0:
248,267,91923,1,12,0:2:0:0:
248,267,92223,6,0,L|291:260,1,43.9374988267422,8|4,0:2|0:3,0:0:0:0:
450,233,92448,6,0,L|406:226,1,43.9374988267422,8|4,0:2|0:3,0:0:0:0:
324,1,92673,6,0,B|288:81|288:81|324:161,1,175.749995306969,4|0,1:2|1:2,0:0:0:0:
130,321,93123,1,8,0:2:0:0:
130,321,93423,6,0,L|66:310,2,58.5833317689896,8|8|8,0:3|0:2|0:2,0:0:0:0:
446,84,94023,6,0,B|380:46|319:97|319:97|340:230|340:230|331:237|331:237|351:361,1,398.119988214832,0|0,1:2|0:0,0:0:0:0:
237,133,103023,5,8,0:2:0:0:
345,64,103173,1,0,0:0:0:0:
151,36,103323,1,8,0:2:0:0:
349,192,103473,6,0,B|396:173|451:199|412:214|465:241|517:221,1,175.749995306969,4|0,1:2|1:2,0:0:0:0:
353,320,103923,1,10,0:2:0:0:
353,320,104223,6,0,L|266:306,1,87.8749976534844,2|0,1:2|1:2,0:0:0:0:
70,247,104523,2,0,L|157:233,1,87.8749976534844,10|0,0:2|0:0,0:0:0:0:
160,350,104823,5,2,1:2:0:0:
261,191,104973,2,0,P|269:148|253:108,1,87.8749976534844,2|10,1:2|0:2,0:0:0:0:
364,236,105273,2,0,B|468:202|468:202|497:219|506:254,1,175.749995306969,2|2,0:2|1:2,0:0:0:0:
352,125,105723,1,8,0:2:0:0:
273,302,105873,6,0,B|209:293|209:293|167:308|167:308|103:298,1,175.749995306969,6|0,1:2|1:2,0:0:0:0:
53,94,106323,2,0,B|107:78|107:78|177:133|130:212,2,194.249994071961,10|2|10,0:2|1:2|0:2,0:0:0:0:
471,149,107223,2,0,L|376:165,1,97.1249970359803,2|2,1:2|0:2,0:0:0:0:
279,345,107523,2,0,L|263:249,1,97.1249970359803,10|2,0:2|0:2,0:0:0:0:
155,102,107823,1,2,1:2:0:0:
347,243,107973,1,10,0:2:0:0:
128,338,108123,1,10,0:2:0:0:
298,103,108273,6,0,B|345:84|400:110|361:125|414:152|466:132,1,175.749995306969,6|0,1:2|1:2,0:0:0:0:
213,232,108723,1,0,1:2:0:0:
512,76,109023,6,0,L|491:206,1,131.812496480227,12|0,0:2|0:0,0:0:0:0:
422,257,109323,2,0,P|405:218|410:174,1,87.8749976534844,2|2,0:2|0:2,0:0:0:0:
260,353,109623,2,0,B|289:310|350:304|350:304|374:338|405:342,1,175.749995306969,0|0,1:2|1:2,0:0:0:0:
405,342,110073,1,0,1:2:0:0:
216,235,110223,1,10,0:2:0:0:
336,132,110373,2,0,L|323:219,1,87.8749976534844,0|2,1:2|0:2,0:0:0:0:
15,84,110673,6,0,B|79:75|79:75|121:90|121:90|186:79,1,175.749995306969,6|0,1:2|1:2,0:0:0:0:
297,2,111123,1,10,0:2:0:0:
224,201,111273,2,0,B|180:232|180:232|217:348,1,175.749995306969,2|2,0:2|1:2,0:0:0:0:
93,268,111723,1,8,0:2:0:0:
346,287,111873,6,0,B|452:320|452:320|479:304|488:269,2,175.749995306969,6|6|6,1:2|1:2|1:2,0:0:0:0:
346,287,112773,1,0,1:2:0:0:
388,98,112923,2,0,L|402:185,1,87.8749976534844,10|0,0:2|0:0,0:0:0:0:
236,328,113223,5,8,0:3:0:0:
236,328,113373,2,0,B|193:345|144:321|179:308|131:283|89:300,1,157.250002999306,8|0,0:3|1:2,0:0:0:0:
218,229,113823,1,8,0:2:0:0:
106,122,113973,2,0,L|119:200,1,78.6250014996529,8|0,0:3|1:2,0:0:0:0:
320,100,114273,2,0,L|303:202,1,78.6250014996529,8|0,0:3|1:2,0:0:0:0:
320,100,114873,2,0,L|303:202,1,78.6250014996529,0|8,1:2|0:2,0:0:0:0:
384,249,115173,1,0,1:2:0:0:
51,39,115623,5,8,0:3:0:0:
51,39,115773,2,0,B|114:30|114:30|155:44|155:44|220:34,1,157.250002999306,8|0,0:3|1:2,0:0:0:0:
102,138,116223,1,8,0:2:0:0:
204,240,116373,2,0,L|281:227,1,78.6250014996529,8|0,0:3|0:0,0:0:0:0:
451,338,116673,2,0,L|373:325,1,78.6250014996529,8|0,0:3|0:0,0:0:0:0:
373,325,117123,5,0,1:2:0:0:
244,356,117273,1,0,1:2:0:0:
411,196,117423,1,8,0:2:0:0:
410,196,117723,2,0,P|420:158|406:122,1,78.6250014996529,0|8,1:2|0:2,0:0:0:0:
221,53,118023,6,0,L|239:171,1,87.8749976534844,4|0,1:2|1:2,0:0:0:0:
353,7,118323,1,8,0:2:0:0:
297,245,118473,2,0,L|210:231,1,87.8749976534844,0|8,1:2|0:2,0:0:0:0:
40,293,118773,2,0,L|126:279,1,87.8749976534844,0|8,1:2|0:2,0:0:0:0:
267,153,119073,1,0,1:2:0:0:
209,328,119223,5,8,0:2:0:0:
127,181,119373,1,0,1:2:0:0:
367,323,119523,2,0,L|453:309,1,87.8749976534844,8|0,0:2|1:2,0:0:0:0:
267,153,119823,2,0,L|235:234,1,87.8749976534844,8|0,0:2|1:2,0:0:0:0:
464,151,120123,2,0,L|409:82,1,87.8749976534844,8|0,0:2|1:2,0:0:0:0:
365,208,120423,5,0,1:2:0:0:
306,47,120573,1,0,1:2:0:0:
512,255,120723,1,0,1:2:0:0:
267,153,120873,1,2,1:2:0:0:
455,17,121023,1,0,1:2:0:0:
228,259,121173,1,0,1:2:0:0:
83,85,121323,1,2,1:2:0:0:
326,314,121473,1,0,1:2:0:0:
3,235,121623,5,8,0:2:0:0:
31,255,121698,1,0,1:2:0:0:
72,252,121773,1,0,1:2:0:0:
107,231,121848,1,0,1:2:0:0:
130,196,121923,1,8,0:2:0:0:
153,161,121998,1,0,1:2:0:0:
188,141,122073,1,0,1:2:0:0:
229,137,122148,1,0,1:2:0:0:
267,153,122223,6,0,L|274:208,1,55.4999983062745,6|2,1:2|0:2,0:0:0:0:
488,63,122823,6,0,B|432:57|392:98|392:98|376:49|315:31,1,212.750004057884,6|10,1:2|0:2,0:0:0:0:
130,196,123273,2,0,L|146:90,1,106.375002028942,2|0,1:2|0:0,0:0:0:0:
26,243,123573,1,0,1:2:0:0:
118,309,123723,6,0,B|197:296|197:296|249:320|249:320|328:308,1,212.750004057884,10|2,0:2|0:2,0:0:0:0:
415,374,124173,1,2,1:2:0:0:
265,199,124323,2,0,B|245:148|245:148|262:99,1,106.375002028942,8|0,0:2|0:0,0:0:0:0:
329,25,124623,1,2,1:2:0:0:
158,150,124773,1,2,1:2:0:0:
384,217,124923,2,0,L|489:200,1,106.375002028942,10|2,0:2|0:2,0:0:0:0:
277,333,125223,6,0,B|170:292|170:292|114:310|129:369,1,212.750004057884,2|10,1:2|0:2,0:0:0:0:
19,50,125673,2,0,B|85:37|128:76|102:106|140:147|199:134,1,212.750004057884,2|2,1:2|1:2,0:0:0:0:
317,111,126123,2,0,P|348:71|328:24,1,106.375002028942,10|0,0:2|0:0,0:0:0:0:
67,179,126423,2,0,P|35:218|55:265,1,106.375002028942,2|0,1:2|1:2,0:0:0:0:
287,134,126723,1,0,0:0:0:0:
131,231,126873,1,8,0:2:0:0:
235,363,127023,2,0,L|340:353,1,106.375002028942,2|0,1:2|1:2,0:0:0:0:
446,155,127323,2,0,L|430:260,1,106.375002028942,10|0,0:2|0:0,0:0:0:0:
287,134,127623,6,0,B|214:116|214:116|187:66|187:66|99:45,1,212.750004057884,6|10,1:2|0:2,0:0:0:0:
345,261,128073,1,2,0:2:0:0:
131,231,128223,2,0,L|147:336,1,106.375002028942,0|0,1:2|0:0,0:0:0:0:
450,346,128523,2,0,B|493:277|493:277|446:155,1,212.750004057884,10|2,0:2|1:2,0:0:0:0:
272,42,128973,1,2,0:2:0:0:
256,201,129123,2,0,P|306:211|350:183,1,106.375002028942,8|0,0:2|0:0,0:0:0:0:
142,40,129423,2,0,P|91:29|47:57,1,106.375002028942,2|0,1:2|1:2,0:0:0:0:
174,138,129723,1,10,0:2:0:0:
112,368,129873,6,0,B|67:366|50:323|50:323|94:196,1,212.750004057884,4|0,1:2|1:2,0:0:0:0:
378,105,130323,1,10,0:2:0:0:
217,289,130473,1,2,1:2:0:0:
181,53,130623,1,10,0:2:0:0:
397,305,130773,1,2,1:2:0:0:
302,0,130923,1,10,0:2:0:0:
93,200,131073,6,0,B|42:218|42:218|0:188,1,106.375002028942,4|2,1:2|0:2,0:0:0:0:
181,53,131373,1,8,0:2:0:0:
181,53,131448,1,8,0:2:0:0:
181,53,131523,1,8,0:2:0:0:
260,155,131673,6,0,L|251:207,1,53.1875010144711,8|8,0:2|0:2,0:0:0:0:
151,320,131823,1,8,0:3:0:0:
151,320,131898,1,8,0:3:0:0:
151,320,131973,2,0,L|160:268,1,53.1875010144711,8|8,0:3|0:3,0:0:0:0:
344,168,132123,1,4,0:3:0:0:
344,168,132198,1,4,0:3:0:0:
344,168,132273,2,0,L|335:220,1,53.1875010144711,4|4,0:3|0:3,0:0:0:0:
399,359,132423,6,0,B|459:340|459:340|501:263|429:208,1,212.750004057884,6|10,1:2|0:2,0:0:0:0:
248,237,132873,2,0,L|266:341,1,106.375002028942,2|0,1:2|0:0,0:0:0:0:
344,168,133173,1,0,1:2:0:0:
264,60,133323,6,0,B|201:40|149:71|176:100|130:138|68:118,1,212.750004057884,10|2,0:2|0:2,0:0:0:0:
248,237,133773,1,2,1:2:0:0:
82,374,133923,2,0,P|69:323|101:283,1,106.375002028942,8|0,0:2|0:0,0:0:0:0:
74,119,134223,1,2,1:2:0:0:
181,304,134373,1,2,1:2:0:0:
264,60,134523,1,10,0:2:0:0:
101,283,134673,1,2,0:2:0:0:
323,152,134823,6,0,B|377:116|377:116|464:152,1,159.562503043413,2|0,1:2|0:0,0:0:0:0:
464,152,135123,1,10,0:2:0:0:
366,360,135273,2,0,B|390:228|390:228|365:268|321:269,1,212.750004057884,2|2,1:2|1:2,0:0:0:0:
238,37,135723,2,0,P|228:89|219:141,1,106.375002028942,10|0,0:2|0:0,0:0:0:0:
72,336,136023,2,0,P|62:283|53:231,1,106.375002028942,2|0,1:2|1:2,0:0:0:0:
81,87,136323,5,0,0:0:0:0:
185,246,136473,1,8,0:2:0:0:
342,116,136623,1,2,1:2:0:0:
474,268,136773,2,0,B|422:278|422:278|378:246,1,106.375002028942,2|8,1:2|0:2,0:0:0:0:
254,124,137073,1,2,0:2:0:0:
290,381,137223,6,0,B|324:332|319:277|285:296|273:241|306:199,2,194.249994071961,4|10|2,1:2|0:2|1:2,0:0:0:0:
290,381,138123,1,10,0:2:0:0:
194,276,138273,1,2,0:2:0:0:
193,275,138423,2,0,P|102:284|72:371,2,194.249994071961,0|10|2,1:2|0:2|1:2,0:0:0:0:
339,108,139173,1,2,1:2:0:0:
201,133,139323,1,10,0:2:0:0:
342,275,139473,6,0,B|378:211|465:228|465:228|434:247|428:283,1,194.249994071961,6|0,1:2|1:2,0:0:0:0:
250,26,139923,1,8,0:2:0:0:
193,275,140073,1,0,1:2:0:0:
371,104,140223,1,8,0:2:0:0:
117,114,140373,1,0,1:2:0:0:
342,275,140523,1,10,0:2:0:0:
85,380,140673,6,0,P|60:315|111:269,1,145.68749555397,6|0,1:2|0:0,0:0:0:0:
193,275,140973,2,0,B|276:282|244:335|324:345,1,145.68749555397,6|0,1:2|0:0,0:0:0:0:
420,295,141273,2,0,B|435:255|464:234|464:234|422:190|415:128,1,194.249994071961,6|0,1:2|1:2,0:0:0:0:
285,95,141723,1,8,0:2:0:0:
447,22,141873,1,0,1:2:0:0:
329,207,142023,6,0,B|258:162|189:213|218:246|166:315|72:300|32:243|15:168|54:116|126:110|148:158,1,453.249986167908,4|0,1:2|0:0,0:0:0:0:
8,51,151623,6,0,P|65:44|106:86,1,120.249994495392,2|0,0:2|0:0,0:0:0:0:
169,161,152073,2,0,P|156:219|144:278,1,120.249994495392,2|0,0:2|0:0,0:0:0:0:
73,367,152523,2,0,B|33:315|33:315|54:203,1,180.374991743088,2|0,0:2|0:0,0:0:0:0:
54,202,153423,2,0,P|82:210|112:216,1,60.1249972476961,2|0,0:2|0:0,0:0:0:0:
157,293,153723,2,0,P|185:284|215:278,1,60.1249972476961,2|0,0:2|0:0,0:0:0:0:
303,346,154023,6,0,P|336:299|319:243,1,120.249994495392,2|0,0:2|0:0,0:0:0:0:
354,138,154473,2,0,P|295:153|236:162,1,120.249994495392,2|0,0:2|0:0,0:0:0:0:
406,219,154923,2,0,P|463:216|501:260,1,120.249994495392,2|0,0:2|0:0,0:0:0:0:
500,259,155523,2,0,P|488:232|486:202,1,60.1249972476961,2|0,0:2|0:0,0:0:0:0:
451,94,155823,2,0,P|452:64|465:36,1,60.1249972476961,2|0,0:2|0:0,0:0:0:0:
354,138,156123,2,0,P|326:125|296:123,1,60.1249972476961,2|0,0:2|0:0,0:0:0:0:
208,55,156423,6,0,B|169:101|169:101|189:157,1,120.249994495392,2|0,0:2|0:0,0:0:0:0:
158,239,156873,2,0,P|198:197|256:205,1,120.249994495392,2|0,0:2|0:0,0:0:0:0:
306,302,157323,2,0,B|370:310|353:346|413:353,1,120.249994495392,2|0,0:2|0:0,0:0:0:0:
474,261,157773,2,0,B|415:241|415:241|379:286,1,120.249994495392
297,383,158223,2,0,P|269:376|245:358,1,60.1249972476961,2|0,0:2|0:0,0:0:0:0:
161,346,158523,2,0,P|145:320|141:290,1,60.1249972476961,2|0,0:2|0:0,0:0:0:0:
66,237,158823,6,0,P|97:189|154:194,1,120.249994495392,2|0,0:2|0:0,0:0:0:0:
275,63,159273,2,0,P|243:110|186:105,1,120.249994495392,2|0,0:2|0:0,0:0:0:0:
84,158,159723,2,0,B|109:47|109:47|84:77|53:81,1,180.374991743088,2|0,0:2|0:0,0:0:0:0:
54,80,160623,2,0,P|73:58|102:53,1,60.1249972476961,2|0,0:2|0:0,0:0:0:0:
84,158,160923,2,0,P|76:187|69:216,1,60.1249972476961,2|0,0:2|0:0,0:0:0:0:
7,299,161223,6,0,B|57:309|57:309|73:327|73:327|123:337,1,120.249994495392,2|0,0:2|0:0,0:0:0:0:
192,384,161673,2,0,P|221:334|193:284,1,120.249994495392,2|0,0:2|0:0,0:0:0:0:
200,194,162123,2,0,P|256:213|315:226,1,120.249994495392,2|0,0:2|0:0,0:0:0:0:
399,184,162573,1,0,0:0:0:0:
399,183,163023,2,0,P|402:153|411:124,1,60.1249972476961,2|0,0:2|0:0,0:0:0:0:
345,75,163323,2,0,P|353:46|357:16,1,60.1249972476961,2|0,0:2|0:0,0:0:0:0:
477,173,163623,6,0,P|520:211|512:269,1,120.249994495392,2|0,0:2|0:0,0:0:0:0:
455,345,164073,2,0,B|390:337|395:379|337:367,1,120.249994495392,2|0,0:2|0:0,0:0:0:0:
239,384,164523,2,0,P|252:325|261:266,1,120.249994495392,2|0,0:2|0:0,0:0:0:0:
198,193,164973,2,0,P|138:202|80:215,1,120.249994495392
0,176,165423,2,0,P|0:147|15:121,1,60.1249972476961,2|0,0:2|0:0,0:0:0:0:
126,62,165723,2,0,P|125:91|110:117,1,60.1249972476961,2|0,0:2|0:0,0:0:0:0:
44,287,166023,6,0,P|88:249|145:260,1,120.249994495392,2|0,0:2|0:0,0:0:0:0:
198,193,166473,2,0,P|235:237|224:294,1,120.249994495392,2|0,0:2|0:0,0:0:0:0:
350,384,166923,2,0,P|312:339|323:282,1,120.249994495392,2|0,0:2|0:0,0:0:0:0:
351,191,167373,2,0,P|407:212|465:227,1,120.249994495392
449,145,167823,1,2,0:2:0:0:
425,64,168123,1,2,0:2:0:0:
306,80,168423,6,0,P|249:101|191:116,1,120.249994495392,2|0,0:2|0:0,0:0:0:0:
109,148,168873,2,0,P|98:90|137:47,1,120.249994495392,2|0,0:2|0:0,0:0:0:0:
224,198,169323,2,0,P|234:255|195:298,1,120.249994495392,2|0,0:2|0:0,0:0:0:0:
115,379,169773,2,0,P|105:319|94:260,1,120.249994495392
195,298,170223,2,0,P|224:303|249:319,1,60.1249972476961,2|0,0:2|0:0,0:0:0:0:
313,255,170523,2,0,P|329:279|336:309,1,60.1249972476961,2|0,0:2|0:0,0:0:0:0:
493,146,170823,6,0,P|458:216|451:294,1,157.250002999306,4|8,1:2|0:2,0:0:0:0:
365,177,171273,2,0,P|332:156|293:161,1,78.6250014996529,0|0,0:0|1:2,0:0:0:0:
137,247,171573,1,8,0:2:0:0:
193,321,171723,2,0,B|232:255|232:255|201:180,1,157.250002999306,0|0,1:2|1:2,0:0:0:0:
134,58,172173,2,0,P|113:90|118:129,1,78.6250014996529,0|0,0:0|1:2,0:0:0:0:
300,309,172623,6,0,P|320:276|315:237,1,78.6250014996529,8|0,0:2|0:0,0:0:0:0:
331,88,172923,2,0,P|292:95|253:100,1,78.6250014996529,0|0,1:2|0:0,0:0:0:0:
437,33,173223,2,0,B|420:99|420:99|426:123|426:123|406:184,1,157.250002999306,0|8,1:2|0:2,0:0:0:0:
435,280,173673,2,0,P|388:221|315:237,1,157.250002999306,0|8,0:0|0:2,0:0:0:0:
191,337,174123,6,0,L|269:329,1,78.6250014996529,0|0,1:2|0:0,0:0:0:0:
254,168,174423,2,0,L|175:175,1,78.6250014996529,0|0,1:2|0:0,0:0:0:0:
89,205,174723,2,0,B|74:170|74:170|95:134,1,78.6250014996529,0|0,1:2|0:0,0:0:0:0:
197,267,175023,2,0,B|212:302|212:302|190:337,1,78.6250014996529,8|0,0:2|0:0,0:0:0:0:
85,383,175323,2,0,P|93:345|99:306,1,78.6250014996529,0|0,1:2|0:0,0:0:0:0:
292,311,175623,6,0,B|372:290|372:290|417:305|406:353,1,157.250002999306,4|8,1:2|0:2,0:0:0:0:
483,230,176073,2,0,P|501:195|493:157,1,78.6250014996529,0|0,0:0|1:2,0:0:0:0:
512,55,176373,1,8,0:2:0:0:
395,149,176523,6,0,B|344:136|344:136|317:99|317:99|256:85,1,157.250002999306,0|0,1:2|1:2,0:0:0:0:
150,196,176973,1,0,0:0:0:0:
242,251,177123,2,0,L|231:173,1,78.6250014996529,0|0,1:2|0:0,0:0:0:0:
51,143,177423,2,0,L|61:220,1,78.6250014996529,8|0,0:2|0:0,0:0:0:0:
50,361,177723,2,0,P|89:366|122:346,1,78.6250014996529,0|0,1:2|0:0,0:0:0:0:
360,300,178023,6,0,P|315:239|241:250,1,157.250002999306,0|8,1:2|0:2,0:0:0:0:
191,102,178473,2,0,P|229:109|268:114,1,78.6250014996529,0|0,0:0|1:2,0:0:0:0:
339,204,178773,1,8,0:2:0:0:
433,140,178923,2,0,P|457:69|405:16,1,157.250002999306,0|0,1:2|1:2,0:0:0:0:
339,204,179373,1,0,0:0:0:0:
403,297,179523,2,0,P|441:301|474:281,1,78.6250014996529,4|0,1:2|0:0,0:0:0:0:
253,156,179823,6,0,P|214:151|181:171,1,78.6250014996529,0|8,1:2|0:3,0:0:0:0:
53,208,180123,1,4,0:3:0:0:
196,323,180273,1,8,0:2:0:0:
103,364,180423,6,0,P|118:306|129:248,1,117.937502249479,4|0,1:2|0:0,0:0:0:0:
129,248,180723,1,0,1:2:0:0:
156,55,180873,2,0,P|81:52|51:120,1,157.250002999306,8|0,0:2|0:0,0:0:0:0:
253,155,181323,2,0,P|309:140|368:136,1,117.937502249479,0|0,1:2|0:0,0:0:0:0:
368,136,181623,5,0,1:2:0:0:
293,53,181773,1,8,0:2:0:0:
433,196,181923,2,0,P|456:164|455:125,1,78.6250014996529,0|0,1:2|0:0,0:0:0:0:
325,224,182223,2,0,P|302:255|303:294,1,78.6250014996529,0|0,1:2|0:0,0:0:0:0:
364,384,182523,1,0,1:2:0:0:
364,384,182673,1,8,0:2:0:0:
228,246,182823,6,0,P|170:259|112:268,1,117.937502249479,0|0,1:2|0:0,0:0:0:0:
112,268,183123,1,0,1:2:0:0:
0,130,183273,2,0,P|76:147|154:159,1,157.250002999306,8|0,0:2|0:0,0:0:0:0:
246,98,183723,2,0,P|262:43|227:0,1,117.937502249479,0|0,1:2|0:0,0:0:0:0:
227,0,184023,5,0,1:2:0:0:
338,153,184173,1,8,0:2:0:0:
338,153,184323,2,0,P|326:190|318:229,1,78.6250014996529,0|0,1:2|0:0,0:0:0:0:
186,332,184623,2,0,P|215:307|253:306,1,78.6250014996529,8|0,0:2|0:0,0:0:0:0:
422,349,184923,2,0,P|383:348|354:323,1,78.6250014996529,0|8,1:2|0:2,0:0:0:0:
195,232,185223,6,0,P|208:174|219:116,1,117.937502249479,4|0,1:2|0:0,0:0:0:0:
219,116,185523,1,0,1:2:0:0:
86,147,185673,1,8,0:2:0:0:
161,0,185823,2,0,P|151:38|143:76,1,78.6250014996529,0|0,1:2|0:0,0:0:0:0:
57,336,186123,6,0,P|44:278|31:220,1,117.937502249479,8|0,0:2|0:0,0:0:0:0:
31,220,186423,1,0,1:2:0:0:
147,313,186573,1,8,0:2:0:0:
244,219,186723,2,0,P|252:180|261:142,1,78.6250014996529,0|0,1:2|0:0,0:0:0:0:
428,124,187023,6,0,P|419:85|410:47,1,78.6250014996529,8|0,0:2|0:0,0:0:0:0:
356,203,187323,1,0,1:2:0:0:
451,271,187473,1,8,0:2:0:0:
377,368,187623,2,0,P|338:359|300:350,1,78.6250014996529,4|0,1:2|0:0,0:0:0:0:
170,373,187923,1,8,1:2:0:0:
151,353,187998,1,8,0:2:0:0:
143,327,188073,1,8,0:2:0:0:
147,300,188148,1,8,0:2:0:0:
163,278,188223,6,0,L|173:321,3,39.3125007498264,8|8|8|8,1:2|0:2|0:2|0:2,0:0:0:0:
244,219,188523,2,0,L|254:262,3,39.3125007498264,8|8|8|8,1:2|0:2|0:2|0:2,0:0:0:0:
72,201,188823,5,8,1:2:0:0:
72,201,188898,1,8,0:2:0:0:
72,201,188973,2,0,L|82:244,1,39.3125007498264,8|8,0:2|0:2,0:0:0:0:
153,142,189123,1,8,1:2:0:0:
153,142,189198,1,8,0:2:0:0:
153,142,189273,2,0,L|163:185,1,39.3125007498264,8|8,0:2|0:2,0:0:0:0:
227,78,189423,1,0,1:2:0:0:
312,160,189573,5,8,0:2:0:0:
312,160,189648,1,8,0:2:0:0:
312,160,189723,2,0,L|350:150,1,39.3125007498264,0|8,1:2|0:2,0:0:0:0:
440,217,189873,2,0,L|401:226,1,39.3125007498264,8|8,0:2|0:2,0:0:0:0:
357,310,190023,5,0,1:2:0:0:
256,192,190098,12,2,193623,0:2:0:0:
29,44,200673,5,2,1:2:0:0:
29,44,200748,1,0,1:2:0:0:
29,44,200823,2,0,B|88:21|88:21|151:80|86:147,1,194.249994071961,14|2,0:0|1:2,0:0:0:0:
125,241,201273,2,0,P|77:230|29:224,1,97.1249970359803,14|2,0:2|1:2,0:0:0:0:
95,136,201573,1,2,0:2:0:0:
212,289,201723,2,0,P|225:334|205:377,1,97.1249970359803,14|0,0:2|0:0,0:0:0:0:
265,207,202023,5,10,0:2:0:0:
293,189,202098,1,0,1:2:0:0:
327,185,202173,1,0,1:2:0:0:
358,197,202248,1,0,1:2:0:0:
385,222,202323,5,10,0:2:0:0:
385,222,202398,1,0,1:2:0:0:
385,222,202473,2,0,L|369:268,1,48.5624985179902,0|0,1:2|1:2,0:0:0:0:
490,172,202623,1,8,0:2:0:0:
490,172,202698,1,0,1:2:0:0:
490,172,202773,2,0,L|474:218,1,48.5624985179902,0|0,1:2|1:2,0:0:0:0:
394,116,202923,1,8,0:2:0:0:
473,49,203073,5,0,1:2:0:0:
473,49,203148,1,0,1:2:0:0:
473,49,203223,1,8,0:2:0:0:
265,207,203373,1,8,0:2:0:0:
473,49,203523,1,0,1:2:0:0:
310,0,203673,5,8,0:2:0:0:
454,292,203823,1,8,0:2:0:0:
246,72,203973,1,0,1:2:0:0:
137,331,204123,1,8,0:2:0:0:
327,134,204273,5,0,1:2:0:0:
327,134,204348,1,0,1:2:0:0:
327,134,204423,1,14,0:2:0:0:
327,134,205023,6,0,L|314:188,1,55.4999983062745,2|2,0:2|0:2,0:0:0:0:
67,384,205623,6,0,B|50:312|50:312|74:262|74:262|56:180,1,212.750004057884,6|8,1:2|0:2,0:0:0:0:
175,7,206073,2,0,P|208:47|196:97,1,106.375002028942,2|0,1:2|0:0,0:0:0:0:
93,74,206373,1,0,1:2:0:0:
232,199,206523,6,0,B|287:216|338:179|304:156|358:111|427:130,1,212.750004057884,10|0,0:2|0:0,0:0:0:0:
299,290,206973,1,2,1:2:0:0:
129,377,207123,2,0,L|146:273,1,106.375002028942,8|0,0:2|0:0,0:0:0:0:
291,48,207423,1,2,1:2:0:0:
135,153,207573,1,2,1:2:0:0:
298,289,207723,2,0,P|347:307|390:278,1,106.375002028942,10|0,0:2|0:0,0:0:0:0:
457,46,208023,6,0,B|497:89|497:89|467:179|376:144,1,212.750004057884,2|10,1:2|0:2,0:0:0:0:
75,92,208473,2,0,B|143:84|188:122|164:144|193:179|275:165,1,212.750004057884,2|2,1:2|1:2,0:0:0:0:
86,303,208923,2,0,B|64:253|64:253|88:207,1,106.375002028942,10|0,0:2|0:0,0:0:0:0:
311,7,209223,6,0,B|333:57|333:57|308:102,1,106.375002028942,2|0,1:2|1:2,0:0:0:0:
307,276,209523,1,0,0:0:0:0:
185,119,209673,1,8,0:2:0:0:
392,122,209823,2,0,P|423:162|415:213,1,106.375002028942,2|0,1:2|1:2,0:0:0:0:
222,355,210123,2,0,P|190:314|198:263,1,106.375002028942,10|0,0:2|0:0,0:0:0:0:
33,170,210423,6,0,B|15:124|53:86|99:96|99:96|187:119,1,212.750004057884,6|10,1:2|0:2,0:0:0:0:
307,276,210873,1,2,1:2:0:0:
69,375,211023,2,0,L|88:270,1,106.375002028942,0|0,0:0|1:2,0:0:0:0:
289,158,211323,6,0,B|404:121|404:121|424:168|481:178,1,212.750004057884,10|2,0:2|0:2,0:0:0:0:
184,118,211773,1,2,1:2:0:0:
369,228,211923,2,0,P|391:275|375:324,1,106.375002028942,8|0,0:2|0:0,0:0:0:0:
99,156,212223,2,0,P|84:107|107:60,1,106.375002028942,2|0,1:2|1:2,0:0:0:0:
3,273,212523,1,10,0:2:0:0:
121,355,212673,6,0,B|191:343|191:343|230:295|230:295|308:282,1,212.750004057884,4|0,1:2|1:2,0:0:0:0:
453,128,213123,1,10,0:2:0:0:
280,374,213273,1,2,1:2:0:0:
281,96,213423,5,8,0:2:0:0:
461,384,213573,1,2,1:2:0:0:
381,28,213723,1,10,0:2:0:0:
224,267,213873,6,0,B|170:277|170:277|128:246,1,106.375002028942,4|2,1:2|0:2,0:0:0:0:
281,96,214173,1,8,0:2:0:0:
281,96,214248,1,8,0:2:0:0:
281,96,214323,1,8,0:2:0:0:
372,224,214473,6,0,L|320:213,1,53.1875010144711,8|8,0:0|0:0,0:0:0:0:
184,89,214623,1,8,0:3:0:0:
184,89,214698,1,8,0:3:0:0:
183,88,214773,2,0,P|183:61|196:39,1,53.1875010144711,8|8,0:3|0:3,0:0:0:0:
374,93,214923,1,4,0:3:0:0:
374,93,214998,1,4,0:3:0:0:
374,93,215073,2,0,P|373:119|360:141,1,53.1875010144711,4|4,0:3|0:3,0:0:0:0:
100,332,215223,6,0,P|44:248|96:162,1,212.750004057884,6|8,1:2|0:2,0:0:0:0:
223,280,215673,2,0,L|204:384,1,106.375002028942,2|0,1:2|0:0,0:0:0:0:
135,245,215973,1,0,1:2:0:0:
360,141,216123,6,0,B|431:183|431:183|380:303,1,212.750004057884,10|0,0:2|0:0,0:0:0:0:
442,84,216573,1,2,1:2:0:0:
286,204,216723,2,0,P|256:161|268:111,1,106.375002028942,8|0,0:2|0:0,0:0:0:0:
431,183,217023,1,2,1:2:0:0:
268,320,217173,1,2,1:2:0:0:
347,62,217323,1,10,0:2:0:0:
380,303,217473,1,2,0:2:0:0:
185,62,217623,6,0,B|88:27|88:27|25:42|51:113,1,212.750004057884,6|10,1:2|0:2,0:0:0:0:
0,287,218073,2,0,B|71:263|129:243|129:243|179:300,1,212.750004057884,2|0,1:2|1:2,0:0:0:0:
374,379,218523,2,0,P|400:334|386:284,1,106.375002028942,10|0,0:2|0:0,0:0:0:0:
512,117,218823,6,0,P|460:128|407:135,1,106.375002028942,2|0,1:2|1:2,0:0:0:0:
249,142,219123,1,0,0:0:0:0:
393,33,219273,1,8,0:2:0:0:
340,201,219423,1,2,1:2:0:0:
263,20,219573,2,0,P|211:31|158:38,1,106.375002028942,2|8,1:2|0:2,0:0:0:0:
249,142,219873,1,2,0:2:0:0:
104,266,220023,6,0,B|68:170|68:170|89:121|143:137,2,194.249994071961,4|10|2,1:2|0:2|1:2,0:0:0:0:
104,266,220923,1,10,0:2:0:0:
220,203,221073,1,2,0:2:0:0:
219,203,221223,2,0,P|307:226|311:317,1,194.249994071961,0|10,1:2|0:2,0:0:0:0:
311,317,221823,5,2,1:2:0:0:
144,137,221973,1,2,1:2:0:0:
433,205,222123,1,10,0:2:0:0:
119,334,222273,1,6,1:2:0:0:
256,192,224898,12,0,229698,0:2:0:0:
