osu file format v14

[General]
AudioFilename: audio.mp3
AudioLeadIn: 0
PreviewTime: 69349
Countdown: 0
SampleSet: Soft
StackLeniency: 0.4
Mode: 0
LetterboxInBreaks: 0
WidescreenStoryboard: 1

[Editor]
Bookmarks: 24223,26623,31423,36223,37423,38623,39373,39823,41173,49423,55423,56623,57823,59023,65173,69973,74773,84373,86623,87823,88123,88423,89173,91873,103423,105823,108223,110623,111823,113173,127573,132373,137173,139423,140623,140923,141223,210373,217573,219973
DistanceSpacing: 1.2
BeatDivisor: 4
GridSize: 32
TimelineZoom: 1.9

[Metadata]
Title:Fukagyaku Replace
TitleUnicode:不可逆リプレイス
Artist:MY FIRST STORY
ArtistUnicode:MY FIRST STORY
Creator:Nevo
Version:Eli's Hard
Source:信長協奏曲
Tags:agatsu kudosu s00p fuju elinor [_eli_] eli maiev japanese rock Nobunaga Concerto Ending
BeatmapID:2550231
BeatmapSetID:1198125

[Difficulty]
HPDrainRate:5
CircleSize:3.6
OverallDifficulty:7
ApproachRate:8
SliderMultiplier:1.4
SliderTickRate:1

[Events]
//Background and Video events
0,0,"50033013_p0_master1200.jpg",0,0
//Break Periods
2,94223,102273
2,115823,117273
2,147023,150873
2,193823,199923
//Storyboard Layer 0 (Background)
//Storyboard Layer 1 (Fail)
//Storyboard Layer 2 (Pass)
//Storyboard Layer 3 (Foreground)
//Storyboard Layer 4 (Overlay)
//Storyboard Sound Samples

[TimingPoints]
1074,300,4,2,1,70,1,0
1074,-166.666666666667,4,2,1,70,0,0
1523,-166.666666666667,4,2,1,70,0,0
1974,-166.666666666667,4,2,1,70,0,0
2423,-166.666666666667,4,2,1,70,0,0
2874,-166.666666666667,4,2,1,70,0,0
6323,-166.666666666667,4,2,1,70,0,0
6774,-166.666666666667,4,2,1,70,0,0
7223,-166.666666666667,4,2,1,70,0,0
7674,-166.666666666667,4,2,1,70,0,0
8723,-166.666666666667,4,2,1,70,0,0
9174,-166.666666666667,4,2,1,70,0,0
9324,-166.666666666667,4,2,1,5,0,0
12174,-166.666666666667,4,2,1,5,0,0
12423,300,4,2,1,70,1,0
12423,-111.111111111111,4,2,1,70,0,0
20673,-111.111111111111,4,2,1,50,0,0
21123,-111.111111111111,4,2,1,60,0,0
21873,-100,4,2,1,80,0,1
41223,-125,4,2,1,70,0,0
50673,-111.111111111111,4,2,1,75,0,0
60423,-111.111111111111,4,2,1,70,0,0
70023,-100,4,2,1,85,0,1
88773,-100,4,2,1,70,0,1
89223,-111.111111111111,4,2,1,70,0,0
91023,-111.111111111111,4,2,1,70,0,0
103023,-111.111111111111,4,2,1,70,0,0
118023,-105.263157894737,4,2,1,70,0,0
120423,-105.263157894737,4,2,1,75,0,0
122223,-105.263157894737,4,2,1,60,0,0
122823,-100,4,2,1,85,0,1
137223,-100,4,2,1,85,0,1
141573,-100,4,2,1,70,0,1
142023,-100,4,2,1,70,0,0
142098,-100,4,2,1,5,0,0
146823,-100,4,2,1,30,0,0
151623,-166.666666666667,4,2,1,30,0,0
170823,-125,4,2,1,50,0,0
187923,-125,4,2,1,40,0,0
190098,-125,4,2,1,5,0,0
193623,-125,4,2,1,30,0,0
200823,-111.111111111111,4,2,1,70,0,0
205623,-100,4,2,1,85,0,1
220023,-100,4,2,1,70,0,1
222273,-100,4,2,1,70,0,0
223023,-100,4,2,1,30,0,0
223398,300,4,2,1,40,1,0
223398,-100,4,2,1,40,0,0
223548,-100,4,2,1,5,0,0
223698,-100,4,2,1,40,0,0
223848,-100,4,2,1,5,0,0
223998,-166.666666666667,4,2,1,40,0,0
224973,-166.666666666667,4,2,1,5,0,0
229698,-100,4,2,1,5,0,0

[Colours]
Combo1 : 255,128,192
Combo2 : 192,192,192
Combo3 : 255,83,83

[HitObjects]
62,342,1074,6,0,P|109:324|199:310,1,125.999996154785,2|2,0:2|0:2,0:0:0:0:
313,210,1974,2,0,P|250:200|191:178,1,125.999996154785,2|2,0:2|0:2,0:0:0:0:
95,45,2874,2,0,L|181:31,1,83.9999974365235,2|2,0:2|0:2,0:0:0:0:
276,77,3474,6,0,L|268:120,2,41.9999987182618,2|0|2,0:2|0:0|0:2,0:0:0:0:
312,36,3924,2,0,B|376:32|372:72|448:72,1,125.999996154785,2|2,0:2|0:2,0:0:0:0:
480,168,4674,2,0,P|472:208|464:252,1,83.9999974365235,2|0,0:2|0:0,0:0:0:0:
396,336,5274,2,0,P|352:320|304:312,1,83.9999974365235,2|2,0:2|0:2,0:0:0:0:
212,344,5874,6,0,B|148:344|164:300|92:300,1,125.999996154785,2|2,0:2|0:2,0:0:0:0:
32,152,6774,2,0,B|96:152|80:108|152:108,1,125.999996154785,2|2,0:2|0:2,0:0:0:0:
312,116,7674,2,0,L|324:200,1,83.9999974365235,2|2,0:2|0:2,0:0:0:0:
308,308,8274,6,0,P|272:336|192:332,1,125.999996154785,2|2,0:2|0:2,0:0:0:0:
136,276,9174,1,2,0:2:0:0:
256,192,9324,12,0,12174,0:0:0:0:
136,276,12423,6,0,L|124:208,1,62.9999980773926,10|2,0:2|1:2,0:0:0:0:
124,132,12723,2,0,L|196:120,1,62.9999980773926,8|2,0:2|1:2,0:0:0:0:
256,164,13023,2,0,L|332:176,1,62.9999980773926,10|2,0:2|1:2,0:0:0:0:
392,136,13323,5,10,0:2:0:0:
392,136,13473,2,0,P|400:96|392:64,1,62.9999980773926,2|10,1:2|0:2,0:0:0:0:
336,20,13773,1,0,1:2:0:0:
336,20,13923,2,0,L|268:32,1,62.9999980773926,10|0,0:2|1:2,0:0:0:0:
208,80,14223,2,0,P|200:120|196:152,1,62.9999980773926,10|2,0:2|1:2,0:0:0:0:
124,180,14523,2,0,P|119:145|112:111,1,62.9999980773926,10|0,0:2|1:2,0:0:0:0:
84,40,14823,6,0,P|124:20|152:20,1,62.9999980773926,10|0,0:2|1:2,0:0:0:0:
216,60,15123,2,0,P|245:77|280:80,1,62.9999980773926,10|0,0:2|1:2,0:0:0:0:
344,36,15423,2,0,P|376:24|412:24,1,62.9999980773926,10|0,0:2|1:2,0:0:0:0:
468,72,15723,5,10,0:2:0:0:
468,72,15873,2,0,L|436:212,1,125.999996154785,2|0,1:2|1:2,0:0:0:0:
404,268,16323,2,0,P|372:256|336:248,1,62.9999980773926,10|0,0:2|1:2,0:0:0:0:
272,284,16623,2,0,P|232:308|204:316,1,62.9999980773926,10|2,0:2|1:2,0:0:0:0:
136,296,16923,2,0,P|120:260|120:236,1,62.9999980773926,10|2,0:2|1:2,0:0:0:0:
136,200,17148,5,0,1:2:0:0:
136,200,17223,2,0,L|204:180,1,62.9999980773926,14|0,0:2|1:2,0:0:0:0:
256,128,17523,1,8,0:2:0:0:
256,128,17673,2,0,P|256:76|180:36,1,125.999996154785,2|0,1:2|1:2,0:0:0:0:
120,60,18123,2,0,L|104:128,1,62.9999980773926,10|0,0:2|1:2,0:0:0:0:
44,176,18423,6,0,P|56:220|80:316,1,125.999996154785,10|8,0:2|0:2,0:0:0:0:
140,348,18873,1,2,1:2:0:0:
140,348,19023,2,0,P|168:336|208:328,1,62.9999980773926,10|2,0:2|1:2,0:0:0:0:
280,316,19323,2,0,P|300:328|348:344,1,62.9999980773926,10|2,0:2|1:2,0:0:0:0:
408,304,19623,6,0,L|444:292,4,31.4999990386963,14|8|4|4|0,0:2|0:3|0:3|0:3|1:0,0:0:0:0:
360,236,20073,2,0,L|324:228,4,31.4999990386963,10|8|4|4|0,0:2|0:3|0:3|0:3|1:0,0:0:0:0:
432,196,20523,1,10,0:2:0:0:
432,196,20673,1,2,0:3:0:0:
108,236,21273,6,0,L|68:248,2,31.4999990386963,2|2|2,0:2|0:2|0:2,0:0:0:0:
296,36,21873,6,0,B|369:25|350:96|419:87,1,140,6|0,1:2|1:2,0:0:0:0:
478,154,22323,2,0,P|470:186|462:222,1,70,10|0,0:2|0:0,0:0:0:0:
390,279,22623,2,0,P|381:241|370:204,1,70,2|0,1:2|1:2,0:0:0:0:
311,143,22923,1,10,0:2:0:0:
222,122,23073,6,0,P|182:122|158:141,1,70,2|0,1:2|0:0,0:0:0:0:
105,213,23373,1,0,1:2:0:0:
135,298,23523,2,0,P|164:320|200:320,1,70,10|0,0:2|0:0,0:0:0:0:
286,306,23823,2,0,L|362:322,2,70,2|0|10,1:2|1:2|0:2,0:0:0:0:
236,196,24273,6,0,P|270:141|345:141,1,140,6|0,1:2|1:2,0:0:0:0:
425,170,24723,2,0,L|441:98,1,70,10|0,0:2|0:0,0:0:0:0:
393,22,25023,2,0,L|322:7,1,70,2|0,1:2|0:0,0:0:0:0:
240,44,25323,2,0,L|224:113,1,70,10|0,0:2|0:0,0:0:0:0:
149,164,25623,6,0,L|130:94,1,70,2|0,1:2|0:0,0:0:0:0:
69,29,25923,2,0,P|37:29|5:53,1,70,10|0,0:2|0:0,0:0:0:0:
0,141,26223,2,0,L|20:213,1,70,2|0,1:2|1:2,0:0:0:0:
85,270,26523,1,10,0:2:0:0:
168,184,26673,6,0,B|242:168|224:244|292:234,1,140,6|2,1:2|1:2,0:0:0:0:
372,198,27123,2,0,L|388:278,1,70,10|0,0:2|0:0,0:0:0:0:
463,314,27423,2,0,L|478:238,2,70,2|2|8,1:2|1:2|0:0,0:0:0:0:
344,358,27873,6,0,P|268:330|196:314,1,140,6|2,1:2|1:2,0:0:0:0:
120,331,28323,2,0,L|108:255,1,70,10|0,0:2|0:0,0:0:0:0:
35,207,28623,2,0,L|19:287,2,70,2|2|8,1:2|1:2|0:2,0:0:0:0:
96,104,29073,6,0,B|165:77|159:157|222:137,1,140,6|2,1:2|1:2,0:0:0:0:
310,116,29523,2,0,L|382:124,1,70,10|0,0:2|1:2,0:0:0:0:
410,160,29748,1,0,1:2:0:0:
410,160,29823,2,0,L|402:236,1,70,4|4,0:3|0:3,0:0:0:0:
356,312,30123,2,0,P|320:312|295:290,1,70,8|2,0:2|1:2,0:0:0:0:
274,249,30348,5,0,1:2:0:0:
274,249,30423,2,0,P|243:229|210:229,1,70,10|2,0:2|1:2,0:0:0:0:
156,302,30723,2,0,P|129:326|96:326,1,70,2|8,1:2|0:3,0:0:0:0:
17,281,31023,2,0,L|9:209,1,70,2|2,1:2|1:2,0:0:0:0:
53,131,31323,1,8,0:2:0:0:
172,120,31473,6,0,B|237:92|237:178|297:156,1,140,6|0,1:2|1:2,0:0:0:0:
386,145,31923,2,0,P|398:113|384:80,1,70,10|0,0:2|0:0,0:0:0:0:
318,18,32223,2,0,L|249:34,1,70,2|0,1:2|1:2,0:0:0:0:
161,54,32523,1,10,0:2:0:0:
111,130,32673,6,0,L|133:198,1,70,2|0,1:2|0:0,0:0:0:0:
188,269,32973,1,0,1:2:0:0:
260,213,33123,2,0,L|273:139,1,70,10|0,0:2|0:0,0:0:0:0:
318,65,33423,2,0,P|354:65|380:88,2,70,2|0|10,1:2|1:2|0:2,0:0:0:0:
204,32,33873,6,0,B|136:25|158:101|86:95,1,140,6|0,1:2|1:2,0:0:0:0:
23,158,34323,2,0,L|41:230,1,70,10|0,0:2|0:0,0:0:0:0:
109,284,34623,2,0,L|124:215,1,70,2|0,1:2|0:0,0:0:0:0:
202,170,34923,2,0,L|221:238,1,70,10|0,0:2|0:0,0:0:0:0:
247,324,35223,6,0,P|279:344|311:344,1,70,2|0,1:2|1:2,0:0:0:0:
392,304,35523,2,0,P|392:264|376:236,1,70,10|0,0:2|0:0,0:0:0:0:
304,185,35823,2,0,L|236:205,2,70,2|0|10,1:2|1:2|0:2,0:0:0:0:
395,108,36273,6,0,P|395:64|315:36,1,140,6|2,1:2|1:2,0:0:0:0:
228,61,36723,2,0,L|216:133,1,70,10|0,0:2|0:0,0:0:0:0:
137,175,37023,2,0,L|153:243,2,70,2|2|8,1:2|1:2|0:0,0:0:0:0:
55,89,37473,6,0,P|13:123|14:203,1,140,6|2,1:2|1:2,0:0:0:0:
71,275,37923,2,0,P|107:259|143:259,1,70,10|0,0:2|0:0,0:0:0:0:
218,299,38223,2,0,L|206:367,2,70,2|2|8,1:2|1:2|0:2,0:0:0:0:
315,229,38673,6,0,B|382:206|383:285|441:264,2,140,6|6|0,1:2|1:2|1:2,0:0:0:0:
214,166,39423,2,0,P|250:106|318:106,1,140,12|8,0:2|0:2,0:0:0:0:
418,162,39873,6,0,L|487:141,1,70,6|0,1:2|0:0,0:0:0:0:
492,57,40173,1,8,0:2:0:0:
492,57,40323,2,0,L|423:41,1,70,4|0,0:3|0:0,0:0:0:0:
349,80,40623,2,0,L|361:156,2,70,10|10|4,0:2|0:2|0:3,0:0:0:0:
242,25,41073,5,8,0:2:0:0:
242,25,41223,2,0,B|190:17|196:73|144:65,1,112,4|8,1:2|0:2,0:0:0:0:
20,163,41823,1,8,0:2:0:0:
41,318,42123,2,0,L|93:298,1,56,10|2,0:2|0:0,0:0:0:0:
169,280,42423,6,0,B|229:280|217:324|273:324,1,112,10|10,0:2|0:2,0:0:0:0:
343,346,42873,2,0,L|399:326,1,56,2|8,0:0|0:2,0:0:0:0:
421,253,43173,2,0,L|364:237,1,56,2|8,0:0|0:2,0:0:0:0:
290,220,43473,5,2,0:0:0:0:
290,220,43623,2,0,P|274:164|301:122,1,112,8|8,0:2|0:2,0:0:0:0:
445,59,44223,1,8,0:2:0:0:
292,24,44523,2,0,L|232:40,1,56,10|2,0:2|0:0,0:0:0:0:
170,78,44823,6,0,L|116:59,1,56,10|2,0:2|0:0,0:0:0:0:
40,73,45123,2,0,P|31:100|39:125,1,56,10|2,0:2|0:0,0:0:0:0:
100,174,45423,1,10,0:2:0:0:
100,174,45573,2,0,P|108:200|98:226,1,56,2|8,1:2|0:2,0:0:0:0:
56,292,45873,5,2,0:0:0:0:
56,292,46023,2,0,L|168:316,1,112,8|8,0:2|0:2,0:0:0:0:
318,349,46623,1,8,0:2:0:0:
454,271,46923,5,10,0:2:0:0:
454,271,47073,2,0,L|470:151,1,112,2|0,0:0|0:0,0:0:0:0:
482,82,47523,1,8,0:2:0:0:
341,13,47823,1,8,0:2:0:0:
277,144,48123,2,0,L|221:132,1,56,10|4,0:2|1:2,0:0:0:0:
147,157,48423,6,0,B|130:206|130:206|166:256,1,112,2|8,0:2|0:2,0:0:0:0:
193,328,48873,2,0,L|76:359,1,112,2|0,0:2|1:2,0:0:0:0:
17,271,49323,5,10,0:2:0:0:
17,271,49473,2,0,L|13:159,1,112,4|0,1:2|1:2,0:0:0:0:
13,80,49923,1,8,0:2:0:0:
158,22,50223,1,8,0:2:0:0:
216,160,50523,5,8,0:2:0:0:
216,160,50673,2,0,B|285:146|274:207|331:196,1,125.999996154785,4|0,1:2|1:2,0:0:0:0:
393,134,51123,2,0,L|401:70,1,62.9999980773926,10|0,0:2|0:0,0:0:0:0:
486,47,51423,2,0,L|494:115,1,62.9999980773926,2|0,1:2|1:2,0:0:0:0:
499,197,51723,2,0,L|431:209,1,62.9999980773926,10|2,0:2|0:2,0:0:0:0:
356,243,52023,6,0,L|368:307,2,62.9999980773926,2|2|10,1:2|1:2|0:2,0:0:0:0:
330,158,52473,2,0,P|301:148|266:158,1,62.9999980773926,2|0,0:2|1:2,0:0:0:0:
208,218,52773,2,0,P|178:227|148:218,1,62.9999980773926,2|8,1:2|0:2,0:0:0:0:
78,164,53073,1,2,1:2:0:0:
288,32,53523,6,0,P|324:32|352:48,1,62.9999980773926,10|2,0:2|0:2,0:0:0:0:
400,108,53823,2,0,P|400:136|384:168,1,62.9999980773926,2|2,1:2|1:2,0:0:0:0:
316,212,54123,2,0,L|252:228,1,62.9999980773926,10|2,0:2|0:2,0:0:0:0:
216,300,54423,6,0,L|152:284,2,62.9999980773926,2|2|10,1:2|1:2|0:2,0:0:0:0:
284,344,54873,2,0,L|412:328,1,125.999996154785,2|2,0:2|1:2,0:0:0:0:
476,280,55323,1,10,0:2:0:0:
436,180,55473,6,0,B|369:170|389:237|324:232,1,125.999996154785,6|0,1:2|1:2,0:0:0:0:
244,212,55923,1,8,0:2:0:0:
180,60,56223,1,0,1:2:0:0:
28,150,56523,5,10,0:2:0:0:
70,250,56673,2,0,P|122:230|174:271,1,125.999996154785,2|0,0:2|1:2,0:0:0:0:
193,349,57123,1,8,0:2:0:0:
356,346,57423,2,0,L|424:334,1,62.9999980773926,2|0,1:2|1:2,0:0:0:0:
473,274,57723,1,10,0:2:0:0:
412,184,57873,6,0,P|348:184|308:232,1,125.999996154785,6|0,1:2|1:2,0:0:0:0:
236,264,58323,1,10,0:2:0:0:
236,264,58473,2,0,L|220:202,1,62.9999980773926,2|8,1:2|0:2,0:0:0:0:
141,178,58773,2,0,L|151:116,1,62.9999980773926,2|8,1:2|0:2,0:0:0:0:
224,36,59073,6,0,L|288:50,1,62.9999980773926,6|8,1:2|0:2,0:0:0:0:
366,59,59373,2,0,L|396:66,3,31.4999990386963,10|8|8|8,0:2|0:2|0:2|0:2,0:0:0:0:
429,91,59673,2,0,L|421:123,5,31.4999990386963,10|8|8|8|8|8,0:2|0:2|0:3|0:3|0:3|0:3,0:0:0:0:
438,158,60123,2,0,L|442:190,3,31.4999990386963,4|4|4|4,0:3|0:3|0:3|0:3,0:0:0:0:
444,230,60423,6,0,B|385:215|393:282|328:262,1,125.999996154785,6|8,1:2|0:2,0:0:0:0:
169,229,61023,1,8,0:2:0:0:
169,229,61323,1,8,0:2:0:0:
298,128,61623,5,8,0:2:0:0:
298,128,61923,1,8,0:2:0:0:
168,32,62223,2,0,L|100:48,1,62.9999980773926,8|0,0:2|1:2,0:0:0:0:
36,92,62523,2,0,L|52:156,1,62.9999980773926,8|0,0:2|1:2,0:0:0:0:
84,228,62823,5,8,0:2:0:0:
84,228,63123,1,8,0:2:0:0:
228,152,63423,1,8,0:2:0:0:
228,152,63723,1,8,0:2:0:0:
288,208,63873,6,0,B|356:204|340:252|404:248,1,125.999996154785,0|0,1:2|1:2,0:0:0:0:
480,220,64323,1,8,0:2:0:0:
432,64,64623,2,0,L|372:48,1,62.9999980773926,10|0,0:2|1:2,0:0:0:0:
288,44,64923,2,0,L|224:60,1,62.9999980773926,10|0,0:2|1:2,0:0:0:0:
125,22,65223,6,0,P|77:54|77:118,1,125.999996154785,14|8,0:2|0:2,0:0:0:0:
117,188,65673,2,0,B|176:171|175:242|230:230,1,125.999996154785,2|0,1:2|1:2,0:0:0:0:
305,256,66123,2,0,P|305:316|249:352,1,125.999996154785,10|8,0:2|0:2,0:0:0:0:
91,348,66723,5,8,0:2:0:0:
34,194,67023,2,0,L|46:130,1,62.9999980773926,10|0,0:2|1:2,0:0:0:0:
117,92,67323,2,0,L|129:160,1,62.9999980773926,10|0,0:2|1:2,0:0:0:0:
148,233,67623,6,0,L|184:225,5,31.4999990386963,10|8|4|4|8|8,0:2|0:3|0:3|0:3|0:2|0:3,0:0:0:0:
216,209,68073,2,0,L|252:217,5,31.4999990386963,4|4|8|8|8|8,0:3|0:3|0:2|0:2|0:2|0:2,0:0:0:0:
264,252,68523,2,0,L|300:238,2,31.4999990386963,10|8|4,0:2|0:2|1:2,0:0:0:0:
490,333,69423,6,0,L|505:270,1,62.9999980773926,2|0,0:2|0:0,0:0:0:0:
441,219,69723,2,0,L|433:155,1,62.9999980773926,2|0,0:2|0:0,0:0:0:0:
393,42,70023,6,0,B|324:21|336:102|269:88,1,140,6|8,1:2|0:2,0:0:0:0:
184,60,70473,2,0,L|224:204,1,140,2|0,1:2|1:2,0:0:0:0:
207,284,70923,6,0,B|134:271|156:344|79:332,1,140,10|0,0:2|0:0,0:0:0:0:
28,260,71373,2,0,L|8:120,1,140,2|0,1:2|0:0,0:0:0:0:
55,43,71823,6,0,L|122:62,1,70,2|2,1:2|1:2,0:0:0:0:
193,119,72123,2,0,L|259:93,1,70,10|0,0:2|0:0,0:0:0:0:
336,44,72423,6,0,P|404:44|428:108,1,140,2|10,1:2|0:2,0:0:0:0:
420,192,72873,2,0,L|412:264,1,70,2|0,1:2|0:0,0:0:0:0:
372,344,73173,1,2,1:2:0:0:
320,268,73323,2,0,L|304:198,1,70,10|0,0:2|0:0,0:0:0:0:
272,116,73623,5,2,1:2:0:0:
180,112,73773,2,0,B|115:87|124:164|52:144,1,140,0|8,1:2|0:2,0:0:0:0:
22,230,74223,2,0,L|42:298,1,70,2|0,1:2|1:2,0:0:0:0:
111,356,74523,2,0,L|127:281,1,70,10|0,0:2|0:0,0:0:0:0:
208,200,74823,6,0,P|248:200|272:224,1,70,6|0,1:2|0:0,0:0:0:0:
332,284,75123,1,10,0:2:0:0:
332,284,75273,2,0,P|396:284|428:220,1,140,2|0,0:2|0:0,0:0:0:0:
424,132,75723,2,0,L|356:116,1,70,10|0,0:2|0:0,0:0:0:0:
292,52,76023,5,2,1:2:0:0:
292,52,76173,2,0,L|144:80,1,140,2|0,0:2|0:0,0:0:0:0:
64,91,76623,2,0,L|56:163,1,70,2|0,1:2|1:2,0:0:0:0:
5,236,76923,2,0,L|25:304,1,70,10|4,0:2|1:2,0:0:0:0:
109,355,77223,6,0,B|178:354|157:285|223:285,1,140,2|10,0:2|0:2,0:0:0:0:
310,305,77673,2,0,L|378:317,1,70,2|8,1:2|0:2,0:0:0:0:
461,278,77973,1,2,1:2:0:0:
444,188,78123,2,0,L|372:204,1,70,10|4,0:2|1:2,0:0:0:0:
286,219,78423,5,2,0:2:0:0:
213,167,78573,2,0,L|224:134,2,35,8|8|8,0:2|0:2|0:2,0:0:0:0:
149,232,78873,1,8,0:0:0:0:
149,232,78948,1,8,0:0:0:0:
149,232,79023,2,0,L|109:215,7,35,8|8|12|12|4|4|4|4,0:3|0:3|0:3|0:3|0:3|0:3|0:3|0:3,0:0:0:0:
77,194,79623,6,0,P|66:120|112:82,1,140,6|8,1:2|0:2,0:0:0:0:
201,73,80073,2,0,B|271:63|245:133|323:122,1,140,2|0,1:2|1:2,0:0:0:0:
412,121,80523,6,0,L|436:265,1,140,10|0,0:2|0:0,0:0:0:0:
380,340,80973,2,0,P|336:293|263:293,1,140,2|0,1:2|0:0,0:0:0:0:
192,348,81423,6,0,L|124:332,1,70,2|2,1:2|1:2,0:0:0:0:
63,263,81723,2,0,L|132:241,1,70,10|2,0:2|0:2,0:0:0:0:
205,190,82023,6,0,P|205:130|137:94,1,140,2|10,1:2|0:2,0:0:0:0:
54,67,82473,2,0,L|194:27,1,140,2|0,1:2|1:2,0:0:0:0:
280,30,82923,2,0,L|296:106,1,70,10|0,0:2|0:0,0:0:0:0:
288,192,83223,5,2,1:2:0:0:
343,264,83373,2,0,B|407:247|410:323|473:304,1,140,0|8,1:2|0:2,0:0:0:0:
507,221,83823,1,2,1:2:0:0:
467,138,83973,2,0,L|395:150,1,70,2|8,1:2|0:2,0:0:0:0:
318,193,84273,1,2,0:2:0:0:
221,125,84423,6,0,P|209:81|205:57,1,70,4|0,1:2|0:0,0:0:0:0:
123,14,84723,2,0,P|116:48|106:82,1,70,10|0,0:2|0:0,0:0:0:0:
44,149,85023,2,0,P|52:173|64:221,1,70,2|0,1:2|0:0,0:0:0:0:
106,297,85323,1,10,0:2:0:0:
183,248,85473,6,0,B|256:227|244:300|312:281,1,140,2|0,0:2|0:0,0:0:0:0:
392,242,85923,2,0,L|380:170,1,70,10|0,0:2|0:0,0:0:0:0:
317,107,86223,2,0,L|301:175,1,70,2|2,1:2|1:2,0:0:0:0:
233,236,86523,1,10,0:2:0:0:
139,165,86673,6,0,P|139:93|196:68,1,140,6|0,1:2|1:2,0:0:0:0:
282,46,87123,2,0,L|350:58,1,70,8|0,0:2|1:2,0:0:0:0:
409,128,87423,2,0,L|341:153,1,70,8|0,0:2|1:2,0:0:0:0:
257,182,87723,1,10,0:2:0:0:
148,229,87873,6,0,P|140:264|159:297,1,70,6|0,1:2|0:0,0:0:0:0:
250,364,88173,2,0,P|286:364|314:344,1,70,6|0,1:2|0:0,0:0:0:0:
360,236,88473,2,0,B|423:210|424:294|486:270,1,140,6|0,1:2|1:2,0:0:0:0:
510,181,88923,2,0,L|498:109,1,70,8|0,0:2|1:2,0:0:0:0:
417,24,89223,5,4,1:2:0:0:
417,24,91023,6,0,L|349:40,1,62.9999980773926,8|0,0:2|1:2,0:0:0:0:
297,95,91323,5,0,1:2:0:0:
297,95,91473,2,0,L|165:63,1,125.999996154785,4|0,1:2|1:2,0:0:0:0:
68,88,91923,2,0,P|52:122|53:149,1,62.9999980773926,12|0,0:2|0:0,0:0:0:0:
90,219,92223,2,0,L|194:239,1,94.499997116089,8|8,0:2|0:2,0:0:0:0:
304,256,92673,6,0,B|374:237|360:303|422:283,1,125.999996154785,4|0,1:2|1:2,0:0:0:0:
488,237,93123,1,8,0:2:0:0:
398,101,93423,2,0,L|390:149,2,41.9999987182618,8|8|8,0:3|0:2|0:2,0:0:0:0:
272,280,94023,5,0,1:2:0:0:
272,280,103023,6,0,L|204:264,1,62.9999980773926,8|0,0:2|0:0,0:0:0:0:
132,240,103323,1,8,0:2:0:0:
144,132,103473,6,0,B|207:108|206:177|259:161,1,125.999996154785,4|0,1:2|1:2,0:0:0:0:
328,116,103923,2,0,L|336:52,1,62.9999980773926,10|0,0:2|0:0,0:0:0:0:
416,28,104223,2,0,L|424:96,1,62.9999980773926,2|0,1:2|1:2,0:0:0:0:
460,164,104523,2,0,L|448:232,1,62.9999980773926,10|0,0:2|0:0,0:0:0:0:
368,244,104823,6,0,L|380:308,2,62.9999980773926,2|2|10,1:2|1:2|0:2,0:0:0:0:
344,168,105273,2,0,P|312:152|284:152,1,62.9999980773926,2|0,0:2|1:2,0:0:0:0:
220,204,105573,2,0,P|188:220|160:220,1,62.9999980773926,2|8,1:2|0:2,0:0:0:0:
68,164,105873,6,0,L|88:292,1,125.999996154785,6|0,1:2|1:2,0:0:0:0:
144,348,106323,2,0,L|204:332,1,62.9999980773926,10|2,0:2|0:2,0:0:0:0:
280,300,106623,2,0,L|340:316,1,62.9999980773926,2|2,1:2|0:2,0:0:0:0:
416,352,106923,2,0,P|448:352|472:332,1,62.9999980773926,10|2,0:2|0:2,0:0:0:0:
492,252,107223,6,0,P|492:212|476:188,1,62.9999980773926,2|2,1:2|0:2,0:0:0:0:
412,144,107523,2,0,L|348:160,1,62.9999980773926,10|2,0:2|0:2,0:0:0:0:
296,220,107823,2,0,L|232:204,1,62.9999980773926,2|10,1:2|0:2,0:0:0:0:
156,184,108123,1,10,0:2:0:0:
104,88,108273,6,0,P|136:48|208:48,1,125.999996154785,6|0,1:2|1:2,0:0:0:0:
280,84,108723,1,0,1:2:0:0:
320,244,109023,2,0,L|308:312,1,62.9999980773926,12|0,0:2|0:0,0:0:0:0:
236,344,109323,5,2,0:2:0:0:
236,344,109473,2,0,L|212:216,1,125.999996154785,2|0,0:2|0:0,0:0:0:0:
180,144,109923,2,0,L|116:152,1,62.9999980773926,0|0,1:2|1:2,0:0:0:0:
40,180,110223,2,0,P|32:212|40:244,1,62.9999980773926,10|0,0:2|1:2,0:0:0:0:
76,316,110523,1,2,0:2:0:0:
184,320,110673,6,0,B|250:300|240:365|299:348,1,125.999996154785,6|0,1:2|1:2,0:0:0:0:
380,328,111123,1,10,0:2:0:0:
380,328,111273,2,0,L|368:264,1,62.9999980773926,2|0,0:2|1:2,0:0:0:0:
432,216,111573,2,0,L|444:152,1,62.9999980773926,2|8,1:2|0:2,0:0:0:0:
425,48,111873,6,0,P|360:48|332:96,1,125.999996154785,6|6,1:2|1:2,0:0:0:0:
224,216,112473,2,0,L|92:240,1,125.999996154785,6|0,1:2|1:2,0:0:0:0:
36,188,112923,2,0,P|24:164|36:132,1,62.9999980773926,10|0,0:2|0:0,0:0:0:0:
88,36,113223,5,8,0:3:0:0:
256,192,113373,12,8,115623,0:3:0:0:
88,36,118023,6,0,L|152:52,1,66.4999982242585,4|0,1:2|1:2,0:0:0:0:
224,104,118323,2,0,L|288:88,1,66.4999982242585,8|0,0:2|1:2,0:0:0:0:
348,28,118623,2,0,L|412:44,1,66.4999982242585,8|0,0:2|1:2,0:0:0:0:
488,84,118923,2,0,L|472:152,1,66.4999982242585,8|0,0:2|1:2,0:0:0:0:
392,180,119223,6,0,L|408:244,1,66.4999982242585,8|0,0:2|1:2,0:0:0:0:
424,332,119523,2,0,L|356:352,1,66.4999982242585,8|0,0:2|1:2,0:0:0:0:
272,356,119823,2,0,L|208:336,1,66.4999982242585,8|0,0:2|1:2,0:0:0:0:
160,264,120123,2,0,L|96:284,1,66.4999982242585,8|0,0:2|1:2,0:0:0:0:
12,264,120423,6,0,L|24:196,1,66.4999982242585,0|0,1:2|1:2,0:0:0:0:
72,128,120723,1,0,1:2:0:0:
72,128,120873,2,0,L|136:144,1,66.4999982242585,2|0,1:2|1:2,0:0:0:0:
184,216,121173,1,0,1:2:0:0:
184,216,121323,2,0,L|248:196,1,66.4999982242585,2|0,1:2|1:2,0:0:0:0:
304,132,121623,6,0,L|336:140,7,33.2499991121292,8|0|0|0|8|0|0|0,0:2|1:2|1:2|1:2|0:2|1:2|1:2|1:2,0:0:0:0:
368,172,122223,1,6,1:2:0:0:
180,296,122823,6,0,B|116:284|128:364|52:344,1,140,6|10,1:2|0:2,0:0:0:0:
20,264,123273,2,0,L|40:112,1,140,2|0,1:2|1:2,0:0:0:0:
100,52,123723,6,0,B|172:36|160:104|228:88,1,140,10|2,0:2|0:2,0:0:0:0:
292,152,124173,2,0,L|148:192,1,140,2|0,1:2|0:0,0:0:0:0:
104,264,124623,6,0,L|124:332,1,70,2|2,1:2|1:2,0:0:0:0:
212,360,124923,2,0,L|232:292,1,70,10|2,0:2|0:2,0:0:0:0:
276,212,125223,6,0,P|348:212|388:268,1,140,2|10,1:2|0:2,0:0:0:0:
468,300,125673,2,0,L|484:232,1,70,2|0,1:2|0:0,0:0:0:0:
480,140,125973,1,2,1:2:0:0:
404,88,126123,2,0,L|336:100,1,70,10|0,0:2|0:0,0:0:0:0:
244,112,126423,5,2,1:2:0:0:
244,204,126573,2,0,B|320:188|308:260|368:248,1,140,0|8,1:2|0:2,0:0:0:0:
456,280,127023,2,0,L|440:352,1,70,2|0,1:2|1:2,0:0:0:0:
352,356,127323,2,0,L|284:336,1,70,10|0,0:2|0:0,0:0:0:0:
180,280,127623,6,0,L|108:300,1,70,6|0,1:2|0:0,0:0:0:0:
24,272,127923,1,10,0:2:0:0:
24,272,128073,2,0,P|8:204|48:152,1,140,2|0,0:2|0:0,0:0:0:0:
140,140,128523,2,0,L|208:160,1,70,10|0,0:2|0:0,0:0:0:0:
264,88,128823,5,2,1:2:0:0:
264,88,128973,2,0,P|236:40|156:40,1,140,2|0,0:2|0:0,0:0:0:0:
68,60,129423,2,0,L|56:132,1,70,2|0,1:2|1:2,0:0:0:0:
24,216,129723,2,0,L|40:284,1,70,10|4,0:2|1:2,0:0:0:0:
116,344,130023,6,0,B|188:352|168:280|236:288,1,140,2|10,0:2|0:2,0:0:0:0:
324,276,130473,1,2,1:2:0:0:
268,208,130623,2,0,L|200:188,1,70,10|2,0:2|1:2,0:0:0:0:
144,116,130923,2,0,L|212:100,1,70,10|4,0:2|1:2,0:0:0:0:
308,92,131223,5,2,0:2:0:0:
359,167,131373,2,0,L|351:204,5,35,8|8|8|8|8|8,0:2|0:2|0:2|0:2|0:2|0:2,0:0:0:0:
370,242,131823,2,0,L|385:281,6,35,8|8|8|8|4|4|4,0:3|0:3|0:3|0:3|0:3|0:3|0:3,0:0:0:0:
308,340,132423,6,0,P|244:340|204:276,1,140,6|10,1:2|0:2,0:0:0:0:
216,192,132873,2,0,B|288:160|288:236|348:212,1,140,2|0,1:2|1:2,0:0:0:0:
416,152,133323,6,0,P|416:84|352:48,1,140,10|2,0:2|0:2,0:0:0:0:
268,32,133773,2,0,B|196:24|220:96|148:88,1,140,2|0,1:2|0:0,0:0:0:0:
60,72,134223,6,0,L|52:144,1,70,2|2,1:2|1:2,0:0:0:0:
12,224,134523,2,0,L|32:292,1,70,10|2,0:2|0:2,0:0:0:0:
104,348,134823,6,0,P|156:296|220:296,1,140,2|10,1:2|0:2,0:0:0:0:
308,308,135273,2,0,P|344:352|424:352,1,140,2|2,1:2|1:2,0:0:0:0:
484,284,135723,2,0,L|492:212,1,70,10|0,0:2|0:0,0:0:0:0:
460,128,136023,5,2,1:2:0:0:
376,96,136173,2,0,B|308:88|328:160|256:152,1,140,0|8,1:2|0:2,0:0:0:0:
168,124,136623,1,2,1:2:0:0:
88,164,136773,2,0,P|76:196|88:228,1,70,2|8,1:2|0:2,0:0:0:0:
128,312,137073,1,2,0:2:0:0:
240,272,137223,6,0,L|308:296,1,70,4|0,1:2|0:0,0:0:0:0:
380,348,137523,2,0,L|448:324,1,70,10|0,0:2|0:0,0:0:0:0:
484,244,137823,2,0,L|416:224,1,70,2|0,1:2|0:0,0:0:0:0:
328,208,138123,1,10,0:2:0:0:
320,116,138273,6,0,P|360:60|428:60,1,140,2|0,0:2|0:0,0:0:0:0:
500,108,138723,2,0,L|488:176,1,70,10|0,0:2|0:0,0:0:0:0:
468,264,139023,2,0,L|396:248,1,70,2|2,1:2|1:2,0:0:0:0:
312,224,139323,1,10,0:2:0:0:
192,212,139473,6,0,B|120:204|140:276|72:268,1,140,6|0,1:2|1:2,0:0:0:0:
20,196,139923,2,0,L|32:128,1,70,8|0,0:2|1:2,0:0:0:0:
100,68,140223,2,0,L|120:144,1,70,8|0,0:2|1:2,0:0:0:0:
148,220,140523,1,10,0:2:0:0:
184,336,140673,6,0,L|252:316,1,70,6|0,1:2|0:0,0:0:0:0:
288,200,140973,2,0,L|356:220,1,70,6|0,1:2|0:0,0:0:0:0:
432,312,141273,2,0,P|472:260|456:188,1,140,6|0,1:2|1:2,0:0:0:0:
388,108,141723,2,0,L|316:120,1,70,8|0,0:2|1:2,0:0:0:0:
228,132,142023,5,4,1:2:0:0:
256,192,142098,12,0,146823,0:0:0:0:
224,136,151623,6,0,L|212:264,1,125.999996154785,2|2,0:2|0:2,0:0:0:0:
76,352,152523,2,0,P|40:292|68:204,1,167.999994873047,2|0,0:2|0:0,0:0:0:0:
144,128,153423,2,0,L|228:144,1,83.9999974365235,2|2,0:2|0:2,0:0:0:0:
261,40,154023,6,0,L|393:20,2,125.999996154785,2|2|2,0:2|0:2|0:2,0:0:0:0:
373,227,155523,1,2,0:2:0:0:
373,227,155823,2,0,L|353:311,1,83.9999974365235,2|2,0:2|0:2,0:0:0:0:
244,320,156423,6,0,B|184:308|188:360|124:348,1,125.999996154785,2|2,0:2|0:2,0:0:0:0:
36,212,157323,2,0,L|168:176,1,125.999996154785,2|0,0:2|0:0,0:0:0:0:
320,164,158223,2,0,L|340:252,1,83.9999974365235,2|2,0:2|0:2,0:0:0:0:
388,344,158823,6,0,P|444:344|472:280,1,125.999996154785,2|2,0:2|0:2,0:0:0:0:
380,152,159723,2,0,B|316:152|332:204|264:204,1,125.999996154785,2|0,0:2|0:0,0:0:0:0:
124,128,160623,2,0,P|124:76|152:44,1,83.9999974365235,2|2,0:2|0:2,0:0:0:0:
248,32,161223,6,0,L|384:48,1,125.999996154785,2|2,0:2|0:2,0:0:0:0:
460,184,162123,2,0,B|396:184|416:232|348:232,1,125.999996154785,2|0,0:2|0:0,0:0:0:0:
188,204,163023,2,0,L|180:304,1,83.9999974365235,2|2,0:2|0:2,0:0:0:0:
92,348,163623,6,0,L|68:224,2,125.999996154785,2|2|2,0:2|0:2|0:2,0:0:0:0:
420,348,165423,2,0,L|428:264,1,83.9999974365235,2|2,0:2|0:2,0:0:0:0:
412,156,166023,6,0,B|344:148|356:200|292:192,1,125.999996154785,2|2,0:2|0:2,0:0:0:0:
140,136,166923,2,0,P|140:68|184:36,1,125.999996154785,2|0,0:2|0:0,0:0:0:0:
348,32,167823,2,0,L|448:40,1,83.9999974365235,2|2,0:2|0:2,0:0:0:0:
476,140,168423,6,0,L|344:152,2,125.999996154785,2|2|2,0:2|0:2|0:2,0:0:0:0:
224,352,170223,2,0,L|208:264,1,83.9999974365235,2|2,0:2|0:2,0:0:0:0:
176,128,170823,6,0,P|212:92|272:92,1,112,4|8,1:2|0:2,0:0:0:0:
332,132,171273,2,0,P|368:168|428:168,1,112,0|8,0:0|0:2,0:0:0:0:
480,116,171723,2,0,L|464:228,1,112,0|0,1:2|1:2,0:0:0:0:
448,300,172173,2,0,L|332:280,1,112
264,272,172623,2,0,L|204:284,1,56,8|0,0:2|0:0,0:0:0:0:
156,332,172923,2,0,L|100:316,1,56,0|0,1:2|0:0,0:0:0:0:
48,268,173223,6,0,P|28:208|44:164,1,112,0|8,1:2|0:2,0:0:0:0:
96,112,173673,2,0,L|208:136,1,112,0|8,0:0|0:2,0:0:0:0:
268,172,174123,2,0,L|384:152,1,112,0|0,1:2|1:2,0:0:0:0:
472,40,174723,1,0,1:2:0:0:
484,184,175023,2,0,L|464:300,1,112,8|0,0:2|1:2,0:0:0:0:
332,352,175623,6,0,P|296:336|224:320,1,112,4|8,1:2|0:2,0:0:0:0:
200,252,176073,2,0,P|254:241|306:220,1,112,0|8,0:0|0:2,0:0:0:0:
344,156,176523,2,0,P|344:96|304:68,1,112,0|0,1:2|1:2,0:0:0:0:
232,52,176973,2,0,P|184:52|152:104,1,112
160,176,177423,2,0,L|168:236,1,56,8|0,0:2|0:0,0:0:0:0:
160,304,177723,2,0,L|104:312,1,56,0|0,1:2|0:0,0:0:0:0:
36,288,178023,6,0,P|16:228|32:180,1,112,0|8,1:2|0:2,0:0:0:0:
68,120,178473,2,0,B|128:116|120:152|176:148,1,112,0|8,0:0|0:2,0:0:0:0:
244,132,178923,2,0,L|268:244,1,112,0|0,1:2|1:2,0:0:0:0:
288,312,179373,2,0,L|404:296,1,112
460,256,179823,2,0,L|468:196,1,56,0|8,1:2|0:3,0:0:0:0:
416,148,180123,2,0,L|408:92,1,56,4|8,0:3|0:2,0:0:0:0:
368,32,180423,6,0,B|308:32|320:72|268:72,1,112,4|0,1:2|1:2,0:0:0:0:
194,63,180873,2,0,L|182:179,1,112,8|0,0:2|0:0,0:0:0:0:
176,248,181323,2,0,B|236:244|224:288|280:284,1,112,0|0,1:2|1:2,0:0:0:0:
352,272,181773,2,0,L|364:160,1,112,8|0,0:2|0:0,0:0:0:0:
376,88,182223,1,0,1:2:0:0:
496,168,182523,1,0,1:2:0:0:
464,308,182823,6,0,P|424:344|364:344,1,112,0|0,1:2|1:2,0:0:0:0:
320,292,183273,2,0,L|304:176,1,112,8|0,0:2|0:0,0:0:0:0:
268,116,183723,2,0,P|216:92|168:116,1,112,0|0,1:2|1:2,0:0:0:0:
136,180,184173,2,0,L|124:292,1,112,8|0,0:2|0:0,0:0:0:0:
80,352,184623,2,0,L|20:336,1,56,8|0,0:2|0:0,0:0:0:0:
12,264,184923,2,0,L|72:248,1,56,0|8,1:2|0:2,0:0:0:0:
140,232,185223,6,0,B|196:232|180:272|244:272,1,112,4|0,1:2|1:2,0:0:0:0:
304,232,185673,2,0,L|320:120,1,112,8|0,0:2|0:0,0:0:0:0:
348,52,186123,2,0,B|408:52|400:88|456:88,1,112,8|0,0:2|1:2,0:0:0:0:
496,148,186573,2,0,L|480:260,1,112,8|0,0:2|0:0,0:0:0:0:
460,328,187023,1,8,0:2:0:0:
348,236,187323,1,0,1:2:0:0:
248,340,187623,6,0,L|140:300,1,112,4|8,1:2|1:2,0:0:0:0:
108,232,188073,1,8,0:2:0:0:
108,232,188148,1,8,0:2:0:0:
108,232,188223,2,0,P|124:224|136:224,6,28,8|8|8|8|8|8|8,1:2|0:2|0:2|0:2|1:2|0:2|0:2,0:0:0:0:
184,160,188823,2,0,P|173:151|159:147,6,28,8|8|8|8|8|8|8,1:2|0:2|0:2|0:2|1:2|0:2|0:2,0:0:0:0:
108,84,189423,2,0,P|118:75|132:71,6,28,0|8|8|8|0|8|8,1:2|0:2|0:2|0:2|1:2|0:2|0:2,0:0:0:0:
36,164,190023,5,0,1:2:0:0:
256,192,190098,12,2,193623,0:2:0:0:
36,164,200673,5,2,1:2:0:0:
36,164,200748,1,0,1:2:0:0:
36,164,200823,2,0,L|48:236,1,62.9999980773926,14|0,0:0|0:0,0:0:0:0:
120,260,201123,1,2,1:2:0:0:
120,260,201273,2,0,L|188:248,1,62.9999980773926,14|2,0:2|1:2,0:0:0:0:
264,252,201573,1,2,0:2:0:0:
264,252,201723,2,0,L|272:316,1,62.9999980773926,14|0,0:2|0:0,0:0:0:0:
348,344,202023,6,0,L|384:356,7,31.4999990386963,10|0|0|0|10|0|0|0,0:2|1:2|1:2|1:2|0:2|1:2|1:2|1:2,0:0:0:0:
416,336,202623,2,0,L|448:324,7,31.4999990386963,8|0|0|0|8|0|0|0,0:2|1:2|1:2|1:2|0:2|1:2|1:2|1:2,0:0:0:0:
484,312,203223,5,8,0:2:0:0:
484,312,203373,2,0,P|504:288|504:256,1,62.9999980773926,8|0,0:2|1:2,0:0:0:0:
456,180,203673,1,8,0:2:0:0:
456,180,203823,2,0,P|436:160|400:160,1,62.9999980773926,8|0,0:2|1:2,0:0:0:0:
340,212,204123,2,0,P|320:212|304:200,3,31.4999990386963,8|8|0|0,0:2|0:2|1:2|1:2,0:0:0:0:
272,188,204423,6,0,L|252:60,1,125.999996154785,14|0,0:2|0:0,0:0:0:0:
176,32,204873,2,0,P|104:32|52:128,1,188.999994232178,0|2,0:0|0:2,0:0:0:0:
84,304,205623,6,0,P|136:348|200:328,1,140,6|8,1:2|0:2,0:0:0:0:
252,252,206073,2,0,L|260:112,1,140,2|0,1:2|1:2,0:0:0:0:
308,32,206523,6,0,P|384:24|424:68,1,140,10|0,0:2|0:0,0:0:0:0:
476,144,206973,2,0,L|456:284,1,140,2|0,1:2|0:0,0:0:0:0:
396,348,207423,6,0,L|328:328,1,70,2|2,1:2|1:2,0:0:0:0:
284,248,207723,2,0,L|216:268,1,70,10|0,0:2|0:0,0:0:0:0:
168,344,208023,6,0,P|100:344|76:280,1,140,2|10,1:2|0:2,0:0:0:0:
56,192,208473,2,0,L|64:120,1,70,2|0,1:2|0:0,0:0:0:0:
124,56,208773,1,2,1:2:0:0:
192,116,208923,2,0,L|208:186,1,70,10|0,0:2|0:0,0:0:0:0:
240,268,209223,5,2,1:2:0:0:
332,276,209373,2,0,B|408:288|388:216|456:224,1,140,0|8,1:2|0:2,0:0:0:0:
488,140,209823,2,0,L|468:72,1,70,2|0,1:2|1:2,0:0:0:0:
380,32,210123,2,0,L|368:104,1,70,10|0,0:2|0:0,0:0:0:0:
312,172,210423,6,0,P|272:172|248:148,1,70,6|0,1:2|0:0,0:0:0:0:
180,96,210723,1,10,0:2:0:0:
180,96,210873,2,0,P|116:96|84:160,1,140,2|0,1:2|1:2,0:0:0:0:
88,248,211323,2,0,L|156:264,1,70,10|0,0:2|0:0,0:0:0:0:
216,332,211623,5,2,0:2:0:0:
216,332,211773,2,0,L|364:304,1,140,2|0,1:2|0:0,0:0:0:0:
444,292,212223,2,0,L|452:220,1,70,2|0,1:2|1:2,0:0:0:0:
508,152,212523,2,0,L|488:84,1,70,10|4,0:2|1:2,0:0:0:0:
412,32,212823,6,0,B|344:16|360:96|288:80,1,140,2|10,0:2|0:2,0:0:0:0:
200,64,213273,2,0,L|132:52,1,70,2|8,1:2|0:2,0:0:0:0:
52,96,213573,1,2,1:2:0:0:
68,184,213723,2,0,L|140:168,1,70,10|4,0:2|1:2,0:0:0:0:
220,208,214023,5,2,0:2:0:0:
292,152,214173,2,0,L|283:119,2,35,8|8|8,0:2|0:2|0:2,0:0:0:0:
367,203,214473,1,8,0:0:0:0:
367,203,214548,1,8,0:0:0:0:
367,203,214623,2,0,L|407:191,7,35,8|8|12|12|4|4|4|4,0:3|0:3|0:3|0:3|0:3|0:3|0:3|0:3,0:0:0:0:
434,222,215223,6,0,P|450:290|398:334,1,140,6|8,1:2|0:2,0:0:0:0:
316,297,215673,2,0,B|252:280|264:360|192:344,1,140,2|0,1:2|1:2,0:0:0:0:
104,324,216123,6,0,P|68:264|92:204,1,140,10|0,0:2|0:0,0:0:0:0:
152,132,216573,2,0,B|220:112|208:192|280:176,1,140,2|0,1:2|0:0,0:0:0:0:
364,172,217023,6,0,L|432:148,1,70,2|2,1:2|1:2,0:0:0:0:
464,64,217323,2,0,L|396:48,1,70,10|2,0:2|0:2,0:0:0:0:
276,32,217623,6,0,P|232:80|256:148,1,140,6|10,1:2|0:2,0:0:0:0:
284,232,218073,2,0,P|284:292|216:328,1,140,2|0,1:2|1:2,0:0:0:0:
128,328,218523,2,0,L|112:252,1,70,10|0,0:2|0:0,0:0:0:0:
88,172,218823,5,2,1:2:0:0:
108,84,218973,2,0,B|176:60|168:144|236:120,1,140,0|8,1:2|0:2,0:0:0:0:
320,144,219423,1,2,1:2:0:0:
364,64,219573,2,0,P|392:40|424:40,1,70,2|8,1:2|0:2,0:0:0:0:
500,92,219873,1,2,0:2:0:0:
500,212,220023,6,0,L|492:284,1,70,4|0,1:2|0:0,0:0:0:0:
420,340,220323,2,0,L|352:328,1,70,10|0,0:2|0:0,0:0:0:0:
284,264,220623,2,0,L|292:192,1,70,2|0,1:2|0:0,0:0:0:0:
276,100,220923,1,10,0:2:0:0:
196,140,221073,6,0,B|128:148|144:80|68:92,1,140,2|0,0:2|0:0,0:0:0:0:
24,168,221523,2,0,L|40:240,1,70,10|0,0:2|0:0,0:0:0:0:
120,280,221823,1,2,1:2:0:0:
120,280,221973,1,2,1:2:0:0:
184,216,222123,1,10,0:2:0:0:
184,216,222273,1,6,1:2:0:0:
184,216,223398,6,0,L|252:196,1,70,2|0,0:2|0:0,0:0:0:0:
320,264,223698,2,0,L|388:292,1,70,2|0,0:2|0:0,0:0:0:0:
476,244,223998,2,0,P|476:132|356:124,1,251.999992309571,2|0,0:2|0:0,0:0:0:0:
256,192,224973,12,0,229698,0:2:0:0:
