osu file format v14

[General]
AudioFilename: My First Story - Fugakyaku Replace.mp3
AudioLeadIn: 0
PreviewTime: 69653
Countdown: 0
SampleSet: Normal
StackLeniency: 0.7
Mode: 0
LetterboxInBreaks: 1
WidescreenStoryboard: 0

[Editor]
DistanceSpacing: 1.6
BeatDivisor: 4
GridSize: 4
TimelineZoom: 1.8

[Metadata]
Title:Fukagyaku Replace
TitleUnicode:不可逆リプレイス
Artist:MY FIRST STORY
ArtistUnicode:MY FIRST STORY
Creator:Moway
Version:Infinite
Source:
Tags:nobunaga concerto ending fugakyaku irreversible aka pkhg saut toybot
BeatmapID:529080
BeatmapSetID:227021

[Difficulty]
HPDrainRate:6
CircleSize:4
OverallDifficulty:8.5
ApproachRate:9.3
SliderMultiplier:1.8
SliderTickRate:2

[Events]
//Background and Video events
0,0,"bg.jpg",0,0
//Break Periods
2,94753,102999
2,145153,151599
2,194353,200649
//Storyboard Layer 0 (Background)
//Storyboard Layer 1 (Fail)
//Storyboard Layer 2 (Pass)
//Storyboard Layer 3 (Foreground)
//Storyboard Sound Samples

[TimingPoints]
1553,300,4,1,0,30,1,0
1553,-133.333333333333,4,2,2,30,0,0
12953,300,4,1,1,70,1,0
12953,-111.111111111111,4,1,1,70,0,0
20153,-100,4,1,1,70,0,0
21803,-133.333333333333,4,2,1,40,0,0
22403,-100,4,1,1,90,0,1
22553,-100,4,1,1,90,0,0
39203,-125,4,1,1,90,0,0
41753,-111.111111111111,4,2,1,70,0,0
48803,-111.111111111111,4,2,2,70,0,0
48878,-111.111111111111,4,2,1,70,0,0
50003,-111.111111111111,4,2,2,70,0,0
50078,-111.111111111111,4,2,1,70,0,0
51203,-100,4,2,2,80,0,0
51278,-100,4,2,1,80,0,0
56003,-100,4,2,2,80,0,0
56078,-100,4,2,1,80,0,0
58403,-100,4,2,2,80,0,0
58478,-100,4,2,1,80,0,0
59603,-100,4,2,2,80,0,0
59678,-100,4,2,1,80,0,0
60953,-111.111111111111,4,1,1,50,0,0
69953,-133.333333333333,4,2,1,50,0,0
70553,-95.2380952380952,4,1,1,90,0,1
80078,-95.2380952380952,4,1,1,90,0,0
80153,-95.2380952380952,4,1,1,90,0,1
89753,-133.333333333333,4,2,2,50,0,0
91553,-111.111111111111,4,1,1,70,0,0
103553,-100,4,1,1,80,0,0
104003,-100,4,2,2,80,0,0
104078,-100,4,2,1,80,0,0
106403,-100,4,2,2,80,0,0
106478,-100,4,2,1,80,0,0
108803,-111.111111111111,4,2,2,90,0,0
108878,-111.111111111111,4,2,1,90,0,0
111203,-100,4,2,2,90,0,0
111278,-100,4,2,1,90,0,0
112403,-100,4,2,2,70,0,0
113303,-100,4,2,1,70,0,0
113753,-111.111111111111,4,1,1,50,0,0
118553,-111.111111111111,4,1,1,70,0,0
120953,-111.111111111111,4,1,1,80,0,0
122153,-111.111111111111,4,1,1,90,0,0
122753,-133.333333333333,4,2,2,90,0,0
123053,-133.333333333333,4,2,1,5,0,0
123353,-95.2380952380952,4,1,1,90,0,1
132878,-95.2380952380952,4,1,1,90,0,0
132953,-95.2380952380952,4,1,1,90,0,1
142553,-95.2380952380952,4,2,1,30,0,0
152153,-133.333333333333,4,2,2,50,0,0
171353,-111.111111111111,4,2,2,75,0,0
171428,-111.111111111111,4,2,1,75,0,0
176153,-111.111111111111,4,2,2,75,0,0
176228,-111.111111111111,4,2,1,75,0,0
180953,-111.111111111111,4,2,2,60,0,0
181028,-111.111111111111,4,2,1,60,0,0
185753,-111.111111111111,4,2,2,50,0,0
185828,-111.111111111111,4,2,1,50,0,0
188153,-111.111111111111,4,2,2,50,0,0
188453,-111.111111111111,4,3,0,50,0,0
190628,-111.111111111111,4,2,2,5,0,0
201203,-100,4,1,1,90,0,0
204953,-133.333333333333,4,2,2,30,0,0
205403,-166.666666666667,4,2,2,20,0,0
206153,-95.2380952380952,4,1,1,90,0,1
215678,-95.2380952380952,4,1,1,90,0,0
215753,-95.2380952380952,4,1,1,90,0,1
222953,-133.333333333333,4,2,1,50,0,0
224528,-166.666666666667,4,2,1,50,0,0
225503,-133.333333333333,4,2,1,5,0,0

[Colours]
Combo1 : 255,0,0
Combo2 : 64,0,128
Combo3 : 0,128,192
Combo4 : 192,192,192

[HitObjects]
304,167,1553,6,0,L|444:179,1,135.000005149842,4|0,0:0|0:0,0:0:0:0:
224,119,2003,2,0,P|172:135|108:203,1,135.000005149842,2|0,0:0|0:0,0:0:0:0:
216,359,2453,2,0,P|210:291|191:227,1,135.000005149842,2|0,0:0|0:0,0:0:0:0:
284,271,2903,2,0,L|432:295,1,135.000005149842
216,359,3353,2,0,P|182:363|136:375,1,67.5000025749208,2|0,0:0|0:0,0:0:0:0:
212,261,3653,1,2,0:0:0:0:
133,208,3803,1,0,0:0:0:0:
274,179,3953,6,0,P|317:174|434:184,1,135.000005149842,2|0,0:0|0:0,0:0:0:0:
248,100,4403,2,0,P|204:85|198:6,1,135.000005149842,2|0,0:0|0:0,0:0:0:0:
198,172,4853,2,0,L|183:315,1,135.000005149842,2|0,0:0|0:0,0:0:0:0:
121,125,5453,1,0,0:0:0:0:
121,125,5603,1,0,0:0:0:0:
121,125,5753,2,0,B|151:147|151:147|252:135,1,135.000005149842,2|0,0:0|0:0,0:0:0:0:
437,53,6353,6,0,P|445:95|448:198,1,135.000005149842,4|0,0:0|0:0,0:0:0:0:
343,361,6803,2,0,P|335:323|335:293,1,67.5000025749208,2|0,0:0|0:0,0:0:0:0:
349,133,7103,1,0,0:0:0:0:
487,211,7253,2,0,P|440:224|348:212,1,135.000005149842,2|0,0:0|0:0,0:0:0:0:
138,90,7703,2,0,P|185:77|277:89,1,135.000005149842,2|0,0:0|0:0,0:0:0:0:
289,257,8153,2,0,P|290:291|279:330,1,67.5000025749208,2|0,0:0|0:0,0:0:0:0:
206,224,8453,2,0,P|182:249|147:268,1,67.5000025749208,2|0,0:0|0:0,0:0:0:0:
366,197,8753,6,0,P|416:190|495:150,1,135.000005149842,4|0,0:0|0:0,0:0:0:0:
287,153,9203,2,0,B|238:172|238:172|262:202|261:261,1,135.000005149842,2|0,0:0|0:0,0:0:0:0:
185,309,9653,2,0,P|209:258|234:363,1,270.000010299683,2|0,0:0|0:0,0:0:0:0:
256,192,10328,12,0,12803,0:0:0:0:
440,268,12953,6,0,P|404:288|360:292,1,80.9999975280763,8|2,0:0|0:0,0:0:0:0:
292,136,13253,2,0,L|308:224,1,80.9999975280763,8|2,0:0|0:0,0:0:0:0:
204,344,13553,2,0,L|218:264,1,80.9999975280763,8|2,0:0|0:0,0:0:0:0:
152,156,13853,2,0,P|111:168|68:168,1,80.9999975280763,8|2,0:0|0:0,0:0:0:0:
288,43,14153,6,0,P|329:31|372:31,1,80.9999975280763,8|2,0:0|0:0,0:0:0:0:
221,108,14453,1,8,0:0:0:0:
339,128,14603,1,2,0:0:0:0:
325,219,14753,2,0,L|305:297,1,80.9999975280763,8|2,0:0|0:0,0:0:0:0:
216,308,15053,1,8,0:0:0:0:
401,258,15203,1,2,0:0:0:0:
262,144,15353,6,0,L|240:233,1,80.9999975280763,8|2,0:0|0:0,0:0:0:0:
436,360,15653,2,0,P|395:340|353:335,1,80.9999975280763,8|2,0:0|0:0,0:0:0:0:
186,330,15953,2,0,P|225:323|261:304,1,80.9999975280763,8|2,0:0|0:0,0:0:0:0:
350,95,16253,1,8,0:0:0:0:
447,174,16403,6,0,L|457:265,1,80.9999975280763,2|8,0:0|0:0,0:0:0:0:
249,355,16703,1,2,0:0:0:0:
326,321,16853,2,0,P|368:297|390:270,1,80.9999975280763,8|2,0:0|0:0,0:0:0:0:
218,254,17153,2,0,P|156:241|110:218,1,80.9999975280763,8|2,0:0|0:0,0:0:0:0:
330,62,17453,1,8,0:0:0:0:
328,173,17603,1,2,0:0:0:0:
328,173,17678,1,2,0:0:0:0:
328,173,17753,6,0,L|422:160,1,80.9999975280763,4|2,0:0|0:0,0:0:0:0:
245,85,18053,1,8,0:0:0:0:
183,228,18203,2,0,L|102:239,1,80.9999975280763,2|8,0:0|0:0,0:0:0:0:
245,85,18503,1,2,0:0:0:0:
328,173,18653,2,0,P|345:222|345:258,1,80.9999975280763,8|2,0:0|0:0,0:0:0:0:
152,107,18953,6,0,P|154:66|169:29,1,80.9999975280763,8|2,0:0|0:0,0:0:0:0:
247,180,19253,1,8,0:0:0:0:
125,192,19403,2,0,L|22:182,1,80.9999975280763,0|10,0:0|0:0,0:0:0:0:
245,85,19703,1,2,0:0:0:0:
272,260,19853,2,0,P|276:308|268:343,1,80.9999975280763,8|2,0:0|0:0,0:0:0:0:
125,192,20153,6,0,L|121:127,1,45,8|0,0:0|0:0,0:0:0:0:
206,90,20303,2,0,L|211:135,1,45,2|0,0:0|0:0,0:0:0:0:
299,174,20453,2,0,L|296:129,1,45,2|0,0:0|0:0,0:0:0:0:
386,138,20603,5,8,0:0:0:0:
430,135,20678,1,0,0:0:0:0:
471,151,20753,1,2,0:0:0:0:
496,188,20828,1,2,0:0:0:0:
504,232,20903,1,2,0:0:0:0:
496,276,20978,1,2,0:0:0:0:
462,306,21053,6,0,L|407:298,1,45,8|0,0:0|0:0,0:0:0:0:
223,343,21203,2,0,L|268:350,1,45,4|0,0:0|0:0,0:0:0:0:
105,49,21803,6,0,L|110:92,1,33.7500012874604,2|0,0:0|0:0,0:0:0:0:
132,160,21953,2,0,B|168:104|232:120|232:120|251:105|238:80|218:75,1,168.750006437302,2|0,0:0|0:0,0:0:0:0:
204,191,22403,6,0,P|223:235|355:266,1,180,4|2,0:0|0:0,0:0:0:0:
482,189,22853,2,0,L|385:205,1,90,8|0,0:0|0:0,0:0:0:0:
355,359,23153,2,0,P|398:335|424:296,1,90,2|2,0:0|0:0,0:0:0:0:
438,67,23453,1,8,0:0:0:0:
295,230,23603,6,0,P|256:272|137:274,1,180,4|2,0:0|0:0,0:0:0:0:
76,92,24053,2,0,P|53:124|63:189,1,90,0|0,0:0|0:0,0:0:0:0:
172,328,24353,2,0,L|208:228,1,90,2|2,0:0|0:0,0:0:0:0:
186,101,24653,1,8,0:0:0:0:
283,298,24803,6,0,B|345:341|412:304|412:304|406:353,1,180,4|2,0:0|0:0,0:0:0:0:
351,213,25253,2,0,P|368:170|402:131,1,90,8|0,0:0|0:0,0:0:0:0:
203,175,25553,2,0,P|158:193|101:198,1,90,2|2,0:0|0:0,0:0:0:0:
374,47,25853,2,0,P|425:53|461:72,1,90,8|0,0:0|0:0,0:0:0:0:
512,262,26153,6,0,P|461:256|425:237,1,90,2|0,0:0|0:0,0:0:0:0:
275,94,26453,1,8,0:0:0:0:
275,94,26603,1,0,0:0:0:0:
269,240,26753,1,2,0:0:0:0:
383,104,26903,1,2,0:0:0:0:
269,240,27053,1,8,0:0:0:0:
413,195,27203,6,0,P|423:241|365:354,1,180,4|0,0:0|0:0,0:0:0:0:
234,203,27653,2,0,P|274:163|318:142,1,90,8|0,0:0|0:0,0:0:0:0:
255,322,27953,1,2,0:0:0:0:
154,360,28103,1,2,0:0:0:0:
73,287,28253,1,8,0:0:0:0:
118,189,28403,6,0,P|149:122|119:17,1,180,4|2,0:0|0:0,0:0:0:0:
27,214,28853,1,8,0:0:0:0:
228,113,29003,1,0,0:0:0:0:
228,113,29078,1,0,0:0:0:0:
228,113,29153,1,2,0:0:0:0:
300,216,29303,1,2,0:0:0:0:
174,228,29453,1,8,0:0:0:0:
356,109,29603,6,0,B|412:148|416:228|416:228|356:204,1,180,4|2,0:0|0:0,0:0:0:0:
252,169,30053,1,8,0:0:0:0:
440,84,30203,1,2,0:0:0:0:
460,74,30278,1,2,0:0:0:0:
481,66,30353,1,2,0:0:0:0:
269,81,30503,1,2,0:0:0:0:
373,22,30653,1,8,0:0:0:0:
397,155,30803,1,2,0:0:0:0:
401,176,30878,1,2,0:0:0:0:
406,198,30953,6,0,P|405:246|385:291,1,90,8|2,0:0|0:0,0:0:0:0:
155,141,31253,2,0,P|155:92|175:47,1,90,8|2,0:0|0:0,0:0:0:0:
308,253,31553,1,8,0:0:0:0:
158,306,31703,1,2,0:0:0:0:
314,342,31853,1,2,0:0:0:0:
143,220,32003,6,0,P|132:175|145:40,1,180,4|2,0:0|0:0,0:0:0:0:
54,245,32453,2,0,L|-6:334,1,90,8|0,0:0|0:0,0:0:0:0:
221,184,32753,2,0,P|269:173|319:175,1,90,2|2,0:0|0:0,0:0:0:0:
414,365,33053,1,8,0:0:0:0:
496,171,33203,6,0,P|434:182|366:277,1,180,4|2,0:0|0:0,0:0:0:0:
266,358,33653,2,0,L|246:255,1,90,8|0,0:0|0:0,0:0:0:0:
368,50,33953,2,0,P|365:100|351:139,1,90,2|2,0:0|0:0,0:0:0:0:
256,38,34253,1,8,0:0:0:0:
438,120,34403,6,0,P|423:169|291:223,1,180,4|2,0:0|0:0,0:0:0:0:
413,285,34853,2,0,L|507:262,1,90,8|0,0:0|0:0,0:0:0:0:
321,121,35153,2,0,L|233:100,1,90,2|2,0:0|0:0,0:0:0:0:
180,331,35453,2,0,P|232:301|260:269,1,90,8|0,0:0|0:0,0:0:0:0:
83,51,35753,6,0,P|78:95|81:146,1,90,2|0,0:0|0:0,0:0:0:0:
124,367,36053,2,0,P|129:323|126:272,1,90,8|0,0:0|0:0,0:0:0:0:
20,247,36353,1,2,0:0:0:0:
182,156,36503,1,2,0:0:0:0:
12,111,36653,1,8,0:0:0:0:
158,258,36803,6,0,P|254:231|288:156,1,180,4|2,0:0|0:0,0:0:0:0:
368,291,37253,2,0,P|414:301|471:301,1,90,8|0,0:0|0:0,0:0:0:0:
238,340,37553,2,0,P|193:342|149:352,1,90,2|2,0:0|0:0,0:0:0:0:
379,199,37853,1,8,0:0:0:0:
281,263,38003,6,0,B|250:213|279:132|279:132|224:144,1,180,4|2,0:0|0:0,0:0:0:0:
379,199,38453,2,0,L|470:188,1,90,8|0,0:0|0:0,0:0:0:0:
182,209,38753,1,2,0:0:0:0:
348,94,38903,1,2,0:0:0:0:
281,263,39053,1,8,0:0:0:0:
185,106,39203,6,0,L|34:86,1,144,4|0,0:0|0:0,0:0:0:0:
182,209,39653,1,2,0:0:0:0:
278,135,39803,1,2,0:0:0:0:
369,215,39953,2,0,P|383:264|374:357,1,144,8|0,0:0|0:0,0:0:0:0:
419,141,40403,6,0,P|455:176|494:261,1,144,2|0,0:0|0:0,0:0:0:0:
304,263,40853,2,0,L|282:189,1,72,2|0,0:0|0:0,0:0:0:0:
348,86,41153,1,8,0:0:0:0:
348,86,41303,1,8,0:0:0:0:
199,212,41453,1,2,0:0:0:0:
348,86,41603,1,8,0:0:0:0:
199,212,41753,6,0,L|193:297,1,80.9999975280763,4|4,0:0|0:0,0:0:0:0:
130,121,42053,1,8,0:0:0:0:
130,121,42353,1,8,0:0:0:0:
130,121,42653,2,0,P|174:124|215:122,1,80.9999975280763,8|4,0:0|0:0,0:0:0:0:
436,181,42953,6,0,P|392:178|351:180,1,80.9999975280763,8|4,0:0|0:0,0:0:0:0:
154,235,43253,1,8,0:0:0:0:
213,331,43403,2,0,P|252:295|262:264,1,80.9999975280763,4|8,0:0|0:0,0:0:0:0:
236,80,43703,2,0,P|221:133|232:175,1,80.9999975280763,4|8,0:0|0:0,0:0:0:0:
387,289,44003,6,0,L|353:207,1,80.9999975280763,0|8,0:0|0:0,0:0:0:0:
312,84,44303,1,0,0:0:0:0:
387,289,44453,1,8,0:0:0:0:
387,289,44753,1,8,0:0:0:0:
299,331,44903,2,0,P|257:333|215:344,1,80.9999975280763,4|8,0:0|0:0,0:0:0:0:
123,324,45203,1,4,0:0:0:0:
87,233,45353,5,8,0:0:0:0:
87,233,45503,1,0,0:0:0:0:
235,77,45653,1,8,0:0:0:0:
235,77,45803,1,0,0:0:0:0:
211,171,45953,2,0,P|206:217|211:260,1,80.9999975280763,8|4,0:0|0:0,0:0:0:0:
245,341,46253,2,0,P|293:333|285:264,1,121.499996292114,8|0,0:0|0:0,0:0:0:0:
293,270,46553,6,0,L|386:300,1,80.9999975280763,8|4,0:0|0:0,0:0:0:0:
303,138,46853,1,8,0:0:0:0:
303,138,47153,1,8,0:0:0:0:
303,138,47453,2,0,L|219:153,1,80.9999975280763,8|4,0:0|0:0,0:0:0:0:
115,96,47753,6,0,P|107:146|110:180,1,80.9999975280763,8|0,0:0|0:0,0:0:0:0:
174,293,48053,1,8,0:0:0:0:
222,65,48353,1,8,0:0:0:0:
174,293,48503,1,4,0:0:0:0:
326,220,48653,1,8,0:0:0:0:
131,184,48803,6,0,P|86:203|58:312,1,161.999995056153,4|0,0:0|0:0,0:0:0:0:
214,158,49253,2,0,L|229:59,1,80.9999975280763,8|0,0:0|0:0,0:0:0:0:
253,315,49553,1,4,0:0:0:0:
253,315,49703,1,4,0:0:0:0:
326,220,49853,1,8,0:0:0:0:
148,321,50003,6,0,P|103:291|89:180,1,161.999995056153,4|4,0:0|0:0,0:0:0:0:
181,46,50453,2,0,L|190:131,1,80.9999975280763,8|0,0:0|0:0,0:0:0:0:
252,345,50753,2,0,L|260:264,1,80.9999975280763,4|4,0:0|0:0,0:0:0:0:
331,47,51053,1,8,0:0:0:0:
450,180,51203,6,0,B|380:207|356:146|268:180,1,180,4|4,0:0|0:0,0:0:0:0:
143,318,51653,2,0,P|186:293|212:257,1,90,8|0,0:0|0:0,0:0:0:0:
179,67,51953,1,4,0:0:0:0:
116,216,52103,1,4,0:0:0:0:
253,130,52253,1,8,0:0:0:0:
91,125,52403,1,0,0:0:0:0:
219,223,52553,6,0,P|262:227|318:208,1,90,4|0,0:0|0:0,0:0:0:0:
253,130,52853,1,8,0:0:0:0:
351,276,53003,2,0,P|385:246|408:202,1,90,4|4,0:0|0:0,0:0:0:0:
336,40,53303,2,0,L|350:142,1,90,0|8,0:0|0:0,0:0:0:0:
477,180,53603,6,0,P|473:232|383:337,1,180,4|4,0:0|0:0,0:0:0:0:
179,240,54053,2,0,L|277:243,1,90,8|0,0:0|0:0,0:0:0:0:
200,336,54353,1,4,0:0:0:0:
98,170,54503,1,4,0:0:0:0:
105,272,54653,1,8,0:0:0:0:
150,82,54803,1,0,0:0:0:0:
241,166,54953,6,0,P|286:164|337:153,1,90,4|0,0:0|0:0,0:0:0:0:
426,72,55253,1,8,0:0:0:0:
392,218,55403,2,0,P|383:266|387:321,1,90,0|4,0:0|0:0,0:0:0:0:
478,270,55703,1,4,0:0:0:0:
299,261,55853,1,8,0:0:0:0:
478,270,56003,6,0,P|494:214|414:123,1,180,4|4,0:0|0:0,0:0:0:0:
212,180,56453,2,0,P|258:180|324:168,1,90,8|0,0:0|0:0,0:0:0:0:
355,27,56753,2,0,P|308:26|243:39,1,90,4|4,0:0|0:0,0:0:0:0:
124,116,57053,1,8,0:0:0:0:
212,180,57203,6,0,B|216:251|216:251|248:291|248:291|254:361,1,180,4|4,0:0|0:0,0:0:0:0:
297,210,57653,2,0,L|293:103,1,90,8|0,0:0|0:0,0:0:0:0:
136,239,57953,2,0,L|140:346,1,90,4|4,0:0|0:0,0:0:0:0:
323,371,58253,1,8,0:0:0:0:
396,283,58403,6,0,B|441:228|524:247|524:247|477:277,1,180,4|0,0:0|0:0,0:0:0:0:
273,277,58853,2,0,P|228:265|176:235,1,90,8|4,0:0|0:0,0:0:0:0:
265,171,59153,1,8,0:0:0:0:
270,350,59303,1,4,0:0:0:0:
111,264,59453,1,8,0:0:0:0:
265,171,59603,6,0,P|277:120|265:73,1,90,4|0,0:0|0:0,0:0:0:0:
140,146,59903,1,8,0:0:0:0:
129,165,59978,1,0,0:0:0:0:
118,184,60053,1,8,0:0:0:0:
107,203,60128,1,0,0:0:0:0:
96,222,60203,1,8,0:0:0:0:
84,241,60278,1,0,0:0:0:0:
73,260,60353,6,0,L|77:318,1,45,8|0,0:0|0:0,0:0:0:0:
158,342,60503,2,0,L|162:298,1,45,8|0,0:0|0:0,0:0:0:0:
250,259,60653,2,0,L|254:317,1,45,8|8,0:0|0:0,0:0:0:0:
335,341,60803,2,0,L|339:297,1,45,8|0,0:0|0:0,0:0:0:0:
424,256,60953,6,0,L|513:239,1,80.9999975280763,4|2,0:0|0:0,0:0:0:0:
357,95,61253,2,0,P|345:143|355:186,1,80.9999975280763,8|2,0:0|0:0,0:0:0:0:
265,366,61553,2,0,P|277:318|267:275,1,80.9999975280763,8|2,0:0|0:0,0:0:0:0:
197,86,61853,1,8,0:0:0:0:
127,175,62003,1,2,0:0:0:0:
227,224,62153,6,0,L|324:213,1,80.9999975280763,8|2,0:0|0:0,0:0:0:0:
166,284,62453,2,0,L|69:295,1,80.9999975280763,8|2,0:0|0:0,0:0:0:0:
256,302,62753,2,0,L|289:331,2,40.4999987640381,8|0|2,0:0|0:0|0:0,0:0:0:0:
141,189,63053,2,0,P|137:149|141:107,1,80.9999975280763,8|2,0:0|0:0,0:0:0:0:
367,124,63353,6,0,P|370:84|367:42,1,80.9999975280763,8|2,0:0|0:0,0:0:0:0:
225,258,63653,2,0,L|327:243,1,80.9999975280763,8|2,0:0|0:0,0:0:0:0:
64,155,63953,2,0,L|166:140,1,80.9999975280763,8|2,0:0|0:0,0:0:0:0:
94,302,64253,1,8,0:0:0:0:
235,178,64403,6,0,B|245:159|245:159|238:85,1,80.9999975280763,2|8,0:0|0:0,0:0:0:0:
339,28,64703,1,2,0:0:0:0:
320,214,64853,2,0,B|310:233|310:233|317:307,1,80.9999975280763,8|2,0:0|0:0,0:0:0:0:
474,155,65153,2,0,L|385:166,1,80.9999975280763,8|2,0:0|0:0,0:0:0:0:
225,287,65453,1,2,0:0:0:0:
191,310,65528,1,0,0:0:0:0:
151,319,65603,1,2,0:0:0:0:
111,310,65678,1,0,0:0:0:0:
88,276,65753,6,0,L|85:186,1,80.9999975280763,4|2,0:0|0:0,0:0:0:0:
199,36,66053,1,8,0:0:0:0:
266,106,66203,2,0,L|268:186,1,80.9999975280763,2|8,0:0|0:0,0:0:0:0:
372,357,66503,1,2,0:0:0:0:
439,287,66653,2,0,L|441:206,1,80.9999975280763,8|2,0:0|0:0,0:0:0:0:
426,77,66953,6,0,P|382:73|340:74,1,80.9999975280763,8|2,0:0|0:0,0:0:0:0:
86,307,67253,2,0,P|130:311|172:310,1,80.9999975280763,8|2,0:0|0:0,0:0:0:0:
322,228,67553,1,8,0:0:0:0:
185,154,67703,1,2,0:0:0:0:
314,70,67853,2,0,L|319:160,1,80.9999975280763,8|2,0:0|0:0,0:0:0:0:
256,332,68153,5,8,0:0:0:0:
215,328,68228,1,8,0:0:0:0:
174,324,68303,1,2,0:0:0:0:
133,321,68378,1,2,0:0:0:0:
92,314,68453,2,0,L|83:371,1,40.4999987640381,8|8,0:0|0:0,0:0:0:0:
173,213,68603,2,0,L|179:172,1,40.4999987640381,2|2,0:0|0:0,0:0:0:0:
69,81,68753,5,8,0:0:0:0:
35,104,68828,1,8,0:0:0:0:
17,140,68903,1,2,0:0:0:0:
22,180,68978,1,2,0:0:0:0:
38,217,69053,2,0,L|88:213,1,40.4999987640381,8|8,0:0|0:0,0:0:0:0:
186,119,69203,2,0,L|145:122,1,40.4999987640381,4|0,0:0|0:0,0:0:0:0:
461,64,69953,5,0,0:0:0:0:
444,325,70253,1,0,0:0:0:0:
316,165,70553,6,0,P|269:146|198:155,1,94.499997116089,4|0,0:0|0:0,0:0:0:0:
252,271,70853,1,8,0:0:0:0:
220,57,71003,2,0,P|173:76|129:133,1,94.499997116089,2|0,0:0|0:0,0:0:0:0:
252,271,71303,1,2,0:0:0:0:
391,238,71453,6,0,P|403:194|393:142,1,94.499997116089,8|0,0:0|0:0,0:0:0:0:
252,271,71753,1,0,0:0:0:0:
473,135,71903,2,0,P|451:95|406:65,1,94.499997116089,2|8,0:0|0:0,0:0:0:0:
221,84,72203,1,0,0:0:0:0:
93,232,72353,2,0,L|204:215,1,94.499997116089,2|2,0:0|0:0,0:0:0:0:
366,132,72653,2,0,L|272:146,1,94.499997116089,8|0,0:0|0:0,0:0:0:0:
281,353,72953,6,0,P|321:325|339:281,1,94.499997116089,2|0,0:0|0:0,0:0:0:0:
439,182,73253,1,8,0:0:0:0:
252,271,73403,2,0,L|145:252,1,94.499997116089,2|0,0:0|0:0,0:0:0:0:
99,125,73703,1,2,0:0:0:0:
186,66,73853,2,0,P|204:113|197:163,1,94.499997116089,8|0,0:0|0:0,0:0:0:0:
13,190,74153,6,0,P|-5:143|2:93,1,94.499997116089,2|2,0:0|0:0,0:0:0:0:
82,26,74453,1,0,0:0:0:0:
118,233,74603,1,8,0:0:0:0:
186,66,74753,1,2,0:0:0:0:
87,167,74903,1,2,0:0:0:0:
217,224,75053,2,0,P|268:223|308:194,1,94.499997116089,8|0,0:0|0:0,0:0:0:0:
427,46,75353,6,0,L|432:149,1,94.499997116089,4|0,0:0|0:0,0:0:0:0:
438,342,75653,1,8,0:0:0:0:
305,375,75803,2,0,L|300:272,1,94.499997116089,0|2,0:0|0:0,0:0:0:0:
294,79,76103,1,0,0:0:0:0:
457,252,76253,6,0,P|405:273|362:274,1,94.499997116089,8|0,0:0|0:0,0:0:0:0:
47,252,76553,1,2,0:0:0:0:
55,131,76703,2,0,P|107:110|150:109,1,94.499997116089,0|8,0:0|0:0,0:0:0:0:
256,304,77003,1,0,0:0:0:0:
69,333,77153,1,2,0:0:0:0:
33,147,77303,1,2,0:0:0:0:
69,333,77453,1,8,0:0:0:0:
136,210,77603,6,0,B|183:177|235:195|235:195|264:231|317:226,1,188.999994232178,4|2,0:0|0:0,0:0:0:0:
189,118,78053,1,8,0:0:0:0:
196,278,78203,1,2,0:0:0:0:
299,155,78353,1,8,0:0:0:0:
105,124,78503,1,2,0:0:0:0:
280,53,78653,1,8,0:0:0:0:
117,31,78803,6,0,L|103:145,1,94.499997116089,4|0,0:0|0:0,0:0:0:0:
178,245,79103,2,0,L|192:297,2,47.2499985580445,8|8|8,0:0|0:0|0:0,0:0:0:0:
249,123,79403,5,8,0:0:0:0:
291,101,79478,1,8,0:0:0:0:
338,99,79553,1,8,0:0:0:0:
382,116,79628,1,8,0:0:0:0:
420,143,79703,5,8,3:0:0:0:
445,182,79778,1,8,0:0:0:0:
455,228,79853,1,8,0:0:0:0:
448,274,79928,1,8,0:0:0:0:
428,317,80003,1,8,0:0:0:0:
391,346,80078,1,8,0:0:0:0:
343,348,80153,6,0,P|279:330|237:329,1,94.499997116089,4|0,0:0|0:0,0:0:0:0:
73,321,80453,1,8,0:0:0:0:
204,259,80603,2,0,P|250:254|295:239,1,94.499997116089,2|0,0:0|0:0,0:0:0:0:
225,92,80903,1,2,0:0:0:0:
80,159,81053,6,0,B|58:180|58:180|65:252,1,94.499997116089,8|0,0:0|0:0,0:0:0:0:
208,349,81353,1,0,0:0:0:0:
325,269,81503,2,0,B|347:248|347:248|340:176,1,94.499997116089,2|8,0:0|0:0,0:0:0:0:
229,38,81803,1,0,0:0:0:0:
170,165,81953,2,0,P|214:149|283:138,1,94.499997116089,2|2,0:0|0:0,0:0:0:0:
461,51,82253,2,0,P|417:67|348:78,1,94.499997116089,8|0,0:0|0:0,0:0:0:0:
476,222,82553,6,0,P|490:258|472:320,1,94.499997116089,2|0,0:0|0:0,0:0:0:0:
445,142,82853,1,8,0:0:0:0:
392,307,83003,2,0,P|376:342|319:373,1,94.499997116089,2|0,0:0|0:0,0:0:0:0:
445,142,83303,1,2,0:0:0:0:
259,271,83453,2,0,L|143:252,1,94.499997116089,8|0,0:0|0:0,0:0:0:0:
151,46,83753,6,0,L|244:61,1,94.499997116089,2|2,0:0|0:0,0:0:0:0:
65,29,84053,2,0,P|43:80|46:124,1,94.499997116089,0|8,0:0|0:0,0:0:0:0:
139,250,84353,1,2,0:0:0:0:
200,125,84503,1,2,0:0:0:0:
45,196,84653,1,8,0:0:0:0:
50,218,84728,1,0,0:0:0:0:
54,241,84803,1,0,0:0:0:0:
48,263,84878,1,0,0:0:0:0:
46,286,84953,6,0,P|73:327|128:347,1,94.499997116089,4|0,0:0|0:0,0:0:0:0:
307,224,85253,2,0,L|189:210,1,94.499997116089,8|0,0:0|0:0,0:0:0:0:
250,335,85553,2,0,L|368:321,1,94.499997116089,2|0,0:0|0:0,0:0:0:0:
439,106,85853,1,8,0:0:0:0:
459,221,86003,1,0,0:0:0:0:
459,221,86078,1,0,0:0:0:0:
459,221,86153,6,0,B|439:248|439:248|439:316,1,94.499997116089,2|0,0:0|0:0,0:0:0:0:
342,119,86453,2,0,B|362:92|362:92|362:24,1,94.499997116089,8|0,0:0|0:0,0:0:0:0:
245,206,86753,1,2,0:0:0:0:
392,171,86903,1,2,0:0:0:0:
286,62,87053,1,8,0:0:0:0:
342,245,87203,6,0,B|365:287|353:312|353:312|303:297|231:314,1,188.999994232178,4|2,0:0|0:0,0:0:0:0:
92,328,87653,2,0,P|75:283|72:227,1,94.499997116089,8|2,0:0|0:0,0:0:0:0:
264,220,87953,2,0,P|277:169|275:121,1,94.499997116089,8|2,0:0|0:0,0:0:0:0:
84,56,88253,1,0,0:0:0:0:
256,332,88403,5,4,0:0:0:0:
256,52,88703,1,2,0:0:0:0:
256,332,89003,1,2,0:0:0:0:
396,192,89303,5,2,0:0:0:0:
396,192,89453,2,0,L|288:176,1,94.499997116089,8|2,0:0|0:0,0:0:0:0:
88,111,89753,6,0,L|164:103,1,67.5000025749208,4|0,0:0|0:0,0:0:0:0:
156,104,90203,2,0,P|204:111|296:103,1,135.000005149842,2|0,0:0|0:0,0:0:0:0:
384,64,90653,1,0,0:0:0:0:
300,40,90803,2,0,P|288:112|308:192,1,135.000005149842,2|0,0:0|0:0,0:0:0:0:
336,280,91253,1,2,0:0:0:0:
326,293,91328,1,0,0:0:0:0:
316,307,91403,1,2,0:0:0:0:
153,133,91553,5,8,0:0:0:0:
121,307,91703,1,2,0:0:0:0:
121,307,91853,1,2,0:0:0:0:
239,193,92003,6,0,B|305:184|305:184|337:198|337:198|410:189,1,161.999995056153,4|2,0:0|0:0,0:0:0:0:
153,133,92453,2,0,L|70:120,1,80.9999975280763,8|0,0:0|0:0,0:0:0:0:
147,238,92753,2,0,P|173:276|208:294,1,80.9999975280763,8|0,0:0|0:0,0:0:0:0:
305,262,92978,2,0,P|259:265|226:286,1,80.9999975280763,8|0,3:0|0:0,0:0:0:0:
288,338,93203,6,0,L|327:178,1,161.999995056153,2|2,0:0|0:0,0:0:0:0:
384,85,93653,2,0,L|413:177,1,80.9999975280763,8|0,0:0|0:0,0:0:0:0:
461,276,93953,2,0,L|518:257,3,53.9999983520508,4|8|4|2,3:0|0:0|3:0|2:0,0:0:0:0:
332,179,94403,1,0,0:0:0:0:
256,360,94553,5,2,0:0:0:0:
115,118,103553,5,8,0:0:0:0:
21,265,103703,1,2,0:0:0:0:
115,118,103853,1,8,0:0:0:0:
150,290,104003,6,0,L|334:275,1,180,4|4,0:0|0:0,0:0:0:0:
420,223,104453,2,0,P|428:270|428:317,1,90,8|0,0:0|0:0,0:0:0:0:
304,152,104753,2,0,P|296:105|296:58,1,90,4|4,0:0|0:0,0:0:0:0:
390,103,105053,1,8,0:0:0:0:
204,114,105203,1,0,0:0:0:0:
390,103,105353,6,0,B|465:93|465:93|475:72,1,90,4|4,0:0|0:0,0:0:0:0:
317,31,105653,1,8,0:0:0:0:
260,213,105803,2,0,L|156:225,1,90,0|4,0:0|0:0,0:0:0:0:
51,68,106103,2,0,L|140:57,1,90,4|8,0:0|0:0,0:0:0:0:
339,164,106403,6,0,B|380:189|380:189|342:220|368:329,1,180,4|4,0:0|0:0,0:0:0:0:
481,322,106853,1,8,0:0:0:0:
481,322,107003,1,0,0:0:0:0:
497,154,107153,2,0,P|460:196|451:235,1,90,4|4,0:0|0:0,0:0:0:0:
414,71,107453,1,8,0:0:0:0:
414,71,107603,1,0,0:0:0:0:
339,164,107753,6,0,L|233:175,1,90,4|0,0:0|0:0,0:0:0:0:
156,74,108053,1,8,0:0:0:0:
113,261,108203,1,0,0:0:0:0:
256,93,108353,1,4,0:0:0:0:
68,31,108503,1,4,0:0:0:0:
219,226,108653,1,8,0:0:0:0:
31,164,108803,6,0,P|91:135|188:146,1,161.999995056153,4|4,0:0|0:0,0:0:0:0:
219,226,109253,2,0,L|245:309,1,80.9999975280763,4|0,0:0|0:0,0:0:0:0:
294,376,109553,2,0,P|326:333|335:213,1,161.999995056153,8|0,0:0|0:0,0:0:0:0:
270,60,110003,6,0,P|261:120|271:157,1,80.9999975280763,0|4,0:0|0:0,0:0:0:0:
355,105,110303,1,0,0:0:0:0:
180,127,110453,2,0,P|202:183|229:210,1,80.9999975280763,4|4,0:0|0:0,0:0:0:0:
355,105,110753,1,8,0:0:0:0:
169,47,110903,1,4,0:0:0:0:
386,25,111053,1,8,0:0:0:0:
332,199,111203,6,0,B|312:257|312:257|274:232|191:240,1,180,4|4,0:0|0:0,0:0:0:0:
23,350,111653,2,0,P|76:330|95:304,1,90,8|0,0:0|0:0,0:0:0:0:
115,59,111953,2,0,P|105:114|118:144,1,90,4|4,0:0|0:0,0:0:0:0:
256,332,112253,1,8,0:0:0:0:
456,192,112403,5,4,0:0:0:0:
56,192,112703,1,4,0:0:0:0:
456,192,113003,1,4,0:0:0:0:
56,192,113303,1,4,0:0:0:0:
56,192,113453,2,0,L|156:172,1,90,8|0,0:0|0:0,0:0:0:0:
248,108,113753,6,0,L|260:196,1,80.9999975280763,4|0,0:0|0:0,0:0:0:0:
368,341,114203,1,2,0:0:0:0:
368,341,114353,2,0,L|272:325,1,80.9999975280763,8|2,0:0|0:0,0:0:0:0:
186,309,114653,1,2,0:0:0:0:
411,252,114803,1,8,0:0:0:0:
432,163,114953,6,0,L|446:82,2,80.9999975280763,4|0|0,0:0|0:0|0:0,0:0:0:0:
411,252,115403,1,2,0:0:0:0:
320,65,115553,2,0,L|228:57,1,80.9999975280763,8|2,0:0|0:0,0:0:0:0:
21,149,115853,2,0,L|113:141,1,80.9999975280763,0|2,0:0|0:0,0:0:0:0:
258,246,116153,6,0,P|262:205|251:167,1,80.9999975280763,4|2,0:0|0:0,0:0:0:0:
91,314,116603,1,2,0:0:0:0:
91,314,116753,2,0,L|190:305,1,80.9999975280763,8|2,0:0|0:0,0:0:0:0:
424,273,117053,1,0,0:0:0:0:
424,273,117203,6,0,L|325:264,1,80.9999975280763,2|4,0:0|0:0,0:0:0:0:
79,229,117503,2,0,L|178:220,1,80.9999975280763,0|2,0:0|0:0,0:0:0:0:
347,171,117803,1,2,0:0:0:0:
315,338,117953,2,0,P|272:305|263:195,1,161.999995056153,8|2,0:0|0:0,0:0:0:0:
309,29,118403,1,2,0:0:0:0:
404,109,118553,6,0,P|374:140|337:151,1,80.9999975280763,4|2,0:0|0:0,0:0:0:0:
254,121,118853,1,8,0:0:0:0:
169,150,119003,2,0,L|64:162,1,80.9999975280763,2|8,0:0|0:0,0:0:0:0:
23,98,119303,1,2,0:0:0:0:
133,246,119453,6,0,L|213:236,1,80.9999975280763,8|2,0:0|0:0,0:0:0:0:
307,172,119753,1,8,0:0:0:0:
378,259,119903,2,0,P|393:305|401:347,1,80.9999975280763,2|8,0:0|0:0,0:0:0:0:
416,168,120203,1,2,0:0:0:0:
300,322,120353,2,0,L|210:327,1,80.9999975280763,8|2,0:0|0:0,0:0:0:0:
212,62,120653,2,0,L|302:57,1,80.9999975280763,8|0,0:0|0:0,0:0:0:0:
307,277,120953,5,8,0:0:0:0:
181,129,121103,1,2,0:0:0:0:
307,106,121253,5,8,0:0:0:0:
181,255,121403,1,2,0:0:0:0:
143,97,121553,5,8,0:0:0:0:
332,319,121703,1,2,0:0:0:0:
332,62,121853,5,8,0:0:0:0:
143,286,122003,1,2,0:0:0:0:
63,133,122153,5,8,0:0:0:0:
99,117,122228,1,0,0:0:0:0:
139,113,122303,1,0,0:0:0:0:
179,119,122378,1,0,0:0:0:0:
216,134,122453,1,8,0:0:0:0:
254,147,122528,1,0,0:0:0:0:
293,155,122603,1,0,0:0:0:0:
332,147,122678,1,0,0:0:0:0:
356,125,122753,6,0,B|371:98|371:98|391:117|391:117|475:117,1,135.000005149842,4|0,0:0|0:0,0:0:0:0:
141,315,123353,6,0,P|133:275|141:215,1,94.499997116089,4|0,0:0|0:0,0:0:0:0:
243,111,123653,1,8,0:0:0:0:
99,129,123803,2,0,L|-5:139,1,94.499997116089,2|0,0:0|0:0,0:0:0:0:
163,60,124103,1,2,0:0:0:0:
248,209,124253,6,0,L|342:199,1,94.499997116089,8|0,0:0|0:0,0:0:0:0:
240,33,124553,1,0,0:0:0:0:
156,214,124703,2,0,P|149:266|154:309,1,94.499997116089,2|8,0:0|0:0,0:0:0:0:
331,355,125003,1,0,0:0:0:0:
401,271,125153,2,0,P|448:261|508:261,1,94.499997116089,2|2,0:0|0:0,0:0:0:0:
277,184,125453,2,0,P|324:182|370:173,1,94.499997116089,8|0,0:0|0:0,0:0:0:0:
97,129,125753,6,0,P|56:169|53:215,1,94.499997116089,2|0,0:0|0:0,0:0:0:0:
54,336,126053,1,8,0:0:0:0:
184,356,126203,2,0,P|225:316|228:270,1,94.499997116089,2|0,0:0|0:0,0:0:0:0:
225,64,126503,1,2,0:0:0:0:
275,171,126653,2,0,P|304:222|332:250,1,94.499997116089,8|0,0:0|0:0,0:0:0:0:
156,131,126953,6,0,P|109:150|59:160,1,94.499997116089,2|2,0:0|0:0,0:0:0:0:
374,145,127253,2,0,P|421:126|471:116,1,94.499997116089,0|8,0:0|0:0,0:0:0:0:
277,31,127553,1,2,0:0:0:0:
223,192,127703,1,2,0:0:0:0:
110,64,127853,2,0,L|96:165,1,94.499997116089,8|0,0:0|0:0,0:0:0:0:
28,313,128153,6,0,P|74:326|125:319,1,94.499997116089,4|0,0:0|0:0,0:0:0:0:
342,202,128453,1,8,0:0:0:0:
251,143,128603,2,0,P|205:130|154:137,1,94.499997116089,0|2,0:0|0:0,0:0:0:0:
375,343,128903,1,0,0:0:0:0:
434,252,129053,6,0,P|447:206|440:155,1,94.499997116089,8|0,0:0|0:0,0:0:0:0:
331,42,129353,1,2,0:0:0:0:
272,133,129503,2,0,P|259:179|266:230,1,94.499997116089,0|8,0:0|0:0,0:0:0:0:
375,343,129803,1,0,0:0:0:0:
248,318,129953,2,0,P|202:308|136:308,1,94.499997116089,2|2,0:0|0:0,0:0:0:0:
32,253,130253,1,8,0:0:0:0:
66,152,130403,6,0,P|155:150|189:253,1,188.999994232178,4|2,0:0|0:0,0:0:0:0:
330,216,130853,2,0,L|458:203,1,94.499997116089,8|2,0:0|0:0,0:0:0:0:
270,102,131153,1,8,0:0:0:0:
207,259,131303,1,2,0:0:0:0:
104,65,131453,1,8,0:0:0:0:
114,217,131603,6,0,P|100:264|60:298,1,94.499997116089,4|0,0:0|0:0,0:0:0:0:
66,79,131903,2,0,L|39:24,2,47.2499985580445,8|8|8,0:0|0:0|0:0,0:0:0:0:
197,140,132203,5,8,0:0:0:0:
220,137,132278,1,8,0:0:0:0:
243,135,132353,1,8,0:0:0:0:
266,133,132428,1,8,0:0:0:0:
289,130,132503,5,8,3:0:0:0:
330,107,132578,1,8,0:0:0:0:
376,100,132653,1,8,0:0:0:0:
418,121,132728,1,8,0:0:0:0:
446,158,132803,1,8,0:0:0:0:
459,203,132878,1,8,0:0:0:0:
454,250,132953,6,0,L|344:256,1,94.499997116089,4|0,0:0|0:0,0:0:0:0:
118,266,133253,1,8,0:0:0:0:
240,368,133403,2,0,P|248:322|240:276,1,94.499997116089,2|0,0:0|0:0,0:0:0:0:
219,27,133703,1,2,0:0:0:0:
102,85,133853,6,0,P|94:131|102:177,1,94.499997116089,8|0,0:0|0:0,0:0:0:0:
319,256,134153,1,0,0:0:0:0:
167,323,134303,2,0,L|63:345,1,94.499997116089,2|8,0:0|0:0,0:0:0:0:
203,221,134603,1,0,0:0:0:0:
301,356,134753,2,0,L|393:336,1,94.499997116089,2|2,0:0|0:0,0:0:0:0:
493,221,135053,2,0,L|473:128,1,94.499997116089,8|0,0:0|0:0,0:0:0:0:
257,113,135353,6,0,P|221:152|167:166,1,94.499997116089,2|0,0:0|0:0,0:0:0:0:
147,41,135653,1,8,0:0:0:0:
275,218,135803,2,0,P|311:257|365:271,1,94.499997116089,2|0,0:0|0:0,0:0:0:0:
385,146,136103,1,2,0:0:0:0:
186,270,136253,2,0,L|70:259,1,94.499997116089,8|0,0:0|0:0,0:0:0:0:
58,65,136553,6,0,L|152:73,1,94.499997116089,2|2,0:0|0:0,0:0:0:0:
455,109,136853,2,0,L|361:117,1,94.499997116089,0|8,0:0|0:0,0:0:0:0:
137,167,137153,2,0,P|124:224|131:265,1,94.499997116089,2|2,0:0|0:0,0:0:0:0:
320,340,137453,1,8,0:0:0:0:
334,321,137528,1,0,0:0:0:0:
341,298,137603,1,0,0:0:0:0:
338,274,137678,1,0,0:0:0:0:
327,252,137753,6,0,P|326:195|343:153,1,94.499997116089,4|0,0:0|0:0,0:0:0:0:
508,66,138053,2,0,L|404:48,1,94.499997116089,8|0,0:0|0:0,0:0:0:0:
163,145,138353,2,0,L|197:240,1,94.499997116089,2|0,0:0|0:0,0:0:0:0:
433,138,138653,1,8,0:0:0:0:
318,57,138803,1,0,0:0:0:0:
318,57,138878,1,0,0:0:0:0:
318,57,138953,6,0,P|297:102|295:146,1,94.499997116089,2|0,0:0|0:0,0:0:0:0:
337,360,139253,2,0,P|308:319|271:295,1,94.499997116089,8|0,0:0|0:0,0:0:0:0:
405,208,139553,1,2,0:0:0:0:
214,213,139703,1,2,0:0:0:0:
405,208,139853,1,8,0:0:0:0:
216,132,140003,6,0,B|290:114|290:114|321:133|321:133|403:116,1,188.999994232178,4|2,0:0|0:0,0:0:0:0:
148,82,140453,2,0,L|51:36,1,94.499997116089,8|2,0:0|0:0,0:0:0:0:
148,188,140753,2,0,B|129:218|129:218|145:286,1,94.499997116089,8|2,0:0|0:0,0:0:0:0:
256,344,141053,1,0,0:0:0:0:
440,192,141203,5,4,0:0:0:0:
80,56,141503,1,2,0:0:0:0:
440,192,141803,1,2,0:0:0:0:
304,32,142103,5,2,0:0:0:0:
304,32,142253,2,0,B|266:69|264:116|328:140|304:168|304:168|269:150,1,188.999994232178,8|4,0:0|0:0,0:0:0:0:
256,192,142628,12,2,144953,0:0:0:0:
256,148,152153,6,0,P|310:151|388:108,1,135.000005149842,2|0,0:0|0:0,0:0:0:0:
197,74,152603,2,0,P|165:114|156:211,1,135.000005149842,2|0,0:0|0:0,0:0:0:0:
235,240,153053,2,0,P|287:264|320:353,1,135.000005149842,2|0,0:0|0:0,0:0:0:0:
399,277,153503,2,0,L|474:263,2,67.5000025749208,2|0|0,0:0|0:0|0:0,0:0:0:0:
223,333,153953,2,0,B|155:340|155:340|126:312|85:308,1,135.000005149842,2|0,0:0|0:0,0:0:0:0:
35,366,154403,1,0,0:0:0:0:
135,238,154553,6,0,P|153:177|141:95,1,135.000005149842,2|0,0:0|0:0,0:0:0:0:
267,39,155003,2,0,P|249:100|261:182,1,135.000005149842,2|0,0:0|0:0,0:0:0:0:
321,240,155453,2,0,L|403:233,2,67.5000025749208,2|0|0,0:0|0:0|0:0,0:0:0:0:
260,313,155903,1,2,0:0:0:0:
181,259,156053,2,0,L|21:244,1,135.000005149842,0|0,0:0|0:0,0:0:0:0:
242,147,156503,1,0,0:0:0:0:
242,147,156653,2,0,L|250:219,1,67.5000025749208,2|0,0:0|0:0,0:0:0:0:
147,143,156953,6,0,P|160:92|251:52,1,135.000005149842,2|0,0:0|0:0,0:0:0:0:
292,72,157403,2,0,L|159:18,1,135.000005149842,2|0,0:0|0:0,0:0:0:0:
310,160,157853,2,0,P|344:147|383:58,1,135.000005149842,2|0,0:0|0:0,0:0:0:0:
395,204,158303,2,0,L|395:281,2,67.5000025749208,2|0|0,0:0|0:0|0:0,0:0:0:0:
482,298,158753,2,0,P|465:334|442:349,1,67.5000025749208,2|0,0:0|0:0,0:0:0:0:
262,310,159053,2,0,P|279:274|302:259,1,67.5000025749208,2|0,0:0|0:0,0:0:0:0:
190,345,159353,6,0,P|120:335|45:336,1,135.000005149842,2|0,0:0|0:0,0:0:0:0:
184,240,159803,2,0,P|114:230|39:231,1,135.000005149842,2|0,0:0|0:0,0:0:0:0:
281,251,160253,1,2,0:0:0:0:
210,160,160403,2,0,P|185:115|185:82,1,67.5000025749208
300,107,160703,2,0,P|314:57|337:34,1,67.5000025749208,2|0,0:0|0:0,0:0:0:0:
455,20,161003,1,0,0:0:0:0:
410,179,161153,2,0,L|333:179,1,67.5000025749208,2|0,0:0|0:0,0:0:0:0:
166,37,161453,2,0,L|233:37,1,67.5000025749208,2|0,0:0|0:0,0:0:0:0:
290,118,161753,6,0,B|217:117|217:117|240:152|222:187,1,135.000005149842,2|0,0:0|0:0,0:0:0:0:
151,288,162203,2,0,P|131:224|148:160,1,135.000005149842,2|0,0:0|0:0,0:0:0:0:
237,278,162653,2,0,L|388:261,1,135.000005149842,2|0,0:0|0:0,0:0:0:0:
491,182,163103,2,0,L|424:188,2,67.5000025749208,2|0|0,0:0|0:0|0:0,0:0:0:0:
322,81,163553,2,0,L|359:148,1,67.5000025749208,2|0,0:0|0:0,0:0:0:0:
228,188,163853,2,0,L|242:120,1,67.5000025749208,2|0,0:0|0:0,0:0:0:0:
301,241,164153,6,0,P|263:271|175:263,1,135.000005149842,2|0,0:0|0:0,0:0:0:0:
45,243,164603,2,0,P|102:226|145:156,1,135.000005149842,2|0,0:0|0:0,0:0:0:0:
170,35,165053,2,0,B|178:81|178:81|222:91|229:154,1,135.000005149842,2|0,0:0|0:0,0:0:0:0:
303,126,165503,2,0,L|380:134,2,67.5000025749208,2|0|0,0:0|0:0|0:0,0:0:0:0:
374,50,165953,2,0,L|451:58,1,67.5000025749208,2|0,0:0|0:0,0:0:0:0:
424,225,166253,2,0,L|356:218,1,67.5000025749208,2|0,0:0|0:0,0:0:0:0:
199,240,166553,6,0,P|254:217|269:122,1,135.000005149842,2|0,0:0|0:0,0:0:0:0:
199,240,167003,2,0,P|151:203|61:238,1,135.000005149842,2|0,0:0|0:0,0:0:0:0:
199,240,167453,2,0,P|191:299|266:359,1,135.000005149842,2|0,0:0|0:0,0:0:0:0:
302,206,167903,2,0,L|376:180,2,67.5000025749208,2|0|0,0:0|0:0|0:0,0:0:0:0:
183,164,168353,2,0,P|151:132|138:106,1,67.5000025749208,2|0,0:0|0:0,0:0:0:0:
267,42,168653,2,0,P|299:74|312:100,1,67.5000025749208,2|0,0:0|0:0,0:0:0:0:
210,254,168953,6,0,B|137:255|137:255|112:223|72:216,1,135.000005149842,2|0,0:0|0:0,0:0:0:0:
216,333,169403,2,0,B|264:330|279:290|279:290|305:299|344:283,1,135.000005149842,2|0,0:0|0:0,0:0:0:0:
296,111,169853,2,0,B|321:154|302:218|302:218|279:198,1,135.000005149842,2|0,0:0|0:0,0:0:0:0:
381,155,170303,2,0,L|460:147,1,67.5000025749208,2|0,0:0|0:0,0:0:0:0:
373,61,170603,1,0,0:0:0:0:
344,270,170753,2,0,L|328:344,1,67.5000025749208,2|0,0:0|0:0,0:0:0:0:
281,106,171053,2,0,L|266:40,1,67.5000025749208,2|0,0:0|0:0,0:0:0:0:
201,243,171353,6,0,P|161:269|51:244,1,161.999995056153,4|8,0:0|0:0,0:0:0:0:
118,99,171803,2,0,P|134:138|132:181,1,80.9999975280763,2|4,0:0|0:0,0:0:0:0:
220,333,172103,2,0,L|318:325,1,80.9999975280763,10|4,0:0|0:0,0:0:0:0:
423,350,172403,1,0,0:0:0:0:
423,350,172478,1,0,0:0:0:0:
423,350,172553,6,0,P|425:304|420:258,1,80.9999975280763,6|0,0:0|0:0,0:0:0:0:
402,45,172853,2,0,P|400:91|405:137,1,80.9999975280763,6|0,0:0|0:0,0:0:0:0:
317,240,173153,1,10,0:0:0:0:
317,240,173228,1,0,0:0:0:0:
317,240,173303,1,2,0:0:0:0:
317,240,173378,1,0,0:0:0:0:
317,240,173453,2,0,L|226:230,1,80.9999975280763,6|0,0:0|0:0,0:0:0:0:
78,214,173753,6,0,B|186:172|186:172|144:151,1,161.999995056153,6|8,0:0|0:0,0:0:0:0:
99,297,174203,1,2,0:0:0:0:
57,138,174353,1,4,0:0:0:0:
214,257,174503,2,0,L|300:223,1,80.9999975280763,10|0,0:0|0:0,0:0:0:0:
445,95,174803,1,2,0:0:0:0:
478,209,174953,6,0,L|396:193,1,80.9999975280763,6|0,0:0|0:0,0:0:0:0:
306,63,175253,2,0,L|290:145,1,80.9999975280763,6|0,0:0|0:0,0:0:0:0:
353,288,175553,1,10,0:0:0:0:
353,288,175703,1,0,0:0:0:0:
219,204,175853,1,6,0:0:0:0:
219,204,176003,1,0,0:0:0:0:
121,269,176153,6,0,P|115:302|125:357,1,80.9999975280763,4|0,0:0|0:0,0:0:0:0:
211,308,176453,1,8,0:0:0:0:
121,269,176603,2,0,L|33:259,1,80.9999975280763,2|4,0:0|0:0,0:0:0:0:
219,204,176903,1,10,0:0:0:0:
305,301,177053,6,0,L|393:291,1,80.9999975280763,4|0,0:0|0:0,0:0:0:0:
219,204,177353,1,6,0:0:0:0:
345,205,177503,2,0,P|390:187|411:157,1,80.9999975280763,2|8,0:0|0:0,0:0:0:0:
279,111,177803,1,2,0:0:0:0:
219,204,177953,2,0,L|206:288,1,80.9999975280763,6|0,0:0|0:0,0:0:0:0:
69,333,178253,1,6,0:0:0:0:
66,312,178328,1,0,0:0:0:0:
64,291,178403,1,2,0:0:0:0:
62,270,178478,1,0,0:0:0:0:
61,249,178553,6,0,L|152:234,1,80.9999975280763,4|0,0:0|0:0,0:0:0:0:
177,66,178853,2,0,L|192:157,1,80.9999975280763,10|0,0:0|0:0,0:0:0:0:
311,200,179153,1,4,0:0:0:0:
109,162,179303,1,10,0:0:0:0:
267,27,179453,2,0,L|282:118,1,80.9999975280763,6|0,0:0|0:0,0:0:0:0:
183,300,179753,6,0,P|162:339|124:364,1,80.9999975280763,6|0,0:0|0:0,0:0:0:0:
236,213,180053,2,0,P|256:253|294:274,1,80.9999975280763,6|0,0:0|0:0,0:0:0:0:
99,276,180353,1,10,0:0:0:0:
99,276,180503,1,8,3:0:0:0:
311,200,180653,1,6,0:0:0:0:
99,276,180803,1,8,0:0:0:0:
39,151,180953,6,0,P|85:113|157:106,1,121.499996292114,4|0,0:0|0:0,0:0:0:0:
184,112,181253,2,0,P|172:156|179:198,2,80.9999975280763,4|8|4,0:0|0:0|0:0,0:0:0:0:
224,41,181703,1,0,0:0:0:0:
101,198,181853,6,0,P|123:248|189:295,1,121.499996292114,8|0,0:0|0:0,0:0:0:0:
214,294,182153,2,0,P|252:321|268:356,2,80.9999975280763,4|8|4,0:0|0:0|0:0,0:0:0:0:
84,310,182603,1,0,0:0:0:0:
254,221,182753,2,0,L|339:205,1,80.9999975280763,4|0,0:0|0:0,0:0:0:0:
434,58,183053,2,0,L|354:72,1,80.9999975280763,4|8,0:0|0:0,0:0:0:0:
166,160,183353,6,0,P|128:132|119:49,1,121.499996292114,8|0,0:0|0:0,0:0:0:0:
132,25,183653,2,0,L|62:86,2,80.9999975280763,4|8|4,0:0|0:0|0:0,0:0:0:0:
273,52,184103,1,0,0:0:0:0:
125,233,184253,6,0,L|264:218,1,121.499996292114,8|0,0:0|0:0,0:0:0:0:
286,212,184553,2,0,P|305:251|303:294,2,80.9999975280763,4|8|4,0:0|0:0|0:0,0:0:0:0:
202,92,185003,1,0,0:0:0:0:
56,180,185153,2,0,P|40:225|43:262,1,80.9999975280763,8|0,0:0|0:0,0:0:0:0:
111,348,185453,1,4,0:0:0:0:
111,348,185603,1,8,0:0:0:0:
177,264,185753,6,0,P|185:218|158:140,1,121.499996292114,4|0,0:0|0:0,0:0:0:0:
141,112,186053,2,0,L|226:75,2,80.9999975280763,4|8|4,0:0|0:0|0:0,0:0:0:0:
66,206,186503,1,0,0:0:0:0:
264,162,186653,6,0,P|307:160|394:195,1,121.499996292114,8|0,0:0|0:0,0:0:0:0:
410,212,186953,2,0,P|446:235|490:239,2,80.9999975280763,4|8|4,0:0|0:0|0:0,0:0:0:0:
409,68,187403,1,0,0:0:0:0:
328,265,187553,2,0,P|309:297|301:347,1,80.9999975280763,4|0,0:0|0:0,0:0:0:0:
419,300,187853,1,4,0:0:0:0:
321,177,188003,1,8,0:0:0:0:
419,300,188153,5,4,0:0:0:0:
93,300,188453,6,0,L|84:246,3,40.4999987640381,0|0|0|0,0:0|0:0|0:0|0:0,0:0:0:0:
164,234,188753,2,0,L|157:180,3,40.4999987640381,0|0|0|0,0:0|0:0|0:0|0:0,0:0:0:0:
239,182,189053,2,0,L|230:128,3,40.4999987640381,0|0|0|0,0:3|0:0|0:0|0:0,0:0:0:0:
331,224,189353,5,0,0:0:0:0:
366,232,189428,1,0,0:0:0:0:
401,222,189503,1,0,0:0:0:0:
433,205,189578,1,0,0:0:0:0:
452,173,189653,1,0,0:0:0:0:
452,136,189728,1,0,0:0:0:0:
434,104,189803,1,0,0:0:0:0:
403,83,189878,1,0,0:0:0:0:
366,79,189953,6,0,L|318:115,1,40.4999987640381
314,208,190103,2,0,L|369:231,1,40.4999987640381
452,189,190253,2,0,L|444:129,1,40.4999987640381
378,156,190403,1,0,0:0:0:0:
378,156,190478,1,0,0:0:0:0:
378,156,190553,5,2,0:2:0:0:
256,192,190628,12,2,194153,0:0:0:0:
171,133,201203,5,2,0:0:0:0:
171,133,201278,1,2,0:0:0:0:
171,133,201353,2,0,L|181:226,1,90,4|0,0:0|0:0,0:0:0:0:
92,80,201653,1,2,0:0:0:0:
254,171,201803,2,0,P|299:188|350:194,1,90,8|2,0:0|0:0,0:0:0:0:
477,132,202103,1,2,0:0:0:0:
390,29,202253,2,0,L|385:120,1,90,8|0,0:0|0:0,0:0:0:0:
376,302,202553,5,4,0:0:0:0:
346,313,202628,1,0,0:0:0:0:
314,317,202703,1,0,0:0:0:0:
282,313,202778,1,0,0:0:0:0:
252,302,202853,1,2,0:0:0:0:
221,295,202928,1,0,0:0:0:0:
189,295,203003,1,0,0:0:0:0:
158,303,203078,1,0,0:0:0:0:
126,304,203153,5,2,0:0:0:0:
82,282,203228,1,0,0:0:0:0:
58,243,203303,1,0,0:0:0:0:
63,198,203378,1,0,0:0:0:0:
91,163,203453,1,2,0:0:0:0:
134,150,203528,1,0,0:0:0:0:
178,157,203603,1,0,0:0:0:0:
215,181,203678,1,0,0:0:0:0:
259,188,203753,6,0,P|290:149|297:104,1,90,4|0,0:0|0:0,0:0:0:0:
45,35,204053,1,8,0:0:0:0:
189,261,204203,2,0,P|227:287|293:287,1,90,4|0,0:0|0:0,0:0:0:0:
467,35,204503,1,4,0:0:0:0:
256,107,204653,1,8,0:0:0:0:
211,111,204728,1,12,0:0:0:0:
167,100,204803,1,12,0:0:0:0:
127,78,204878,1,8,0:0:0:0:
96,64,204953,6,0,P|35:92|52:187,1,168.750006437302,4|0,0:0|0:0,0:0:0:0:
129,203,205403,6,0,B|185:190|229:216|229:216|265:194|265:194|298:234|370:215,1,242.999992584229,2|0,0:0|0:0,0:0:0:0:
440,156,206153,6,0,P|460:211|454:253,1,94.499997116089,4|0,0:0|0:0,0:0:0:0:
168,346,206453,1,8,0:0:0:0:
72,228,206603,2,0,P|52:173|58:131,1,94.499997116089,2|0,0:0|0:0,0:0:0:0:
344,38,206903,1,2,0:0:0:0:
350,257,207053,6,0,L|238:247,1,94.499997116089,8|0,0:0|0:0,0:0:0:0:
50,234,207353,1,0,0:0:0:0:
114,108,207503,2,0,L|226:118,1,94.499997116089,2|8,0:0|0:0,0:0:0:0:
414,131,207803,1,0,0:0:0:0:
350,257,207953,1,2,0:0:0:0:
277,87,208103,1,2,0:0:0:0:
175,234,208253,2,0,P|161:284|167:326,1,94.499997116089,8|0,0:0|0:0,0:0:0:0:
374,138,208553,6,0,P|388:88|382:46,1,94.499997116089,2|0,0:0|0:0,0:0:0:0:
277,87,208853,1,8,0:0:0:0:
404,238,209003,2,0,P|449:212|474:178,1,94.499997116089,2|0,0:0|0:0,0:0:0:0:
277,87,209303,1,2,0:0:0:0:
294,215,209453,2,0,L|308:322,1,94.499997116089,8|0,0:0|0:0,0:0:0:0:
129,147,209753,6,0,P|138:94|176:60,1,94.499997116089,2|2,0:0|0:0,0:0:0:0:
170,288,210053,2,0,P|127:318|81:326,1,94.499997116089,0|8,0:0|0:0,0:0:0:0:
276,149,210353,2,0,L|377:157,1,94.499997116089,2|2,0:0|0:0,0:0:0:0:
471,326,210653,2,0,L|376:318,1,94.499997116089,8|0,0:0|0:0,0:0:0:0:
186,137,210953,6,0,P|150:176|143:220,1,94.499997116089,4|0,0:0|0:0,0:0:0:0:
275,234,211253,1,8,0:0:0:0:
49,194,211403,2,0,P|51:247|77:283,1,94.499997116089,0|2,0:0|0:0,0:0:0:0:
275,234,211703,1,0,0:0:0:0:
112,89,211853,6,0,L|-6:83,1,94.499997116089,8|0,0:0|0:0,0:0:0:0:
226,26,212153,1,2,0:0:0:0:
270,166,212303,2,0,L|364:170,1,94.499997116089,0|8,0:0|0:0,0:0:0:0:
226,26,212603,1,0,0:0:0:0:
123,182,212753,2,0,P|108:229|108:279,1,94.499997116089,2|2,0:0|0:0,0:0:0:0:
254,348,213053,1,8,0:0:0:0:
427,246,213203,6,0,B|354:212|294:254|294:254|331:285,1,188.999994232178,4|2,0:0|0:0,0:0:0:0:
454,173,213653,2,0,L|477:81,1,94.499997116089,8|2,0:0|0:0,0:0:0:0:
346,138,213953,2,0,L|344:43,1,94.499997116089,8|2,0:0|0:0,0:0:0:0:
246,182,214253,1,8,0:0:0:0:
213,42,214403,1,4,0:0:0:0:
143,184,214553,5,0,0:0:0:0:
132,215,214628,1,0,0:0:0:0:
120,246,214703,1,8,0:0:0:0:
108,276,214778,1,8,0:0:0:0:
96,306,214853,5,8,0:0:0:0:
141,293,214928,1,0,0:0:0:0:
187,297,215003,1,8,0:0:0:0:
224,325,215078,1,8,0:0:0:0:
256,359,215153,6,0,L|320:346,1,47.2499985580445,8|8,0:0|0:0,0:0:0:0:
402,253,215303,2,0,L|355:262,1,47.2499985580445,8|8,3:0|0:0,0:0:0:0:
232,199,215453,2,0,L|296:186,1,47.2499985580445,8|8,0:0|0:0,0:0:0:0:
378,93,215603,2,0,L|331:102,1,47.2499985580445,8|8,0:0|0:0,0:0:0:0:
122,155,215753,6,0,P|104:109|110:59,1,94.499997116089,4|0,0:0|0:0,0:0:0:0:
336,179,216053,1,8,0:0:0:0:
221,275,216203,2,0,L|105:297,1,94.499997116089,2|0,0:0|0:0,0:0:0:0:
199,113,216503,1,2,0:0:0:0:
390,229,216653,6,0,P|408:275|402:325,1,94.499997116089,8|0,0:0|0:0,0:0:0:0:
176,205,216953,1,0,0:0:0:0:
291,109,217103,2,0,L|407:87,1,94.499997116089,2|8,0:0|0:0,0:0:0:0:
313,271,217403,1,0,0:0:0:0:
196,295,217553,2,0,L|83:291,1,94.499997116089,2|2,0:0|0:0,0:0:0:0:
33,111,217853,2,0,L|127:114,1,94.499997116089,8|0,0:0|0:0,0:0:0:0:
380,166,218153,6,0,P|429:143|454:106,1,94.499997116089,2|0,0:0|0:0,0:0:0:0:
356,33,218453,1,8,0:0:0:0:
286,177,218603,2,0,L|249:266,1,94.499997116089,2|0,0:0|0:0,0:0:0:0:
443,344,218903,1,2,0:0:0:0:
442,239,219053,2,0,P|385:255|361:280,1,94.499997116089,8|0,0:0|0:0,0:0:0:0:
126,337,219353,6,0,P|69:321|45:296,1,94.499997116089,2|2,0:0|0:0,0:0:0:0:
169,92,219653,2,0,L|186:197,1,94.499997116089,0|8,0:0|0:0,0:0:0:0:
77,134,219953,1,2,0:0:0:0:
181,11,220103,1,2,0:0:0:0:
288,99,220253,1,8,0:0:0:0:
310,106,220328,1,0,0:0:0:0:
333,108,220403,1,0,0:0:0:0:
356,108,220478,1,0,0:0:0:0:
379,102,220553,6,0,P|432:95|486:100,1,94.499997116089,4|0,0:0|0:0,0:0:0:0:
217,264,220853,2,0,P|264:266|310:259,1,94.499997116089,8|0,0:0|0:0,0:0:0:0:
472,174,221153,2,0,P|481:222|474:266,1,94.499997116089,2|0,0:0|0:0,0:0:0:0:
299,348,221453,1,8,0:0:0:0:
217,264,221603,1,0,0:0:0:0:
217,264,221678,1,0,0:0:0:0:
217,264,221753,6,0,L|174:153,1,94.499997116089,2|0,0:0|0:0,0:0:0:0:
381,180,222053,2,0,L|306:272,1,94.499997116089,8|0,0:0|0:0,0:0:0:0:
156,106,222353,5,2,0:0:0:0:
426,117,222503,1,2,0:0:0:0:
282,345,222653,1,8,0:0:0:0:
282,193,222803,5,4,0:0:0:0:
282,193,223928,6,0,P|231:191|196:118,1,135.000005149842
195,122,224528,2,0,B|179:176|111:178|111:178|158:218|142:276|142:276|199:249|247:278,1,323.999990112305
256,192,225503,12,0,230153,0:0:0:0:
