osu file format v14

[General]
AudioFilename: audio.mp3
AudioLeadIn: 0
PreviewTime: 69156
Countdown: 1
SampleSet: Normal
StackLeniency: 0.7
Mode: 0
LetterboxInBreaks: 0
WidescreenStoryboard: 0

[Editor]
DistanceSpacing: 1
BeatDivisor: 4
GridSize: 8
TimelineZoom: 3.299999

[Metadata]
Title:Fukagyaku Replace
TitleUnicode:不可逆リプレイス
Artist:MY FIRST STORY
ArtistUnicode:MY FIRST STORY
Creator:Doxa
Version:Reborn
Source:信長協奏曲
Tags:nobunaga concerto ending tv size
BeatmapID:1075649
BeatmapSetID:505654

[Difficulty]
HPDrainRate:6
CircleSize:4
OverallDifficulty:8.5
ApproachRate:9.3
SliderMultiplier:1.4
SliderTickRate:1

[Events]
//Background and Video events
0,0,"Alone.png",0,0
//Break Periods
//Storyboard Layer 0 (Background)
//Storyboard Layer 1 (Fail)
//Storyboard Layer 2 (Pass)
//Storyboard Layer 3 (Foreground)
//Storyboard Sound Samples

[TimingPoints]
706,301.507537688442,4,1,0,100,1,0
12106,300.3003003003,4,1,0,100,1,0
12106,-83.3333333333333,4,1,0,100,0,0
20964,-100,4,1,0,100,0,0
21565,-83.3333333333333,4,1,0,100,0,0
40930,300.285271007457,4,1,0,100,1,0
50388,-76.9230769230769,4,1,0,100,0,0
69156,-200,4,1,0,100,0,0
69757,-66.6666666666667,4,1,0,100,0,1
88224,-100,4,1,0,100,0,0

[Colours]
Combo1 : 244,137,19
Combo2 : 57,87,230
Combo3 : 226,226,226
Combo4 : 34,255,255

[HitObjects]
124,180,706,6,0,P|196:196|256:164,1,140
308,116,1158,1,0,0:0:0:0:
168,88,1610,2,0,L|208:232,1,140
224,292,2062,5,0,0:0:0:0:
408,128,2514,1,0,0:0:0:0:
452,216,2665,1,0,0:0:0:0:
400,300,2815,1,0,0:0:0:0:
180,204,3118,6,0,P|148:136|172:56,1,140
256,124,3570,1,0,0:0:0:0:
256,124,4022,2,0,L|316:172,1,70
368,216,4324,5,0,0:0:0:0:
396,48,4927,2,0,L|312:164,1,140
168,260,5530,6,0,P|216:324|284:332,1,140
272,228,5982,1,0,0:0:0:0:
375,194,6434,2,0,P|338:137|272:120,1,140
272,228,6886,5,0,0:0:0:0:
104,96,7339,1,0,0:0:0:0:
104,96,7640,2,0,B|152:96|152:96|208:112|208:112|256:104,1,140
241,106,8394,5,0,0:0:0:0:
256,192,8846,12,0,12012,0:0:0:0:
360,72,12106,6,0,P|384:120|392:168,1,83.9999974365235
296,144,12406,1,0,0:0:0:0:
256,232,12556,2,0,B|200:232|200:232|145:255|145:255|89:255,1,167.999994873047
88,152,13006,1,0,0:0:0:0:
160,72,13157,1,0,0:0:0:0:
216,192,13307,5,0,0:0:0:0:
248,280,13457,2,0,P|200:288|160:264,1,83.9999974365235
264,104,13757,1,0,0:0:0:0:
376,264,13907,1,0,0:0:0:0:
376,264,14057,2,0,L|408:184,1,83.9999974365235
480,144,14358,2,0,P|446:110|392:104,1,83.9999974365235
264,72,14658,5,0,0:0:0:0:
176,192,14808,2,0,P|142:167|124:129,1,83.9999974365235
288,184,15109,1,0,0:0:0:0:
440,280,15259,2,0,L|392:200,1,83.9999974365235
336,72,15559,1,0,0:0:0:0:
192,184,15709,5,0,0:0:0:0:
352,272,15859,1,0,0:0:0:0:
224,72,16009,1,0,0:0:0:0:
256,312,16160,1,0,0:0:0:0:
440,152,16310,1,0,0:0:0:0:
256,312,16460,1,0,0:0:0:0:
96,184,16610,1,0,0:0:0:0:
256,48,16760,2,0,L|344:48,1,83.9999974365235
440,80,17060,5,0,0:0:0:0:
320,168,17211,1,0,0:0:0:0:
272,264,17361,2,0,P|316:281|368:264,1,83.9999974365235
192,104,17661,1,0,0:0:0:0:
196,199,17811,2,0,P|155:190|120:168,1,83.9999974365235
296,72,18111,5,0,0:0:0:0:
336,240,18262,2,0,P|368:256|440:272,1,83.9999974365235
416,160,18562,1,0,0:0:0:0:
312,344,18712,1,0,0:0:0:0:
192,224,18862,1,0,0:0:0:0:
192,224,19012,2,0,B|160:208|160:208|136:208|136:208|104:192,1,83.9999974365235
216,48,19313,5,0,0:0:0:0:
216,48,19388,1,0,0:0:0:0:
216,48,19463,1,0,0:0:0:0:
216,48,19538,1,0,0:0:0:0:
216,48,19613,1,0,0:0:0:0:
216,48,19688,2,0,L|264:80,1,41.9999987182618
336,184,19838,1,0,0:0:0:0:
304,208,19913,5,0,0:0:0:0:
272,232,19988,1,0,0:0:0:0:
240,256,20063,1,0,0:0:0:0:
208,280,20139,1,0,0:0:0:0:
176,304,20214,2,0,L|136:328,1,41.9999987182618
72,240,20364,2,0,L|80:192,1,41.9999987182618
96,88,20514,1,0,0:0:0:0:
392,96,20964,6,0,L|336:120,1,35
288,152,21115,1,0,0:0:0:0:
80,272,21565,1,0,0:0:0:0:
80,272,21715,6,0,P|120:304|168:320,1,83.9999974365235
256,296,22015,1,0,0:0:0:0:
160,192,22166,1,0,0:0:0:0:
256,88,22316,1,0,0:0:0:0:
256,88,22466,2,0,L|305:155,1,83.9999974365235
416,64,22766,1,0,0:0:0:0:
448,256,22916,6,0,P|400:264|352:240,1,83.9999974365235
288,200,23217,1,0,0:0:0:0:
408,168,23367,1,0,0:0:0:0:
312,336,23517,1,0,0:0:0:0:
304,104,23667,1,0,0:0:0:0:
192,304,23817,1,0,0:0:0:0:
424,280,23967,1,0,0:0:0:0:
416,112,24118,6,0,L|360:192,1,83.9999974365235
304,272,24418,1,0,0:0:0:0:
168,96,24568,1,0,0:0:0:0:
120,192,24718,2,0,P|162:203|216:192,1,83.9999974365235
352,144,25018,1,0,0:0:0:0:
296,344,25169,1,0,0:0:0:0:
120,192,25319,5,0,0:0:0:0:
316,234,25469,2,0,P|293:267|244:290,1,83.9999974365235
256,168,25769,1,0,0:0:0:0:
408,56,25919,1,0,0:0:0:0:
416,240,26069,1,0,0:0:0:0:
208,64,26220,1,0,0:0:0:0:
192,304,26370,2,0,P|229:320|288:304,1,83.9999974365235
240,224,26670,5,0,0:0:0:0:
64,144,26820,2,0,L|144:208,1,83.9999974365235
240,128,27121,1,0,0:0:0:0:
328,232,27271,1,0,0:0:0:0:
416,64,27421,2,0,L|376:144,1,83.9999974365235
328,232,27721,5,0,0:0:0:0:
312,56,27871,1,0,0:0:0:0:
464,224,28021,1,0,0:0:0:0:
464,224,28172,2,0,P|443:268|408:288,1,83.9999974365235
272,200,28472,1,0,0:0:0:0:
192,256,28622,2,0,P|231:284|280:296,1,83.9999974365235
384,96,28922,5,0,0:0:0:0:
144,144,29072,1,0,0:0:0:0:
368,256,29223,1,0,0:0:0:0:
264,48,29373,1,0,0:0:0:0:
128,304,29523,1,0,0:0:0:0:
328,168,29673,1,0,0:0:0:0:
64,152,29823,1,0,0:0:0:0:
256,336,29973,1,0,0:0:0:0:
256,336,30048,1,0,0:0:0:0:
256,336,30124,5,0,0:0:0:0:
224,136,30274,1,0,0:0:0:0:
88,304,30424,1,0,0:0:0:0:
344,160,30574,1,0,0:0:0:0:
128,40,30724,2,0,L|152:96,1,41.9999987182618
224,232,30874,1,0,0:0:0:0:
344,56,31024,1,0,0:0:0:0:
408,272,31175,1,0,0:0:0:0:
320,336,31325,6,0,B|288:328|288:328|261:339|261:339|224:336,1,83.9999974365235
136,296,31625,1,0,0:0:0:0:
104,184,31775,1,0,0:0:0:0:
128,72,31925,2,0,P|176:64|224:72,1,83.9999974365235
256,184,32226,1,0,0:0:0:0:
256,184,32376,2,0,P|280:224|320:248,1,83.9999974365235
360,152,32676,5,0,0:0:0:0:
296,272,32826,1,0,0:0:0:0:
224,96,32976,1,0,0:0:0:0:
384,264,33127,1,0,0:0:0:0:
320,64,33277,1,0,0:0:0:0:
168,224,33428,1,0,0:0:0:0:
448,200,33577,1,0,0:0:0:0:
448,200,33727,6,0,P|438:153|400:120,1,83.9999974365235
320,40,34027,1,0,0:0:0:0:
368,200,34178,1,0,0:0:0:0:
208,144,34328,1,0,0:0:0:0:
256,288,34478,2,0,P|208:304|168:296,1,83.9999974365235
72,216,34778,1,0,0:0:0:0:
96,64,34928,5,0,0:0:0:0:
208,184,35078,1,0,0:0:0:0:
208,184,35154,1,0,0:0:0:0:
208,184,35229,1,0,0:0:0:0:
136,328,35379,1,0,0:0:0:0:
64,184,35529,1,0,0:0:0:0:
208,72,35679,1,0,0:0:0:0:
328,208,35829,2,0,P|304:256|256:280,1,83.9999974365235
168,336,36130,5,0,0:0:0:0:
232,176,36280,1,0,0:0:0:0:
232,176,36430,2,0,P|184:168|128:176,1,83.9999974365235
176,56,36730,1,0,0:0:0:0:
184,264,36880,1,0,0:0:0:0:
352,128,37030,2,0,P|383:155|408:200,1,83.9999974365235
408,304,37331,5,0,0:0:0:0:
288,320,37481,1,0,0:0:0:0:
288,320,37631,2,0,L|200:280,1,83.9999974365235
88,224,37931,1,0,0:0:0:0:
176,64,38081,1,0,0:0:0:0:
176,64,38157,1,0,0:0:0:0:
176,64,38232,1,0,0:0:0:0:
256,240,38382,1,0,0:0:0:0:
256,192,38532,12,0,40184,0:0:0:0:
320,72,40334,5,0,0:0:0:0:
304,304,40484,1,0,0:0:0:0:
112,160,40634,1,0,0:0:0:0:
360,192,40784,1,0,0:0:0:0:
160,288,40930,5,0,0:0:0:0:
256,88,41230,1,0,0:0:0:0:
256,88,41530,1,0,0:0:0:0:
256,88,41830,1,0,0:0:0:0:
256,288,42131,6,0,B|304:280|304:280|344:240|344:240|392:224,1,140
440,144,42581,1,0,0:0:0:0:
360,72,42731,1,0,0:0:0:0:
256,56,42881,1,0,0:0:0:0:
176,128,43031,2,0,L|104:152,2,70
288,192,43632,5,0,0:0:0:0:
288,192,43932,1,0,0:0:0:0:
128,72,44233,1,0,0:0:0:0:
96,176,44383,1,0,0:0:0:0:
136,280,44533,6,0,P|168:306|208:312,1,70
304,288,44833,1,0,0:0:0:0:
216,176,44983,2,0,L|296:176,1,70
400,176,45284,1,0,0:0:0:0:
312,80,45434,2,0,L|400:80,2,70
136,80,46034,5,0,0:0:0:0:
136,80,46335,1,0,0:0:0:0:
136,80,46635,1,0,0:0:0:0:
152,192,46785,1,0,0:0:0:0:
152,192,46935,2,0,P|216:224|280:192,1,140
400,240,47536,2,0,L|432:312,2,70
352,112,47986,1,0,0:0:0:0:
352,112,48136,5,0,0:0:0:0:
141,175,48437,2,0,P|188:226|256:240,1,140
248,120,48887,1,0,0:0:0:0:
248,120,49037,2,0,B|288:128|288:128|344:104|344:104|400:112,2,140
72,48,49938,1,0,0:0:0:0:
144,192,50088,1,0,0:0:0:0:
144,192,50163,1,0,0:0:0:0:
144,192,50238,1,0,0:0:0:0:
272,272,50388,6,0,P|376:272|408:208,1,181.999991668702
400,88,50839,1,0,0:0:0:0:
272,80,50989,2,0,L|312:176,1,90.9999958343508
104,64,51289,1,0,0:0:0:0:
200,112,51439,1,0,0:0:0:0:
104,160,51590,1,0,0:0:0:0:
200,208,51740,5,0,0:0:0:0:
104,160,51890,1,0,0:0:0:0:
128,288,52040,2,0,P|168:312|216:312,1,90.9999958343508
328,296,52340,1,0,0:0:0:0:
400,200,52490,1,0,0:0:0:0:
368,88,52641,2,0,B|328:80|328:80|304:64|304:64|272:56,1,90.9999958343508
176,80,52941,5,0,0:0:0:0:
216,184,53091,1,0,0:0:0:0:
104,192,53241,2,0,P|120:240|160:280,1,90.9999958343508
256,296,53541,1,0,0:0:0:0:
328,208,53692,1,0,0:0:0:0:
400,296,53842,1,0,0:0:0:0:
272,120,53992,1,0,0:0:0:0:
455,134,54142,6,0,P|412:125|370:141,1,90.9999958343508
336,48,54442,1,0,0:0:0:0:
424,232,54592,1,0,0:0:0:0:
224,176,54743,1,0,0:0:0:0:
304,360,54893,1,0,0:0:0:0:
138,158,55043,2,0,P|182:154|223:175,1,90.9999958343508
320,224,55343,5,0,0:0:0:0:
424,208,55493,1,0,0:0:0:0:
440,104,55643,2,0,B|408:88|408:88|376:88|376:88|352:80,1,90.9999958343508
256,48,55944,1,0,0:0:0:0:
256,160,56094,1,0,0:0:0:0:
168,224,56244,2,0,P|208:256|264:272,1,90.9999958343508
288,272,56469,1,0,0:0:0:0:
328,256,56544,6,0,P|368:232|424:224,1,90.9999958343508
416,112,56845,1,0,0:0:0:0:
320,40,56995,1,0,0:0:0:0:
240,136,57145,2,0,P|192:144|136:128,1,90.9999958343508
80,48,57445,1,0,0:0:0:0:
96,248,57595,1,0,0:0:0:0:
96,248,57745,6,0,P|136:280|192:296,1,90.9999958343508
304,312,58046,1,0,0:0:0:0:
416,248,58196,1,0,0:0:0:0:
432,224,58271,1,0,0:0:0:0:
448,200,58346,2,0,L|432:104,1,90.9999958343508
336,160,58646,1,0,0:0:0:0:
240,216,58796,1,0,0:0:0:0:
104,88,58947,5,0,0:0:0:0:
144,68,59022,1,0,0:0:0:0:
189,64,59097,1,0,0:0:0:0:
233,76,59172,1,0,0:0:0:0:
264,112,59247,2,0,L|272:159,1,45.4999979171754
336,256,59397,2,0,L|360:192,1,45.4999979171754
464,80,59547,5,0,0:0:0:0:
464,128,59622,1,0,0:0:0:0:
464,176,59697,1,0,0:0:0:0:
464,224,59772,1,0,0:0:0:0:
464,272,59847,2,0,L|416:264,1,45.4999979171754
176,192,60148,6,0,L|248:136,1,90.9999958343508
320,72,60448,1,0,0:0:0:0:
224,48,60598,1,0,0:0:0:0:
152,96,60748,2,0,L|80:152,1,90.9999958343508
176,192,61049,2,0,L|248:136,1,90.9999958343508
320,72,61349,5,0,0:0:0:0:
344,168,61499,1,0,0:0:0:0:
296,256,61649,2,0,P|328:304|368:328,1,90.9999958343508
464,320,61949,1,0,0:0:0:0:
416,216,62100,1,0,0:0:0:0:
416,216,62175,1,0,0:0:0:0:
416,216,62250,2,0,L|448:128,1,90.9999958343508
368,48,62550,5,0,0:0:0:0:
304,128,62700,1,0,0:0:0:0:
264,224,62850,2,0,P|217:190|200:144,1,90.9999958343508
152,72,63151,1,0,0:0:0:0:
88,152,63301,1,0,0:0:0:0:
96,256,63451,2,0,L|168:312,1,90.9999958343508
208,320,63676,1,0,0:0:0:0:
248,320,63751,6,0,P|296:304|320:272,1,90.9999958343508
368,176,64051,1,0,0:0:0:0:
408,72,64202,1,0,0:0:0:0:
368,176,64352,2,0,L|272:144,1,90.9999958343508
281,147,64577,1,0,0:0:0:0:
281,147,64652,2,0,L|289:251,1,90.9999958343508
288,352,64952,5,0,0:0:0:0:
376,272,65102,1,0,0:0:0:0:
192,216,65253,1,0,0:0:0:0:
384,160,65403,1,0,0:0:0:0:
160,88,65553,1,0,0:0:0:0:
408,48,65703,1,0,0:0:0:0:
288,264,65853,1,0,0:0:0:0:
280,0,66003,1,0,0:0:0:0:
288,264,66153,5,0,0:0:0:0:
64,104,66304,1,0,0:0:0:0:
64,104,66379,1,0,0:0:0:0:
64,104,66454,1,0,0:0:0:0:
256,120,66604,1,0,0:0:0:0:
128,288,66754,2,0,L|200:200,1,90.9999958343508
320,32,67054,1,0,0:0:0:0:
408,248,67204,1,0,0:0:0:0:
288,152,67355,5,0,0:0:0:0:
252,109,67430,1,0,0:0:0:0:
198,92,67505,1,0,0:0:0:0:
144,106,67580,1,0,0:0:0:0:
105,146,67655,1,0,0:0:0:0:
104,200,67730,2,0,L|168:200,1,45.4999979171754
240,288,67880,1,0,0:0:0:0:
201,328,67955,5,0,0:0:0:0:
147,342,68030,1,0,0:0:0:0:
93,325,68105,1,0,0:0:0:0:
57,282,68180,1,0,0:0:0:0:
149,200,68255,2,0,L|85:200,1,45.4999979171754
24,112,68406,2,0,L|88:112,1,45.4999979171754
256,112,68556,5,0,0:0:0:0:
264,232,69156,2,0,P|240:256|240:224,1,70
280,80,69757,6,0,P|336:56|408:64,1,105.000004005432
352,176,70057,1,0,0:0:0:0:
216,264,70207,1,0,0:0:0:0:
80,168,70357,1,0,0:0:0:0:
192,32,70508,1,0,0:0:0:0:
192,32,70583,1,0,0:0:0:0:
192,32,70658,2,0,L|192:152,1,105.000004005432
192,184,70883,1,0,0:0:0:0:
192,232,70958,6,0,P|239:279|296:288,1,105.000004005432
400,272,71258,1,0,0:0:0:0:
456,160,71408,1,0,0:0:0:0:
352,88,71559,1,0,0:0:0:0:
296,200,71709,1,0,0:0:0:0:
144,72,71859,2,0,B|176:88|176:88|200:120|200:120|240:144,1,105.000004005432
232,296,72159,5,0,0:0:0:0:
120,336,72309,1,0,0:0:0:0:
56,232,72459,2,0,P|104:192|176:192,1,105.000004005432
192,184,72685,1,0,0:0:0:0:
240,184,72760,2,0,P|294:198|352:184,1,105.000004005432
136,112,73060,1,0,0:0:0:0:
296,88,73210,1,0,0:0:0:0:
176,288,73360,5,0,0:0:0:0:
272,328,73510,1,0,0:0:0:0:
376,320,73661,2,0,P|424:296|440:232,1,105.000004005432
232,184,73961,1,0,0:0:0:0:
352,232,74111,1,0,0:0:0:0:
432,128,74261,2,0,B|392:120|392:120|368:96|368:96|320:88,1,105.000004005432
224,48,74561,5,0,0:0:0:0:
120,232,74712,2,0,P|176:232|232:192,1,105.000004005432
144,112,75012,1,0,0:0:0:0:
192,320,75162,1,0,0:0:0:0:
16,192,75312,1,0,0:0:0:0:
192,320,75462,2,0,P|136:336|96:304,1,105.000004005432
144,112,75763,5,0,0:0:0:0:
304,248,75913,1,0,0:0:0:0:
304,248,75988,1,0,0:0:0:0:
304,248,76063,2,0,L|304:143,1,105.000004005432
304,24,76363,1,0,0:0:0:0:
424,72,76513,1,0,0:0:0:0:
398,188,76663,2,0,L|290:136,1,105.000004005432
120,48,76964,5,0,0:0:0:0:
240,224,77114,1,0,0:0:0:0:
40,144,77264,1,0,0:0:0:0:
248,80,77414,1,0,0:0:0:0:
112,256,77564,1,0,0:0:0:0:
120,48,77714,5,0,0:0:0:0:
112,256,77865,1,0,0:0:0:0:
248,80,78015,1,0,0:0:0:0:
40,144,78165,1,0,0:0:0:0:
240,224,78315,5,0,0:0:0:0:
274,220,78390,1,0,0:0:0:0:
306,205,78465,1,0,0:0:0:0:
331,181,78540,1,0,0:0:0:0:
348,150,78615,1,0,0:0:0:0:
353,116,78690,1,0,0:0:0:0:
348,82,78765,5,0,0:0:0:0:
332,51,78840,1,0,0:0:0:0:
307,26,78915,1,0,0:0:0:0:
276,11,78990,1,0,0:0:0:0:
241,8,79065,1,0,0:0:0:0:
207,13,79140,1,0,0:0:0:0:
177,30,79215,1,0,0:0:0:0:
72,160,79366,5,0,0:0:0:0:
240,120,79516,1,0,0:0:0:0:
168,296,79666,2,0,B|208:280|208:280|240:256|240:256|280:240,1,105.000004005432
376,184,79967,1,0,0:0:0:0:
320,64,80117,1,0,0:0:0:0:
352,282,80267,2,0,P|288:274|256:242,1,105.000004005432
152,80,80567,5,0,0:0:0:0:
376,184,80717,1,0,0:0:0:0:
320,64,80867,2,0,P|272:80|232:128,1,105.000004005432
168,248,81168,1,0,0:0:0:0:
152,80,81318,1,0,0:0:0:0:
296,240,81468,1,0,0:0:0:0:
320,64,81618,1,0,0:0:0:0:
296,240,81768,6,0,P|272:296|224:320,1,105.000004005432
128,344,82069,1,0,0:0:0:0:
184,208,82219,1,0,0:0:0:0:
104,96,82369,2,0,P|144:72|216:80,1,105.000004005432
368,128,82669,1,0,0:0:0:0:
184,208,82819,1,0,0:1:0:0:
360,320,82969,5,0,0:0:0:0:
224,336,83120,1,0,0:0:0:0:
104,272,83270,2,0,L|104:152,1,105.000004005432
168,48,83570,1,0,0:0:0:0:
256,160,83720,1,0,0:0:0:0:
360,48,83870,2,0,B|352:88|352:88|368:120|368:120|360:153,1,105.000004005432
320,288,84171,5,0,0:0:0:0:
176,296,84321,1,0,0:0:0:0:
136,160,84471,1,0,0:0:0:0:
256,72,84621,1,0,0:0:0:0:
256,72,84696,1,0,0:0:0:0:
256,72,84771,1,0,0:0:0:0:
360,176,84921,1,0,0:0:0:0:
135,159,85071,2,0,P|168:200|216:232,1,105.000004005432
304,320,85372,5,0,0:0:0:0:
424,272,85522,1,0,0:0:0:0:
208,248,85672,1,0,0:0:0:0:
328,200,85822,1,0,0:0:0:0:
135,159,85972,2,0,P|176:112|232:112,1,105.000004005432
264,104,86198,1,0,0:0:0:0:
312,104,86273,2,0,B|344:112|344:112|384:96|384:96|432:104,1,105.000004005432
248,232,86573,5,0,0:0:0:0:
400,192,86723,1,0,0:0:0:0:
192,336,86873,2,0,L|320:336,1,105.000004005432
96,336,87173,2,0,L|96:216,1,105.000004005432
184,80,87474,5,0,0:0:0:0:
312,224,87624,1,0,0:0:0:0:
368,40,87774,1,0,0:0:0:0:
176,224,87924,1,0,0:0:0:0:
64,128,88074,1,0,0:0:0:0:
264,288,88224,6,0,P|392:248|328:144,1,280
