osu file format v14

[General]
AudioFilename: MFS Fukagyaku Replace.mp3
AudioLeadIn: 2500
PreviewTime: 69081
Countdown: 0
SampleSet: Normal
StackLeniency: 0.7
Mode: 0
LetterboxInBreaks: 0
WidescreenStoryboard: 0

[Editor]
DistanceSpacing: 1.1
BeatDivisor: 4
GridSize: 4
TimelineZoom: 1.2

[Metadata]
Title:Fukagyaku Replace
TitleUnicode:不可逆リプレイス
Artist:MY FIRST STORY
ArtistUnicode:MY FIRST STORY
Creator:Akitoshi
Version:Normal
Source:信長協奏曲
Tags:Nobunaga Concerto Ending TV Size Asagi Ster koliron Irreversible Chara
BeatmapID:756447
BeatmapSetID:342218

[Difficulty]
HPDrainRate:4
CircleSize:3
OverallDifficulty:4
ApproachRate:5
SliderMultiplier:0.9
SliderTickRate:1

[Events]
//Background and Video events
0,0,"BG Fukagyaku.jpg",0,0
Video,100,"Replace1.flv"
//Break Periods
2,12306,15710
//Storyboard Layer 0 (Background)
//Storyboard Layer 1 (Fail)
//Storyboard Layer 2 (Pass)
//Storyboard Layer 3 (Foreground)
//Storyboard Sound Samples

[TimingPoints]
102,301.507537688442,4,2,0,30,1,0
10353,-100,4,1,1,30,0,0
10956,-100,4,1,1,40,0,0
11559,-100,4,1,1,50,0,0
11860,-100,4,1,1,5,0,0
12106,300.3003003003,4,1,1,80,1,0
21565,-100,4,1,1,80,0,0
40930,300.285271007457,4,2,1,60,1,0
40930,-100,4,2,1,60,0,0
50388,-100,4,1,1,80,0,0
69156,-100,4,2,0,30,0,0
69757,-100,4,1,1,80,0,1
88525,-100,4,1,1,10,0,1
88825,-100,4,1,1,5,0,0

[Colours]
Combo1 : 255,192,0
Combo2 : 255,128,64
Combo3 : 255,0,0
Combo4 : 140,89,51

[HitObjects]
247,206,705,6,0,L|99:222,1,135,4|2,0:0|0:0,0:0:0:0:
14,331,1609,2,0,L|166:315,1,135,0|2,0:0|0:0,0:0:0:0:
296,337,2514,2,0,L|344:365,2,45,0|0|2,0:0|0:0|0:0,0:0:0:0:
272,240,3117,6,0,P|280:180|248:108,2,135,0|0|2,0:0|0:0|0:0,0:0:0:0:
217,322,4323,2,0,P|173:310|113:314,1,90,0|0,0:0|0:0,0:0:0:0:
29,316,4926,2,0,L|41:212,1,90,0|2,0:0|0:0,0:0:0:0:
89,141,5529,6,0,P|141:101|217:109,1,135,0|2,0:0|0:0,0:0:0:0:
320,203,6433,2,0,P|268:243|192:235,1,135,0|2,0:0|0:0,0:0:0:0:
67,302,7338,2,0,L|155:322,1,90,0|2,0:0|0:0,0:0:0:0:
253,331,7941,6,0,P|297:327|345:299,1,90,2|0,0:0|0:0,0:0:0:0:
374,273,8393,2,0,L|390:172,1,90,0|0,0:0|0:0,0:0:0:0:
394,135,8845,1,2,0:0:0:0:
256,192,8996,12,4,12106,0:0:0:0:
304,80,16910,6,0,P|376:92|440:64,2,135,4|0|8,0:0|0:0|0:0,0:0:0:0:
210,45,18112,2,0,P|138:33|74:61,2,135,4|0|8,0:0|0:0|0:0,0:0:0:0:
304,80,19313,6,0,L|296:184,1,90,0|0,0:0|0:0,0:0:0:0:
284,217,19763,2,0,P|268:257|216:285,1,90,0|0,0:0|0:0,0:0:0:0:
182,296,20214,1,0,0:0:0:0:
133,302,20364,1,2,0:0:0:0:
437,40,21565,6,0,L|449:180,1,135,4|8,0:0|0:0,0:0:0:0:
429,271,22316,2,0,P|389:295|345:291,1,90,0|8,0:0|0:0,0:0:0:0:
299,279,22766,2,0,P|235:255|167:267,1,135,4|8,0:0|0:0,0:0:0:0:
72,281,23517,2,0,L|60:181,1,90,0|8,0:0|0:0,0:0:0:0:
66,142,23967,6,0,B|74:70|74:70|142:50,1,135,4|8,0:0|0:0,0:0:0:0:
233,57,24718,2,0,P|269:77|333:77,1,90,0|8,0:0|0:0,0:0:0:0:
379,157,25319,2,0,L|279:177,1,90,0|8,0:0|0:0,0:0:0:0:
191,170,25919,2,0,L|177:115,2,45,0|0|8,0:0|0:0|0:0,0:0:0:0:
199,219,26370,6,0,P|203:287|163:343,1,135,4|8,0:0|0:0,0:0:0:0:
77,298,27121,2,0,P|77:250|105:210,1,90,0|0,0:0|0:0,0:0:0:0:
127,175,27571,2,0,B|147:135|131:107|131:107|159:83|159:43,1,135,4|8,0:0|0:0,0:0:0:0:
257,44,28322,2,0,P|254:91|235:134,1,90,0|8,0:0|0:0,0:0:0:0:
231,179,28772,6,0,L|263:319,1,135,4|8,0:0|0:0,0:0:0:0:
360,318,29523,2,0,L|338:225,1,90,0|8,0:0|0:0,0:0:0:0:
416,168,30124,2,0,L|438:261,2,90,8|8|8,0:0|0:0|0:0,0:0:0:0:
363,88,31024,1,8,0:0:0:0:
363,88,31175,6,0,P|303:56|219:52,1,135,4|8,0:0|0:0,0:0:0:0:
140,65,31925,2,0,P|100:85|68:117,1,90,0|8,0:0|0:0,0:0:0:0:
61,166,32376,2,0,B|49:254|49:254|61:302,1,135,4|8,0:0|0:0,0:0:0:0:
159,294,33127,2,0,B|175:250|175:250|167:190,1,90,0|8,0:0|0:0,0:0:0:0:
172,157,33577,6,0,P|184:93|244:57,1,135,4|8,0:0|0:0,0:0:0:0:
338,63,34328,2,0,P|382:83|406:135,1,90,0|8,0:0|0:0,0:0:0:0:
415,215,34928,2,0,P|395:259|343:283,1,90,0|8,0:0|0:0,0:0:0:0:
261,278,35529,2,0,L|249:332,2,45,0|8|8,0:0|0:0|0:0,0:0:0:0:
270,229,35979,6,0,B|283:187|279:138|279:138|254:79,1,135,4|8,0:0|0:0,0:0:0:0:
165,74,36730,2,0,P|121:91|94:138,1,90,0|8,0:0|0:0,0:0:0:0:
86,173,37181,2,0,P|90:242|130:298,1,135,4|8,0:0|0:0,0:0:0:0:
221,322,37931,2,0,L|324:311,1,90,0|8,0:0|0:0,0:0:0:0:
359,303,38382,6,0,P|413:266|423:191,1,135,4|0,0:0|0:0,0:0:0:0:
409,104,39133,1,8,0:0:0:0:
323,54,39433,1,0,0:0:0:0:
224,50,39733,2,0,P|181:57|134:99,1,90,0|8,0:0|0:0,0:0:0:0:
192,170,40334,2,0,P|235:163|282:121,1,90,8|8,0:0|0:0,0:0:0:0:
323,54,40930,5,4,0:0:0:0:
415,17,41230,2,0,P|421:68|404:112,1,90,8|8,0:0|0:0,0:0:0:0:
374,196,41830,1,8,0:0:0:0:
319,278,42131,2,0,B|276:271|276:271|215:280,2,90,8|8|8,0:0|0:0|0:0,0:0:0:0:
412,308,43031,1,8,0:0:0:0:
484,240,43332,6,0,L|468:140,1,90,2|8,0:0|0:0,0:0:0:0:
419,65,43932,2,0,P|371:57|319:69,1,90,8|8,0:0|0:0,0:0:0:0:
255,128,44533,1,8,0:0:0:0:
228,223,44833,1,8,0:0:0:0:
255,318,45133,2,0,L|314:324,2,45,8|0|8,0:0|0:0|0:0,0:0:0:0:
157,301,45734,6,0,P|117:273|109:217,1,90,4|8,0:0|0:0,0:0:0:0:
104,135,46335,1,8,0:0:0:0:
160,53,46635,1,8,0:0:0:0:
256,26,46935,2,0,B|299:38|299:38|345:77,1,90,8|8,0:0|0:0,0:0:0:0:
355,164,47536,2,0,L|349:270,1,90,8|8,0:0|0:0,0:0:0:0:
337,301,47986,6,0,P|285:341|209:345,1,135,4|8,0:0|0:0,0:0:0:0:
120,329,48737,2,0,P|108:285|64:249,1,90,0|8,0:0|0:0,0:0:0:0:
45,216,49187,2,0,P|17:148|41:80,1,135,4|8,0:0|0:0,0:0:0:0:
123,49,49938,2,0,L|219:45,1,90,8|8,0:0|0:0,0:0:0:0:
256,67,50388,6,0,B|312:103|312:103|384:87,1,135,4|8,0:0|0:0,0:0:0:0:
429,173,51139,2,0,L|332:195,1,90,0|8,0:0|0:0,0:0:0:0:
244,175,51740,2,0,B|186:139|186:139|120:152,2,135,0|0|8,0:0|0:0|0:0,0:0:0:0:
288,198,52791,6,0,P|308:258|268:332,1,135,4|8,0:0|0:0,0:0:0:0:
239,348,53391,1,0,0:0:0:0:
191,362,53541,2,0,P|148:362|103:338,1,90,0|8,0:0|0:0,0:0:0:0:
66,250,54142,2,0,P|17:295|12:373,2,135,0|0|8,0:0|0:0|0:0,0:0:0:0:
110,227,55193,6,0,B|175:240|175:240|256:215,1,135,4|8,0:0|0:0,0:0:0:0:
326,170,55944,2,0,B|371:161|371:161|428:170,1,90,0|8,0:0|0:0,0:0:0:0:
445,206,56394,2,0,P|437:275|374:322,1,135,0|8,0:0|0:0,0:0:0:0:
291,310,57145,2,0,P|243:295|191:302,1,90,0|8,0:0|0:0,0:0:0:0:
154,304,57595,6,0,P|94:276|72:202,1,135,4|8,0:0|0:0,0:0:0:0:
66,165,58196,2,0,L|126:93,1,90
219,120,58796,2,0,L|161:189,1,90,4|4,0:0|0:0,0:0:0:0:
209,275,59397,2,0,L|269:203,1,90,0|0,0:0|0:0,0:0:0:0:
296,166,59847,1,0,0:0:0:0:
361,91,60148,6,0,L|461:127,2,90,4|8|8,0:0|0:0|0:0,0:0:0:0:
263,71,61049,2,0,P|215:63|159:79,1,90,8|8,0:0|0:0,0:0:0:0:
87,116,61649,1,8,0:0:0:0:
41,204,61949,2,0,P|33:252|49:308,1,90,8|8,0:0|0:0,0:0:0:0:
140,293,62550,6,0,P|148:245|132:189,1,90,2|8,0:0|0:0,0:0:0:0:
87,116,63151,2,0,P|123:88|183:80,1,90,8|8,0:0|0:0,0:0:0:0:
263,93,63751,1,8,0:0:0:0:
346,147,64051,2,0,P|394:151|446:119,2,90,8|8|8,0:0|0:0|0:0,0:0:0:0:
263,93,64952,6,0,P|246:144|256:191,1,90,4|8,0:0|0:0,0:0:0:0:
260,227,65403,2,0,B|265:272|265:272|261:328,1,90
258,365,65853,1,8,0:0:0:0:
161,344,66153,2,0,L|71:347,1,90,8|8,0:0|0:0,0:0:0:0:
73,248,66754,2,0,L|162:244,1,90,8|8,0:0|0:0,0:0:0:0:
260,227,67355,6,0,B|305:220|305:220|350:177,1,90
349,141,67805,2,0,P|352:91|321:50,1,90
284,42,68255,1,0,0:0:0:0:
234,47,68406,1,2,0:0:0:0:
71,233,69156,6,0,B|108:257|108:257|168:257,1,90
253,254,69757,6,0,P|273:186|329:158,1,135,4|0,0:0|0:0,0:0:0:0:
425,149,70508,1,0,0:0:0:0:
425,149,70658,2,0,L|409:57,1,90,8|0,0:0|0:0,0:0:0:0:
372,28,71108,2,0,P|328:48|276:48,1,90
237,51,71559,2,0,L|145:39,1,90,0|8,0:0|0:0,0:0:0:0:
91,120,72159,6,0,L|239:140,1,135,0|0,0:0|0:0,0:0:0:0:
322,152,72910,1,0,0:0:0:0:
322,152,73060,2,0,P|351:192|353:233,1,90,8|0,0:0|0:0,0:0:0:0:
314,322,73661,2,0,B|269:332|269:332|226:360,2,90,8|0|8,0:0|0:0|0:0,0:0:0:0:
409,294,74561,6,0,P|433:222|424:163,1,135,4|0,0:0|0:0,0:0:0:0:
390,71,75312,1,0,0:0:0:0:
390,71,75462,2,0,B|348:62|348:62|288:66,1,90,8|0,0:0|0:0,0:0:0:0:
251,69,75913,1,0,0:0:0:0:
209,210,76363,2,0,B|206:244|206:244|234:312,1,90,0|8,0:0|0:0,0:0:0:0:
263,330,76814,6,0,P|308:336|370:333,1,90,4|0,0:0|0:0,0:0:0:0:
399,319,77264,1,8,0:0:0:0:
414,221,77564,1,8,0:0:0:0:
372,130,77865,2,0,B|363:88|363:88|366:39,2,90,8|0|0,0:0|0:0|0:0,0:0:0:0:
414,221,78765,2,0,P|370:237|318:233,1,90,0|0,0:0|0:0,0:0:0:0:
228,226,79366,6,0,P|184:208|127:217,1,90,4|8,0:0|0:0,0:0:0:0:
95,225,79816,1,0,0:0:0:0:
24,154,80117,1,0,0:0:0:0:
24,154,80267,2,0,B|32:110|32:110|65:64,1,90,4|8,0:0|0:0,0:0:0:0:
97,42,80717,1,0,0:0:0:0:
245,44,81168,2,0,L|346:49,1,90,0|8,0:0|0:0,0:0:0:0:
373,79,81618,1,0,0:0:0:0:
403,118,81768,6,0,P|430:182|402:255,2,135,0|0|8,0:0|0:0|0:0,0:0:0:0:
331,186,82969,2,0,P|286:189|223:184,1,90,0|8,0:0|0:0,0:0:0:0:
144,163,83570,2,0,L|144:106,2,45,0|0|8,0:0|0:0|0:0,0:0:0:0:
149,212,84020,6,0,P|183:264|265:280,1,135,4|8,0:0|0:0,0:0:0:0:
349,279,84771,2,0,P|392:270|434:229,1,90,0|8,0:0|0:0,0:0:0:0:
445,194,85222,2,0,B|450:155|450:155|427:48,1,135
336,29,85972,1,0,0:0:0:0:
261,93,86273,1,8,0:0:0:0:
261,93,86423,6,0,P|241:153|261:229,1,135,4|8,0:0|0:0,0:0:0:0:
275,318,87173,2,0,P|230:328|181:320,1,90,8|8,0:0|0:0,0:0:0:0:
138,309,87624,6,0,B|124:280|124:280|120:210,1,90,4|4,0:0|0:0,0:0:0:0:
120,123,88224,2,0,P|165:69|268:104,1,180,4|0,0:0|2:0,0:0:0:0:
