osu file format v14

[General]
AudioFilename: MFS Fukagyaku Replace.mp3
AudioLeadIn: 2500
PreviewTime: 69081
Countdown: 0
SampleSet: Normal
StackLeniency: 0.7
Mode: 0
LetterboxInBreaks: 0
WidescreenStoryboard: 0

[Editor]
DistanceSpacing: 1
BeatDivisor: 4
GridSize: 4
TimelineZoom: 1.2

[Metadata]
Title:Fukagyaku Replace
TitleUnicode:不可逆リプレイス
Artist:MY FIRST STORY
ArtistUnicode:MY FIRST STORY
Creator:Akitoshi
Version:Easy
Source:信長協奏曲
Tags:Nobunaga Concerto Ending TV Size Asagi Ster koliron Irreversible Chara
BeatmapID:758800
BeatmapSetID:342218

[Difficulty]
HPDrainRate:2
CircleSize:3
OverallDifficulty:2
ApproachRate:3
SliderMultiplier:0.8
SliderTickRate:1

[Events]
//Background and Video events
0,0,"BG Fukagyaku.jpg",0,0
Video,100,"Replace1.flv"
//Break Periods
2,12306,15470
//Storyboard Layer 0 (Background)
//Storyboard Layer 1 (Fail)
//Storyboard Layer 2 (Pass)
//Storyboard Layer 3 (Foreground)
//Storyboard Sound Samples

[TimingPoints]
102,301.507537688442,4,2,0,30,1,0
10353,-100,4,1,1,30,0,0
10956,-100,4,1,1,40,0,0
11559,-100,4,1,1,50,0,0
11860,-100,4,1,1,5,0,0
12106,300.3003003003,4,1,1,80,1,0
21565,-100,4,1,1,80,0,0
40930,300.285271007457,4,2,1,60,1,0
40930,-100,4,2,1,60,0,0
50388,-100,4,1,1,80,0,0
69757,-100,4,1,1,80,0,1
88525,-100,4,1,1,10,0,1
88825,-100,4,1,1,5,0,0

[Colours]
Combo1 : 255,192,0
Combo2 : 255,128,64
Combo3 : 255,0,0
Combo4 : 140,89,51

[HitObjects]
259,101,705,6,0,P|319:111|368:156,1,120,4|2,0:0|0:0,0:0:0:0:
310,256,1609,2,0,P|250:246|201:201,1,120,0|2,0:0|0:0,0:0:0:0:
117,128,2514,2,0,L|106:207,1,80,0|2,0:0|0:0,0:0:0:0:
101,287,3117,6,0,P|141:329|210:338,2,120,0|0|2,0:0|0:0|0:0,0:0:0:0:
106,207,4323,2,0,P|159:158|242:167,1,160,0|0,0:0|0:0,0:0:0:0:
309,208,5227,1,2,0:0:0:0:
387,224,5529,6,0,P|351:277|297:288,1,120,0|2,0:0|0:0,0:0:0:0:
189,240,6433,2,0,B|166:190|166:190|171:117,1,120,0|2,0:0|0:0,0:0:0:0:
275,65,7338,2,0,L|364:70,1,80,0|2,0:0|0:0,0:0:0:0:
403,133,7941,6,0,P|432:86|414:16,2,120,2|0|2,0:0|0:0|0:0,0:0:0:0:
256,192,9147,12,4,12106,0:0:0:0:
256,192,16910,12,4,20364,0:0:0:0:
266,299,21565,6,0,B|330:310|330:310|392:297,1,120,4|8,0:0|0:0,0:0:0:0:
456,264,22316,1,0,0:0:0:0:
490,149,22766,2,0,P|459:94|399:64,1,120,0|8,0:0|0:0,0:0:0:0:
330,61,23517,1,0,0:0:0:0:
237,137,23967,6,0,B|191:144|191:144|100:129,1,120,4|8,0:0|0:0,0:0:0:0:
44,100,24718,2,0,P|38:141|61:189,1,80,0|8,0:0|0:0,0:0:0:0:
112,227,25319,1,0,0:0:0:0:
191,237,25619,2,0,L|270:225,1,80,8|0,0:0|0:0,0:0:0:0:
369,156,26370,6,0,P|390:210|378:279,1,120,4|8,0:0|0:0,0:0:0:0:
338,337,27121,1,0,0:0:0:0:
219,350,27571,2,0,B|193:302|193:302|190:221,1,120,4|8,0:0|0:0,0:0:0:0:
193,156,28322,1,0,0:0:0:0:
159,40,28772,6,0,P|106:71|77:123,1,120,4|8,0:0|0:0,0:0:0:0:
69,200,29523,2,0,L|82:288,1,80,0|8,0:0|0:0,0:0:0:0:
137,335,30124,2,0,B|217:343|217:343|297:312,1,160,8|8,0:0|0:0,0:0:0:0:
382,235,31175,6,0,P|392:177|375:103,1,120,4|8,0:0|0:0,0:0:0:0:
342,47,31925,1,0,0:0:0:0:
241,112,32376,2,0,B|204:118|178:104|178:104|143:95|110:108,1,120,4|8,0:0|0:0,0:0:0:0:
64,158,33127,1,0,0:0:0:0:
124,261,33577,6,0,B|161:267|187:253|187:253|222:244|241:252,1,120,4|8,0:0|0:0,0:0:0:0:
313,286,34328,2,0,P|320:246|299:197,1,80,0|8,0:0|0:0,0:0:0:0:
283,133,34928,2,0,P|316:129|363:151,2,80,0|8|0,0:0|0:0|0:0,0:0:0:0:
173,181,35979,6,0,B|164:260|164:260|135:300,1,120,4|8,0:0|0:0,0:0:0:0:
74,338,36730,1,0,0:0:0:0:
5,239,37181,2,0,L|21:114,1,120,4|8,0:0|0:0,0:0:0:0:
33,41,37931,1,0,0:0:0:0:
148,74,38382,6,0,B|210:89|203:50|279:73,1,120,4|0,0:0|0:0,0:0:0:0:
342,96,39133,2,0,P|346:55|321:10,2,80,8|0|0,0:0|0:0|0:0,0:0:0:0:
322,173,40033,2,0,B|267:180|267:180|226:167|226:167|164:173,1,160,8|8,0:0|0:0,0:0:0:0:
97,215,40930,6,0,P|87:148|165:93,2,160,4|8|8,0:0|0:0|0:0,0:0:0:0:
153,271,42431,2,0,P|192:286|242:283,1,80,8|8,0:0|0:0,0:0:0:0:
309,280,43031,1,8,0:0:0:0:
379,242,43332,6,0,B|382:198|382:198|376:159,1,80,2|8,0:0|0:0,0:0:0:0:
353,86,43932,2,0,P|311:78|263:87,1,80,8|8,0:0|0:0,0:0:0:0:
211,134,44533,2,0,B|196:212|196:212|233:293,1,160,8|8,0:0|0:0,0:0:0:0:
274,351,45434,1,8,0:0:0:0:
353,355,45734,6,0,L|440:347,1,80,4|8,0:0|0:0,0:0:0:0:
504,311,46335,2,0,P|505:264|489:222,1,80,8|8,0:0|0:0,0:0:0:0:
446,170,46935,2,0,P|401:156|357:161,1,80,8|8,0:0|0:0,0:0:0:0:
294,190,47536,1,8,0:0:0:0:
237,295,47986,6,0,B|194:308|194:308|106:298,1,120,4|8,0:0|0:0,0:0:0:0:
39,291,48737,1,8,0:0:0:0:
12,174,49187,2,0,P|27:133|99:100,1,120,4|8,0:0|0:0,0:0:0:0:
171,108,49938,1,8,0:0:0:0:
256,191,50388,6,0,B|299:202|299:202|376:191,1,120,4|8,0:0|0:0,0:0:0:0:
444,152,51139,2,0,P|455:189|442:235,1,80,0|8,0:0|0:0,0:0:0:0:
392,288,51740,2,0,L|260:307,1,120
194,315,52490,1,0,0:0:0:0:
125,356,52791,6,0,P|114:310|151:247,1,120,4|8,0:0|0:0,0:0:0:0:
218,212,53541,2,0,P|226:175|224:126,1,80,0|8,0:0|0:0,0:0:0:0:
221,52,54142,2,0,B|301:40|301:40|380:52,1,160
452,148,55193,6,0,B|469:202|469:202|454:267,1,120,4|8,0:0|0:0,0:0:0:0:
374,256,55944,2,0,P|391:316|451:345,2,120,0|0|8,0:0|0:0|0:0,0:0:0:0:
374,175,57145,1,0,0:0:0:0:
323,66,57595,6,0,B|270:69|270:69|218:84|218:84|155:87,1,160,4|0,0:0|0:0,0:0:0:0:
85,95,58496,1,0,0:0:0:0:
41,162,58796,2,0,P|39:202|47:250,1,80,4|0,0:0|0:0,0:0:0:0:
90,307,59397,6,0,B|169:354|207:278|299:317,1,200,0|4,0:0|0:0,0:0:0:0:
362,330,60448,2,0,P|400:347|450:343,2,80,8|8|8,0:0|0:0|0:0,0:0:0:0:
340,253,61349,2,0,P|356:211|393:181,1,80,8|8,0:0|0:0,0:0:0:0:
445,139,61949,2,0,P|428:98|392:70,1,80,8|8,0:0|0:0,0:0:0:0:
324,55,62550,6,0,B|274:51|225:76|225:76|194:86|162:82,2,160,2|8|8,0:0|0:0|0:0,0:0:0:0:
401,74,64051,2,0,P|430:101|445:139,1,80,8|8,0:0|0:0,0:0:0:0:
454,217,64652,1,8,0:0:0:0:
425,291,64952,6,0,P|348:310|266:277,1,160,4|8,0:0|0:0,0:0:0:0:
231,216,65853,1,8,0:0:0:0:
228,136,66153,2,0,L|231:48,2,80,8|8|8,0:0|0:0|0:0,0:0:0:0:
231,216,67054,1,0,0:0:0:0:
304,249,67355,6,0,B|267:313|188:305|163:253|163:253|118:273|118:273|95:264|54:273,1,280,0|2,0:0|0:0,0:0:0:0:
348,61,69757,6,0,P|311:104|238:114,1,120,4|0,0:0|0:0,0:0:0:0:
132,130,70658,2,0,P|69:150|41:206,1,120,0|0,0:0|0:0,0:0:0:0:
44,314,71559,2,0,L|128:329,1,80,0|8,0:0|0:0,0:0:0:0:
200,344,72159,6,0,L|328:367,2,120,0|0|8,0:0|0:0|0:0,0:0:0:0:
122,328,73360,2,0,P|67:276|57:196,1,160,0|0,0:0|0:0,0:0:0:0:
73,116,74261,1,8,0:0:0:0:
126,55,74561,6,0,P|182:29|241:38,1,120,4|0,0:0|0:0,0:0:0:0:
344,92,75462,2,0,B|361:124|361:124|356:217,1,120,0|0,0:0|0:0,0:0:0:0:
291,308,76363,6,0,P|241:297|167:295,2,120,0|4|8,0:0|0:0|0:0,0:0:0:0:
360,348,77564,2,0,B|402:355|402:355|454:345,1,80,8|8,0:0|0:0,0:0:0:0:
498,294,78165,2,0,L|492:205,1,80,0|0,0:0|0:0,0:0:0:0:
438,155,78765,2,0,L|432:66,1,80,0|0,0:0|0:0,0:0:0:0:
352,70,79366,6,0,P|294:72|234:51,1,120,4|0,0:0|0:0,0:0:0:0:
117,31,80267,2,0,B|62:53|62:53|24:113,1,120,4|0,0:0|0:0,0:0:0:0:
16,223,81168,2,0,P|24:267|43:300,1,80,0|8,0:0|0:0,0:0:0:0:
105,345,81768,6,0,B|162:356|162:356|227:344,2,120,0|0|8,0:0|0:0|0:0,0:0:0:0:
117,265,82969,2,0,P|128:186|203:136,1,160,0|0,0:0|0:0,0:0:0:0:
301,100,84020,6,0,B|343:129|343:129|427:120,1,120,4|8,0:0|0:0,0:0:0:0:
471,174,84771,2,0,P|490:131|457:57,2,120,0|0|0,0:0|0:0|0:0,0:0:0:0:
415,232,85972,6,0,P|372:251|298:218,1,120,0|4,0:0|0:0,0:0:0:0:
211,154,86872,2,0,L|240:69,1,80,8|8,0:0|0:0,0:0:0:0:
116,81,87624,2,0,L|87:166,1,80,4|4,0:0|0:0,0:0:0:0:
63,231,88224,2,0,B|108:258|108:258|160:262|160:262|214:289,1,160,4|0,0:0|2:0,0:0:0:0:
