osu file format v14

[General]
AudioFilename: MFS Fukagyaku Replace.mp3
AudioLeadIn: 2500
PreviewTime: 69081
Countdown: 0
SampleSet: Soft
StackLeniency: 0.7
Mode: 2
LetterboxInBreaks: 0
WidescreenStoryboard: 0

[Editor]
Bookmarks: 12106,21565,31175,40930,50539,67355,67655,67955,69757
DistanceSpacing: 1
BeatDivisor: 4
GridSize: 8
TimelineZoom: 1.4

[Metadata]
Title:Fukagyaku Replace
TitleUnicode:不可逆リプレイス
Artist:MY FIRST STORY
ArtistUnicode:MY FIRST STORY
Creator:Akitoshi
Version:Chara's Overdose
Source:信長協奏曲
Tags:Nobunaga Concerto Ending TV Size Asagi Ster koliron Irreversible Chara
BeatmapID:767324
BeatmapSetID:342218

[Difficulty]
HPDrainRate:7
CircleSize:4
OverallDifficulty:9.3
ApproachRate:9.3
SliderMultiplier:2.4
SliderTickRate:2

[Events]
//Background and Video events
0,0,"BG Fukagyaku.jpg",0,0
Video,100,"Replace1.flv"
//Break Periods
//Storyboard Layer 0 (Background)
//Storyboard Layer 1 (Fail)
//Storyboard Layer 2 (Pass)
//Storyboard Layer 3 (Foreground)
//Storyboard Sound Samples

[TimingPoints]
102,301.507537688442,4,2,0,30,1,0
102,-142.857142857143,4,2,0,30,0,0
8845,-166.666666666667,4,2,0,40,0,0
11860,-166.666666666667,4,2,0,20,0,0
12106,300.3003003003,4,1,2,60,1,0
12106,-125,4,1,2,60,0,0
12256,-125,4,1,1,60,0,0
12406,-125,4,1,2,60,0,0
12556,-125,4,1,1,60,0,0
12706,-125,4,1,2,60,0,0
12856,-125,4,1,1,60,0,0
13006,-125,4,1,2,60,0,0
13157,-125,4,1,1,60,0,0
13307,-125,4,1,2,60,0,0
13457,-125,4,1,1,60,0,0
13607,-125,4,1,2,60,0,0
13757,-125,4,1,1,60,0,0
13907,-125,4,1,2,60,0,0
14057,-125,4,1,1,60,0,0
14208,-125,4,1,2,60,0,0
14358,-125,4,1,1,60,0,0
14508,-125,4,1,2,60,0,0
14658,-125,4,1,1,60,0,0
14808,-125,4,1,2,60,0,0
14958,-125,4,1,1,60,0,0
15109,-125,4,1,2,60,0,0
15259,-125,4,1,1,60,0,0
15409,-125,4,1,2,60,0,0
15559,-125,4,1,1,60,0,0
15709,-125,4,1,2,60,0,0
15859,-125,4,1,1,60,0,0
16009,-125,4,1,2,60,0,0
16160,-125,4,1,1,60,0,0
16310,-125,4,1,2,60,0,0
16460,-125,4,1,1,60,0,0
16610,-125,4,1,2,60,0,0
16760,-100,4,1,1,60,0,0
16910,-125,4,1,2,70,0,0
19313,-100,4,1,2,70,0,0
19388,-100,4,1,1,70,0,0
19763,-100,4,1,2,70,0,0
19838,-100,4,1,1,70,0,0
20214,-100,4,1,2,70,0,0
20289,-100,4,1,1,70,0,0
20964,-200,4,2,0,40,0,0
21490,-200,4,2,0,5,0,0
21565,-125,4,1,2,65,0,0
26370,-100,4,1,2,65,0,0
26820,-125,4,1,2,65,0,0
27571,-100,4,1,2,65,0,0
27721,-125,4,1,2,65,0,0
29373,-125,4,1,1,65,0,0
29823,-125,4,1,2,65,0,0
29973,-125,4,1,1,65,0,0
30124,-125,4,1,2,65,0,0
30199,-125,4,1,1,65,0,0
31024,-125,4,1,2,65,0,0
38382,-111.111111111111,4,1,2,70,0,0
39283,-111.111111111111,4,1,1,70,0,0
39433,-111.111111111111,4,1,2,70,0,0
40033,-111.111111111111,4,1,1,70,0,0
40334,-111.111111111111,4,1,2,70,0,0
40930,300.285271007457,4,1,1,60,1,0
40930,-125,4,1,1,60,0,0
47986,-125,4,1,2,50,0,0
49788,-125,4,1,1,50,0,0
49938,-125,4,1,2,50,0,0
50388,-117.647058823529,4,1,2,60,0,0
59097,-100,4,1,2,55,0,0
59547,-100,4,1,1,55,0,0
59847,-100,4,1,2,55,0,0
59923,-100,4,1,1,55,0,0
60148,-125,4,1,2,55,0,0
60598,-125,4,1,1,55,0,0
60748,-125,4,1,2,55,0,0
60898,-125,4,1,1,55,0,0
61049,-125,4,1,2,55,0,0
61199,-125,4,1,1,55,0,0
61349,-125,4,1,2,55,0,0
61499,-125,4,1,1,55,0,0
61649,-125,4,1,2,55,0,0
61799,-125,4,1,1,55,0,0
61949,-125,4,1,2,55,0,0
62100,-125,4,1,1,55,0,0
62250,-125,4,1,2,55,0,0
62400,-125,4,1,1,55,0,0
62550,-125,4,1,2,55,0,0
62700,-125,4,2,0,55,0,0
62850,-125,4,1,2,55,0,0
63000,-125,4,1,1,55,0,0
63151,-125,4,1,2,55,0,0
63301,-125,4,1,1,55,0,0
63451,-125,4,1,2,55,0,0
63601,-125,4,1,1,55,0,0
63751,-125,4,1,2,55,0,0
63901,-125,4,1,1,55,0,0
64051,-125,4,1,2,55,0,0
64202,-125,4,1,1,55,0,0
64352,-125,4,1,2,55,0,0
64502,-125,4,1,1,55,0,0
64652,-125,4,1,2,55,0,0
64802,-125,4,1,1,55,0,0
64952,-125,4,1,2,62,0,0
65102,-125,4,1,1,62,0,0
65253,-125,4,1,2,62,0,0
65403,-125,4,1,1,62,0,0
65553,-125,4,1,2,62,0,0
65703,-125,4,1,1,62,0,0
65853,-125,4,1,2,62,0,0
66003,-125,4,1,1,62,0,0
66153,-125,4,1,2,62,0,0
66304,-125,4,1,1,62,0,0
66454,-125,4,1,2,62,0,0
66604,-125,4,1,1,62,0,0
66754,-125,4,1,2,62,0,0
66904,-125,4,1,1,62,0,0
67054,-125,4,1,2,62,0,0
67204,-125,4,1,1,62,0,0
67355,-100,4,1,2,62,0,0
67430,-100,4,1,1,62,0,0
67655,-100,4,1,2,62,0,0
67730,-100,4,1,1,62,0,0
67955,-100,4,1,2,62,0,0
68105,-100,4,1,1,62,0,0
68255,-100,4,1,2,62,0,0
68406,-100,4,1,1,62,0,0
69156,-66.6666666666667,4,2,0,35,0,0
69757,-90.9090909090909,4,1,2,65,0,1
78165,-90.9090909090909,4,1,2,65,0,0
79366,-90.9090909090909,4,1,2,65,0,1
87624,-66.6666666666667,4,1,2,65,0,1
88224,-100,4,1,2,65,0,0
88300,-100,4,2,0,50,0,0

[Colours]
Combo1 : 255,192,0
Combo2 : 255,128,64
Combo3 : 255,0,0
Combo4 : 140,89,51

[HitObjects]
160,192,102,5,2,0:0:0:0:
352,192,403,1,2,0:0:0:0:
144,192,705,6,0,P|64:176|64:96,1,167.999994873047,2|0,0:0|0:0,0:0:0:0:
280,144,1157,2,0,P|360:128|448:96,1,167.999994873047,2|0,0:0|0:0,0:0:0:0:
232,144,1609,2,0,P|152:128|64:96,1,167.999994873047,2|0,0:0|0:0,0:0:0:0:
368,192,2061,2,0,P|448:176|448:96,1,167.999994873047,2|0,0:0|0:0,0:0:0:0:
236,64,2514,1,2,0:0:0:0:
184,136,2664,1,0,0:0:0:0:
236,64,2815,1,2,0:0:0:0:
336,48,2966,1,0,0:0:0:0:
64,192,3117,6,2,P|112:112|208:112,1,167.999994873047,2|0,0:0|0:0,0:0:0:0:
432,192,3569,2,2,P|384:112|288:112,1,167.999994873047,2|0,0:0|0:0,0:0:0:0:
448,128,4021,2,0,L|464:32,1,83.9999974365235,2|0,0:0|0:0,0:0:0:0:
208,80,4323,2,0,L|400:80,1,167.999994873047,2|0,0:0|0:0,0:0:0:0:
112,288,4926,5,2,0:0:0:0:
38,252,5076,1,0,0:0:0:0:
17,173,5227,1,2,0:0:0:0:
62,106,5378,1,0,0:0:0:0:
144,96,5529,6,0,P|48:80|16:16,1,167.999994873047,2|0,0:0|0:0,0:0:0:0:
368,208,5981,2,0,L|384:32,1,167.999994873047,2|0,0:0|0:0,0:0:0:0:
128,48,6433,2,0,L|144:216,1,167.999994873047,2|0,0:0|0:0,0:0:0:0:
368,96,6885,2,0,P|464:80|496:16,1,167.999994873047,2|0,0:0|0:0,0:0:0:0:
256,32,7338,2,0,L|160:48,1,83.9999974365235,2|0,0:0|0:0,0:0:0:0:
72,56,7639,2,0,L|48:160,1,83.9999974365235,2|0,0:0|0:0,0:0:0:0:
272,128,7941,6,0,P|336:96|336:8,1,167.999994873047,2|0,0:0|0:0,0:0:0:0:
128,64,8393,2,0,P|208:80|304:48,1,167.999994873047,2|0,0:0|0:0,0:0:0:0:
32,176,8845,2,0,B|144:224|496:240|288:128|176:104|-16:144|80:56|104:32|192:16|296:32|384:72|416:96,1,719.999978027344,2|0,0:0|0:0,0:0:0:0:
256,192,10428,12,0,11860,0:0:0:0:
112,176,12106,6,0,L|16:144,1,96,8|0,0:0|0:0,0:0:0:0:
160,144,12406,2,0,L|256:112,1,96,8|0,0:0|0:0,0:0:0:0:
80,96,12706,1,8,0:0:0:0:
304,160,12856,1,0,0:0:0:0:
328,152,12931,1,0,0:0:0:0:
288,160,13006,1,8,0:0:0:0:
160,208,13157,1,0,0:0:0:0:
400,304,13307,6,0,L|416:176,1,96,8|0,0:0|0:0,0:0:0:0:
80,256,13607,2,0,L|64:128,1,96,8|0,0:0|0:0,0:0:0:0:
288,160,13907,1,8,0:0:0:0:
160,160,14057,1,0,0:0:0:0:
320,160,14208,1,8,0:0:0:0:
192,160,14358,1,0,0:0:0:0:
400,240,14508,6,0,L|496:224,1,96,8|0,0:0|0:0,0:0:0:0:
352,224,14808,2,0,L|448:208,1,96,8|0,0:0|0:0,0:0:0:0:
160,256,15109,2,0,L|64:240,1,96,8|0,0:0|0:0,0:0:0:0:
176,200,15409,2,0,L|81:215,1,96,8|0,0:0|0:0,0:0:0:0:
416,168,15709,5,8,0:0:0:0:
432,96,15859,1,0,0:0:0:0:
128,96,16009,1,8,0:0:0:0:
144,96,16160,1,2,0:0:0:0:
440,96,16310,1,8,0:0:0:0:
208,160,16460,1,2,0:0:0:0:
416,160,16610,1,8,0:0:0:0:
288,160,16760,2,0,L|216:160,1,60
16,160,16910,6,0,P|32:96|160:64,1,192,4|4,0:2|0:2,0:0:0:0:
352,112,17361,1,0,0:0:0:0:
144,112,17511,2,0,L|32:112,1,96,4|0,0:2|0:0,0:0:0:0:
160,144,17811,2,0,L|272:144,1,96,4|0,0:2|0:0,0:0:0:0:
464,144,18112,5,4,0:2:0:0:
352,144,18262,1,0,0:2:0:0:
56,184,18412,1,4,0:2:0:0:
168,184,18562,1,0,0:2:0:0:
384,240,18712,2,0,L|400:128,1,96,4|0,0:2|0:0,0:0:0:0:
128,240,19012,2,0,L|112:128,1,96,4|0,0:2|0:0,0:0:0:0:
432,144,19313,6,0,L|480:96,1,60,8|0,0:0|0:0,0:0:0:0:
256,144,19463,2,0,L|192:144,1,60
256,144,19613,2,0,L|328:144,1,60
80,144,19763,6,0,L|32:96,1,60,8|0,0:0|0:0,0:0:0:0:
256,144,19913,2,0,L|320:144,1,60
256,144,20063,2,0,L|176:144,1,60
448,144,20214,5,8,0:0:0:0:
464,112,20289,1,0,0:0:0:0:
112,112,20364,1,4,0:2:0:0:
96,80,20965,5,0,0:0:0:0:
72,80,21040,1,0,0:0:0:0:
48,80,21115,2,0,L|24:224,1,120,2|0,0:0|0:0,0:0:0:0:
376,208,21565,6,0,P|296:240|200:208,1,192,4|0,0:0|0:0,0:0:0:0:
336,160,22015,2,0,L|448:160,1,96,8|0,0:0|0:0,0:0:0:0:
208,144,22316,1,0,0:0:0:0:
112,144,22466,2,0,L|96:32,1,96,0|8,0:0|0:0,0:0:0:0:
336,96,22767,6,0,P|240:112|144:80,1,192
256,160,23217,2,0,L|272:256,1,96,8|0,0:0|0:0,0:0:0:0:
120,256,23517,2,0,L|192:320,1,96
304,352,23817,1,8,0:0:0:0:
64,272,23967,6,0,B|32:192|32:192|144:192,1,192,4|0,0:0|0:0,0:0:0:0:
256,192,24418,2,0,L|368:192,1,96,8|0,0:0|0:0,0:0:0:0:
96,144,24718,1,0,0:0:0:0:
192,144,24868,2,0,L|304:144,1,96,0|8,0:0|0:0,0:0:0:0:
112,176,25169,6,0,L|96:80,1,96
400,176,25469,2,0,L|416:80,1,96,0|8,0:0|0:0,0:0:0:0:
208,96,25769,2,0,L|320:112,2,96
416,96,26220,1,8,0:0:0:0:
64,128,26371,6,0,B|0:112|32:48|64:16|128:80|224:80,1,240,4|0,0:0|0:0,0:0:0:0:
336,80,26821,2,0,L|448:80,2,96,8|0|0,0:0|0:0|0:0,0:0:0:0:
192,96,27271,2,0,L|80:96,1,96,0|8,0:0|0:0,0:0:0:0:
464,112,27571,6,0,P|336:112|224:136,1,240,4|0,0:0|0:0,0:0:0:0:
128,168,28021,2,0,L|232:224,1,96,8|0,0:0|0:0,0:0:0:0:
304,256,28322,2,0,L|192:304,1,96
96,288,28622,1,8,0:0:0:0:
320,288,28773,6,0,P|400:256|336:224,1,192,4|0,0:0|0:0,0:0:0:0:
416,224,29223,1,0,0:0:0:0:
128,224,29373,1,0,0:0:0:0:
112,224,29448,1,0,0:0:0:0:
96,224,29523,1,0,0:0:0:0:
240,224,29673,1,0,0:0:0:0:
16,240,29823,2,0,L|32:128,1,96,8|0,0:0|0:0,0:0:0:0:
112,144,30048,1,0,0:0:0:0:
288,144,30124,6,0,L|384:144,1,96,8|0,0:0|0:0,0:0:0:0:
256,144,30424,2,0,L|160:144,1,96
288,144,30724,1,0,0:0:0:0:
160,144,30874,1,0,0:0:0:0:
304,144,31024,1,0,0:0:0:0:
16,112,31175,6,0,P|112:112|224:112,1,192,4|0,0:0|0:0,0:0:0:0:
464,128,31625,2,0,L|352:128,1,96,8|0,0:0|0:0,0:0:0:0:
248,128,31925,1,0,0:0:0:0:
32,128,32075,2,0,L|144:128,1,96,0|8,0:0|0:0,0:0:0:0:
448,224,32377,6,0,L|256:224,1,192,4|0,0:0|0:0,0:0:0:0:
480,128,32827,2,0,L|368:128,1,96,8|0,0:0|0:0,0:0:0:0:
280,128,33127,1,0,0:0:0:0:
400,128,33277,2,0,P|464:96|464:64,1,96,0|8,0:0|0:0,0:0:0:0:
176,96,33577,6,0,B|144:96|144:96|96:144|96:144|0:144,1,192,4|0,0:0|0:0,0:0:0:0:
128,192,34027,2,0,L|16:192,1,96,8|0,0:0|0:0,0:0:0:0:
336,256,34328,2,0,L|368:144,1,96
248,176,34628,1,8,0:0:0:0:
456,240,34779,6,0,L|488:128,1,96
360,128,35078,1,0,0:0:0:0:
229,268,35229,2,0,L|261:156,1,96,8|0,0:0|0:0,0:0:0:0:
16,208,35529,2,0,L|48:96,1,96,0|0,0:0|0:0,0:0:0:0:
256,112,35829,1,8,0:0:0:0:
480,112,35979,6,0,P|416:176|304:176,1,192,4|0,0:0|0:0,0:0:0:0:
416,208,36430,1,8,0:0:0:0:
288,224,36580,1,0,0:0:0:0:
64,192,36730,1,0,0:0:0:0:
192,208,36880,1,0,0:0:0:0:
96,240,37030,1,8,0:0:0:0:
352,304,37181,6,0,B|368:176|368:176|304:192,1,192,4|0,0:0|0:0,0:0:0:0:
416,192,37631,2,0,L|304:192,1,96,8|0,0:0|0:0,0:0:0:0:
112,176,37931,2,0,L|0:176,1,96
176,160,38232,1,8,0:0:0:0:
464,224,38382,6,0,P|432:128|320:144,2,215.999993408203,4|0|0,0:0|0:0|0:0,0:0:0:0:
152,240,39133,2,0,L|24:248,2,107.999996704102,8|0|0,0:0|0:0|0:0,0:0:0:0:
298,175,39583,6,0,P|333:270|256:336,1,215.999993408203,4|8,0:0|0:0,0:0:0:0:
416,176,40033,2,0,L|440:40,1,107.999996704102
208,112,40334,2,8,L|336:112,1,107.999996704102
160,112,40634,1,0,0:0:0:0:
288,112,40784,1,8,0:0:0:0:
64,112,40930,6,0,L|192:112,1,96,4|0,0:0|0:0,0:0:0:0:
416,144,41230,1,2,0:3:0:0:
448,144,41530,1,2,0:3:0:0:
496,144,41680,1,0,0:3:0:0:
368,144,41830,2,0,L|464:144,1,96,2|0,0:3|0:3,0:3:0:0:
64,192,42131,6,0,L|80:64,1,96,2|0,0:3|0:3,0:3:0:0:
224,128,42431,2,0,L|160:32,1,96,2|0,0:3|0:3,0:3:0:0:
320,80,42731,2,0,L|432:80,2,96,2|0|2,0:3|0:3|0:3,0:3:0:0:
208,80,43182,1,0,0:3:0:0:
496,80,43332,6,0,L|400:80,1,96,2|0,0:3|0:3,0:3:0:0:
176,112,43632,1,2,0:3:0:0:
128,112,43933,1,2,0:3:0:0:
256,144,44083,1,0,0:0:0:0:
112,160,44233,2,0,L|208:160,1,96,2|0,0:3|0:0,0:0:0:0:
432,208,44532,5,2,0:3:0:0:
464,208,44682,1,0,0:3:0:0:
224,224,44832,1,2,0:3:0:0:
256,224,44982,1,0,0:3:0:0:
32,240,45133,2,0,L|120:184,2,96,2|0|2,0:3|0:0|0:3,0:0:0:0:
320,256,45584,1,0,0:0:0:0:
112,256,45734,5,2,0:3:0:0:
192,256,45884,1,0,0:3:0:0:
288,256,46034,1,2,0:3:0:0:
384,256,46334,1,2,0:3:0:0:
240,224,46484,1,0,0:0:0:0:
368,192,46634,2,0,L|400:96,1,96,2|0,0:3|0:0,0:0:0:0:
160,112,46935,6,0,L|256:96,2,96,2|0|2,0:3|0:0|0:3,0:0:0:0:
80,176,47536,2,0,L|16:80,1,96,2|0,0:3|0:0,0:0:0:0:
272,128,47836,1,2,0:3:0:0:
64,240,47987,6,0,P|40:144|128:136,1,192,4|0,0:0|0:0,0:0:0:0:
256,80,48437,2,0,P|160:80|128:160,1,192,8|0,0:0|0:0,0:0:0:0:
288,176,48887,2,0,L|176:176,1,96,0|8,0:0|0:0,0:0:0:0:
432,256,49188,6,0,P|432:160|352:80,1,192,4|0,0:0|0:0,0:0:0:0:
192,128,49638,2,0,L|304:128,1,96,8|0,0:0|0:0,0:0:0:0:
176,128,49938,2,0,L|64:128,1,96,8|0,0:0|0:0,0:0:0:0:
240,128,50238,1,0,0:0:0:0:
496,128,50388,6,0,L|288:128,1,204.000003890991,4|0,0:0|0:0,0:0:0:0:
80,224,50839,2,0,L|48:128,1,102.000001945496,8|0,0:0|0:0,0:0:0:0:
208,128,51139,1,0,0:0:0:0:
48,128,51289,2,0,L|80:224,1,102.000001945496,0|8,0:0|0:0,0:0:0:0:
240,224,51590,1,0,0:0:0:0:
480,208,51740,6,0,L|448:304,1,102.000001945496
304,304,52041,2,0,L|160:304,1,102.000001945496,8|0,0:0|0:0,0:0:0:0:
48,304,52341,1,0,0:0:0:0:
144,304,52491,1,0,0:0:0:0:
16,288,52641,1,8,0:0:0:0:
256,272,52790,6,0,P|336:224|256:192,1,204.000003890991
128,208,53241,2,0,L|144:96,1,102.000001945496,8|0,0:0|0:0,0:0:0:0:
304,112,53541,2,0,L|368:192,1,102.000001945496
145,64,53841,1,8,0:0:0:0:
16,64,53992,1,0,0:0:0:0:
304,112,54142,6,0,L|448:112,1,102.000001945496
272,112,54442,2,0,L|416:112,1,102.000001945496,8|0,0:0|0:0,0:0:0:0:
124,171,54742,2,0,L|28:123,1,102.000001945496
165,108,55043,1,8,0:0:0:0:
376,216,55193,6,0,P|462:166|475:69,1,204.000003890991
325,244,55643,2,0,L|304:344,1,102.000001945496,8|0,0:0|0:0,0:0:0:0:
192,208,55944,1,0,0:0:0:0:
304,208,56094,1,0,0:0:0:0:
168,256,56244,1,8,0:0:0:0:
432,240,56394,6,0,P|384:144|256:144,1,204.000003890991
176,160,56844,2,0,L|320:160,1,102.000001945496,8|0,0:0|0:0,0:0:0:0:
64,240,57145,2,0,P|48:112|128:64,1,204.000003890991,0|8,0:0|0:0,0:0:0:0:
415,71,57595,6,0,P|477:146|448:240,1,204.000003890991,4|0,0:0|0:0,0:0:0:0:
224,256,58046,1,8,0:0:0:0:
112,256,58196,2,0,L|0:256,1,102.000001945496,0|8,0:0|0:0,0:0:0:0:
240,176,58496,2,0,L|352:176,1,102.000001945496,0|8,0:0|0:0,0:0:0:0:
128,192,58796,6,0,P|64:128|144:32,1,204.000003890991,4|0,0:0|0:0,0:0:0:0:
160,48,59172,1,0,0:0:0:0:
352,208,59247,1,8,0:0:0:0:
416,184,59322,1,8,0:0:0:0:
448,136,59397,1,8,0:0:0:0:
416,88,59472,1,8,0:0:0:0:
128,120,59547,6,0,L|168:56,1,60,8|0,0:0|0:0,0:0:0:0:
352,69,59697,2,0,L|384:120,1,60
160,208,59847,1,8,0:0:0:0:
96,184,59922,1,0,0:0:0:0:
64,136,59997,1,0,0:0:0:0:
96,88,60072,1,0,0:0:0:0:
368,240,60148,6,0,L|304:32,1,192,4|8,0:0|0:0,0:0:0:0:
416,64,60598,1,0,0:0:0:0:
272,112,60748,2,0,L|384:112,1,96,8|0,0:0|0:0,0:0:0:0:
160,96,61049,2,0,L|272:96,1,96,8|0,0:0|0:0,0:0:0:0:
48,192,61349,6,0,L|16:96,1,96,8|0,0:0|0:0,0:0:0:0:
48,80,61574,1,0,0:0:0:0:
80,80,61649,1,8,0:0:0:0:
216,128,61799,1,0,0:0:0:0:
128,144,61950,2,0,L|256:144,1,96,8|0,0:0|0:0,0:0:0:0:
328,160,62250,2,0,L|200:160,1,96,8|0,0:0|0:0,0:0:0:0:
440,208,62550,6,8,L|472:16,1,192
256,80,63001,1,0,0:0:0:0:
384,96,63151,2,0,L|504:96,1,96,8|0,0:0|0:0,0:0:0:0:
264,120,63451,2,0,L|160:136,1,96,8|0,0:0|0:0,0:0:0:0:
56,136,63751,5,8,0:0:0:0:
40,64,63901,1,0,0:0:0:0:
344,64,64052,1,8,0:0:0:0:
320,64,64202,1,2,0:0:0:0:
56,64,64352,1,8,0:0:0:0:
296,64,64502,1,2,0:0:0:0:
88,88,64652,1,8,0:0:0:0:
304,128,64802,2,0,L|368:128,1,48
88,112,64953,6,0,P|168:88|272:112,1,192,4|4,0:2|0:2,2:2:0:0:
128,192,65403,1,0,0:0:0:0:
304,224,65553,2,0,L|416:192,1,96,4|0,0:2|0:0,0:0:0:0:
128,240,65853,2,0,L|240:208,1,96,4|0,0:2|0:0,0:0:0:0:
464,256,66154,5,4,0:2:0:0:
400,160,66304,1,0,0:0:0:0:
80,176,66454,1,4,0:2:0:0:
208,128,66604,1,0,0:0:0:0:
64,128,66753,2,0,L|48:16,1,96,4|0,0:2|0:0,0:0:0:0:
384,128,67054,2,0,L|256:112,1,96,4|0,0:2|0:0,0:0:0:0:
152,184,67355,6,0,L|80:200,1,60,8|0,0:0|0:0,0:0:0:0:
176,216,67505,1,0,0:0:0:0:
216,216,67580,1,0,0:0:0:0:
128,224,67655,6,0,L|56:240,1,60,8|0,0:0|0:0,0:0:0:0:
152,256,67805,1,0,0:0:0:0:
192,256,67880,1,0,0:0:0:0:
416,144,67954,6,8,L|336:168,1,60
153,161,68105,2,0,L|96:144,1,60
304,160,68255,6,0,L|368:112,1,60,8|0,0:0|0:0,0:0:0:0:
160,124,68406,1,4,0:2:0:0:
112,96,69156,2,0,P|48:192|176:224,1,270.000010299683,2|0,0:0|0:0,0:0:0:0:
438,332,69457,2,0,P|502:233|392:192,1,270.000010299683,2|0,0:0|0:0,0:0:0:0:
224,248,69757,6,0,L|184:112,1,132.00000402832,4|0,0:0|0:0,0:0:0:0:
340,176,70058,1,8,0:0:0:0:
128,232,70208,2,0,L|223:139,1,132.00000402832
80,152,70509,1,0,0:0:0:0:
368,176,70657,6,0,L|496:144,1,132.00000402832,8|0,0:0|0:0,0:0:0:0:
352,112,70958,1,0,0:0:0:0:
136,176,71108,2,0,L|8:144,1,132.00000402832,0|8,0:0|0:0,0:0:0:0:
128,112,71409,1,0,0:0:0:0:
344,128,71558,1,0,0:0:0:0:
200,144,71708,1,0,0:0:0:0:
336,160,71858,1,8,0:0:0:0:
184,168,72009,1,0,0:0:0:0:
400,224,72159,6,0,P|448:160|352:16,1,264.000008056641,0|8,0:0|0:0,0:0:0:0:
64,80,72609,2,0,L|96:240,1,132.00000402832
320,224,72909,1,0,0:0:0:0:
184,256,73060,2,0,L|96:128,1,132.00000402832,8|0,0:0|0:0,0:0:0:0:
336,128,73360,6,0,L|256:16,1,132.00000402832
400,32,73660,1,0,0:0:0:0:
256,48,73810,1,8,0:0:0:0:
464,160,73961,2,0,L|496:32,1,132.00000402832
272,80,74261,1,8,0:0:0:0:
480,80,74411,1,0,0:0:0:0:
224,192,74561,6,0,P|128:160|224:128,1,264.000008056641,4|8,0:0|0:0,0:0:0:0:
90,126,75012,2,0,L|266:126,1,132.00000402832
352,128,75312,1,0,0:0:0:0:
24,168,75462,6,0,L|200:168,1,132.00000402832,8|0,0:0|0:0,0:0:0:0:
286,170,75762,1,0,0:0:0:0:
148,176,75912,2,0,L|-28:176,1,132.00000402832,0|8,0:0|0:0,0:0:0:0:
225,173,76213,1,0,0:0:0:0:
440,152,76363,2,0,L|272:144,1,132.00000402832
453,119,76663,1,8,0:0:0:0:
56,112,76814,1,4,0:0:0:0:
192,112,76964,6,0,L|344:112,1,132.00000402832
176,176,77264,2,0,L|336:176,1,132.00000402832,8|0,0:0|0:0,0:0:0:0:
448,192,77564,2,0,L|480:32,1,132.00000402832
240,88,77864,1,8,0:0:0:0:
376,104,78015,2,0,L|456:104,2,66.0000020141602,0|0|4,0:0|0:0|0:0,0:0:0:0:
160,192,78315,6,8,L|80:192,1,66.0000020141602
64,192,78465,2,8,L|144:192,1,66.0000020141602
336,192,78615,1,8,0:0:0:0:
400,192,78690,1,8,0:0:0:0:
176,176,78765,6,0,L|144:80,1,66.0000020141602
352,144,78915,2,0,L|368:64,1,66.0000020141602
152,62,79066,2,8,L|96:96,1,66.0000020141602
382,80,79216,2,8,L|448:80,1,66.0000020141602
80,336,79366,6,0,L|64:160,1,132.00000402832,4|0,0:0|0:0,0:0:0:0:
208,208,79666,1,8,0:0:0:0:
456,224,79816,2,0,L|320:192,2,132.00000402832
56,280,80267,6,0,L|200:280,1,132.00000402832,12|0,0:0|0:0,0:0:0:0:
56,216,80567,1,0,0:0:0:0:
432,288,80717,2,0,L|464:160,2,132.00000402832,0|8|0,0:0|0:0|0:0,0:0:0:0:
256,224,81168,2,0,L|352:112,1,132.00000402832
128,112,81468,2,0,L|256:144,1,132.00000402832,8|0,0:0|0:0,0:0:0:0:
16,96,81768,6,0,P|112:144|16:224,1,264.000008056641,0|8,0:0|0:0,0:0:0:0:
416,176,82219,2,0,P|320:224|416:304,1,264.000008056641
271,307,82669,2,0,L|415:307,1,132.00000402832,8|0,0:0|0:0,0:0:0:0:
104,344,82969,6,0,L|64:208,1,132.00000402832
208,264,83270,1,0,0:0:0:0:
64,248,83420,1,8,0:0:0:0:
192,344,83570,2,0,L|240:200,1,132.00000402832
64,248,83871,1,8,0:0:0:0:
352,320,84021,6,0,P|432:272|320:192,1,264.000008056641
64,224,84471,2,0,L|96:48,1,132.00000402832,8|0,0:0|0:0,0:0:0:0:
368,176,84771,2,0,L|400:0,1,132.00000402832
160,112,85071,1,8,0:0:0:0:
384,112,85222,6,0,P|464:160|368:256,1,264.000008056641
144,256,85672,1,8,0:0:0:0:
48,256,85822,1,0,0:0:0:0:
320,192,85972,1,0,0:0:0:0:
112,192,86123,1,0,0:0:0:0:
224,192,86273,1,8,0:0:0:0:
448,192,86423,6,0,B|464:48|464:48|336:48,1,264.000008056641,4|0,0:0|0:0,0:0:0:0:
112,80,86873,2,0,L|256:96,1,132.00000402832,8|0,0:0|0:0,0:0:0:0:
480,96,87173,2,0,L|336:112,1,132.00000402832,8|0,0:0|0:0,0:0:0:0:
96,160,87474,1,8,0:0:0:0:
384,160,87624,6,0,P|460:235|353:244,1,270.000010299683,4|0,0:2|2:0,0:0:0:0:
96,176,87924,2,0,P|19:251|126:260,1,270.000010299683,4|0,0:2|2:0,0:0:0:0:
400,112,88224,2,0,P|511:194|373:206,1,360,4|2,0:2|0:0,2:0:0:0:
