osu file format v14

[General]
AudioFilename: audio.mp3
AudioLeadIn: 0
PreviewTime: 108401
Countdown: 0
SampleSet: None
StackLeniency: 0.7
Mode: 0
LetterboxInBreaks: 0
WidescreenStoryboard: 0

[Editor]
Bookmarks: 41593
DistanceSpacing: 1.6
BeatDivisor: 4
GridSize: 4
TimelineZoom: 1.6

[Metadata]
Title:CHiLD-error-
TitleUnicode:CHiLD-error-
Artist:MY FIRST STORY
ArtistUnicode:MY FIRST STORY
Creator:HabiHolic
Version:Extra
Source:
Tags:虚言NEUROSE hiroki moriuchi nobuaki katou teruki nishizawa shouhei sasaki 森内寛樹 加藤伸明 佐々木翔平 西澤照貴 nob teru hiro kid'z
BeatmapID:1876090
BeatmapSetID:898044

[Difficulty]
HPDrainRate:8
CircleSize:4
OverallDifficulty:8
ApproachRate:9.2
SliderMultiplier:1.8
SliderTickRate:1

[Events]
//Background and Video events
0,0,"ken-kaneki-wallpaper-hd-1920x1200-150411.jpg",0,0
//Break Periods
//Storyboard Layer 0 (Background)
//Storyboard Layer 1 (Fail)
//Storyboard Layer 2 (Pass)
//Storyboard Layer 3 (Foreground)
//Storyboard Sound Samples

[TimingPoints]
690,230.769230769231,4,2,0,30,1,0
37613,-100,4,2,1,75,0,0
39459,-153.846153846153,4,2,0,75,0,0
41305,-68.9655172413794,4,2,1,75,0,0
42228,-100,4,2,0,75,0,0
43151,-166.666666666667,4,2,1,75,0,0
44997,-100,4,2,1,75,0,0

[HitObjects]
256,192,30228,12,0,37382,0:0:0:0:
105,77,37613,5,2,0:0:0:0:
105,77,37728,1,2,0:0:0:0:
135,182,37843,2,0,L|42:168,1,90,12|0,0:0|0:0,0:0:0:0:
259,168,38074,1,2,0:0:0:0:
225,264,38190,2,0,L|318:250,1,90,12|0,0:0|0:0,0:0:0:0:
372,170,38420,1,2,0:0:0:0:
270,356,38536,6,0,B|207:346|207:346|156:360|156:360|92:348,1,180,12|8,0:0|0:0,0:0:0:0:
28,273,38882,1,8,0:0:0:0:
164,169,38997,1,8,0:0:0:0:
1,123,39113,1,8,0:0:0:0:
172,188,39228,1,8,0:0:0:0:
52,43,39343,1,8,0:0:0:0:
129,283,39459,6,0,P|188:222|272:231,2,175.499991966248,4|0|2,0:0|0:0|0:0,0:0:0:0:
150,67,40382,1,2,0:0:0:0:
150,67,41305,6,0,L|25:33,1,130.500003982544,12|0,0:0|0:0,0:0:0:0:
362,67,41536,2,0,L|487:33,1,130.500003982544,12|0,0:0|0:0,0:0:0:0:
157,232,41766,2,0,L|130:359,1,130.500003982544,12|0,0:0|0:0,0:0:0:0:
355,232,41997,2,0,L|382:359,1,130.500003982544,12|0,0:0|0:0,0:0:0:0:
469,109,42228,5,2,0:0:0:0:
385,79,42343,1,0,0:0:0:0:
301,105,42458,1,2,0:0:0:0:
249,177,42574,1,0,0:0:0:0:
252,266,42690,1,2,0:0:0:0:
210,343,42805,1,0,0:0:0:0:
128,375,42920,1,2,0:0:0:0:
45,344,43036,1,0,0:0:0:0:
6,257,43151,6,0,P|15:205|7:152,1,107.999996704102,2|0,0:0|0:0,0:0:0:0:
81,86,43497,2,0,L|188:101,1,107.999996704102,8|0,0:0|0:0,0:0:0:0:
271,52,43843,1,2,0:0:0:0:
176,198,44074,6,0,B|188:237|188:237|169:302,1,107.999996704102,0|2,0:0|0:0,0:0:0:0:
97,243,44420,1,0,0:0:0:0:
261,292,44536,2,0,L|316:281,1,53.9999983520508,8|0,0:0|0:0,0:0:0:0:
442,227,44766,2,0,L|387:216,1,53.9999983520508,2|0,0:0|0:0,0:0:0:0:
325,140,44997,5,8,0:0:0:0:
434,34,45113,2,0,B|444:75|444:75|433:121,1,90,2|2,0:0|0:0,0:0:0:0:
298,166,45343,1,8,0:0:0:0:
245,28,45459,2,0,L|335:41,1,90,2|2,0:0|0:0,0:0:0:0:
267,193,45690,1,8,0:0:0:0:
154,73,45805,1,2,0:0:0:0:
119,269,45920,6,0,L|25:251,1,90,2|2,0:0|0:0,0:0:0:0:
252,356,46151,2,0,L|340:339,1,90,8|2,0:0|0:0,0:0:0:0:
424,234,46382,1,2,0:0:0:0:
233,183,46497,1,2,0:0:0:0:
412,128,46613,1,8,3:0:0:0:
209,191,46728,1,2,0:0:0:0:
321,69,46843,6,0,P|406:83|467:22,1,180
229,26,47190,1,0,0:0:0:0:
252,271,47305,1,0,0:0:0:0:
144,100,47420,1,0,0:0:0:0:
165,327,47536,6,0,L|353:298,1,180
461,175,47882,1,0,0:0:0:0:
289,103,47997,1,0,0:0:0:0:
446,206,48113,1,0,0:0:0:0:
406,20,48228,2,0,L|387:111,1,90
201,166,48459,2,0,L|182:77,1,90
142,248,48690,6,0,P|227:263|293:206,1,180
41,165,49036,2,0,L|64:348,1,180
