osu file format v14

[General]
AudioFilename: audio.mp3
AudioLeadIn: 0
PreviewTime: 65929
Countdown: 0
SampleSet: Soft
StackLeniency: 0.3
Mode: 0
LetterboxInBreaks: 0
WidescreenStoryboard: 0

[Editor]
DistanceSpacing: 1.6
BeatDivisor: 4
GridSize: 4
TimelineZoom: 1.5

[Metadata]
Title:Black Rail
TitleUnicode:Black Rail
Artist:MY FIRST STORY
ArtistUnicode:MY FIRST STORY
Creator:Saut
Version:Very Insane
Source:
Tags:pishifat appleeaterx dailycare 虚言itsuwari kyogen neurose emo rock alternative post-hardcore
BeatmapID:949102
BeatmapSetID:439396

[Difficulty]
HPDrainRate:6
CircleSize:4.4
OverallDifficulty:8
ApproachRate:9
SliderMultiplier:1
SliderTickRate:1

[Events]
//Background and Video events
0,0,"bg.jpg",0,0
//Break Periods
2,57379,65403
2,104438,108050
2,176003,184814
//Storyboard Layer 0 (Background)
//Storyboard Layer 1 (Fail)
//Storyboard Layer 2 (Pass)
//Storyboard Layer 3 (Foreground)
//Storyboard Sound Samples

[TimingPoints]
709,294.117647058824,4,2,1,50,1,0
17179,-142.857142857143,4,2,1,15,0,0
18797,-100,4,2,1,15,0,0
18944,-175.438596491228,4,2,1,50,0,0
19459,-55.5555555555556,4,2,2,5,0,0
19532,-66.6666666666667,4,2,1,67,0,0
35929,-66.6666666666667,4,2,1,5,0,0
36003,-66.6666666666667,4,2,1,75,0,0
36223,-66.6666666666667,4,2,1,5,0,0
36297,-66.6666666666667,4,2,1,75,0,0
38061,-66.6666666666667,4,2,1,50,0,0
38356,-142.857142857143,4,2,1,45,0,0
41591,-142.857142857143,4,2,1,50,0,0
42473,-142.857142857143,4,2,1,62,0,0
42914,-142.857142857143,4,2,1,25,0,0
43061,-76.9230769230769,4,2,1,55,0,0
46517,-76.9230769230769,4,2,1,5,0,0
46591,-76.9230769230769,4,2,1,50,0,0
47179,-76.9230769230769,4,2,1,60,0,0
47473,-76.9230769230769,4,2,1,70,0,0
47767,-83.3333333333333,4,2,1,80,0,0
47914,-83.3333333333333,4,2,1,55,0,0
48209,-83.3333333333333,4,2,1,80,0,0
48429,-83.3333333333333,4,2,1,5,0,0
48503,-83.3333333333333,4,2,1,55,0,0
48797,-83.3333333333333,4,2,1,90,0,0
49091,-83.3333333333333,4,2,1,55,0,0
50120,-83.3333333333333,4,2,1,80,0,0
50267,-83.3333333333333,4,2,1,55,0,0
50561,-83.3333333333333,4,2,1,80,0,0
50782,-83.3333333333333,4,2,1,5,0,0
50856,-83.3333333333333,4,2,1,55,0,0
51150,-83.3333333333333,4,2,1,90,0,0
51297,-83.3333333333333,4,2,1,55,0,0
51885,-83.3333333333333,4,2,1,65,0,0
52179,-83.3333333333333,4,2,1,75,0,0
52473,-76.9230769230769,4,2,1,85,0,0
52620,-76.9230769230769,4,2,1,65,0,0
54826,-76.9230769230769,4,2,1,85,0,0
54973,-76.9230769230769,4,2,1,65,0,0
56885,-76.9230769230769,4,2,1,75,0,0
57179,-76.9230769230769,4,2,1,85,0,0
66003,-200,4,2,1,50,0,0
66076,-285.714285714286,4,2,1,5,0,0
66591,-100,4,2,1,85,0,1
66885,-100,4,2,1,70,0,1
67473,-100,4,2,1,95,0,1
67767,-100,4,2,1,70,0,1
68944,-100,4,2,1,85,0,1
69238,-100,4,2,1,70,0,1
69826,-100,4,2,1,95,0,1
70120,-100,4,2,1,70,0,1
71003,-100,4,2,1,80,0,1
71297,-100,4,2,1,90,0,1
71591,-100,4,2,1,70,0,1
72179,-100,4,2,1,100,0,1
72473,-100,4,2,1,70,0,1
73650,-71.4285714285714,4,2,1,80,0,1
73944,-71.4285714285714,4,2,1,90,0,1
74238,-71.4285714285714,4,2,1,100,0,1
74385,-71.4285714285714,4,2,1,80,0,1
74532,-71.4285714285714,4,2,1,60,0,1
74679,-100,4,2,1,85,0,0
75561,-166.666666666667,4,2,1,75,0,0
75929,-166.666666666667,4,2,1,5,0,0
76003,-100,4,2,1,85,0,1
76297,-100,4,2,1,70,0,1
76885,-100,4,2,1,95,0,1
77179,-100,4,2,1,70,0,1
78356,-100,4,2,1,85,0,1
78650,-100,4,2,1,70,0,1
79238,-100,4,2,1,95,0,1
79532,-100,4,2,1,70,0,1
80414,-100,4,2,1,80,0,1
80709,-100,4,2,1,90,0,1
81003,-100,4,2,1,70,0,1
81591,-100,4,2,1,100,0,1
81885,-100,4,2,1,70,0,1
83061,-100,4,2,1,90,0,1
83356,-100,4,2,1,70,0,1
83503,-100,4,2,1,90,0,1
83797,-100,4,2,1,70,0,1
83944,-100,4,2,1,100,0,1
84091,-100,4,2,1,50,0,1
84238,-100,4,2,1,100,0,1
84385,-100,4,2,1,50,0,1
84532,-71.4285714285714,4,2,1,100,0,1
84606,-71.4285714285714,4,2,1,70,0,1
84826,-71.4285714285714,4,2,1,70,0,1
85414,-71.4285714285714,4,2,1,85,0,0
85561,-71.4285714285714,4,2,1,65,0,0
85929,-71.4285714285714,4,2,1,5,0,0
86003,-71.4285714285714,4,2,1,65,0,0
87988,-71.4285714285714,4,2,1,5,0,0
88061,-71.4285714285714,4,2,1,65,0,0
90341,-71.4285714285714,4,2,1,5,0,0
90414,-71.4285714285714,4,2,1,65,0,0
92694,-71.4285714285714,4,2,1,5,0,0
92767,-71.4285714285714,4,2,1,65,0,0
94826,-71.4285714285714,4,2,1,85,0,0
95047,-71.4285714285714,4,2,1,5,0,0
95120,-71.4285714285714,4,2,1,65,0,0
97400,-71.4285714285714,4,2,1,5,0,0
97473,-71.4285714285714,4,2,1,65,0,0
99532,-71.4285714285714,4,2,1,70,0,0
99679,-71.4285714285714,4,2,1,45,0,0
99973,-71.4285714285714,4,2,1,75,0,0
100120,-71.4285714285714,4,2,1,50,0,0
100414,-71.4285714285714,4,2,1,80,0,0
100561,-71.4285714285714,4,2,1,55,0,0
100709,-71.4285714285714,4,2,1,75,0,0
101885,-71.4285714285714,4,2,1,85,0,0
102032,-71.4285714285714,4,2,1,60,0,0
102473,-71.4285714285714,4,2,1,90,0,0
102620,-71.4285714285714,4,2,1,65,0,0
103061,-71.4285714285714,4,2,1,75,0,0
103209,-71.4285714285714,4,2,1,45,0,0
103356,-71.4285714285714,4,2,1,75,0,0
103503,-71.4285714285714,4,2,1,80,0,0
103650,-71.4285714285714,4,2,1,85,0,0
103797,-71.4285714285714,4,2,1,90,0,0
103944,-71.4285714285714,4,2,1,95,0,0
104091,-125,4,2,1,73,0,0
108650,-125,4,2,1,65,0,0
108944,-76.9230769230769,4,2,1,55,0,0
112400,-76.9230769230769,4,2,1,5,0,0
112473,-76.9230769230769,4,2,1,55,0,0
113061,-76.9230769230769,4,2,1,65,0,0
113356,-76.9230769230769,4,2,1,75,0,0
113650,-90.9090909090909,4,2,1,85,0,0
113797,-90.9090909090909,4,2,1,45,0,0
118061,-90.9090909090909,4,2,1,50,0,0
118356,-83.3333333333333,4,2,1,75,0,0
118503,-83.3333333333333,4,2,1,60,0,0
120709,-83.3333333333333,4,2,1,75,0,0
120856,-83.3333333333333,4,2,1,50,0,0
121003,-83.3333333333333,4,2,1,65,0,0
121297,-83.3333333333333,4,2,1,75,0,0
121591,-83.3333333333333,4,2,1,85,0,0
121811,-83.3333333333333,4,2,1,25,0,0
121885,-83.3333333333333,4,2,1,65,0,0
121959,-83.3333333333333,4,2,1,35,0,0
122179,-83.3333333333333,4,2,1,45,0,0
122473,-83.3333333333333,4,2,1,50,0,0
122767,-83.3333333333333,4,2,1,45,0,0
123061,-125,4,2,1,75,0,0
123356,-125,4,2,1,45,0,0
127767,-125,4,2,1,65,0,0
127914,-125,4,2,1,50,0,0
128356,-125,4,2,1,55,0,0
128944,-125,4,2,1,60,0,0
129238,-125,4,2,1,65,0,0
129532,-125,4,2,1,70,0,0
129826,-125,4,2,1,75,0,0
130120,-125,4,2,1,50,0,0
130414,-125,4,2,1,60,0,0
130709,-125,4,2,1,70,0,0
131003,-125,4,2,1,80,0,0
131297,-76.9230769230769,4,2,1,60,0,0
132473,-200,4,2,1,17,0,0
136003,-200,4,2,1,45,0,0
136591,-200,4,2,1,55,0,0
137106,-200,4,2,1,5,0,0
137179,-111.111111111111,4,2,1,65,0,0
137400,-111.111111111111,4,2,1,5,0,0
137473,-111.111111111111,4,2,1,65,0,0
137694,-111.111111111111,4,2,1,5,0,0
137767,-111.111111111111,4,2,1,55,0,0
139532,-111.111111111111,4,2,1,65,0,0
139753,-111.111111111111,4,2,1,5,0,0
139826,-111.111111111111,4,2,1,65,0,0
140047,-111.111111111111,4,2,1,5,0,0
140120,-111.111111111111,4,2,1,55,0,0
141885,-111.111111111111,4,2,1,65,0,0
142106,-111.111111111111,4,2,1,5,0,0
142179,-111.111111111111,4,2,1,65,0,0
142400,-111.111111111111,4,2,1,5,0,0
142473,-111.111111111111,4,2,1,55,0,0
144238,-111.111111111111,4,2,1,65,0,0
144459,-111.111111111111,4,2,1,5,0,0
144532,-111.111111111111,4,2,1,65,0,0
144753,-111.111111111111,4,2,1,5,0,0
144826,-111.111111111111,4,2,1,55,0,0
145414,-111.111111111111,4,2,1,55,0,0
145561,-111.111111111111,4,2,1,33,0,0
146297,-111.111111111111,4,2,1,65,0,0
146885,-166.666666666667,4,2,1,50,0,0
147106,-166.666666666667,4,2,1,5,0,0
147179,-100,4,2,1,65,0,0
147473,-100,4,2,1,55,0,0
147767,-100,4,2,1,70,0,0
147914,-100,4,2,1,55,0,0
148944,-100,4,2,1,65,0,0
149164,-100,4,2,1,5,0,0
149238,-100,4,2,1,65,0,0
149459,-100,4,2,1,5,0,0
149532,-100,4,2,1,55,0,0
151297,-100,4,2,1,65,0,0
151517,-100,4,2,1,5,0,0
151591,-100,4,2,1,65,0,0
151811,-100,4,2,1,5,0,0
151885,-100,4,2,1,55,0,0
153650,-100,4,2,1,65,0,0
153870,-100,4,2,1,5,0,0
153944,-100,4,2,1,65,0,0
154164,-100,4,2,1,5,0,0
154238,-100,4,2,1,55,0,0
154826,-100,4,2,1,65,0,0
155120,-100,4,2,1,45,0,0
155414,-100,4,2,1,55,0,0
155561,-100,4,2,1,60,0,0
155709,-100,4,2,1,65,0,0
155856,-100,4,2,1,70,0,0
156003,-66.6666666666667,4,2,2,80,0,0
156150,-66.6666666666667,4,2,2,60,0,0
160709,-66.6666666666667,4,2,2,70,0,0
164238,-58.8235294117647,4,2,2,75,0,0
164826,-58.8235294117647,4,2,2,85,0,0
165120,-58.8235294117647,4,2,2,55,0,0
165414,-100,4,2,1,75,0,0
165561,-100,4,2,1,45,0,0
170120,-100,4,2,1,50,0,0
170709,-100,4,2,1,55,0,0
171297,-100,4,2,1,60,0,0
171885,-100,4,2,1,65,0,0
172473,-66.6666666666667,4,2,1,70,0,0
172620,-66.6666666666667,4,2,1,55,0,0
172914,-66.6666666666667,4,2,1,75,0,0
173061,-66.6666666666667,4,2,1,55,0,0
173650,-66.6666666666667,4,2,1,75,0,0
173944,-66.6666666666667,4,2,1,80,0,0
174238,-66.6666666666667,4,2,1,85,0,0
185414,-200,4,2,1,40,0,0
192473,-187.695190505934,4,2,1,25,0,0
192492,-187.695190505934,4,2,2,5,0,0
193356,-100,4,2,1,25,0,0
193374,-100,4,2,2,5,0,0
194826,-100,4,2,1,55,0,0
196591,-200,4,2,1,50,0,0
196664,-200,4,2,1,5,0,0
197106,-200,4,2,1,5,0,0
197179,-100,4,2,1,85,0,1
197473,-100,4,2,1,70,0,1
198061,-100,4,2,1,95,0,1
198355,-100,4,2,1,70,0,1
199532,-100,4,2,1,85,0,1
199826,-100,4,2,1,70,0,1
200414,-100,4,2,1,95,0,1
200708,-100,4,2,1,70,0,1
201591,-100,4,2,1,80,0,1
201885,-100,4,2,1,90,0,1
202179,-100,4,2,1,70,0,1
202767,-100,4,2,1,100,0,1
203061,-100,4,2,1,70,0,1
204238,-71.4285714285714,4,2,1,80,0,1
204532,-71.4285714285714,4,2,1,90,0,1
204826,-71.4285714285714,4,2,1,100,0,1
204973,-71.4285714285714,4,2,1,80,0,1
205120,-71.4285714285714,4,2,1,60,0,1
205267,-100,4,2,1,85,0,0
206150,-100,4,2,1,65,0,0
206591,-71.4285714285714,4,2,1,85,0,1
206738,-71.4285714285714,4,2,1,70,0,1
208944,-71.4285714285714,4,2,1,85,0,1
209091,-71.4285714285714,4,2,1,70,0,1
211297,-71.4285714285714,4,2,1,85,0,1
211444,-71.4285714285714,4,2,1,70,0,1
213650,-71.4285714285714,4,2,1,75,0,1
213797,-71.4285714285714,4,2,1,65,0,1
214091,-71.4285714285714,4,2,1,75,0,1
214238,-71.4285714285714,4,2,1,65,0,1
214532,-71.4285714285714,4,2,1,80,0,1
214826,-71.4285714285714,4,2,1,85,0,1
215120,-71.4285714285714,4,2,1,90,0,1
215414,-71.4285714285714,4,2,1,65,0,1
216003,-62.5,4,2,1,85,0,0
216150,-62.5,4,2,1,67,0,0
233650,-62.5,4,2,1,70,0,0
233944,-62.5,4,2,1,75,0,0
234238,-62.5,4,2,1,80,0,0
234532,-62.5,4,2,1,85,0,0

[Colours]
Combo1 : 211,214,190
Combo2 : 143,129,173
Combo3 : 228,154,105

[HitObjects]
81,82,17179,6,0,L|88:129,1,34.9999989318848,2|2,0:3|0:3,0:0:0:0:
130,107,17473,2,0,L|125:73,1,34.9999989318848,0|2,0:0|0:3,0:0:0:0:
125,73,17914,5,2,0:3:0:0:
260,182,18061,2,0,L|253:229,1,34.9999989318848,2|2,0:3|0:3,0:0:0:0:
210,207,18355,2,0,L|215:172,1,34.9999989318848,0|2,0:0|0:3,0:0:0:0:
66,277,18796,5,4,3:0:0:0:
59,249,18870,1,4,3:0:0:0:
50,222,18944,2,2,P|90:195|136:212,1,99.7499987823487,8|0,0:0|0:0,1:1:0:0:
136,212,19532,6,0,B|149:138,2,75.0000028610231,8|0|0,0:0|1:0|1:0,0:0:0:0:
181,332,19973,1,8,0:0:0:0:
102,307,20120,1,0,1:0:0:0:
162,362,20267,1,0,1:0:0:0:
58,245,20414,2,0,B|19:237|19:237|30:271,1,75.0000028610231,10|0,0:0|1:0,0:0:0:0:
222,202,20709,6,0,P|242:171|246:134,1,75.0000028610231,10|0,0:0|1:0,0:0:0:0:
193,52,21003,1,0,1:0:0:0:
139,239,21150,2,0,P|211:234|256:176,1,150.000005722046,10|0,0:0|1:0,0:0:0:0:
112,48,21591,2,0,B|83:74|83:74|117:85,1,75.0000028610231,10|0,0:0|1:0,0:0:0:0:
293,35,21885,6,0,B|329:51|329:51|339:85,1,75.0000028610231,10|0,0:0|1:0,0:0:0:0:
361,188,22179,1,0,1:0:0:0:
479,107,22326,2,0,L|489:32,2,75.0000028610231,10|0|0,0:0|1:0|1:0,0:0:0:0:
373,267,22767,2,0,L|383:341,1,75.0000028610231,10|0,0:0|1:0,0:0:0:0:
332,171,23061,5,10,0:0:0:0:
447,223,23209,1,0,1:0:0:0:
447,223,23355,1,0,1:0:0:0:
299,99,23503,2,0,B|263:115|263:115|252:149,1,75.0000028610231,10|0,0:0|1:0,0:0:0:0:
227,257,23797,1,0,1:0:0:0:
110,154,23944,2,0,L|103:79,1,75.0000028610231,10|0,0:0|1:0,0:0:0:0:
62,244,24238,6,0,B|37:216|37:216|0:206,2,75.0000028610231,8|0|0,0:0|1:0|1:0,0:0:0:0:
140,373,24679,1,8,0:0:0:0:
164,287,24826,1,0,1:0:0:0:
108,356,24973,1,0,1:0:0:0:
244,319,25120,2,0,B|259:354|259:354|222:350,1,75.0000028610231,10|0,0:0|1:0,0:0:0:0:
140,204,25414,6,0,L|127:130,1,75.0000028610231,10|0,0:0|1:0,0:0:0:0:
201,49,25709,1,0,1:0:0:0:
221,245,25856,2,0,B|124:220|124:220|115:170,1,150.000005722046,10|0,0:0|1:0,0:0:0:0:
275,81,26297,2,0,B|290:116|290:116|253:112,1,75.0000028610231,10|0,0:0|1:0,0:0:0:0:
134,1,26591,5,10,0:0:0:0:
169,103,26737,1,0,1:0:0:0:
62,83,26884,1,0,1:0:0:0:
0,199,27032,2,0,L|14:272,2,75.0000028610231,10|0|0,0:0|1:0|1:0,0:0:0:0:
187,126,27473,2,0,L|201:52,1,75.0000028610231,10|0,0:0|1:0,0:0:0:0:
140,309,27767,5,10,0:0:0:0:
102,163,27914,1,0,1:0:0:0:
137,294,28061,1,0,1:0:0:0:
274,189,28209,2,0,B|310:205|310:205|321:239,1,75.0000028610231,10|0,0:0|1:0,0:0:0:0:
345,330,28502,1,0,1:0:0:0:
453,215,28650,2,0,L|460:177,3,37.5000014305115,0|0|0|0,1:0|1:0|1:0|1:0,0:0:0:0:
428,140,28944,6,0,B|501:155,2,75.0000028610231,8|0|0,0:0|1:0|1:0,0:0:0:0:
301,68,29385,1,8,0:0:0:0:
379,43,29532,1,0,1:0:0:0:
319,98,29679,1,0,1:0:0:0:
461,28,29826,2,0,B|489:55|489:55|455:65,1,75.0000028610231,10|0,0:0|1:0,0:0:0:0:
265,160,30121,6,0,P|247:191|253:227,1,75.0000028610231,10|0,0:0|1:0,0:0:0:0:
334,295,30415,1,0,1:0:0:0:
353,134,30562,2,0,P|280:135|232:190,1,150.000005722046,10|0,0:0|1:0,0:0:0:0:
410,330,31003,2,0,B|444:319|444:319|415:293,1,75.0000028610231,10|0,0:0|1:0,0:0:0:0:
178,345,31297,6,0,B|194:309|194:309|228:299,1,75.0000028610231,10|0,0:0|1:0,0:0:0:0:
326,264,31591,1,0,1:0:0:0:
205,173,31738,2,0,L|130:163,2,75.0000028610231,10|0|0,0:0|1:0|1:0,0:0:0:0:
412,257,32179,2,0,L|486:247,1,75.0000028610231,10|0,0:0|1:0,0:0:0:0:
309,241,32473,5,10,0:0:0:0:
366,350,32621,1,0,1:0:0:0:
366,350,32767,1,0,1:0:0:0:
358,177,32915,2,0,B|329:154|329:154|291:161,1,75.0000028610231,10|0,0:0|1:0,0:0:0:0:
220,256,33209,1,0,1:0:0:0:
116,129,33356,2,0,L|109:54,1,75.0000028610231,10|0,0:0|1:0,0:0:0:0:
147,306,33650,6,0,B|167:338|167:338|204:342,2,75.0000028610231,8|0|0,0:0|1:0|1:0,0:0:0:0:
193,147,34091,1,8,0:0:0:0:
128,212,34238,1,0,1:0:0:0:
211,177,34385,1,0,1:0:0:0:
55,180,34532,2,0,B|19:194|19:194|49:217,1,75.0000028610231,10|0,0:0|1:0,0:0:0:0:
264,245,34826,6,0,B|291:219|291:219|293:181,1,75.0000028610231,10|0,0:0|1:0,0:0:0:0:
239,77,35121,1,0,1:0:0:0:
170,261,35267,2,0,B|268:279|268:279|305:244,1,150.000005722046,10|0,0:0|1:0,0:0:0:0:
164,110,35709,2,0,B|149:145|149:145|186:141,1,75.0000028610231,10|0,0:0|0:0,0:0:0:0:
407,46,36003,6,0,P|450:87|390:91,1,150.000005722046,4|8,1:0|0:0,0:0:0:0:
326,40,36444,1,0,1:0:0:0:
428,187,36591,1,0,1:0:0:0:
277,149,36738,2,0,B|258:181|258:181|262:218,1,75.0000028610231,0|0,1:0|0:0,0:0:0:0:
506,208,37032,5,8,0:0:0:0:
342,297,37179,2,0,P|358:329|390:348,1,75.0000028610231,2|0,0:0|1:0,0:0:0:0:
441,152,37473,1,8,0:0:0:0:
454,280,37620,1,0,1:0:0:0:
464,291,37694,1,0,1:0:0:0:
475,300,37767,2,0,L|512:296,3,37.5000014305115,8|0|4|0,0:0|0:3|0:3|0:3,0:0:0:0:
391,349,38061,5,8,0:0:0:0:
391,349,38356,5,4,1:0:0:0:
351,321,38650,1,0,1:0:0:0:
303,323,38944,1,0,1:0:0:0:
260,345,39238,1,0,1:0:0:0:
212,343,39532,1,0,1:0:0:0:
167,317,39826,1,0,1:0:0:0:
136,279,40120,1,0,1:0:0:0:
129,230,40414,2,0,L|133:195,1,34.9999989318848,0|2,1:0|0:0,0:0:0:0:
243,92,40709,5,0,1:0:0:0:
282,120,41003,1,0,1:0:0:0:
292,167,41297,1,0,1:0:0:0:
205,164,41591,5,0,1:0:0:0:
314,43,41738,2,0,L|349:48,1,34.9999989318848,8|0,0:0|0:0,0:0:0:0:
441,161,42032,1,0,1:0:0:0:
432,167,42106,1,0,1:0:0:0:
424,174,42179,2,0,L|429:209,1,34.9999989318848,8|0,0:0|0:0,0:0:0:0:
323,286,42473,5,8,0:0:0:0:
428,239,42620,1,8,0:3:0:0:
412,351,42767,1,4,0:3:0:0:
412,351,43061,6,0,P|386:323|353:315,1,64.9999970245363,10|0,0:0|1:0,0:0:0:0:
271,367,43356,1,0,1:0:0:0:
233,236,43503,2,0,P|271:202|269:253,1,129.999994049073,10|0,0:0|1:0,0:0:0:0:
176,324,43944,2,0,L|108:338,1,64.9999970245363,10|0,0:0|1:0,0:0:0:0:
0,219,44238,6,0,P|26:191|59:183,1,64.9999970245363,10|0,0:0|1:0,0:0:0:0:
125,240,44533,1,0,1:0:0:0:
144,89,44679,2,0,P|95:76|120:121,1,129.999994049073,10|0,0:0|1:0,0:0:0:0:
213,195,45121,2,0,L|278:185,1,64.9999970245363,10|0,0:0|1:0,0:0:0:0:
119,267,45414,6,0,P|150:274|176:293,1,64.9999970245363,10|0,0:0|1:0,0:0:0:0:
231,362,45709,1,0,1:0:0:0:
330,272,45856,1,10,0:0:0:0:
396,338,46003,2,0,L|460:330,1,64.9999970245363,0|0,1:0|1:0,0:0:0:0:
512,191,46297,1,8,0:0:0:0:
512,191,46591,6,0,P|480:185|455:165,1,64.9999970245363,0|0,1:0|1:0,0:0:0:0:
351,77,46885,2,0,P|319:82|294:102,1,64.9999970245363,10|0,0:0|1:0,0:0:0:0:
220,254,47179,1,8,0:3:0:0:
318,229,47326,1,8,0:3:0:0:
229,178,47473,1,4,0:3:0:0:
304,198,47620,1,4,0:3:0:0:
151,158,47767,6,0,L|139:99,1,59.9999981689454,4|0,1:0|1:0,0:0:0:0:
228,46,48061,1,8,0:0:0:0:
159,191,48209,2,0,P|112:154|53:153,1,119.999996337891,4|0,1:0|1:0,0:0:0:0:
0,229,48650,1,10,0:0:0:0:
167,224,48797,6,0,P|118:197|82:239,1,119.999996337891,4|0,1:0|1:0,0:0:0:0:
29,357,49238,1,10,0:0:0:0:
128,312,49385,1,0,1:0:0:0:
225,360,49532,2,0,L|292:369,1,59.9999981689454,2|0,0:0|1:0,0:0:0:0:
300,357,49753,1,0,1:0:0:0:
312,343,49826,2,0,L|319:283,1,59.9999981689454,8|0,0:0|0:0,0:0:0:0:
356,157,50120,6,0,B|296:163,1,59.9999981689454,4|0,1:0|1:0,0:0:0:0:
234,238,50414,1,8,0:0:0:0:
390,153,50561,2,0,P|334:133|297:86,1,119.999996337891,4|0,1:0|1:0,0:0:0:0:
326,0,51003,1,10,0:0:0:0:
470,146,51150,6,0,P|469:175|455:201,1,59.9999981689454,4|0,1:0|0:0,0:0:0:0:
320,256,51444,1,8,0:0:0:0:
438,321,51591,2,0,L|497:311,1,59.9999981689454,8|0,0:0|1:0,0:0:0:0:
307,362,51885,2,0,L|247:352,1,59.9999981689454,8|0,0:0|1:0,0:0:0:0:
439,304,52179,2,0,L|498:294,1,59.9999981689454,8|0,0:0|1:0,0:0:0:0:
292,245,52473,6,0,P|274:222|270:186,1,64.9999970245363,4|0,1:0|1:0,0:0:0:0:
325,115,52767,1,0,1:0:0:0:
315,264,52914,2,0,P|344:206|401:177,1,129.999994049073,10|0,0:0|1:0,0:0:0:0:
506,146,53356,2,0,L|512:81,1,64.9999970245363,10|0,0:0|1:0,0:0:0:0:
399,15,53650,6,0,L|334:21,1,64.9999970245363,10|0,0:0|1:0,0:0:0:0:
274,134,53944,1,0,1:0:0:0:
391,102,54091,1,8,0:0:0:0:
250,142,54238,2,0,L|185:135,1,64.9999970245363,0|0,1:0|1:0,0:0:0:0:
356,220,54532,2,0,P|367:242|368:286,1,64.9999970245363,10|0,0:0|1:0,0:0:0:0:
163,252,54826,6,0,L|227:241,1,64.9999970245363,4|0,1:0|1:0,0:0:0:0:
287,372,55120,1,10,0:0:0:0:
287,372,55268,2,0,L|223:362,1,64.9999970245363,2|0,0:0|1:0,0:0:0:0:
95,320,55561,2,0,L|18:333,2,64.9999970245363,10|0|0,0:0|1:0|1:0,0:0:0:0:
248,246,56003,6,0,B|267:215|267:215|262:186,1,64.9999970245363,10|0,0:0|1:0,0:0:0:0:
99,185,56297,2,0,B|80:216|80:216|84:244,1,64.9999970245363,10|0,0:0|1:0,0:0:0:0:
243,109,56591,2,0,B|206:80|206:80|165:86,1,86.6666626993817,0|8,1:0|0:0,0:0:0:0:
89,100,56885,2,0,B|43:107,2,43.3333313496908,8|4|12,0:3|0:3|0:3,0:0:0:0:
227,9,57179,5,4,1:0:0:0:
378,101,66003,6,0,L|428:106,1,50,4|0,0:3|0:0,0:0:0:0:
428,106,66591,6,0,P|359:73|285:65,1,150,4|0,1:0|1:0,0:0:0:0:
481,171,67179,1,8,0:0:0:0:
216,174,67473,6,0,P|264:160|313:156,1,100,4|0,1:0|0:0,0:0:0:0:
143,212,67914,2,0,P|116:206|94:204,1,50,8|0,0:0|0:0,0:0:0:0:
190,280,68209,1,0,1:0:0:0:
22,177,68356,2,0,P|3:122|12:71,1,100,8|0,0:0|1:0,0:0:0:0:
28,263,68797,1,8,0:0:0:0:
112,112,68944,6,0,P|146:56|215:5,1,150,4|0,1:0|1:0,0:0:0:0:
106,195,69532,1,8,0:0:0:0:
340,133,69826,6,0,P|296:107|248:94,1,100,4|0,1:0|0:0,0:0:0:0:
396,193,70267,2,0,P|404:220|406:247,1,50,8|0,0:0|1:0,0:0:0:0:
418,101,70562,1,0,1:0:0:0:
312,214,70709,1,8,0:0:0:0:
312,214,71003,5,8,0:0:0:0:
492,146,71150,1,8,0:0:0:0:
379,313,71297,6,0,P|308:262|233:243,1,150,4|0,1:0|1:0,0:0:0:0:
412,384,71885,1,8,0:0:0:0:
132,360,72179,6,0,P|175:335|226:325,1,100,4|0,1:0|0:0,0:0:0:0:
58,321,72620,2,0,P|39:303|24:283,1,50,8|0,0:0|0:0,0:0:0:0:
0,209,72915,1,0,1:0:0:0:
132,360,73061,5,8,0:0:0:0:
186,122,73356,1,0,1:0:0:0:
456,274,73650,6,0,L|387:261,1,69.9999978637696,12|0,0:0|1:0,0:0:0:0:
185,220,73944,2,0,L|253:232,1,69.9999978637696,12|0,0:0|1:0,0:0:0:0:
346,325,74238,1,8,0:0:0:0:
313,181,74385,1,8,0:3:0:0:
348,336,74532,1,4,0:3:0:0:
363,119,74679,5,4,0:3:0:0:
293,384,74973,1,4,0:3:0:0:
369,105,75267,1,4,0:3:0:0:
168,236,75561,5,4,0:3:0:0:
278,276,75709,2,0,L|324:268,1,44.999998626709,8|0,0:0|0:0,0:0:0:0:
260,282,76003,6,0,P|216:221|199:148,1,150,4|0,1:0|1:0,0:0:0:0:
323,339,76591,1,8,0:0:0:0:
340,84,76885,6,0,P|317:127|306:175,1,100,4|0,1:0|0:0,0:0:0:0:
425,43,77326,2,0,L|475:38,1,50,8|0,0:0|0:0,0:0:0:0:
352,0,77621,1,0,1:0:0:0:
478,119,77767,2,0,P|500:163|511:212,1,100,8|0,0:0|1:0,0:0:0:0:
425,43,78209,1,8,0:0:0:0:
414,221,78356,6,0,P|379:287|320:332,1,150,4|0,1:0|1:0,0:0:0:0:
391,140,78944,1,8,0:0:0:0:
169,232,79238,6,0,P|214:252|271:260,1,100,4|0,1:0|0:0,0:0:0:0:
117,169,79679,1,8,0:0:0:0:
70,264,79826,2,0,L|80:314,1,50,0|0,1:0|1:0,0:0:0:0:
40,131,80120,2,0,L|30:81,1,50,8|0,0:0|1:0,0:0:0:0:
206,150,80415,5,8,0:0:0:0:
5,205,80562,1,8,0:0:0:0:
287,134,80709,6,0,P|325:197|331:271,1,150,4|0,1:0|1:0,0:0:0:0:
230,74,81297,1,8,0:0:0:0:
195,335,81591,6,0,P|222:293|235:245,1,100,4|0,1:0|0:0,0:0:0:0:
112,366,82032,2,0,L|63:362,1,50,8|0,0:0|0:0,0:0:0:0:
0,298,82327,1,0,1:0:0:0:
195,335,82473,5,8,0:0:0:0:
62,173,82767,2,0,L|54:128,2,33.3333333333333,8|8|8,0:0|0:0|0:0,0:0:0:0:
28,104,83061,6,0,P|75:123|139:121,1,100,4|0,1:0|0:0,0:0:0:0:
256,40,83503,2,0,P|302:21|351:19,1,100,8|0,0:0|1:0,0:0:0:0:
490,180,83944,6,0,P|474:161|453:141,1,50,4|0,1:0|0:0,0:0:0:0:
340,125,84238,2,0,L|287:134,1,50,0|0,1:0|0:0,0:0:0:0:
221,236,84532,2,0,L|172:240,3,34.9999989318848,10|0|0|0,0:0|1:0|1:0|1:0,0:0:0:0:
303,290,84826,2,0,L|337:292,3,34.9999989318848,0|0|0|0,1:0|1:0|1:0|1:0,0:0:0:0:
224,352,85120,1,0,1:0:0:0:
192,350,85194,1,0,1:0:0:0:
160,348,85267,1,0,1:0:0:0:
128,346,85341,1,0,1:0:0:0:
96,345,85414,6,0,P|76:316|66:282,1,69.9999978637696,4|0,1:0|0:0,0:0:0:0:
0,196,85709,2,0,P|12:163|33:136,1,69.9999978637696,8|0,0:0|0:0,0:0:0:0:
148,53,86003,2,0,L|138:123,1,69.9999978637696,0|0,1:0|1:0,0:0:0:0:
193,249,86297,1,2,0:0:0:0:
91,199,86444,1,8,0:0:0:0:
252,182,86591,6,0,P|275:207|283:241,1,69.9999978637696,2|0,0:0|1:0,0:0:0:0:
241,325,86885,1,8,0:0:0:0:
171,165,87032,2,0,P|205:160|237:173,1,69.9999978637696,2|0,0:0|1:0,0:0:0:0:
287,254,87326,1,0,1:0:0:0:
333,106,87473,1,10,0:0:0:0:
333,106,87767,6,0,B|320:55|320:55|358:18,1,104.999996795654,4|0,1:0|0:0,0:0:0:0:
369,9,88061,1,8,0:0:0:0:
390,169,88209,2,0,P|357:151|340:121,1,69.9999978637696,2|0,0:0|1:0,0:0:0:0:
358,18,88503,1,0,1:0:0:0:
470,160,88650,2,0,L|400:167,1,69.9999978637696,2|8,0:0|0:0,0:0:0:0:
276,223,88944,6,0,B|243:238|243:238|229:283,1,69.9999978637696,2|0,0:0|1:0,0:0:0:0:
257,360,89238,1,8,0:0:0:0:
354,227,89385,2,0,B|323:209|323:209|278:223,1,69.9999978637696,2|0,0:0|1:0,0:0:0:0:
231,285,89679,1,0,1:0:0:0:
260,140,89826,1,10,0:0:0:0:
138,205,89973,1,8,0:0:0:0:
117,200,90047,1,8,0:0:0:0:
96,195,90120,6,0,L|82:126,1,69.9999978637696,4|0,1:0|0:0,0:0:0:0:
195,69,90414,2,0,L|208:0,1,69.9999978637696,8|0,0:0|0:0,0:0:0:0:
352,85,90709,2,0,B|372:115|372:115|367:148,1,69.9999978637696,0|0,1:0|1:0,0:0:0:0:
295,263,91003,1,2,0:0:0:0:
408,227,91150,1,8,0:0:0:0:
285,344,91297,6,0,P|251:336|227:311,1,69.9999978637696,2|0,0:0|1:0,0:0:0:0:
221,217,91591,1,8,0:0:0:0:
359,314,91738,2,0,P|334:338|300:344,1,69.9999978637696,2|0,0:0|1:0,0:0:0:0:
220,300,92032,1,0,1:0:0:0:
337,194,92179,1,10,0:0:0:0:
337,194,92473,6,0,B|382:222|382:222|431:207,1,104.999996795654,4|0,1:0|0:0,0:0:0:0:
445,200,92767,1,8,0:0:0:0:
311,120,92914,2,0,P|310:154|327:185,1,69.9999978637696,2|0,0:0|1:0,0:0:0:0:
431,207,93209,1,0,1:0:0:0:
375,72,93356,2,0,B|341:79|341:79|317:105,1,69.9999978637696,2|8,0:0|0:0,0:0:0:0:
238,221,93650,6,0,L|247:290,1,69.9999978637696,2|0,0:0|1:0,0:0:0:0:
143,336,93944,1,8,0:0:0:0:
179,169,94091,2,0,B|211:181|211:181|231:209,1,69.9999978637696,2|0,0:0|1:0,0:0:0:0:
311,344,94385,2,0,L|306:381,2,34.9999989318848,8|8|8,0:0|0:0|0:0,0:0:0:0:
401,242,94679,1,8,0:0:0:0:
421,237,94753,1,8,0:0:0:0:
441,235,94826,6,0,P|466:258|477:291,1,69.9999978637696,4|0,1:0|0:0,0:0:0:0:
324,260,95120,2,0,P|298:236|287:203,1,69.9999978637696,8|0,0:0|0:0,0:0:0:0:
379,88,95414,2,0,L|447:100,1,69.9999978637696,0|0,1:0|1:0,0:0:0:0:
268,106,95709,1,2,0:0:0:0:
344,12,95856,1,8,0:0:0:0:
191,71,96003,6,0,P|180:104|188:137,1,69.9999978637696,2|0,0:0|1:0,0:0:0:0:
264,191,96297,1,8,0:0:0:0:
253,25,96444,2,0,P|219:35|196:60,1,69.9999978637696,2|0,0:0|1:0,0:0:0:0:
194,146,96738,1,0,1:0:0:0:
355,95,96885,1,10,0:0:0:0:
355,95,97179,6,0,B|372:61|372:61|436:44,1,104.999996795654,4|0,1:0|0:0,0:0:0:0:
452,40,97473,1,8,0:0:0:0:
368,175,97620,2,0,P|354:143|352:108,1,69.9999978637696,2|0,0:0|1:0,0:0:0:0:
436,44,97914,1,0,0:0:0:0:
447,192,98061,2,0,L|377:183,1,69.9999978637696,2|8,0:0|0:0,0:0:0:0:
246,202,98356,6,0,B|214:217|214:217|201:249,1,69.9999978637696,2|0,0:0|1:0,0:0:0:0:
208,349,98650,1,8,0:0:0:0:
314,238,98797,2,0,B|296:207|296:207|262:198,1,69.9999978637696,2|0,0:0|1:0,0:0:0:0:
124,268,99091,1,0,1:0:0:0:
127,288,99164,1,0,1:0:0:0:
131,308,99238,2,0,B|99:329|99:329|67:324,1,69.9999978637696,10|0,0:0|1:0,0:0:0:0:
66,143,99532,5,8,0:0:0:0:
154,164,99679,1,4,0:3:0:0:
199,242,99826,1,4,0:3:0:0:
280,115,99973,2,0,L|268:46,2,69.9999978637696,8|4|4,0:0|0:3|0:3,0:0:0:0:
370,230,100414,2,0,L|356:298,1,69.9999978637696,8|4,0:0|0:3,0:0:0:0:
197,261,100709,6,0,P|215:235|246:214,1,69.9999978637696,10|4,0:0|0:3,0:0:0:0:
357,209,101003,1,4,0:3:0:0:
202,367,101150,2,0,P|191:337|191:299,2,69.9999978637696,10|4|4,0:0|0:3|0:3,0:0:0:0:
356,298,101591,1,10,0:0:0:0:
246,213,101738,1,4,0:3:0:0:
383,312,101885,6,0,L|458:305,1,69.9999978637696,10|4,0:0|0:3,0:0:0:0:
512,189,102179,2,0,L|442:195,1,69.9999978637696,4|8,0:3|0:3,0:0:0:0:
229,239,102473,6,0,L|298:232,1,69.9999978637696,6|4,0:3|0:3,0:0:0:0:
372,80,102767,2,0,L|302:86,1,69.9999978637696,14|4,0:3|0:3,0:0:0:0:
50,237,103061,6,0,P|38:269|40:305,1,69.9999978637696,10|4,0:0|0:3,0:0:0:0:
233,164,103356,1,8,0:0:0:0:
60,222,103503,1,8,0:0:0:0:
236,276,103650,1,8,0:0:0:0:
122,128,103797,1,8,0:0:0:0:
127,313,103944,1,8,0:0:0:0:
245,153,104091,6,0,L|239:112,1,40,6|0,0:0|0:0,0:0:0:0:
10,91,108650,5,8,0:0:0:0:
10,91,108944,6,0,L|88:87,1,64.9999970245363,4|0,1:0|1:0,1:1:0:0:
153,159,109238,1,8,0:0:0:0:
261,72,109385,2,0,P|244:18|223:66,1,129.999994049073,0|0,1:0|1:0,0:0:0:0:
313,168,109826,2,0,L|385:172,1,64.9999970245363,8|0,0:0|1:0,0:0:0:0:
496,70,110120,6,0,P|469:87|448:113,1,64.9999970245363,0|0,1:0|1:0,0:0:0:0:
499,230,110414,1,8,0:0:0:0:
396,302,110561,2,0,P|412:355|433:307,1,129.999994049073,0|0,1:0|1:0,0:0:0:0:
376,197,111003,2,0,L|306:202,1,64.9999970245363,8|0,0:0|1:0,0:0:0:0:
166,286,111297,6,0,P|194:251|218:239,1,64.9999970245363,0|0,1:0|1:0,0:0:0:0:
328,341,111591,1,8,0:0:0:0:
227,361,111738,1,0,1:0:0:0:
357,249,111885,2,0,P|331:229|300:220,1,64.9999970245363,8|0,0:3|1:0,0:0:0:0:
166,286,112179,1,8,0:0:0:0:
166,286,112473,6,0,L|171:222,1,64.9999970245363,0|0,1:0|1:0,0:0:0:0:
46,132,112767,2,0,L|41:68,1,64.9999970245363,8|0,0:0|0:0,0:0:0:0:
54,235,113061,1,8,0:0:0:0:
181,142,113209,1,8,0:0:0:0:
47,244,113356,1,8,0:0:0:0:
190,136,113503,1,8,0:0:0:0:
136,291,113650,6,0,L|141:345,1,55.0000016784668,4|0,1:0|1:0,0:0:0:0:
141,345,114091,1,0,1:0:0:0:
283,246,114238,2,0,B|342:255|342:255|365:299,1,110.000003356934,8|0,0:0|1:0,0:0:0:0:
192,223,114679,6,0,P|221:177|257:164,1,82.5000025177003,8|0,0:0|0:0,0:0:0:0:
257,164,114973,2,0,L|311:157,1,55.0000016784668,0|0,1:0|0:0,0:0:0:0:
433,143,115267,1,0,1:0:0:0:
433,143,115561,5,0,1:0:0:0:
375,10,115709,2,0,P|349:0|321:0,1,55.0000016784668,8|0,0:0|0:0,0:0:0:0:
182,84,116003,6,0,L|236:76,1,55.0000016784668,0|0,1:0|1:0,0:0:0:0:
237,76,116444,1,0,1:0:0:0:
90,104,116591,2,0,P|70:142|73:210,1,110.000003356934,8|0,0:0|1:0,0:0:0:0:
94,19,117032,6,0,B|37:33|37:33|11:77,1,110.000003356934,8|0,0:0|1:0,0:0:0:0:
170,170,117473,2,0,L|228:175,1,55.0000016784668,8|0,0:0|1:0,0:0:0:0:
317,94,117767,2,0,L|314:66,5,18.3333338928223,0|0|0|0|0|0,1:0|1:0|1:0|1:0|1:0|1:0,0:0:0:0:
346,119,118061,2,0,L|404:114,1,55.0000016784668,8|0,0:0|0:0,0:0:0:0:
313,225,118356,6,0,P|297:250|292:280,1,59.9999981689454,4|0,1:0|1:0,0:0:0:0:
386,357,118650,1,8,0:0:0:0:
252,384,118797,2,0,L|192:374,1,59.9999981689454,0|0,1:0|1:0,0:0:0:0:
99,349,119091,1,0,1:0:0:0:
203,249,119238,6,0,P|217:194|179:151,1,119.999996337891,8|0,0:0|1:0,0:0:0:0:
92,127,119679,1,0,1:0:0:0:
213,38,119826,2,0,L|273:31,1,59.9999981689454,8|0,0:0|1:0,0:0:0:0:
427,128,120120,2,0,L|358:115,1,59.9999981689454,0|0,1:0|1:0,0:0:0:0:
187,225,120414,2,0,L|247:219,1,59.9999981689454,8|0,0:0|1:0,0:0:0:0:
453,243,120709,6,0,P|474:263|483:291,1,59.9999981689454,4|0,1:0|1:0,0:0:0:0:
290,368,121003,2,0,L|297:297,1,59.9999981689454,8|0,0:0|1:0,0:0:0:0:
397,186,121297,2,0,L|390:115,1,59.9999981689454,8|0,0:0|1:0,0:0:0:0:
234,62,121591,1,8,0:0:0:0:
249,174,121738,1,0,1:0:0:0:
117,122,121885,6,0,L|87:116,3,29.9999990844727,8|8|8|8,0:0|0:0|0:0|0:0,0:0:0:0:
57,207,122179,2,0,L|27:212,3,29.9999990844727,8|8|8|8,0:3|0:3|0:3|0:3,0:0:0:0:
156,224,122473,5,8,0:3:0:0:
61,324,122620,1,0,1:0:0:0:
89,328,122693,1,0,1:0:0:0:
119,333,122767,1,8,0:0:0:0:
147,337,122840,1,4,0:3:0:0:
177,342,122914,1,4,0:3:0:0:
206,346,122987,1,4,0:3:0:0:
235,351,123061,5,4,1:0:0:0:
285,278,123356,1,0,1:0:0:0:
372,277,123650,1,0,1:0:0:0:
322,349,123944,1,0,1:0:0:0:
250,206,124238,2,0,L|257:127,2,80,0|0|0,1:0|1:0|1:0,0:0:0:0:
175,252,125120,1,0,1:0:0:0:
258,108,125414,6,0,P|249:70|226:38,1,80,0|0,1:0|1:0,0:0:0:0:
142,8,126003,1,0,1:0:0:0:
65,51,126298,1,0,1:0:0:0:
154,115,126591,5,0,1:0:0:0:
25,176,126738,2,0,L|64:179,1,40,8|0,0:0|1:0,0:0:0:0:
252,294,127179,5,0,1:0:0:0:
103,256,127473,1,0,1:0:0:0:
353,322,127767,5,4,1:0:0:0:
337,227,128061,1,0,1:0:0:0:
322,131,128356,1,0,1:0:0:0:
307,36,128650,1,0,1:0:0:0:
498,234,128944,5,0,1:0:0:0:
358,210,129238,1,0,1:0:0:0:
217,188,129533,1,0,1:0:0:0:
79,166,129827,1,0,1:0:0:0:
339,126,130120,5,8,0:0:0:0:
136,234,130414,1,8,0:0:0:0:
350,119,130709,1,8,0:0:0:0:
124,240,131003,1,8,0:0:0:0:
417,172,131297,6,0,P|444:183|473:204,1,64.9999970245363,0|0,1:0|0:0,0:0:0:0:
299,281,131591,2,0,P|324:265|359:255,1,64.9999970245363,0|0,1:0|0:0,0:0:0:0:
480,316,131885,1,8,0:0:0:0:
376,369,132033,1,8,0:3:0:0:
472,343,132179,1,4,0:3:0:0:
385,342,132327,1,4,0:3:0:0:
439,248,132473,6,0,L|428:200,1,50,2|2,0:3|0:3,0:0:0:0:
303,97,133209,2,0,L|254:108,1,50,2|2,0:3|0:3,0:0:0:0:
211,108,133650,2,0,L|244:144,1,50,2|2,0:3|0:3,0:0:0:0:
235,186,134091,2,0,L|283:174,1,50,2|2,0:3|0:3,0:0:0:0:
322,191,134532,1,2,0:3:0:0:
145,203,134826,6,0,L|96:214,1,50,2|2,0:3|0:3,0:0:0:0:
27,62,135561,2,0,L|75:73,1,50,2|2,0:3|0:3,0:0:0:0:
175,91,136003,5,0,0:0:0:0:
138,4,136150,1,2,0:0:0:0:
265,48,136297,1,0,1:0:0:0:
265,48,136444,1,0,1:0:0:0:
210,178,136591,1,8,0:0:0:0:
210,178,137179,5,6,1:0:0:0:
477,114,137473,1,6,1:0:0:0:
319,259,137767,5,8,0:0:0:0:
339,329,137914,2,0,L|326:285,1,44.999998626709,2|0,1:0|0:0,0:0:0:0:
498,180,138356,2,0,L|485:136,1,44.999998626709,2|0,1:0|0:0,0:0:0:0:
283,18,138797,1,2,1:0:0:0:
305,87,138944,6,0,L|292:43,1,44.999998626709,10|0,0:0|0:0,0:0:0:0:
328,163,139238,2,0,L|315:119,1,44.999998626709,2|0,0:0|0:0,0:0:0:0:
159,37,139532,5,6,1:0:0:0:
411,111,139826,1,6,1:0:0:0:
199,198,140120,5,8,0:0:0:0:
267,220,140267,2,0,L|223:207,1,44.999998626709,2|0,1:0|0:0,0:0:0:0:
26,145,140709,1,0,1:0:0:0:
101,233,140856,2,0,L|116:280,2,44.999998626709,2|0|0,0:0|0:0|0:0,0:0:0:0:
200,106,141297,5,10,0:0:0:0:
208,84,141591,1,2,0:0:0:0:
361,233,141885,5,6,1:0:0:0:
73,144,142179,1,6,1:0:0:0:
319,125,142473,5,8,0:0:0:0:
333,53,142620,2,0,L|325:97,1,44.999998626709,2|0,1:0|0:0,0:0:0:0:
151,183,143061,2,0,L|158:227,1,44.999998626709,2|0,1:0|0:0,0:0:0:0:
291,383,143503,5,2,1:0:0:0:
306,309,143650,2,0,L|298:353,1,44.999998626709,10|0,0:0|0:0,0:0:0:0:
321,234,143944,2,0,L|313:278,1,44.999998626709,2|0,0:0|0:0,0:0:0:0:
449,304,144238,5,6,1:0:0:0:
140,371,144532,1,6,1:0:0:0:
283,170,144826,1,8,0:0:0:0:
298,242,144973,2,0,L|290:197,1,44.999998626709,2|0,1:0|0:0,0:0:0:0:
207,54,145414,5,8,0:0:0:0:
80,113,146297,5,10,0:0:0:0:
225,71,146444,1,10,0:0:0:0:
0,58,146885,5,0,1:0:0:0:
172,178,147179,5,6,1:0:0:0:
64,208,147326,2,0,L|163:194,1,100,6|0,1:0|0:0,0:0:0:0:
275,307,147767,2,0,L|374:320,1,100,6|0,1:0|0:0,0:0:0:0:
471,335,148209,1,2,1:0:0:0:
375,219,148356,2,0,L|326:229,1,50,10|0,0:0|0:0,0:0:0:0:
497,193,148650,2,0,L|448:203,1,50,2|0,0:1|0:0,0:0:0:0:
250,245,148944,6,0,P|224:232|207:213,1,50,6|0,1:0|0:0,0:0:0:0:
134,46,149238,2,0,P|129:74|135:99,1,50,6|0,1:0|0:0,0:0:0:0:
279,166,149532,1,8,0:0:0:0:
130,177,149679,2,0,B|81:191|81:191|56:234,1,100,2|0,1:0|0:0,0:0:0:0:
115,364,150120,5,2,1:0:0:0:
151,264,150267,2,0,L|214:270,2,50,2|2|0,0:0|0:0|0:0,0:0:0:0:
113,376,150709,5,8,0:0:0:0:
49,307,150856,2,0,L|0:311,2,50,2|2|2,0:0|0:0|0:0,0:0:0:0:
263,331,151297,6,0,P|282:310|287:288,1,50,6|0,1:0|0:0,0:0:0:0:
220,126,151591,2,0,P|244:140|255:160,1,50,6|0,1:0|0:0,0:0:0:0:
204,270,151885,1,8,0:0:0:0:
345,191,152032,2,0,B|358:141|358:141|339:96,1,100,2|0,1:0|0:0,0:0:0:0:
236,29,152473,6,0,L|291:19,1,50,2|0,1:0|0:0,0:0:0:0:
108,55,152767,2,0,L|163:45,1,50,2|0,0:1|0:0,0:0:0:0:
339,96,153061,1,10,0:0:0:0:
339,96,153356,5,2,0:0:0:0:
452,64,153503,1,2,0:0:0:0:
418,219,153650,6,0,B|404:240|404:240|373:251,1,50,6|0,1:0|0:0,0:0:0:0:
205,207,153944,2,0,B|218:228|218:228|249:239,1,50,6|0,1:0|0:0,0:0:0:0:
351,179,154238,1,8,0:0:0:0:
297,318,154385,2,0,L|191:330,1,100,2|0,1:0|0:0,0:0:0:0:
388,350,154826,6,0,L|445:360,1,50,2|0,1:0|1:0,0:0:0:0:
364,266,155120,1,8,0:3:0:0:
466,232,155267,1,8,0:3:0:0:
284,285,155414,5,8,0:0:0:0:
367,164,155561,1,8,0:0:0:0:
342,345,155709,1,8,0:0:0:0:
370,150,155856,1,8,0:0:0:0:
265,365,156003,6,0,L|186:371,1,75.0000028610231,6|0,1:0|0:0,0:0:0:0:
79,277,156297,1,8,0:0:0:0:
187,342,156444,2,0,B|266:347,1,75.0000028610231,2|0,1:0|1:0,0:0:0:0:
380,280,156738,1,2,0:0:0:0:
285,235,156885,1,8,0:0:0:0:
397,289,157032,6,0,P|422:262|430:225,1,75.0000028610231,2|0,0:0|1:0,0:0:0:0:
327,150,157326,2,0,P|301:123|293:86,1,75.0000028610231,2|8,0:0|0:0,0:0:0:0:
476,60,157620,1,2,0:0:0:0:
476,60,157767,2,0,B|442:79|442:79|406:75,1,75.0000028610231,2|0,1:0|0:0,0:0:0:0:
296,0,158061,2,0,B|260:-3|260:-3|226:15,1,75.0000028610231,10|0,0:0|0:0,0:0:0:0:
126,136,158356,6,0,L|120:215,1,75.0000028610231,6|0,1:0|0:0,0:0:0:0:
210,303,158650,1,10,0:0:0:0:
149,214,158797,2,0,B|144:135,1,75.0000028610231,2|0,0:0|1:0,0:0:0:0:
241,45,159091,1,2,0:0:0:0:
297,150,159238,1,8,0:0:0:0:
230,27,159385,6,0,P|198:10|161:4,1,75.0000028610231,2|0,0:0|1:0,0:0:0:0:
25,95,159679,2,0,P|57:77|94:71,1,75.0000028610231,2|8,0:0|0:0,0:0:0:0:
205,197,159973,1,2,0:0:0:0:
205,197,160120,2,0,L|197:271,1,75.0000028610231,2|0,1:0|0:0,0:0:0:0:
57,360,160414,2,0,L|49:286,1,75.0000028610231,10|0,0:0|0:0,0:0:0:0:
94,71,160709,5,10,0:0:0:0:
124,206,160856,1,0,1:0:0:0:
6,156,161003,1,8,0:0:0:0:
196,116,161150,2,0,L|270:126,1,75.0000028610231,2|8,1:0|0:0,0:0:0:0:
341,233,161444,2,0,L|415:223,1,75.0000028610231,2|8,1:0|0:0,0:0:0:0:
224,326,161738,6,0,P|229:289|247:256,1,75.0000028610231,2|8,1:0|0:0,0:0:0:0:
357,138,162032,2,0,P|375:105|380:68,1,75.0000028610231,2|8,1:0|0:0,0:0:0:0:
244,3,162326,1,0,1:0:0:0:
140,146,162473,2,0,L|152:219,1,75.0000028610231,10|0,0:0|1:0,0:0:0:0:
59,54,162767,5,8,0:0:0:0:
222,102,162914,1,0,1:0:0:0:
35,152,163061,6,0,P|12:186|6:223,1,75.0000028610231,10|0,0:0|1:0,0:0:0:0:
52,328,163355,1,8,0:0:0:0:
173,227,163503,2,0,L|247:236,1,75.0000028610231,2|8,1:0|0:0,0:0:0:0:
329,327,163797,2,0,L|403:317,1,75.0000028610231,2|8,1:0|0:0,0:0:0:0:
312,178,164091,1,2,1:0:0:0:
298,160,164164,1,0,1:0:0:0:
286,147,164238,6,0,L|241:152,1,42.5000008106232,10|0,0:0|0:0,0:0:0:0:
362,90,164385,2,0,L|407:95,3,42.5000008106232,10|0|0|0,0:0|1:0|1:0|1:0,0:0:0:0:
469,149,164679,6,0,L|514:144,1,42.5000008106232,2|0,1:0|0:0,0:0:0:0:
399,209,164826,2,0,L|354:204,3,42.5000008106232,10|0|0|0,0:0|1:0|1:0|1:0,0:0:0:0:
476,256,165120,1,8,0:0:0:0:
485,275,165194,1,8,0:3:0:0:
491,295,165267,1,4,0:3:0:0:
493,316,165341,1,12,0:3:0:0:
492,334,165414,5,4,1:0:0:0:
404,310,165709,1,0,1:0:0:0:
332,363,166003,1,0,1:0:0:0:
419,382,166297,1,0,1:0:0:0:
170,297,166591,5,0,1:0:0:0:
213,285,166886,1,0,1:0:0:0:
250,311,167180,1,0,1:0:0:0:
206,321,167474,1,0,1:0:0:0:
455,215,167767,5,0,1:0:0:0:
368,240,168061,1,0,1:0:0:0:
306,173,168356,1,0,1:0:0:0:
393,152,168650,1,0,1:0:0:0:
144,123,168944,6,0,L|95:115,2,50,0|8|4,1:0|0:3|0:3,0:0:0:0:
216,194,169385,2,0,L|266:186,2,50,8|4|12,0:3|0:3|0:3,0:0:0:0:
126,254,169826,1,0,1:0:0:0:
131,285,169973,1,8,0:3:0:0:
42,212,170120,5,0,1:0:0:0:
237,290,170414,1,0,1:0:0:0:
169,99,170709,5,0,1:0:0:0:
356,63,171003,1,0,1:0:0:0:
248,263,171297,5,0,1:0:0:0:
465,309,171591,1,0,1:0:0:0:
123,348,171885,5,0,1:0:0:0:
373,234,172179,1,0,1:0:0:0:
77,131,172473,6,0,L|3:140,2,75.0000028610231,8|0|0,0:0|1:0|1:0,0:0:0:0:
215,246,172914,2,0,L|290:255,2,75.0000028610231,8|0|0,0:0|1:0|1:0,0:0:0:0:
150,77,173356,1,8,0:0:0:0:
95,214,173503,1,0,1:0:0:0:
160,61,173650,6,0,P|192:41|228:33,1,75.0000028610231,8|0,0:0|1:0,0:0:0:0:
384,148,173944,2,0,P|351:167|315:175,1,75.0000028610231,8|0,0:0|1:0,0:0:0:0:
96,133,174238,1,8,0:0:0:0:
240,211,174385,1,8,0:0:0:0:
114,295,174532,1,8,0:0:0:0:
222,382,174679,1,8,0:0:0:0:
164,327,185414,6,0,L|241:314,1,75,0|8,1:0|0:0,0:0:0:0:
269,333,186297,1,0,1:0:0:0:
200,322,186591,1,2,0:0:0:0:
131,311,186885,1,0,1:0:0:0:
349,214,187179,5,8,0:0:0:0:
349,214,187767,6,0,L|271:201,1,75,0|8,1:0|0:0,0:0:0:0:
244,220,188650,1,0,1:0:0:0:
313,209,188944,1,2,0:0:0:0:
382,198,189238,1,0,1:0:0:0:
164,101,189532,5,8,0:0:0:0:
164,101,190120,6,0,L|241:88,1,75,0|8,1:0|0:0,0:0:0:0:
271,111,191003,1,0,1:0:0:0:
271,111,191591,1,0,1:0:0:0:
177,23,191885,2,0,L|127:31,1,50,8|0,0:0|0:0,1:1:0:0:
14,80,192473,6,0,L|158:55,1,146.514143154359,4|0,0:2|0:0,0:0:0:0:
187,74,193356,6,0,B|-14:107|-14:107|127:123|163:254|87:310,1,500,4|6,2:1|2:0,0:0:0:0:
136,315,196591,6,0,L|86:310,1,50,4|0,0:3|0:0,0:0:0:0:
86,310,197179,6,0,P|155:343|229:351,1,150,4|0,1:0|1:0,0:0:0:0:
40,238,197767,1,8,0:0:0:0:
309,243,198061,6,0,P|261:257|212:261,1,100,4|0,1:0|0:0,0:0:0:0:
373,193,198502,2,0,P|379:164|381:144,1,50,8|0,0:0|0:0,0:0:0:0:
416,270,198797,1,0,1:0:0:0:
467,121,198944,2,0,P|455:63|433:21,1,100,8|0,0:0|1:0,0:0:0:0:
512,196,199385,1,8,0:0:0:0:
366,64,199532,6,0,P|306:37|220:35,1,150,4|0,1:0|1:0,0:0:0:0:
397,143,200120,1,8,0:0:0:0:
141,159,200414,6,0,P|185:133|233:120,1,100,4|0,1:0|0:0,0:0:0:0:
74,211,200855,2,0,P|47:202|24:188,1,50,8|0,0:0|1:0,0:0:0:0:
155,250,201150,1,0,1:0:0:0:
68,125,201297,1,8,0:0:0:0:
68,125,201591,5,8,0:0:0:0:
222,200,201738,1,8,0:0:0:0:
38,311,201885,6,0,P|103:275|177:266,1,150,4|0,1:0|1:0,0:0:0:0:
15,384,202473,1,8,0:0:0:0:
284,376,202767,6,0,P|241:351|190:341,1,100,4|0,1:0|0:0,0:0:0:0:
345,307,203208,2,0,P|360:286|372:264,1,50,8|0,0:0|0:0,0:0:0:0:
414,368,203503,1,0,1:0:0:0:
257,271,203649,5,8,0:0:0:0:
505,207,203944,1,0,1:0:0:0:
154,123,204238,6,0,L|223:131,1,69.9999978637696,12|0,0:0|1:0,0:0:0:0:
428,157,204532,2,0,L|359:149,1,69.9999978637696,12|0,0:0|1:0,0:0:0:0:
260,64,204826,1,8,0:0:0:0:
303,205,204973,1,8,0:3:0:0:
257,53,205120,1,4,0:3:0:0:
257,271,205267,5,4,0:3:0:0:
308,1,205561,1,4,0:3:0:0:
252,285,205855,1,4,0:3:0:0:
353,123,206150,5,8,0:0:0:0:
208,156,206297,1,8,0:0:0:0:
364,120,206444,1,8,0:0:0:0:
197,55,206591,6,0,P|163:64|135:85,1,69.9999978637696,4|0,1:0|0:0,0:0:0:0:
175,237,206885,1,8,0:0:0:0:
70,157,207032,2,0,P|95:93|149:49,1,139.999995727539,0|0,1:0|1:0,0:0:0:0:
255,164,207473,2,0,P|282:180|325:190,1,69.9999978637696,8|0,0:0|0:0,0:0:0:0:
443,133,207767,5,0,0:0:0:0:
390,256,207914,1,0,1:0:0:0:
355,95,208061,1,8,0:0:0:0:
355,95,208356,5,0,1:0:0:0:
268,66,208503,1,0,1:0:0:0:
180,39,208650,2,0,L|111:51,1,69.9999978637696,8|0,0:0|0:0,0:0:0:0:
55,177,208944,6,0,B|138:199|138:199|179:158,1,139.999995727539,4|8,1:0|0:0,0:0:0:0:
284,42,209385,2,0,P|351:53|394:106,1,139.999995727539,0|0,1:0|1:0,0:0:0:0:
418,256,209826,6,0,L|282:221,1,139.999995727539,8|0,0:0|0:0,0:0:0:0:
206,148,210267,1,0,1:0:0:0:
149,274,210414,2,0,P|116:285|81:282,1,69.9999978637696,8|0,0:0|0:0,0:0:0:0:
242,324,210709,2,0,P|221:352|191:369,1,69.9999978637696,0|0,1:0|0:0,0:0:0:0:
346,311,211003,2,0,P|345:345|331:377,1,69.9999978637696,8|0,0:0|0:0,0:0:0:0:
238,226,211297,6,0,L|226:86,1,139.999995727539,4|8,1:0|0:0,0:0:0:0:
359,12,211738,2,0,B|407:75|407:75|402:135,1,139.999995727539,0|0,1:0|1:0,0:0:0:0:
451,296,212179,6,0,P|406:244|338:232,1,139.999995727539,8|0,0:0|0:0,0:0:0:0:
256,306,212620,1,0,1:0:0:0:
198,182,212767,2,0,P|165:170|130:173,1,69.9999978637696,8|0,0:0|0:0,0:0:0:0:
291,132,213062,2,0,P|270:103|240:86,1,69.9999978637696,0|0,1:0|1:0,0:0:0:0:
395,145,213356,2,0,P|394:110|380:78,1,69.9999978637696,8|0,0:0|1:0,0:0:0:0:
276,245,213650,6,0,B|257:275|257:275|260:309,1,69.9999978637696,8|0,0:0|1:0,0:0:0:0:
340,384,213944,1,0,1:0:0:0:
413,219,214091,2,0,B|383:200|383:200|348:203,1,69.9999978637696,8|0,0:0|1:0,0:0:0:0:
201,222,214385,1,0,1:0:0:0:
322,112,214532,6,0,L|335:43,1,69.9999978637696,10|0,0:0|1:0,0:0:0:0:
285,262,214826,1,10,0:0:0:0:
238,135,214973,1,0,1:0:0:0:
291,278,215120,1,10,0:0:0:0:
232,123,215267,1,0,1:0:0:0:
184,248,215414,1,8,0:0:0:0:
161,248,215487,1,0,1:0:0:0:
139,248,215561,1,0,1:0:0:0:
117,248,215634,1,0,1:0:0:0:
95,248,215708,1,0,1:0:0:0:
73,248,215782,1,0,1:0:0:0:
51,248,215855,1,0,1:0:0:0:
28,248,215929,1,0,1:0:0:0:
6,248,216002,6,0,L|20:316,2,69.9999978637696,4|0|0,1:0|1:0|1:0,0:0:0:0:
135,77,216444,1,8,0:0:0:0:
110,156,216591,1,0,1:0:0:0:
165,96,216738,1,0,1:0:0:0:
17,150,216885,2,0,B|-1:114|-1:114|39:115,1,80,10|0,0:0|1:0,0:0:0:0:
199,197,217180,6,0,P|219:228|216:279,1,80,10|0,0:0|1:0,0:0:0:0:
99,341,217474,1,0,1:0:0:0:
124,151,217621,2,0,P|196:156|241:227,1,160,10|0,0:0|1:0,0:0:0:0:
60,263,218062,2,0,B|47:226|47:226|87:234,1,80,10|0,0:0|1:0,0:0:0:0:
198,351,218356,6,0,B|277:343,1,80,10|0,0:0|1:0,0:0:0:0:
379,277,218650,1,0,1:0:0:0:
244,191,218797,2,0,L|163:178,2,80,10|0|0,0:0|1:0|1:0,0:0:0:0:
393,287,219238,2,0,L|473:278,1,80,10|0,0:0|1:0,0:0:0:0:
326,141,219532,5,10,0:0:0:0:
294,284,219680,1,0,1:0:0:0:
294,284,219826,1,0,1:0:0:0:
457,201,219974,2,0,B|441:165|441:165|400:153,1,80,10|0,0:0|1:0,0:0:0:0:
248,122,220268,1,0,1:0:0:0:
358,41,220415,2,0,L|438:35,1,80,10|0,0:0|1:0,0:0:0:0:
459,50,220635,1,0,1:0:0:0:
478,64,220709,6,0,B|501:94|501:94|494:134,2,80,8|0|0,0:0|1:0|1:0,0:0:0:0:
319,162,221150,1,8,0:0:0:0:
405,138,221297,1,0,1:0:0:0:
336,194,221444,1,0,1:0:0:0:
491,219,221591,2,0,B|506:254|506:254|465:251,1,80,10|0,0:0|1:0,0:0:0:0:
271,251,221885,6,0,B|234:265|234:265|223:308,1,80,10|0,0:0|1:0,0:0:0:0:
298,384,222180,1,0,1:0:0:0:
324,194,222327,2,0,B|222:232|222:232|209:282,1,160,10|0,0:0|1:0,0:0:0:0:
375,310,222768,2,0,B|390:275|390:275|348:280,1,80,10|0,0:0|1:0,0:0:0:0:
180,381,223062,5,10,0:0:0:0:
282,345,223208,1,0,1:0:0:0:
196,272,223355,1,0,1:0:0:0:
297,180,223503,2,0,L|376:189,2,80,10|0|0,0:0|1:0|1:0,0:0:0:0:
156,86,223944,2,0,L|77:95,1,80,10|0,0:0|1:0,0:0:0:0:
201,247,224238,5,10,0:0:0:0:
248,106,224385,1,0,1:0:0:0:
198,261,224532,1,0,1:0:0:0:
376,189,224680,2,0,P|404:207|428:250,1,80,10|0,0:0|1:0,0:0:0:0:
398,361,224973,1,0,1:0:0:0:
329,274,225121,2,0,L|289:279,3,40,0|0|0|0,1:0|1:0|1:0|1:0,0:0:0:0:
261,239,225415,6,0,B|245:318,2,80,8|0|0,0:0|1:0|1:0,0:0:0:0:
258,70,225856,1,8,0:0:0:0:
283,148,226003,1,0,1:0:0:0:
228,88,226150,1,0,1:0:0:0:
367,157,226297,2,0,B|395:130|395:130|355:120,1,80,10|0,0:0|1:0,0:0:0:0:
192,171,226592,6,0,P|159:155|142:117,1,80,10|0,0:0|1:0,0:0:0:0:
189,17,226886,1,0,1:0:0:0:
276,188,227033,2,0,P|207:208|137:163,1,160,10|0,0:0|1:0,0:0:0:0:
282,56,227474,2,0,B|316:73|316:73|281:96,1,80,10|0,0:0|1:0,0:0:0:0:
97,68,227768,6,0,B|61:84|61:84|48:134,1,80,10|0,0:0|1:0,0:0:0:0:
39,241,228062,1,0,1:0:0:0:
198,165,228209,2,0,L|188:83,2,80,10|0|0,0:0|1:0|1:0,0:0:0:0:
128,302,228650,2,0,L|117:385,1,80,10|0,0:0|1:0,0:0:0:0:
261,264,228944,5,10,0:0:0:0:
124,216,229092,1,0,1:0:0:0:
124,216,229238,1,0,1:0:0:0:
283,177,229386,2,0,B|323:188|323:188|338:222,1,80,10|0,0:0|1:0,0:0:0:0:
279,344,229680,1,0,1:0:0:0:
441,286,229827,2,0,L|455:207,1,80,10|0,0:0|1:0,0:0:0:0:
327,33,230121,6,0,B|287:42|287:42|268:77,2,80,8|0|0,0:0|1:0|1:0,0:0:0:0:
477,132,230562,1,8,0:0:0:0:
395,90,230709,1,0,1:0:0:0:
484,97,230856,1,0,1:0:0:0:
340,166,231003,2,0,B|301:169|301:169|322:132,1,80,10|0,0:0|1:0,0:0:0:0:
445,220,231297,6,0,B|428:298,1,80,10|0,0:0|1:0,0:0:0:0:
311,323,231592,1,0,1:0:0:0:
415,137,231738,2,0,B|475:191|475:191|461:268,1,160,10|0,0:0|1:0,0:0:0:0:
290,230,232180,2,0,B|279:192|279:192|320:203,1,80,10|0,0:0|1:0,0:0:0:0:
363,356,232473,6,0,P|330:378|284:378,1,80,10|0,0:0|1:0,0:0:0:0:
178,301,232767,1,0,1:0:0:0:
290,230,232914,1,8,0:0:0:0:
161,313,233061,2,0,P|129:289|113:246,1,80,0|0,1:0|1:0,0:0:0:0:
149,119,233355,1,8,0:0:0:0:
254,200,233502,1,0,1:0:0:0:
124,100,233650,6,0,L|41:107,1,80,8|0,0:0|1:0,0:0:0:0:
252,24,233944,1,8,0:0:0:0:
222,177,234091,1,0,1:0:0:0:
382,98,234238,1,8,0:0:0:0:
355,242,234385,1,0,1:0:0:0:
199,91,234532,5,10,0:0:0:0:
416,178,234679,1,10,0:0:0:0:
