osu file format v14

[General]
AudioFilename: audio.mp3
AudioLeadIn: 0
PreviewTime: 65929
Countdown: 0
SampleSet: Soft
StackLeniency: 0.3
Mode: 0
LetterboxInBreaks: 0
WidescreenStoryboard: 0

[Editor]
DistanceSpacing: 0.5
BeatDivisor: 4
GridSize: 4
TimelineZoom: 2.2

[Metadata]
Title:Black Rail
TitleUnicode:Black Rail
Artist:MY FIRST STORY
ArtistUnicode:MY FIRST STORY
Creator:Saut
Version:Insane
Source:
Tags:pishifat appleeaterx dailycare 虚言itsuwari kyogen neurose emo rock alternative post-hardcore
BeatmapID:985525
BeatmapSetID:439396

[Difficulty]
HPDrainRate:5.5
CircleSize:3.6
OverallDifficulty:7.5
ApproachRate:9
SliderMultiplier:1
SliderTickRate:1

[Events]
//Background and Video events
0,0,"bg.jpg",0,0
//Break Periods
2,57379,65403
2,104438,108050
2,132673,135403
2,176003,184814
//Storyboard Layer 0 (Background)
//Storyboard Layer 1 (Fail)
//Storyboard Layer 2 (Pass)
//Storyboard Layer 3 (Foreground)
//Storyboard Sound Samples

[TimingPoints]
709,294.117647058824,4,2,1,50,1,0
17179,-142.857142857143,4,2,1,15,0,0
18797,-100,4,2,1,15,0,0
18944,-129.87012987013,4,2,1,50,0,0
19091,-129.87012987013,4,2,1,50,0,0
19238,-129.87012987013,4,2,1,50,0,0
19311,-129.87012987013,4,2,1,50,0,0
19385,-129.87012987013,4,2,1,50,0,0
19459,-55.5555555555556,4,2,2,5,0,0
19532,-66.6666666666667,4,2,1,67,0,0
35929,-66.6666666666667,4,2,1,5,0,0
36003,-66.6666666666667,4,2,1,75,0,0
36223,-66.6666666666667,4,2,1,5,0,0
36297,-66.6666666666667,4,2,1,75,0,0
38061,-66.6666666666667,4,2,1,50,0,0
38282,-66.6666666666667,4,2,1,5,0,0
38356,-142.857142857143,4,2,1,65,0,0
38650,-142.857142857143,4,2,1,20,0,0
38797,-142.857142857143,4,2,1,65,0,0
39091,-142.857142857143,4,2,1,20,0,0
39385,-142.857142857143,4,2,1,65,0,0
39679,-142.857142857143,4,2,1,20,0,0
39973,-142.857142857143,4,2,1,65,0,0
40267,-142.857142857143,4,2,1,20,0,0
40561,-142.857142857143,4,2,3,35,0,0
40709,-142.857142857143,4,2,1,65,0,0
41003,-142.857142857143,4,2,1,35,0,0
41150,-142.857142857143,4,2,1,65,0,0
41444,-142.857142857143,4,2,1,35,0,0
41591,-83.3333333333334,4,2,1,50,0,0
42473,-83.3333333333334,4,2,1,62,0,0
42914,-83.3333333333334,4,2,1,25,0,0
43061,-76.9230769230769,4,2,1,55,0,0
46517,-76.9230769230769,4,2,1,5,0,0
46591,-76.9230769230769,4,2,1,50,0,0
47179,-76.9230769230769,4,2,1,60,0,0
47473,-76.9230769230769,4,2,1,70,0,0
47767,-83.3333333333333,4,2,1,80,0,0
47914,-83.3333333333333,4,2,1,55,0,0
48209,-83.3333333333333,4,2,1,80,0,0
48429,-83.3333333333333,4,2,1,5,0,0
48503,-83.3333333333333,4,2,1,55,0,0
48797,-83.3333333333333,4,2,1,90,0,0
49091,-83.3333333333333,4,2,1,55,0,0
50120,-83.3333333333333,4,2,1,80,0,0
50267,-83.3333333333333,4,2,1,55,0,0
50561,-83.3333333333333,4,2,1,80,0,0
50782,-83.3333333333333,4,2,1,5,0,0
50856,-83.3333333333333,4,2,1,55,0,0
51150,-83.3333333333333,4,2,1,90,0,0
51297,-83.3333333333333,4,2,1,55,0,0
51885,-83.3333333333333,4,2,1,65,0,0
52179,-83.3333333333333,4,2,1,75,0,0
52473,-76.9230769230769,4,2,1,85,0,0
52620,-76.9230769230769,4,2,1,65,0,0
54826,-76.9230769230769,4,2,1,85,0,0
54973,-76.9230769230769,4,2,1,65,0,0
56885,-76.9230769230769,4,2,1,75,0,0
57179,-76.9230769230769,4,2,1,85,0,0
65856,-76.9230769230769,4,2,1,85,0,0
66003,-200,4,2,1,50,0,0
66076,-285.714285714286,4,2,1,5,0,0
66591,-100,4,2,1,85,0,1
66885,-100,4,2,1,70,0,1
67473,-100,4,2,1,95,0,1
67767,-100,4,2,1,70,0,1
68944,-100,4,2,1,85,0,1
69238,-100,4,2,1,70,0,1
69826,-100,4,2,1,95,0,1
70120,-100,4,2,1,70,0,1
71003,-100,4,2,1,80,0,1
71297,-100,4,2,1,90,0,1
71591,-100,4,2,1,70,0,1
72179,-100,4,2,1,100,0,1
72473,-100,4,2,1,70,0,1
73650,-71.4285714285714,4,2,1,80,0,1
73944,-71.4285714285714,4,2,1,90,0,1
74238,-71.4285714285714,4,2,1,100,0,1
74385,-71.4285714285714,4,2,1,80,0,1
74532,-71.4285714285714,4,2,1,60,0,1
74679,-100,4,2,1,85,0,0
75561,-166.666666666667,4,2,1,75,0,0
75929,-166.666666666667,4,2,1,5,0,0
76003,-100,4,2,1,85,0,1
76297,-100,4,2,1,70,0,1
76885,-100,4,2,1,95,0,1
77179,-100,4,2,1,70,0,1
78356,-100,4,2,1,85,0,1
78650,-100,4,2,1,70,0,1
79238,-100,4,2,1,95,0,1
79532,-100,4,2,1,70,0,1
80414,-100,4,2,1,80,0,1
80709,-100,4,2,1,90,0,1
81003,-100,4,2,1,70,0,1
81591,-100,4,2,1,100,0,1
81885,-100,4,2,1,70,0,1
83061,-100,4,2,1,90,0,1
83356,-100,4,2,1,70,0,1
83503,-100,4,2,1,90,0,1
83797,-100,4,2,1,70,0,1
83944,-83.3333333333333,4,2,1,100,0,1
84091,-83.3333333333333,4,2,1,50,0,1
84238,-83.3333333333333,4,2,1,100,0,1
84385,-83.3333333333333,4,2,1,50,0,1
84532,-83.3333333333333,4,2,1,100,0,1
84606,-83.3333333333333,4,2,1,70,0,1
84826,-83.3333333333333,4,2,1,70,0,1
85414,-71.4285714285714,4,2,1,85,0,0
85561,-71.4285714285714,4,2,1,65,0,0
85929,-71.4285714285714,4,2,1,5,0,0
86003,-71.4285714285714,4,2,1,65,0,0
87988,-71.4285714285714,4,2,1,5,0,0
88061,-71.4285714285714,4,2,1,65,0,0
90341,-71.4285714285714,4,2,1,5,0,0
90414,-71.4285714285714,4,2,1,65,0,0
92694,-71.4285714285714,4,2,1,5,0,0
92767,-71.4285714285714,4,2,1,65,0,0
94826,-71.4285714285714,4,2,1,85,0,0
95047,-71.4285714285714,4,2,1,5,0,0
95120,-71.4285714285714,4,2,1,65,0,0
97400,-71.4285714285714,4,2,1,5,0,0
97473,-71.4285714285714,4,2,1,65,0,0
99532,-71.4285714285714,4,2,1,70,0,0
99679,-71.4285714285714,4,2,1,45,0,0
99973,-71.4285714285714,4,2,1,75,0,0
100120,-71.4285714285714,4,2,1,50,0,0
100414,-71.4285714285714,4,2,1,80,0,0
100561,-71.4285714285714,4,2,1,55,0,0
100709,-71.4285714285714,4,2,1,75,0,0
101885,-71.4285714285714,4,2,1,85,0,0
102032,-71.4285714285714,4,2,1,60,0,0
102473,-71.4285714285714,4,2,1,90,0,0
102620,-71.4285714285714,4,2,1,65,0,0
103061,-71.4285714285714,4,2,1,75,0,0
103209,-71.4285714285714,4,2,1,45,0,0
103356,-71.4285714285714,4,2,1,75,0,0
103503,-71.4285714285714,4,2,1,80,0,0
103650,-71.4285714285714,4,2,1,85,0,0
103797,-71.4285714285714,4,2,1,90,0,0
103944,-71.4285714285714,4,2,1,95,0,0
104091,-125,4,2,1,73,0,0
108650,-125,4,2,1,65,0,0
108944,-76.9230769230769,4,2,1,55,0,0
112400,-76.9230769230769,4,2,1,5,0,0
112473,-76.9230769230769,4,2,1,55,0,0
113061,-76.9230769230769,4,2,1,65,0,0
113356,-76.9230769230769,4,2,1,75,0,0
113650,-90.9090909090909,4,2,1,85,0,0
113797,-90.9090909090909,4,2,1,45,0,0
118061,-90.9090909090909,4,2,1,50,0,0
118356,-83.3333333333333,4,2,1,75,0,0
118503,-83.3333333333333,4,2,1,60,0,0
120709,-83.3333333333333,4,2,1,75,0,0
120856,-83.3333333333333,4,2,1,50,0,0
121003,-83.3333333333333,4,2,1,65,0,0
121297,-83.3333333333333,4,2,1,75,0,0
121591,-83.3333333333333,4,2,1,85,0,0
121811,-83.3333333333333,4,2,1,25,0,0
121885,-71.4285714285714,4,2,1,65,0,0
121959,-71.4285714285714,4,2,1,35,0,0
122179,-71.4285714285714,4,2,1,45,0,0
122473,-71.4285714285714,4,2,1,50,0,0
122767,-71.4285714285714,4,2,1,45,0,0
123061,-125,4,2,1,75,0,0
123356,-125,4,2,1,45,0,0
127767,-125,4,2,1,65,0,0
127914,-125,4,2,1,50,0,0
128356,-125,4,2,1,55,0,0
128944,-125,4,2,1,60,0,0
129238,-125,4,2,1,65,0,0
129532,-125,4,2,1,70,0,0
129826,-125,4,2,1,75,0,0
130120,-125,4,2,1,50,0,0
130414,-125,4,2,1,60,0,0
130709,-125,4,2,1,70,0,0
131003,-125,4,2,1,80,0,0
131297,-125,4,2,1,60,0,0
132179,-166.666666666667,4,2,1,60,0,0
132473,-166.666666666667,4,2,1,17,0,0
136003,-76.9230769230769,4,2,1,45,0,0
136591,-200,4,2,1,55,0,0
137106,-200,4,2,1,5,0,0
137179,-111.111111111111,4,2,1,65,0,0
137400,-111.111111111111,4,2,1,5,0,0
137473,-111.111111111111,4,2,1,65,0,0
137694,-111.111111111111,4,2,1,5,0,0
137767,-111.111111111111,4,2,1,55,0,0
139532,-111.111111111111,4,2,1,65,0,0
139753,-111.111111111111,4,2,1,5,0,0
139826,-111.111111111111,4,2,1,65,0,0
140047,-111.111111111111,4,2,1,5,0,0
140120,-111.111111111111,4,2,1,55,0,0
141885,-111.111111111111,4,2,1,65,0,0
142106,-111.111111111111,4,2,1,5,0,0
142179,-111.111111111111,4,2,1,65,0,0
142400,-111.111111111111,4,2,1,5,0,0
142473,-111.111111111111,4,2,1,55,0,0
144238,-111.111111111111,4,2,1,65,0,0
144459,-111.111111111111,4,2,1,5,0,0
144532,-111.111111111111,4,2,1,65,0,0
144753,-111.111111111111,4,2,1,5,0,0
144826,-111.111111111111,4,2,1,55,0,0
145414,-111.111111111111,4,2,1,55,0,0
145561,-111.111111111111,4,2,1,33,0,0
146297,-111.111111111111,4,2,1,65,0,0
146885,-166.666666666667,4,2,1,50,0,0
147106,-166.666666666667,4,2,1,5,0,0
147179,-100,4,2,1,65,0,0
147473,-100,4,2,1,55,0,0
147767,-100,4,2,1,70,0,0
147914,-100,4,2,1,55,0,0
148944,-100,4,2,1,65,0,0
149164,-100,4,2,1,5,0,0
149238,-100,4,2,1,65,0,0
149459,-100,4,2,1,5,0,0
149532,-100,4,2,1,55,0,0
151297,-100,4,2,1,65,0,0
151517,-100,4,2,1,5,0,0
151591,-100,4,2,1,65,0,0
151811,-100,4,2,1,5,0,0
151885,-100,4,2,1,55,0,0
153650,-100,4,2,1,65,0,0
153870,-100,4,2,1,5,0,0
153944,-100,4,2,1,65,0,0
154164,-100,4,2,1,5,0,0
154238,-100,4,2,1,55,0,0
154826,-100,4,2,1,65,0,0
155120,-100,4,2,1,45,0,0
155414,-100,4,2,1,55,0,0
155561,-100,4,2,1,60,0,0
155709,-100,4,2,1,65,0,0
155856,-100,4,2,1,70,0,0
156003,-66.6666666666667,4,2,2,80,0,0
156150,-66.6666666666667,4,2,2,60,0,0
160709,-66.6666666666667,4,2,2,70,0,0
164238,-58.8235294117647,4,2,2,75,0,0
164826,-58.8235294117647,4,2,2,85,0,0
165120,-58.8235294117647,4,2,2,55,0,0
165414,-100,4,2,1,75,0,0
165561,-100,4,2,1,45,0,0
170120,-100,4,2,1,50,0,0
170709,-100,4,2,1,55,0,0
171297,-100,4,2,1,60,0,0
171885,-100,4,2,1,65,0,0
172473,-66.6666666666667,4,2,1,70,0,0
172620,-66.6666666666667,4,2,1,55,0,0
172914,-66.6666666666667,4,2,1,75,0,0
173061,-66.6666666666667,4,2,1,55,0,0
173650,-66.6666666666667,4,2,1,75,0,0
173944,-66.6666666666667,4,2,1,80,0,0
174238,-66.6666666666667,4,2,1,85,0,0
185414,-200,4,2,1,40,0,0
192473,-187.695190505934,4,2,1,25,0,0
192492,-187.695190505934,4,2,2,5,0,0
193356,-100,4,2,1,25,0,0
193374,-100,4,2,2,5,0,0
194826,-100,4,2,1,55,0,0
196591,-200,4,2,1,50,0,0
196664,-200,4,2,1,5,0,0
197106,-200,4,2,1,5,0,0
197179,-100,4,2,1,85,0,1
197473,-100,4,2,1,70,0,1
198061,-100,4,2,1,95,0,1
198355,-100,4,2,1,70,0,1
199532,-100,4,2,1,85,0,1
199826,-100,4,2,1,70,0,1
200414,-100,4,2,1,95,0,1
200708,-100,4,2,1,70,0,1
201591,-100,4,2,1,80,0,1
201885,-100,4,2,1,90,0,1
202179,-100,4,2,1,70,0,1
202767,-100,4,2,1,100,0,1
203061,-100,4,2,1,70,0,1
204238,-71.4285714285714,4,2,1,80,0,1
204532,-71.4285714285714,4,2,1,90,0,1
204826,-71.4285714285714,4,2,1,100,0,1
204973,-71.4285714285714,4,2,1,80,0,1
205120,-71.4285714285714,4,2,1,60,0,1
205267,-100,4,2,1,85,0,0
206150,-100,4,2,1,65,0,0
206591,-71.4285714285714,4,2,1,85,0,1
206738,-71.4285714285714,4,2,1,70,0,1
208944,-71.4285714285714,4,2,1,85,0,1
209091,-71.4285714285714,4,2,1,70,0,1
211297,-71.4285714285714,4,2,1,85,0,1
211444,-71.4285714285714,4,2,1,70,0,1
213650,-71.4285714285714,4,2,1,75,0,1
213797,-71.4285714285714,4,2,1,65,0,1
214091,-71.4285714285714,4,2,1,75,0,1
214238,-71.4285714285714,4,2,1,65,0,1
214532,-71.4285714285714,4,2,1,80,0,1
214826,-71.4285714285714,4,2,1,85,0,1
215120,-71.4285714285714,4,2,1,90,0,1
215414,-71.4285714285714,4,2,1,65,0,1
216003,-66.6666666666667,4,2,1,85,0,0
216150,-66.6666666666667,4,2,1,67,0,0
233650,-66.6666666666667,4,2,1,70,0,0
233944,-66.6666666666667,4,2,1,75,0,0
234238,-66.6666666666667,4,2,1,80,0,0
234532,-66.6666666666667,4,2,1,85,0,0

[Colours]
Combo1 : 211,214,190
Combo2 : 143,129,173
Combo3 : 228,154,105

[HitObjects]
80,148,17179,6,0,B|95:138|95:138|113:137,1,34.9999989318848,2|2,0:3|0:3,0:0:0:0:
130,58,17473,2,0,B|148:58|148:58|163:67,1,34.9999989318848,0|2,0:0|0:3,0:0:0:0:
446,233,18062,6,0,B|431:223|431:223|413:222,1,34.9999989318848,2|2,0:3|0:3,0:0:0:0:
396,143,18356,2,0,B|377:143|377:143|362:152,1,34.9999989318848,0|2,0:0|0:3,0:0:0:0:
80,335,18797,5,4,3:0:0:0:
108,342,18870,1,4,3:0:0:0:
136,350,18944,2,2,P|176:298|166:233,1,134.749997327042,8|0,0:0|0:0,1:1:0:0:
166,233,19532,6,0,P|207:294|290:302,1,150.000005722046,8|0,0:0|1:0,0:0:0:0:
228,181,19973,2,0,P|226:253|279:304,1,150.000005722046,8|0,0:0|1:0,0:0:0:0:
341,154,20414,2,0,P|317:183|311:220,1,75.0000028610231,10|0,0:0|1:0,0:0:0:0:
415,349,20709,6,0,P|401:314|373:290,1,75.0000028610231,10|0,0:0|1:0,0:0:0:0:
279,304,21003,1,0,1:0:0:0:
408,211,21150,2,0,P|448:229|479:270,2,75.0000028610231,10|0|0,0:0|1:0|1:0,0:0:0:0:
262,318,21591,2,0,L|183:327,1,75.0000028610231,10|0,0:0|1:0,0:0:0:0:
37,176,21885,6,0,B|119:187|119:187|160:244,1,150.000005722046,10|0,0:0|1:0,0:0:0:0:
117,76,22326,2,0,B|170:139|170:139|164:206,1,150.000005722046,10|0,0:0|1:0,0:0:0:0:
57,350,22767,2,0,L|67:265,1,75.0000028610231,10|0,0:0|1:0,0:0:0:0:
334,280,23061,6,0,B|229:266|229:266|244:321,1,150.000005722046,10|0,0:0|1:0,0:0:0:0:
427,251,23503,2,0,B|322:237|322:237|336:287,1,150.000005722046,10|0,0:0|1:0,0:0:0:0:
512,217,23944,2,0,L|435:207,1,75.0000028610231,10|0,0:0|1:0,0:0:0:0:
207,110,24238,6,0,L|284:100,1,75.0000028610231,8|0,0:0|1:0,0:0:0:0:
397,79,24532,1,0,1:0:0:0:
187,87,24679,2,0,L|263:77,1,75.0000028610231,8|0,0:0|1:0,0:0:0:0:
377,59,24973,1,0,1:0:0:0:
248,201,25120,2,0,L|173:191,1,75.0000028610231,10|0,0:0|1:0,0:0:0:0:
30,96,25414,6,0,B|64:107|64:107|85:140,1,75.0000028610231,10|0,0:0|1:0,0:0:0:0:
45,241,25708,1,0,1:0:0:0:
93,119,25856,2,0,L|101:41,2,75.0000028610231,10|0|0,0:0|1:0|1:0,0:0:0:0:
36,260,26297,2,0,L|43:334,1,75.0000028610231,10|0,0:0|1:0,0:0:0:0:
242,274,26590,6,0,P|198:216|125:212,1,150.000005722046,10|0,0:0|1:0,0:0:0:0:
338,163,27032,2,0,P|267:146|209:190,1,150.000005722046,10|0,0:0|1:0,0:0:0:0:
298,52,27472,2,0,P|271:78|260:113,1,75.0000028610231,10|0,0:0|1:0,0:0:0:0:
341,341,27766,6,0,B|357:188,1,150.000005722046,10|0,0:0|1:0,0:0:0:0:
317,362,28209,2,0,B|332:212,1,150.000005722046,10|0,0:0|1:0,0:0:0:0:
415,130,28650,2,0,B|438:127|451:137,3,37.5000014305115,0|0|0|0,1:0|1:0|1:0|1:0,0:0:0:0:
512,84,28944,6,0,P|440:100|380:60,1,150.000005722046,8|0,0:0|1:0,0:0:0:0:
231,14,29385,2,0,P|302:-2|362:37,1,150.000005722046,8|0,0:0|1:0,0:0:0:0:
222,127,29826,2,0,P|248:100|283:89,1,75.0000028610231,10|0,0:0|1:0,0:0:0:0:
474,198,30120,6,0,L|399:190,1,75.0000028610231,10|0,0:0|1:0,0:0:0:0:
301,182,30415,1,0,1:0:0:0:
437,227,30562,2,0,P|457:258|459:296,2,75.0000028610231,10|0|0,0:0|1:0|1:0,0:0:0:0:
275,168,31003,2,0,P|252:135|252:98,1,75.0000028610231,10|0,0:0|1:0,0:0:0:0:
369,289,31297,6,0,L|219:302,1,150.000005722046,10|0,0:0|1:0,0:0:0:0:
38,296,31738,2,0,L|188:283,1,150.000005722046,10|0,0:0|1:0,0:0:0:0:
389,315,32179,2,0,L|314:321,1,75.0000028610231,10|0,0:0|1:0,0:0:0:0:
194,148,32473,6,0,B|299:162|299:162|318:201,1,150.000005722046,10|0,0:0|1:0,0:0:0:0:
457,283,32914,2,0,B|352:269|352:269|332:229,1,150.000005722046,10|0,0:0|1:0,0:0:0:0:
300,41,33356,2,0,L|283:114,1,75.0000028610231,10|0,0:0|1:0,0:0:0:0:
227,262,33650,6,0,P|189:285|142:287,1,75.0000028610231,8|0,0:0|1:0,0:0:0:0:
66,251,33944,1,0,1:0:0:0:
182,179,34091,2,0,P|212:146|222:100,1,75.0000028610231,8|0,0:0|1:0,0:0:0:0:
200,21,34385,1,0,1:0:0:0:
94,132,34532,2,0,P|63:153|26:159,1,75.0000028610231,10|0,0:0|1:0,0:0:0:0:
207,12,34826,6,0,L|282:18,2,75.0000028610231,10|0|0,0:0|1:0|1:0,0:0:0:0:
256,187,35267,2,0,L|331:193,2,75.0000028610231,10|0|0,0:0|1:0|1:0,0:0:0:0:
97,347,35709,2,0,L|172:341,1,75.0000028610231,10|0,0:0|0:0,0:0:0:0:
164,154,36003,6,0,P|138:200|153:261,1,112.500004291535,4|0,1:0|0:0,0:0:0:0:
160,240,36297,2,0,P|189:193|241:176,1,112.500004291535,8|0,0:0|0:0,0:0:0:0:
330,207,36591,6,0,L|336:282,2,75.0000028610231,0|0|0,1:0|1:0|0:0,0:0:0:0:
316,64,37032,1,8,0:0:0:0:
329,178,37179,2,0,P|357:201|394:206,1,75.0000028610231,2|0,0:0|1:0,0:0:0:0:
495,163,37473,1,8,0:0:0:0:
482,272,37620,1,0,1:0:0:0:
482,272,37694,1,0,1:0:0:0:
482,272,37767,2,0,L|484:309,3,37.5000014305115,8|0|4|0,0:0|0:3|0:3|0:3,0:0:0:0:
458,350,38061,1,8,0:0:0:0:
458,350,38356,6,2,L|389:357,1,69.9999978637696,4|0,1:0|0:0,1:1:0:0:
301,309,38797,2,2,L|231:315,1,69.9999978637696,0|0,0:0|0:0,1:1:0:0:
231,314,39385,2,2,P|195:284|194:261,1,69.9999978637696,0|0,0:0|0:0,1:1:0:0:
193,263,39973,2,2,L|123:269,1,69.9999978637696,0|0,0:0|0:0,1:1:0:0:
34,154,40561,5,2,0:0:0:0:
34,154,40709,2,2,L|104:160,1,69.9999978637696,0|0,0:0|0:0,1:1:0:0:
217,173,41150,2,2,L|287:179,1,69.9999978637696,0|0,0:0|0:0,1:1:0:0:
414,227,41591,5,0,1:0:0:0:
368,98,41738,2,0,P|342:76|316:67,1,59.9999981689454,8|0,0:0|0:0,0:0:0:0:
469,133,42032,1,0,1:0:0:0:
472,118,42106,1,0,1:0:0:0:
475,103,42179,2,0,P|471:69|459:45,1,59.9999981689454,8|0,0:0|0:0,0:0:0:0:
383,198,42473,5,8,0:0:0:0:
388,244,42620,1,8,0:3:0:0:
394,292,42767,1,4,0:3:0:0:
76,284,43061,6,0,P|135:243|202:251,1,129.999994049073,10|0,0:0|1:0,0:0:0:0:
226,347,43503,2,0,L|229:217,1,129.999994049073,10|0,0:0|1:0,0:0:0:0:
327,179,43944,2,0,P|298:196|267:189,1,64.9999970245363,10|0,0:0|1:0,0:0:0:0:
206,7,44238,6,0,L|202:136,1,129.999994049073,10|0,0:0|1:0,0:0:0:0:
73,68,44679,2,0,P|136:67|187:105,1,129.999994049073,10|0,0:0|1:0,0:0:0:0:
252,234,45120,2,0,L|245:298,1,64.9999970245363,10|0,0:0|1:0,0:0:0:0:
442,165,45414,6,0,P|431:100|387:55,1,129.999994049073,10|0,0:0|1:0,0:0:0:0:
320,181,45856,1,10,0:0:0:0:
430,56,46003,2,2,P|377:19|313:22,1,129.999994049073,0|8,1:0|0:0,1:1:0:0:
326,41,46591,6,0,P|358:40|387:54,1,64.9999970245363,0|0,1:0|1:0,0:0:0:0:
474,151,46885,2,0,P|485:181|480:213,1,64.9999970245363,10|0,0:0|1:0,0:0:0:0:
376,293,47179,1,8,0:3:0:0:
469,315,47326,1,8,0:3:0:0:
406,264,47473,1,4,0:3:0:0:
440,345,47620,1,4,0:3:0:0:
332,214,47767,6,0,P|287:177|229:183,1,119.999996337891,4|8,1:0|0:0,0:0:0:0:
55,208,48209,2,0,P|100:245|158:238,1,119.999996337891,4|0,1:0|1:0,0:0:0:0:
198,72,48650,1,10,0:0:0:0:
190,213,48797,2,0,L|196:93,1,119.999996337891,4|0,1:0|1:0,0:0:0:0:
39,37,49238,5,10,0:0:0:0:
84,123,49385,1,0,1:0:0:0:
166,61,49532,2,0,L|225:64,1,59.9999981689454,2|0,0:0|1:0,0:0:0:0:
240,65,49753,1,0,1:0:0:0:
254,66,49826,1,8,0:0:0:0:
341,23,49973,1,0,0:0:0:0:
279,159,50120,6,0,B|332:121|332:121|386:122,1,119.999996337891,4|8,1:0|0:0,0:0:0:0:
493,231,50561,2,0,B|433:204|433:204|408:155,1,119.999996337891,4|0,1:0|1:0,0:0:0:0:
448,55,51003,1,10,0:0:0:0:
349,222,51150,6,0,L|356:281,1,59.9999981689454,4|0,1:0|0:0,0:0:0:0:
450,384,51444,1,8,0:0:0:0:
311,368,51591,1,8,0:0:0:0:
379,304,51738,1,0,1:0:0:0:
289,379,51885,2,0,P|259:372|233:357,1,59.9999981689454,8|0,0:0|1:0,0:0:0:0:
115,321,52179,2,0,P|100:294|94:265,1,59.9999981689454,8|0,0:0|1:0,0:0:0:0:
203,129,52473,6,0,B|214:210|214:210|208:233|193:253,1,129.999994049073,4|0,1:0|1:0,0:0:0:0:
12,205,52914,2,0,B|40:166|80:160|80:160|124:180,1,129.999994049073,10|0,0:0|1:0,0:0:0:0:
259,318,53356,2,0,L|323:308,1,64.9999970245363,10|0,0:0|1:0,0:0:0:0:
466,266,53650,6,0,L|401:256,1,64.9999970245363,10|0,0:0|1:0,0:0:0:0:
292,189,53944,1,0,1:0:0:0:
397,145,54091,1,8,0:0:0:0:
285,234,54238,2,0,P|261:214|254:183,1,64.9999970245363,0|0,1:0|1:0,0:0:0:0:
404,106,54532,2,0,P|428:126|435:158,1,64.9999970245363,10|0,0:0|1:0,0:0:0:0:
264,88,54826,6,0,B|234:75|234:75|199:88,1,64.9999970245363,4|0,1:0|1:0,0:0:0:0:
345,167,55120,1,10,0:0:0:0:
338,35,55267,2,0,B|318:9|318:9|287:-1,1,64.9999970245363,2|0,0:0|1:0,0:0:0:0:
347,189,55561,2,0,B|366:214|366:214|398:224,1,64.9999970245363,10|0,0:0|1:0,0:0:0:0:
512,205,55856,1,0,1:0:0:0:
474,342,56003,6,0,L|409:335,1,64.9999970245363,10|0,0:0|1:0,0:0:0:0:
299,268,56297,2,0,L|234:274,1,64.9999970245363,10|0,0:0|1:0,0:0:0:0:
115,359,56591,2,0,P|133:347|147:329,1,43.3333313496908,0|0,1:0|0:0,0:0:0:0:
142,227,56787,2,0,P|133:208|119:192,3,43.3333313496908,8|8|4|12,0:0|0:3|0:3|0:3,0:0:0:0:
18,153,57179,5,4,1:0:0:0:
159,174,66003,5,4,0:3:0:0:
19,156,66591,6,0,B|92:125|95:202|159:174,1,150,4|0,1:0|1:0,0:0:0:0:
290,141,67179,2,0,L|296:91,1,50,8|0,0:0|0:0,0:0:0:0:
86,101,67473,6,0,P|119:138|168:141,1,100,4|0,1:0|0:0,0:0:0:0:
298,56,67914,2,0,P|266:20|218:15,1,100,8|0,0:0|1:0,0:0:0:0:
159,174,68356,1,8,0:0:0:0:
159,174,68650,5,0,1:0:0:0:
299,231,68797,1,8,0:0:0:0:
184,304,68944,6,0,P|241:256|314:261,1,150,4|0,1:0|1:0,0:0:0:0:
398,359,69532,2,0,L|449:352,1,50,8|0,0:0|0:0,0:0:0:0:
195,337,69826,2,0,P|252:289|325:294,1,150,4|8,1:0|0:0,0:0:0:0:
457,247,70414,6,0,L|448:197,1,50,0|0,1:0|1:0,0:0:0:0:
310,177,70709,2,0,L|318:127,1,50,8|0,0:0|1:0,0:0:0:0:
479,55,71003,1,8,0:0:0:0:
444,167,71150,1,8,0:0:0:0:
352,43,71297,6,0,B|252:15|252:15|263:59,1,150,4|0,1:0|1:0,0:0:0:0:
310,177,71885,2,0,L|298:225,1,50,8|0,0:0|0:0,0:0:0:0:
173,64,72179,6,0,P|223:61|267:82,1,100,4|0,1:0|0:0,0:0:0:0:
114,186,72620,2,0,P|152:155|201:146,1,100,8|0,0:0|1:0,0:0:0:0:
293,256,73061,5,8,0:0:0:0:
72,343,73356,1,0,1:0:0:0:
306,305,73650,6,0,P|273:293|249:268,1,69.9999978637696,12|0,0:0|1:0,0:0:0:0:
291,98,73944,2,0,P|297:132|287:165,1,69.9999978637696,12|0,0:0|1:0,0:0:0:0:
119,213,74238,2,0,P|145:190|178:182,2,69.9999978637696,8|8|4,0:0|0:3|0:3,0:0:0:0:
96,302,74679,5,4,0:3:0:0:
229,29,74973,1,4,0:3:0:0:
385,266,75267,1,4,0:3:0:0:
385,266,75561,5,4,0:3:0:0:
445,153,75709,1,8,0:0:0:0:
445,153,76003,6,0,B|416:107|354:89|354:89|359:124,1,150,4|0,1:0|1:0,0:0:0:0:
261,202,76591,2,0,L|268:251,1,50,8|0,0:0|0:0,0:0:0:0:
329,58,76885,6,0,L|347:156,1,100,4|0,1:0|0:0,0:0:0:0:
255,282,77326,2,0,L|236:183,1,100,8|0,0:0|1:0,0:0:0:0:
205,38,77768,1,8,0:0:0:0:
205,38,78062,5,0,1:0:0:0:
64,112,78209,1,8,0:0:0:0:
217,170,78356,6,0,L|70:138,1,150,4|0,1:0|1:0,0:0:0:0:
12,257,78944,2,0,L|64:251,1,50,8|0,0:0|0:0,0:0:0:0:
273,247,79238,2,0,B|210:196|210:196|141:203,1,150,4|8,1:0|0:0,0:0:0:0:
73,340,79826,6,0,P|97:335|118:322,1,50,0|0,1:0|1:0,0:0:0:0:
119,176,80120,2,0,P|110:199|111:224,1,50,8|0,0:0|1:0,0:0:0:0:
224,355,80415,1,8,0:0:0:0:
253,228,80561,1,8,0:0:0:0:
241,384,80709,6,0,P|298:337|371:340,1,150,4|0,1:0|1:0,0:0:0:0:
509,261,81297,2,0,P|497:226|487:211,1,50,8|0,0:0|0:0,0:0:0:0:
396,367,81591,6,0,P|420:323|415:274,1,100,4|0,1:0|0:0,0:0:0:0:
283,218,82032,2,0,P|259:174|264:125,1,100,8|0,0:0|1:0,0:0:0:0:
407,54,82473,5,8,0:0:0:0:
205,5,82768,1,8,0:0:0:0:
491,59,83061,6,0,P|443:59|408:93,1,100,4|0,1:0|0:0,0:0:0:0:
243,154,83503,2,0,P|292:154|327:188,1,100,8|0,0:0|1:0,0:0:0:0:
512,301,83944,6,0,L|393:283,1,119.999996337891,4|0,1:0|1:0,0:0:0:0:
107,321,84532,2,0,L|150:310,3,29.9999990844727,10|0|0|0,0:0|1:0|1:0|1:0,0:0:0:0:
169,235,84826,2,0,L|137:203,3,29.9999990844727,0|0|0|0,1:0|1:0|1:0|1:0,0:0:0:0:
63,224,85120,2,0,L|51:266,3,29.9999990844727,0|0|0|0,1:0|1:0|1:0|1:0,0:0:0:0:
63,353,85414,6,0,P|122:318|190:325,1,139.999995727539,4|8,1:0|0:0,0:0:0:0:
179,293,86003,2,0,P|212:302|236:327,1,69.9999978637696,0|0,1:0|1:0,0:0:0:0:
335,353,86297,1,2,0:0:0:0:
224,374,86444,1,8,0:0:0:0:
346,301,86591,6,0,P|367:269|368:230,1,69.9999978637696,2|0,0:0|1:0,0:0:0:0:
298,141,86885,1,8,0:0:0:0:
405,260,87032,2,0,P|394:223|364:197,1,69.9999978637696,2|0,0:0|1:0,0:0:0:0:
266,150,87326,1,0,1:0:0:0:
414,105,87473,1,10,0:0:0:0:
414,105,87767,6,0,B|372:101|372:101|320:116|320:116|263:108,1,139.999995727539,4|8,1:0|0:0,0:0:0:0:
176,34,88209,2,0,B|218:38|218:38|270:23|270:23|327:31,1,139.999995727539,2|0,0:0|1:0,0:0:0:0:
392,186,88650,1,2,0:0:0:0:
277,110,88797,1,8,0:0:0:0:
369,216,88944,6,0,P|308:219|241:289,1,139.999995727539,2|8,0:0|0:0,0:0:0:0:
343,361,89385,2,0,P|292:315|223:309,1,139.999995727539,2|0,0:0|1:0,0:0:0:0:
91,356,89826,2,0,L|103:279,1,69.9999978637696,10|8,0:0|0:0,0:0:0:0:
93,271,90047,1,8,0:0:0:0:
82,256,90120,6,0,P|57:192|65:111,1,139.999995727539,4|8,1:0|0:0,0:0:0:0:
27,138,90709,2,0,P|36:105|64:83,1,69.9999978637696,0|0,1:0|1:0,0:0:0:0:
179,124,91003,1,2,0:0:0:0:
76,50,91150,1,8,0:0:0:0:
195,79,91297,6,0,L|269:67,1,69.9999978637696,2|0,0:0|1:0,0:0:0:0:
345,127,91591,1,8,0:0:0:0:
226,41,91738,2,0,L|295:44,1,69.9999978637696,2|0,0:0|1:0,0:0:0:0:
360,161,92032,1,0,1:0:0:0:
417,24,92179,1,10,0:0:0:0:
417,24,92473,6,0,B|481:39|492:81|492:81|487:124,1,139.999995727539,4|8,1:0|0:0,0:0:0:0:
345,137,92914,2,0,B|281:152|270:194|270:194|274:237,1,139.999995727539,2|0,0:0|1:0,0:0:0:0:
374,317,93356,1,2,0:0:0:0:
249,267,93503,1,8,0:0:0:0:
354,353,93650,6,0,L|201:364,1,139.999995727539,2|8,0:0|0:0,0:0:0:0:
92,217,94091,2,0,L|231:227,1,139.999995727539,2|8,0:0|0:0,0:0:0:0:
245,216,94459,1,8,0:0:0:0:
259,204,94532,1,8,0:0:0:0:
208,111,94679,1,8,0:0:0:0:
265,26,94826,6,0,B|309:24|309:24|359:46|364:97,1,139.999995727539,4|8,1:0|0:0,0:0:0:0:
381,79,95414,2,0,P|410:96|421:129,1,69.9999978637696,0|0,1:0|1:0,0:0:0:0:
482,225,95708,1,2,0:0:0:0:
362,211,95855,1,8,0:0:0:0:
509,262,96002,6,0,P|481:243|447:239,1,69.9999978637696,2|0,0:0|1:0,0:0:0:0:
352,307,96296,1,8,0:0:0:0:
479,384,96443,2,0,P|469:350|446:325,1,69.9999978637696,2|0,0:0|1:0,0:0:0:0:
325,329,96737,1,0,1:0:0:0:
349,184,96884,1,10,0:0:0:0:
349,184,97178,6,0,B|254:154|254:154|265:206,1,139.999995727539,4|8,1:0|0:0,0:0:0:0:
285,316,97620,2,0,B|293:354|293:354|197:323,1,139.999995727539,2|0,0:0|0:0,0:0:0:0:
70,278,98061,1,2,0:0:0:0:
183,228,98208,1,8,0:0:0:0:
76,237,98355,6,0,P|37:169|53:94,1,139.999995727539,2|8,0:0|0:0,0:0:0:0:
141,3,98797,2,0,P|179:70|164:146,1,139.999995727539,2|0,0:0|1:0,0:0:0:0:
165,146,99164,1,0,1:0:0:0:
156,161,99238,2,0,B|182:184|182:184|192:218,1,69.9999978637696,10|0,0:0|1:0,0:0:0:0:
126,338,99532,6,0,L|35:349,2,69.9999978637696,8|4|4,0:0|0:3|0:3,0:0:0:0:
295,287,99973,2,0,L|385:303,2,69.9999978637696,8|4|4,0:0|0:3|0:3,0:0:0:0:
154,254,100414,1,8,0:0:0:0:
243,356,100561,1,4,0:3:0:0:
135,235,100709,6,0,L|44:246,2,69.9999978637696,10|4|4,0:0|0:3|0:3,0:0:0:0:
277,158,101150,2,0,L|367:174,2,69.9999978637696,10|4|4,0:0|0:3|0:3,0:0:0:0:
144,108,101591,2,0,P|120:82|115:48,1,69.9999978637696,10|4,0:0|0:3,0:0:0:0:
296,2,101885,6,0,L|288:77,1,69.9999978637696,10|4,0:0|0:3,0:0:0:0:
257,186,102179,2,0,L|265:261,1,69.9999978637696,4|8,0:3|0:3,0:0:0:0:
355,384,102473,2,0,L|363:309,1,69.9999978637696,6|4,0:3|0:3,0:0:0:0:
394,200,102767,2,0,L|386:125,1,69.9999978637696,14|4,0:3|0:3,0:0:0:0:
190,100,103061,5,10,0:0:0:0:
190,100,103356,1,8,0:0:0:0:
296,197,103503,1,8,0:0:0:0:
133,284,103650,2,0,B|63:275,2,69.9999978637696,8|8|8,0:0|0:0|0:0,0:0:0:0:
244,369,104091,6,0,L|288:363,1,40,4|2,0:0|0:0,0:0:0:0:
175,114,108650,5,8,0:0:0:0:
175,114,108944,6,0,B|205:128|205:128|236:123,1,64.9999970245363,4|0,1:0|1:0,1:1:0:0:
349,94,109238,1,8,0:0:0:0:
275,220,109385,2,0,B|340:165|340:165|345:120,1,129.999994049073,0|0,1:0|1:0,0:0:0:0:
453,47,109826,2,0,L|446:115,1,64.9999970245363,8|0,0:0|1:0,0:0:0:0:
494,251,110120,6,0,B|465:229|465:229|436:223,1,64.9999970245363,0|0,1:0|1:0,0:0:0:0:
328,215,110414,1,8,0:0:0:0:
442,129,110561,2,0,B|363:152|363:152|330:208,1,129.999994049073,0|0,1:0|1:0,0:0:0:0:
275,304,111002,2,0,L|198:302,1,64.9999970245363,8|0,0:0|1:0,0:0:0:0:
72,361,111297,6,0,P|96:339|112:311,1,64.9999970245363,0|0,1:0|1:0,0:0:0:0:
135,211,111591,2,0,P|134:178|122:148,1,64.9999970245363,8|0,0:0|1:0,0:0:0:0:
19,20,111885,6,0,P|49:30|74:50,1,64.9999970245363,8|0,0:3|1:0,0:0:0:0:
137,133,112179,2,0,P|148:163|149:195,1,64.9999970245363,8|0,0:0|0:0,0:0:0:0:
109,358,112473,6,0,P|133:336|149:308,1,64.9999970245363,0|0,1:0|1:0,0:0:0:0:
172,208,112767,2,0,P|171:175|159:145,1,64.9999970245363,8|0,0:0|0:0,0:0:0:0:
29,61,113061,5,8,0:0:0:0:
142,117,113209,1,8,0:0:0:0:
247,38,113356,2,0,L|314:42,1,64.9999970245363,8|8,0:0|0:0,0:0:0:0:
404,40,113650,6,0,B|422:59|422:59|396:72,1,55.0000016784668,4|0,1:0|1:0,0:0:0:0:
312,41,114091,5,0,1:0:0:0:
488,148,114238,2,0,P|511:198|512:253,1,110.000003356934,8|0,0:0|1:0,0:0:0:0:
366,368,114679,6,0,B|400:330|400:330|462:324,2,110.000003356934,8|0|0,0:0|1:0|1:0,0:0:0:0:
340,371,115561,1,0,1:0:0:0:
400,247,115709,2,0,L|395:192,1,55.0000016784668,8|0,0:0|0:0,0:0:0:0:
260,109,116003,6,0,B|234:122|234:122|252:141,1,55.0000016784668,0|0,1:0|1:0,0:0:0:0:
333,141,116444,5,0,1:0:0:0:
218,276,116591,2,0,P|151:269|124:236,1,110.000003356934,8|0,0:0|1:0,0:0:0:0:
71,120,117032,6,0,P|98:181|83:221,1,110.000003356934,8|0,0:0|1:0,0:0:0:0:
0,338,117473,1,8,0:0:0:0:
89,258,117620,1,0,1:0:0:0:
180,359,117767,2,0,L|289:371,1,110.000003356934,0|8,1:0|0:0,0:0:0:0:
289,371,118356,6,0,L|276:226,1,119.999996337891,4|8,1:0|0:0,0:0:0:0:
219,136,118797,1,0,1:0:0:0:
272,214,118944,2,0,P|252:236|245:266,1,59.9999981689454,0|0,1:0|1:0,0:0:0:0:
374,357,119238,6,0,P|423:299|350:281,1,179.999994506836,8|0,0:0|1:0,0:0:0:0:
411,379,119826,2,0,P|436:360|448:324,1,59.9999981689454,8|0,0:0|1:0,0:0:0:0:
503,250,120120,2,0,P|504:218|484:186,1,59.9999981689454,0|0,1:0|1:0,0:0:0:0:
458,89,120414,2,0,P|434:67|397:62,1,59.9999981689454,8|0,0:0|1:0,0:0:0:0:
266,82,120709,6,0,L|275:142,1,59.9999981689454,4|0,1:0|1:0,0:0:0:0:
356,232,121003,1,8,0:0:0:0:
264,172,121150,1,0,1:0:0:0:
175,265,121297,2,0,L|115:258,1,59.9999981689454,8|0,0:0|1:0,0:0:0:0:
40,178,121591,1,8,0:0:0:0:
0,315,121738,1,0,1:0:0:0:
5,328,121811,1,0,1:0:0:0:
12,341,121885,6,0,L|70:355,7,34.9999989318848,8|8|8|8|8|8|8|8,0:0|0:0|0:0|0:0|0:3|0:3|0:3|0:3,0:0:0:0:
117,296,122473,2,0,L|186:288,1,69.9999978637696,8|0,0:3|1:0,0:0:0:0:
201,296,122694,1,0,1:0:0:0:
216,304,122767,2,0,L|250:307,3,34.9999989318848,8|4|4|4,0:0|0:3|0:3|0:3,0:0:0:0:
322,355,123061,6,0,P|352:321|391:312,1,80,4|0,1:0|1:0,0:0:0:0:
494,236,123650,2,0,P|460:206|451:167,1,80,0|0,1:0|1:0,0:0:0:0:
375,64,124238,2,0,P|345:98|306:107,1,80,0|0,1:0|1:0,0:0:0:0:
203,183,124826,2,0,P|237:213|246:252,1,80,0|0,1:0|1:0,0:0:0:0:
63,312,125414,6,0,B|91:283|91:283|130:274,1,80,0|0,1:0|1:0,0:0:0:0:
287,380,126003,2,0,B|247:370|247:370|220:340,1,80,0|0,1:0|1:0,0:0:0:0:
233,152,126591,2,0,B|244:190|244:190|232:229,1,80,0|0,1:0|1:0,0:0:0:0:
34,330,127179,2,0,B|27:247,1,80,0|0,1:0|1:0,0:0:0:0:
80,59,127767,6,0,L|159:47,1,80,4|0,1:0|1:0,0:0:0:0:
301,144,128356,2,0,L|380:155,1,80,0|0,1:0|1:0,0:0:0:0:
158,276,128944,1,0,1:0:0:0:
293,251,129238,1,0,1:0:0:0:
142,279,129532,1,0,1:0:0:0:
310,246,129826,1,0,1:0:0:0:
56,301,130120,5,8,0:0:0:0:
341,348,130414,1,8,0:0:0:0:
41,298,130709,1,8,0:0:0:0:
356,350,131003,1,8,0:0:0:0:
127,203,131297,5,0,1:0:0:0:
337,134,131591,1,0,1:0:0:0:
185,136,131885,5,8,0:0:0:0:
293,212,132032,1,8,0:3:0:0:
171,126,132179,2,0,L|168:96,2,29.9999990844727,4|4|2,0:3|0:3|0:3,0:0:0:0:
400,258,136003,6,0,L|335:248,1,64.9999970245363,0|2,0:0|0:0,0:0:0:0:
200,311,136297,1,0,1:0:0:0:
200,311,136444,1,0,1:0:0:0:
328,230,136591,6,0,L|418:244,1,87.5,8|0,0:0|0:0,0:0:0:0:
430,248,137179,6,0,P|444:222|443:193,1,44.999998626709,6|0,1:0|0:0,0:0:0:0:
477,234,137473,2,0,P|473:204|456:181,1,44.999998626709,6|0,1:0|0:0,0:0:0:0:
397,138,137767,1,8,0:0:0:0:
480,60,137914,2,0,P|455:94|402:108,1,89.9999972534181,2|0,1:0|0:0,0:0:0:0:
291,40,138356,2,0,P|290:82|254:124,1,89.9999972534181,2|0,1:0|0:0,0:0:0:0:
124,132,138797,1,2,1:0:0:0:
234,229,138944,5,10,0:0:0:0:
207,248,139238,2,0,L|251:254,1,44.999998626709,2|0,0:0|0:0,0:0:0:0:
61,314,139532,6,0,B|87:300|87:300|116:301,1,44.999998626709,6|0,1:0|0:0,0:0:0:0:
75,267,139826,2,0,B|105:270|105:270|128:287,1,44.999998626709,6|0,1:0|0:0,0:0:0:0:
182,346,140120,1,8,0:0:0:0:
280,257,140267,2,0,L|374:268,1,89.9999972534181,2|0,1:0|0:0,0:0:0:0:
463,280,140709,5,0,1:0:0:0:
419,193,140856,2,0,B|439:153|439:153|481:187,1,89.9999972534181,2|0,0:0|0:0,0:0:0:0:
468,310,141297,1,10,0:0:0:0:
424,68,141591,1,2,0:0:0:0:
290,242,141885,6,0,L|235:229,1,44.999998626709,6|0,1:0|0:0,0:0:0:0:
275,194,142179,2,0,L|222:215,1,44.999998626709,6|0,1:0|0:0,0:0:0:0:
167,274,142473,1,8,0:0:0:0:
65,228,142620,2,0,B|149:265,1,89.9999972534181,2|0,1:0|0:0,0:0:0:0:
265,318,143061,2,0,B|181:281,1,89.9999972534181,2|0,1:0|0:0,0:0:0:0:
57,326,143503,1,2,1:0:0:0:
142,173,143650,5,10,0:0:0:0:
157,149,143944,2,0,L|113:155,1,44.999998626709,2|0,0:0|0:0,0:0:0:0:
288,125,144238,6,0,P|267:115|233:112,1,44.999998626709,6|0,1:0|0:0,0:0:0:0:
274,78,144532,2,0,P|245:81|221:98,1,44.999998626709,6|0,1:0|0:0,0:0:0:0:
157,149,144826,1,8,0:0:0:0:
136,39,144973,2,0,P|121:81|130:125,1,89.9999972534181,2|0,1:0|0:0,0:0:0:0:
242,201,145415,5,8,0:0:0:0:
228,215,146297,5,10,0:0:0:0:
348,148,146444,1,10,0:0:0:0:
462,291,146885,6,0,L|418:278,1,44.999998626709,0|0,1:0|0:0,0:0:0:0:
404,275,147179,6,0,L|394:209,2,50,6|6|0,1:0|1:0|0:0,0:0:0:0:
413,371,147620,1,0,0:0:0:0:
277,281,147767,2,0,P|228:273|183:294,1,100,6|0,1:0|0:0,0:0:0:0:
139,378,148209,1,2,1:0:0:0:
37,286,148356,6,0,L|86:294,1,50,10|0,0:0|0:0,0:0:0:0:
30,256,148650,2,0,L|81:263,1,50,2|0,0:1|0:0,0:0:0:0:
268,169,148944,6,0,L|204:188,1,50,6|0,1:0|0:0,0:0:0:0:
150,206,149238,2,0,L|197:191,1,50,6|0,1:0|0:0,0:0:0:0:
348,135,149532,1,8,0:0:0:0:
229,87,149679,2,0,P|218:56|216:30,1,50,2|0,1:0|0:0,0:0:0:0:
472,160,150120,6,0,L|374:140,1,100,2|2,1:0|0:0,0:0:0:0:
240,217,150561,2,0,L|288:206,1,50,0|8,0:0|0:0,0:0:0:0:
440,180,150856,2,0,L|488:190,2,50,2|2|2,0:0|0:0|0:0,0:0:0:0:
287,310,151297,6,0,B|310:309|310:309|332:291,1,50,6|0,1:0|0:0,0:0:0:0:
397,253,151591,2,0,B|373:253|373:253|351:271,1,50,6|0,1:0|0:0,0:0:0:0:
322,384,151885,1,8,0:0:0:0:
201,292,152032,2,0,L|151:292,1,50,2|0,1:0|0:0,0:0:0:0:
62,137,152473,6,0,P|74:158|77:189,1,50,2|0,1:0|0:0,0:0:0:0:
144,254,152767,2,0,P|136:277|113:299,1,50,2|0,0:1|0:0,0:0:0:0:
30,345,153061,1,10,0:0:0:0:
257,378,153356,2,0,L|246:327,1,50,2|2,0:0|0:0,0:0:0:0:
221,235,153650,6,0,P|238:211|239:183,1,50,6|0,1:0|0:0,0:0:0:0:
255,113,153944,2,0,P|238:137|237:165,1,50,6|0,1:0|0:0,0:0:0:0:
317,236,154238,1,8,0:0:0:0:
405,160,154385,2,0,L|457:162,1,50,2|0,1:0|0:0,0:0:0:0:
480,141,154826,6,0,L|468:189,1,50,2|0,1:0|1:0,0:0:0:0:
346,87,155120,2,0,L|334:38,1,50,8|8,0:3|0:3,0:0:0:0:
259,230,155414,1,8,0:0:0:0:
373,175,155561,1,8,0:0:0:0:
244,202,155709,1,8,0:0:0:0:
387,205,155856,1,8,0:0:0:0:
201,121,156003,6,0,P|178:91|172:54,1,75.0000028610231,6|0,1:0|0:0,0:0:0:0:
305,111,156297,1,8,0:0:0:0:
218,224,156444,2,0,B|142:216,1,75.0000028610231,2|0,1:0|1:0,0:0:0:0:
13,202,156738,2,0,B|87:209,1,75.0000028610231,2|8,0:0|0:0,0:0:0:0:
156,351,157032,6,0,P|124:325|112:292,1,75.0000028610231,2|0,0:0|1:0,0:0:0:0:
129,133,157326,2,0,P|149:96|179:79,1,75.0000028610231,2|8,0:0|0:0,0:0:0:0:
317,103,157620,1,2,0:0:0:0:
317,103,157767,2,0,B|307:12,1,75.0000028610231,2|0,1:0|0:0,0:0:0:0:
235,185,158061,2,0,B|252:223|252:223|290:234,1,75.0000028610231,10|0,0:0|0:0,0:0:0:0:
446,159,158356,6,0,B|408:158|408:158|376:179,1,75.0000028610231,6|0,1:0|0:0,0:0:0:0:
320,341,158650,1,10,0:0:0:0:
496,275,158797,2,0,P|458:248|428:245,1,75.0000028610231,2|0,0:0|1:0,0:0:0:0:
309,235,159091,2,0,P|347:262|377:265,1,75.0000028610231,2|8,0:0|0:0,0:0:0:0:
446,159,159385,6,0,L|458:85,1,75.0000028610231,2|0,0:0|1:0,0:0:0:0:
274,40,159679,2,0,L|286:113,1,75.0000028610231,2|8,0:0|0:0,0:0:0:0:
188,224,159973,1,2,0:0:0:0:
188,224,160120,2,0,P|144:217|107:184,1,75.0000028610231,2|0,1:0|0:0,0:0:0:0:
52,56,160414,2,0,L|62:132,1,75.0000028610231,10|0,0:0|0:0,0:0:0:0:
175,326,160709,6,0,P|211:322|246:304,1,75.0000028610231,10|0,0:0|1:0,0:0:0:0:
329,144,161003,2,0,P|292:147|257:165,1,75.0000028610231,8|2,0:0|1:0,0:0:0:0:
197,356,161297,6,0,P|231:343|260:316,1,75.0000028610231,8|2,0:0|1:0,0:0:0:0:
307,114,161591,2,0,P|272:126|243:153,1,75.0000028610231,8|2,0:0|1:0,0:0:0:0:
226,379,161885,6,0,P|256:357|276:324,1,75.0000028610231,8|2,0:0|1:0,0:0:0:0:
277,90,162179,2,0,P|246:111|226:144,1,75.0000028610231,8|0,0:0|1:0,0:0:0:0:
419,215,162473,6,0,L|344:224,1,75.0000028610231,10|0,0:0|1:0,0:0:0:0:
185,247,162767,2,0,L|110:256,1,75.0000028610231,8|0,0:0|1:0,0:0:0:0:
66,75,163061,6,0,L|55:159,1,75.0000028610231,10|0,0:0|1:0,0:0:0:0:
262,205,163356,2,0,L|251:121,1,75.0000028610231,8|2,0:0|1:0,0:0:0:0:
49,56,163650,6,0,L|38:140,1,75.0000028610231,8|2,0:0|1:0,0:0:0:0:
279,223,163945,2,0,L|268:139,1,75.0000028610231,8|2,0:0|1:0,0:0:0:0:
246,9,164238,1,10,0:0:0:0:
250,29,164311,1,0,0:0:0:0:
254,49,164385,2,0,B|346:22|346:22|389:30|410:56,1,170.000003242493,10|2,0:0|1:0,0:0:0:0:
323,296,164826,2,0,B|310:176|310:176|333:132,1,170.000003242493,10|8,0:0|0:0,0:0:0:0:
65,332,165414,6,0,P|103:300|152:294,1,100,4|0,1:0|1:0,0:0:0:0:
152,294,166003,2,0,L|165:194,1,100,0|0,1:0|1:0,0:0:0:0:
393,366,166591,6,0,P|354:334|305:328,1,100,0|0,1:0|1:0,0:0:0:0:
306,328,167180,2,0,L|292:228,1,100,0|0,1:0|1:0,0:0:0:0:
52,91,167767,6,0,B|97:114|97:114|145:104,1,100,0|0,1:0|1:0,0:0:0:0:
145,103,168356,2,0,L|132:206,1,100,0|0,1:0|1:0,0:0:0:0:
374,29,168944,6,0,B|329:52|329:52|281:42,1,100,0|4,1:0|0:3,0:0:0:0:
281,41,169533,2,0,L|294:144,1,100,4|0,0:3|1:0,0:0:0:0:
321,339,170120,5,0,1:0:0:0:
464,221,170414,1,0,1:0:0:0:
241,244,170709,5,0,1:0:0:0:
458,249,171003,1,0,1:0:0:0:
245,119,171297,5,0,1:0:0:0:
453,280,171591,1,0,1:0:0:0:
331,30,171885,5,0,1:0:0:0:
447,313,172179,1,0,1:0:0:0:
229,206,172473,6,0,L|154:215,2,75.0000028610231,8|0|0,0:0|1:0|1:0,0:0:0:0:
366,274,172914,1,8,0:0:0:0:
300,133,173061,1,0,1:0:0:0:
300,133,173209,1,0,1:0:0:0:
435,197,173356,2,0,P|458:172|469:126,1,75.0000028610231,8|0,0:0|1:0,0:0:0:0:
286,29,173650,6,0,L|294:103,1,75.0000028610231,8|0,0:0|1:0,0:0:0:0:
371,316,173944,2,0,L|362:241,1,75.0000028610231,8|0,0:0|1:0,0:0:0:0:
195,160,174238,1,8,0:0:0:0:
335,204,174385,1,8,0:0:0:0:
185,274,174532,1,8,0:0:0:0:
341,167,174679,1,8,0:0:0:0:
201,127,185414,6,0,P|207:169|234:195,1,75,0|8,1:0|0:0,0:0:0:0:
218,227,186297,2,0,P|191:215|176:194,2,50,0|2|0,1:0|0:0|1:0,0:0:0:0:
315,201,187179,1,8,0:0:0:0:
308,337,187767,6,0,P|341:310|350:274,1,75,0|8,1:0|0:0,0:0:0:0:
385,268,188650,2,0,P|388:295|376:318,2,50,0|2|0,1:0|0:0|1:0,0:0:0:0:
315,201,189532,1,8,0:0:0:0:
437,140,190120,6,0,P|397:124|361:134,1,75,0|8,1:0|0:0,0:0:0:0:
353,110,191003,2,0,P|402:99|449:115,1,100,0|0,1:0|1:0,0:0:0:0:
274,149,191885,6,0,P|232:139|197:103,1,87.5,8|0,0:0|0:0,1:1:0:0:
192,88,192473,5,4,0:2:0:0:
256,192,193356,12,6,194826,2:0:0:0:
350,163,196591,5,4,0:3:0:0:
495,160,197179,6,0,B|453:151|453:151|386:171|386:171|349:162,1,150,4|0,1:0|1:0,0:0:0:0:
213,111,197767,2,0,L|222:56,1,50,8|0,0:0|0:0,0:0:0:0:
441,122,198061,6,0,B|385:137|385:137|344:126,1,100,4|0,1:0|0:0,0:0:0:0:
224,27,198503,2,0,B|279:11|279:11|320:22,1,100,8|0,0:0|1:0,0:0:0:0:
367,175,198944,1,8,0:0:0:0:
367,175,199238,5,0,1:0:0:0:
225,150,199385,1,8,0:0:0:0:
265,357,199532,6,0,B|253:258|253:258|293:227,1,150,4|0,1:0|1:0,0:0:0:0:
405,173,200120,2,0,L|411:123,1,50,8|0,0:0|0:0,0:0:0:0:
284,382,200414,2,0,B|272:283|272:283|312:252,1,150,4|8,1:0|0:0,0:0:0:0:
317,54,201002,6,0,L|308:104,1,50,0|0,1:0|1:0,0:0:0:0:
331,233,201297,2,0,L|281:226,1,50,8|0,0:0|1:0,0:0:0:0:
92,270,201591,1,8,0:0:0:0:
223,309,201738,1,8,0:0:0:0:
90,351,201885,6,0,P|143:302|209:329,1,150,4|0,1:0|1:0,0:0:0:0:
329,273,202473,2,0,P|342:243|343:222,1,50,8|0,0:0|0:0,0:0:0:0:
149,248,202767,6,0,P|195:268|223:309,1,100,4|0,1:0|0:0,0:0:0:0:
79,184,203209,2,0,P|120:157|170:158,1,100,8|0,0:0|1:0,0:0:0:0:
238,266,203649,5,8,0:0:0:0:
47,316,203944,1,0,1:0:0:0:
227,300,204238,6,0,B|203:269|203:269|214:239,1,69.9999978637696,12|0,0:0|1:0,0:0:0:0:
365,138,204532,2,0,B|350:173|350:173|318:178,1,69.9999978637696,12|0,0:0|1:0,0:0:0:0:
155,99,204826,2,0,B|193:94|193:94|213:118,2,69.9999978637696,8|8|4,0:0|0:3|0:3,0:0:0:0:
84,162,205267,5,4,0:3:0:0:
343,44,205561,1,4,0:3:0:0:
325,320,205855,1,4,0:3:0:0:
176,169,206150,5,8,0:0:0:0:
291,117,206297,1,8,0:0:0:0:
283,239,206444,1,8,0:0:0:0:
294,83,206591,6,0,P|319:58|427:67,1,139.999995727539,4|8,1:0|0:0,0:0:0:0:
378,267,207032,2,0,B|355:179|355:179|374:117,1,139.999995727539,0|0,1:0|1:0,0:0:0:0:
412,235,207473,2,0,L|400:303,1,69.9999978637696,8|0,0:0|0:0,0:0:0:0:
312,373,207767,5,0,0:0:0:0:
420,343,207914,1,0,1:0:0:0:
277,273,208061,1,8,0:0:0:0:
277,273,208356,5,0,1:0:0:0:
260,190,208503,1,0,1:0:0:0:
246,107,208650,2,0,P|213:86|173:87,1,69.9999978637696,8|0,0:0|0:0,0:0:0:0:
144,234,208944,6,0,P|181:243|180:161,1,139.999995727539,4|8,1:0|0:0,0:0:0:0:
99,246,209385,2,0,P|162:289|226:262,1,139.999995727539,0|0,1:0|1:0,0:0:0:0:
51,240,209826,2,0,P|83:302|144:333,1,139.999995727539,8|0,0:0|0:0,0:0:0:0:
262,202,210267,5,0,1:0:0:0:
324,376,210414,2,0,L|333:307,1,69.9999978637696,8|0,0:0|0:0,0:0:0:0:
406,99,210709,2,0,L|397:168,1,69.9999978637696,0|0,1:0|0:0,0:0:0:0:
359,269,211003,2,0,L|368:200,1,69.9999978637696,8|0,0:0|0:0,0:0:0:0:
188,172,211297,6,0,P|256:170|310:127,1,139.999995727539,4|8,1:0|0:0,0:0:0:0:
148,84,211738,2,0,P|200:127|265:111,1,139.999995727539,0|0,1:0|1:0,0:0:0:0:
216,0,212179,2,0,P|177:49|230:82,1,139.999995727539,8|0,0:0|0:0,0:0:0:0:
346,13,212620,5,0,1:0:0:0:
406,99,212767,2,0,L|397:168,1,69.9999978637696,8|0,0:0|0:0,0:0:0:0:
324,376,213061,2,0,L|333:307,1,69.9999978637696,0|0,1:0|1:0,0:0:0:0:
368,200,213356,2,0,L|359:269,1,69.9999978637696,8|0,0:0|1:0,0:0:0:0:
230,201,213650,6,0,P|201:181|166:174,1,69.9999978637696,8|0,0:0|1:0,0:0:0:0:
64,228,213944,1,0,1:0:0:0:
198,333,214091,2,0,P|185:300|162:274,1,69.9999978637696,8|0,0:0|1:0,0:0:0:0:
34,238,214385,1,0,1:0:0:0:
167,175,214532,6,0,P|190:149|202:116,1,69.9999978637696,10|0,0:0|1:0,0:0:0:0:
5,68,214826,1,10,0:0:0:0:
84,166,214973,1,0,1:0:0:0:
121,4,215120,1,10,0:0:0:0:
80,129,215267,1,0,1:0:0:0:
217,84,215414,2,0,L|262:96,3,34.9999989318848,8|0|0|0,0:0|1:0|1:0|1:0,0:0:0:0:
305,156,215709,2,0,L|315:190,3,34.9999989318848,0|0|0|0,1:0|1:0|1:0|1:0,0:0:0:0:
275,293,216003,6,0,P|316:232|399:224,1,150.000005722046,4|0,1:0|1:0,0:0:0:0:
336,344,216444,2,0,P|334:272|387:221,1,150.000005722046,8|0,0:0|1:0,0:0:0:0:
471,346,216885,2,0,P|438:331|416:301,1,75.0000028610231,10|0,0:0|1:0,0:0:0:0:
485,159,217179,6,0,P|488:195|472:229,1,75.0000028610231,10|0,0:0|1:0,0:0:0:0:
333,317,217474,1,0,1:0:0:0:
368,114,217620,2,0,P|391:142|398:178,1,75.0000028610231,10|0,0:0|1:0,0:0:0:0:
334,331,217914,1,0,1:0:0:0:
309,178,218061,2,0,P|282:152|247:144,1,75.0000028610231,10|0,0:0|1:0,0:0:0:0:
207,363,218356,6,0,B|195:265|195:265|232:226,1,150.000005722046,10|0,0:0|1:0,0:0:0:0:
200,80,218797,2,0,B|211:177|211:177|175:217,1,150.000005722046,10|0,0:0|1:0,0:0:0:0:
181,384,219238,2,0,L|171:307,1,75.0000028610231,10|0,0:0|1:0,0:0:0:0:
50,185,219532,6,0,P|120:171|160:242,1,150.000005722046,10|0,0:0|1:0,0:0:0:0:
237,96,219973,2,0,P|167:82|126:153,1,150.000005722046,10|0,0:0|1:0,0:0:0:0:
171,309,220414,1,10,0:0:0:0:
278,212,220561,1,0,1:0:0:0:
293,201,220635,1,0,1:0:0:0:
310,191,220709,6,0,L|384:200,1,75.0000028610231,8|0,0:0|1:0,0:0:0:0:
475,217,221003,1,0,1:0:0:0:
331,291,221150,2,0,L|405:300,1,75.0000028610231,8|0,0:0|1:0,0:0:0:0:
496,317,221444,1,0,1:0:0:0:
468,184,221591,2,0,L|478:109,1,75.0000028610231,10|0,0:0|1:0,0:0:0:0:
338,64,221885,6,0,P|342:98|376:103,1,75.0000028610231,10|0,0:0|1:0,0:0:0:0:
416,25,222179,1,0,1:0:0:0:
220,81,222326,2,0,P|212:47|244:32,1,75.0000028610231,10|0,0:0|1:0,0:0:0:0:
307,91,222620,1,0,1:0:0:0:
140,133,222767,2,0,P|144:168|179:172,1,75.0000028610231,10|0,0:0|1:0,0:0:0:0:
236,264,223061,6,0,P|192:206|119:201,1,150.000005722046,10|0,0:0|1:0,0:0:0:0:
126,380,223503,2,0,P|198:370|238:310,1,150.000005722046,10|0,0:0|1:0,0:0:0:0:
80,226,223943,2,0,P|57:255|51:291,1,75.0000028610231,10|0,0:0|1:0,0:0:0:0:
285,292,224238,6,0,B|263:269|240:264|240:264|146:286,1,150.000005722046,10|0,0:0|1:0,0:0:0:0:
325,292,224679,2,0,B|314:262|295:247|295:247|201:228,1,150.000005722046,10|0,0:0|1:0,0:0:0:0:
357,372,225121,2,0,B|394:371,3,37.5000014305115,0|0|0|0,1:0|1:0|1:0|1:0,0:0:0:0:
490,343,225415,6,0,B|400:345|400:345|414:286,1,150.000005722046,8|0,0:0|1:0,0:0:0:0:
398,141,225856,2,0,B|488:139|488:139|473:197,1,150.000005722046,8|0,0:0|1:0,0:0:0:0:
315,293,226297,2,0,L|335:220,1,75.0000028610231,10|0,0:0|1:0,0:0:0:0:
406,114,226591,6,0,P|388:69|364:50,1,75.0000028610231,10|0,0:0|1:0,0:0:0:0:
310,175,226885,1,0,1:0:0:0:
341,35,227032,2,0,P|293:23|264:32,1,75.0000028610231,10|0,0:0|1:0,0:0:0:0:
319,190,227326,1,0,1:0:0:0:
240,42,227473,2,0,P|203:74|194:103,1,75.0000028610231,10|0,0:0|1:0,0:0:0:0:
196,337,227768,6,0,B|190:283|190:283|209:236|209:236|204:191,1,150.000005722046,10|0,0:0|1:0,0:0:0:0:
163,360,228209,2,0,B|157:306|157:306|176:259|176:259|171:214,1,150.000005722046,10|0,0:0|1:0,0:0:0:0:
138,384,228650,2,0,L|130:309,1,75.0000028610231,10|0,0:0|1:0,0:0:0:0:
0,226,228944,6,0,B|39:207|39:207|49:94,1,150.000005722046,10|0,0:0|1:0,0:0:0:0:
188,1,229385,2,0,B|197:107|197:107|236:126,1,150.000005722046,10|0,0:0|1:0,0:0:0:0:
358,256,229827,2,0,L|363:181,1,75.0000028610231,10|0,0:0|1:0,0:0:0:0:
416,17,230120,6,0,P|386:39|374:74,1,75.0000028610231,8|0,0:0|1:0,0:0:0:0:
467,191,230415,1,0,1:0:0:0:
351,103,230561,2,0,P|341:67|351:31,2,75.0000028610231,8|0|0,0:0|1:0|1:0,0:0:0:0:
484,208,231003,2,0,P|493:243|483:279,1,75.0000028610231,10|0,0:0|1:0,0:0:0:0:
298,358,231297,6,0,L|223:356,2,75.0000028610231,10|0|0,0:0|1:0|1:0,0:0:0:0:
451,298,231738,1,10,0:0:0:0:
305,235,231885,1,0,1:0:0:0:
328,327,232032,1,0,1:0:0:0:
294,198,232180,2,0,L|307:114,1,75.0000028610231,10|0,0:0|1:0,0:0:0:0:
437,60,232474,6,0,P|386:110|315:98,1,150.000005722046,10|0,0:0|1:0,0:0:0:0:
232,16,232914,1,8,0:0:0:0:
126,94,233061,2,0,L|135:168,1,75.0000028610231,0|0,1:0|1:0,0:0:0:0:
187,300,233356,1,8,0:0:0:0:
67,236,233503,1,0,1:0:0:0:
169,348,233650,6,0,L|95:361,1,75.0000028610231,8|0,0:0|1:0,0:0:0:0:
221,203,233944,1,8,0:0:0:0:
277,304,234091,1,0,1:0:0:0:
352,156,234238,1,8,0:0:0:0:
320,275,234385,1,0,1:0:0:0:
456,238,234532,5,10,0:0:0:0:
343,357,234679,1,10,0:0:0:0:
