osu file format v14

[General]
AudioFilename: audio.mp3
AudioLeadIn: 0
PreviewTime: 65929
Countdown: 0
SampleSet: Soft
StackLeniency: 0.3
Mode: 0
LetterboxInBreaks: 0
WidescreenStoryboard: 0

[Editor]
DistanceSpacing: 1.5
BeatDivisor: 4
GridSize: 4
TimelineZoom: 2.3

[Metadata]
Title:Black Rail
TitleUnicode:Black Rail
Artist:MY FIRST STORY
ArtistUnicode:MY FIRST STORY
Creator:Saut
Version:Extreme
Source:
Tags:pishifat appleeaterx dailycare 虚言itsuwari kyogen neurose emo rock alternative post-hardcore
BeatmapID:945660
BeatmapSetID:439396

[Difficulty]
HPDrainRate:6.5
CircleSize:4.2
OverallDifficulty:9
ApproachRate:9.4
SliderMultiplier:1
SliderTickRate:1

[Events]
//Background and Video events
0,0,"bg.jpg",0,0
//Break Periods
2,57379,65463
2,104438,108110
2,176003,184874
//Storyboard Layer 0 (Background)
//Storyboard Layer 1 (Fail)
//Storyboard Layer 2 (Pass)
//Storyboard Layer 3 (Foreground)
//Storyboard Sound Samples

[TimingPoints]
709,294.117647058824,4,2,1,50,1,0
17179,-142.857142857143,4,2,1,15,0,0
18797,-57.1428571428571,4,2,1,15,0,0
18944,-200,4,2,1,50,0,0
19459,-50,4,2,2,5,0,0
19532,-58.8235294117647,4,2,1,67,0,0
35929,-58.8235294117647,4,2,1,5,0,0
36003,-58.8235294117647,4,2,1,75,0,0
36223,-58.8235294117647,4,2,1,5,0,0
36297,-58.8235294117647,4,2,1,75,0,0
38061,-166.666666666667,4,2,1,50,0,0
38282,-166.666666666667,4,2,1,5,0,0
38356,-111.111111111111,4,2,1,65,0,0
38650,-111.111111111111,4,2,1,20,0,0
38797,-111.111111111111,4,2,1,65,0,0
39091,-111.111111111111,4,2,1,20,0,0
39385,-111.111111111111,4,2,1,65,0,0
39679,-111.111111111111,4,2,1,20,0,0
39973,-111.111111111111,4,2,1,65,0,0
40267,-111.111111111111,4,2,1,20,0,0
40561,-111.111111111111,4,2,3,35,0,0
40709,-111.111111111111,4,2,1,65,0,0
41003,-111.111111111111,4,2,1,35,0,0
41150,-111.111111111111,4,2,1,65,0,0
41444,-111.111111111111,4,2,1,35,0,0
41591,-111.111111111111,4,2,1,50,0,0
42473,-111.111111111111,4,2,1,62,0,0
42914,-111.111111111111,4,2,1,25,0,0
43061,-66.6666666666667,4,2,1,55,0,0
46517,-66.6666666666667,4,2,1,5,0,0
46591,-66.6666666666667,4,2,1,50,0,0
47179,-66.6666666666667,4,2,1,60,0,0
47473,-66.6666666666667,4,2,1,70,0,0
47767,-71.4285714285714,4,2,1,80,0,0
47914,-71.4285714285714,4,2,1,55,0,0
48209,-71.4285714285714,4,2,1,80,0,0
48429,-71.4285714285714,4,2,1,5,0,0
48503,-71.4285714285714,4,2,1,55,0,0
48797,-71.4285714285714,4,2,1,90,0,0
49091,-71.4285714285714,4,2,1,55,0,0
50120,-71.4285714285714,4,2,1,80,0,0
50267,-71.4285714285714,4,2,1,55,0,0
50561,-71.4285714285714,4,2,1,80,0,0
50782,-71.4285714285714,4,2,1,5,0,0
50856,-71.4285714285714,4,2,1,55,0,0
51150,-71.4285714285714,4,2,1,90,0,0
51297,-71.4285714285714,4,2,1,55,0,0
51885,-71.4285714285714,4,2,1,65,0,0
52179,-71.4285714285714,4,2,1,75,0,0
52473,-66.6666666666667,4,2,1,85,0,0
52620,-66.6666666666667,4,2,1,65,0,0
54826,-66.6666666666667,4,2,1,85,0,0
54973,-66.6666666666667,4,2,1,65,0,0
56885,-66.6666666666667,4,2,1,75,0,0
57179,-66.6666666666667,4,2,1,85,0,0
66003,-400,4,2,1,50,0,0
66076,-400,4,2,1,5,0,0
66591,-100,4,2,1,85,0,1
66885,-100,4,2,1,70,0,1
67473,-100,4,2,1,95,0,1
67767,-100,4,2,1,70,0,1
68944,-100,4,2,1,85,0,1
69238,-100,4,2,1,70,0,1
69826,-100,4,2,1,95,0,1
70120,-100,4,2,1,70,0,1
71003,-100,4,2,1,80,0,1
71297,-100,4,2,1,90,0,1
71591,-100,4,2,1,70,0,1
72179,-100,4,2,1,100,0,1
72473,-100,4,2,1,70,0,1
73650,-100,4,2,1,80,0,1
73944,-100,4,2,1,90,0,1
74238,-100,4,2,1,100,0,1
74385,-100,4,2,1,80,0,1
74532,-100,4,2,1,60,0,1
74679,-100,4,2,1,85,0,0
75561,-166.666666666667,4,2,1,75,0,0
75929,-166.666666666667,4,2,1,5,0,0
76003,-100,4,2,1,85,0,1
76297,-100,4,2,1,70,0,1
76885,-100,4,2,1,95,0,1
77179,-100,4,2,1,70,0,1
78356,-100,4,2,1,85,0,1
78650,-100,4,2,1,70,0,1
79238,-100,4,2,1,95,0,1
79532,-100,4,2,1,70,0,1
80414,-100,4,2,1,80,0,1
80709,-100,4,2,1,90,0,1
81003,-100,4,2,1,70,0,1
81591,-100,4,2,1,100,0,1
81885,-100,4,2,1,70,0,1
83061,-100,4,2,1,90,0,1
83356,-100,4,2,1,70,0,1
83503,-100,4,2,1,90,0,1
83797,-100,4,2,1,70,0,1
83944,-72.992700729927,4,2,1,100,0,1
84091,-72.992700729927,4,2,1,50,0,1
84238,-72.992700729927,4,2,1,100,0,1
84385,-72.992700729927,4,2,1,50,0,1
84532,-72.992700729927,4,2,1,100,0,1
84606,-72.992700729927,4,2,1,70,0,1
84826,-55.5555555555556,4,2,1,70,0,1
85414,-66.6666666666667,4,2,1,85,0,0
85561,-66.6666666666667,4,2,1,65,0,0
85929,-66.6666666666667,4,2,1,5,0,0
86003,-66.6666666666667,4,2,1,65,0,0
87988,-66.6666666666667,4,2,1,5,0,0
88061,-66.6666666666667,4,2,1,65,0,0
90341,-66.6666666666667,4,2,1,5,0,0
90414,-66.6666666666667,4,2,1,65,0,0
92694,-66.6666666666667,4,2,1,5,0,0
92767,-66.6666666666667,4,2,1,65,0,0
94826,-66.6666666666667,4,2,1,85,0,0
95047,-66.6666666666667,4,2,1,5,0,0
95120,-66.6666666666667,4,2,1,65,0,0
97400,-66.6666666666667,4,2,1,5,0,0
97473,-66.6666666666667,4,2,1,65,0,0
99532,-66.6666666666667,4,2,1,70,0,0
99679,-66.6666666666667,4,2,1,45,0,0
99973,-66.6666666666667,4,2,1,75,0,0
100120,-66.6666666666667,4,2,1,50,0,0
100414,-66.6666666666667,4,2,1,80,0,0
100561,-66.6666666666667,4,2,1,55,0,0
100709,-66.6666666666667,4,2,1,75,0,0
101885,-66.6666666666667,4,2,1,85,0,0
102032,-66.6666666666667,4,2,1,60,0,0
102473,-66.6666666666667,4,2,1,90,0,0
102620,-66.6666666666667,4,2,1,65,0,0
103061,-66.6666666666667,4,2,1,75,0,0
103209,-66.6666666666667,4,2,1,45,0,0
103356,-66.6666666666667,4,2,1,75,0,0
103503,-66.6666666666667,4,2,1,80,0,0
103650,-66.6666666666667,4,2,1,85,0,0
103797,-66.6666666666667,4,2,1,90,0,0
103944,-66.6666666666667,4,2,1,95,0,0
104091,-125,4,2,1,73,0,0
108650,-125,4,2,1,65,0,0
108944,-66.6666666666667,4,2,1,55,0,0
112400,-66.6666666666667,4,2,1,5,0,0
112473,-66.6666666666667,4,2,1,55,0,0
113061,-66.6666666666667,4,2,1,65,0,0
113356,-66.6666666666667,4,2,1,75,0,0
113650,-83.3333333333333,4,2,1,85,0,0
113797,-83.3333333333333,4,2,1,45,0,0
118061,-83.3333333333333,4,2,1,50,0,0
118356,-71.4285714285714,4,2,1,75,0,0
118503,-71.4285714285714,4,2,1,60,0,0
120709,-71.4285714285714,4,2,1,75,0,0
120856,-71.4285714285714,4,2,1,50,0,0
121003,-71.4285714285714,4,2,1,65,0,0
121297,-71.4285714285714,4,2,1,75,0,0
121591,-55.5555555555556,4,2,1,85,0,0
121811,-71.4285714285714,4,2,1,25,0,0
121885,-71.4285714285714,4,2,1,65,0,0
121959,-71.4285714285714,4,2,1,35,0,0
122179,-71.4285714285714,4,2,1,45,0,0
122473,-60.6060606060606,4,2,1,50,0,0
122767,-60.6060606060606,4,2,1,45,0,0
123061,-125,4,2,1,75,0,0
123356,-125,4,2,1,45,0,0
127767,-125,4,2,1,65,0,0
127914,-125,4,2,1,50,0,0
128356,-125,4,2,1,55,0,0
128944,-125,4,2,1,60,0,0
129238,-125,4,2,1,65,0,0
129532,-125,4,2,1,70,0,0
129826,-125,4,2,1,75,0,0
130120,-125,4,2,1,50,0,0
130414,-125,4,2,1,60,0,0
130709,-125,4,2,1,70,0,0
131003,-125,4,2,1,80,0,0
131297,-66.6666666666667,4,2,1,60,0,0
132473,-200,4,2,1,17,0,0
136003,-200,4,2,1,45,0,0
136591,-200,4,2,1,55,0,0
137179,-111.111111111111,4,2,1,65,0,0
137400,-111.111111111111,4,2,1,5,0,0
137473,-111.111111111111,4,2,1,65,0,0
137694,-111.111111111111,4,2,1,5,0,0
137767,-111.111111111111,4,2,1,55,0,0
139532,-111.111111111111,4,2,1,65,0,0
139753,-111.111111111111,4,2,1,5,0,0
139826,-111.111111111111,4,2,1,65,0,0
140047,-111.111111111111,4,2,1,5,0,0
140120,-111.111111111111,4,2,1,55,0,0
141885,-111.111111111111,4,2,1,65,0,0
142106,-111.111111111111,4,2,1,5,0,0
142179,-111.111111111111,4,2,1,65,0,0
142400,-111.111111111111,4,2,1,5,0,0
142473,-111.111111111111,4,2,1,55,0,0
144238,-111.111111111111,4,2,1,65,0,0
144459,-111.111111111111,4,2,1,5,0,0
144532,-111.111111111111,4,2,1,65,0,0
144753,-111.111111111111,4,2,1,5,0,0
144826,-111.111111111111,4,2,1,55,0,0
145561,-166.666666666666,4,2,1,33,0,0
146297,-166.666666666666,4,2,1,65,0,0
146885,-166.666666666667,4,2,1,50,0,0
147106,-166.666666666667,4,2,1,5,0,0
147179,-90.9090909090909,4,2,1,65,0,0
147473,-90.9090909090909,4,2,1,55,0,0
147767,-90.9090909090909,4,2,1,70,0,0
147914,-90.9090909090909,4,2,1,55,0,0
148944,-90.9090909090909,4,2,1,65,0,0
149164,-90.9090909090909,4,2,1,5,0,0
149238,-90.9090909090909,4,2,1,65,0,0
149459,-90.9090909090909,4,2,1,5,0,0
149532,-90.9090909090909,4,2,1,55,0,0
151297,-90.9090909090909,4,2,1,65,0,0
151517,-90.9090909090909,4,2,1,5,0,0
151591,-90.9090909090909,4,2,1,65,0,0
151811,-90.9090909090909,4,2,1,5,0,0
151885,-90.9090909090909,4,2,1,55,0,0
153650,-90.9090909090909,4,2,1,65,0,0
153870,-90.9090909090909,4,2,1,5,0,0
153944,-90.9090909090909,4,2,1,65,0,0
154164,-90.9090909090909,4,2,1,5,0,0
154238,-90.9090909090909,4,2,1,55,0,0
154826,-90.9090909090909,4,2,1,65,0,0
155120,-90.9090909090909,4,2,1,45,0,0
155414,-90.9090909090909,4,2,1,55,0,0
155561,-90.9090909090909,4,2,1,60,0,0
155709,-90.9090909090909,4,2,1,65,0,0
155856,-90.9090909090909,4,2,1,70,0,0
156003,-62.5,4,2,2,80,0,0
156150,-62.5,4,2,2,60,0,0
160709,-62.5,4,2,2,70,0,0
164238,-50,4,2,2,75,0,0
164826,-55.5555555555556,4,2,2,85,0,0
165120,-55.5555555555556,4,2,2,55,0,0
165414,-100,4,2,1,75,0,0
165561,-100,4,2,1,45,0,0
170120,-100,4,2,1,50,0,0
170709,-100,4,2,1,55,0,0
171297,-100,4,2,1,60,0,0
171885,-100,4,2,1,65,0,0
172473,-66.6666666666667,4,2,1,70,0,0
172620,-66.6666666666667,4,2,1,55,0,0
172914,-66.6666666666667,4,2,1,75,0,0
173061,-66.6666666666667,4,2,1,55,0,0
173650,-66.6666666666667,4,2,1,75,0,0
173944,-66.6666666666667,4,2,1,80,0,0
174238,-66.6666666666667,4,2,1,85,0,0
185414,-200,4,2,1,40,0,0
192473,-187.695190505934,4,2,1,25,0,0
192492,-187.695190505934,4,2,2,5,0,0
193356,-100,4,2,1,25,0,0
193374,-100,4,2,2,5,0,0
194826,-100,4,2,1,55,0,0
196591,-400,4,2,1,50,0,0
196664,-100,4,2,1,5,0,0
197106,-400,4,2,1,5,0,0
197179,-100,4,2,1,85,0,1
197473,-100,4,2,1,70,0,1
198061,-100,4,2,1,95,0,1
198355,-100,4,2,1,70,0,1
199532,-100,4,2,1,85,0,1
199826,-100,4,2,1,70,0,1
200414,-100,4,2,1,95,0,1
200708,-100,4,2,1,70,0,1
201591,-100,4,2,1,80,0,1
201885,-100,4,2,1,90,0,1
202179,-100,4,2,1,70,0,1
202767,-100,4,2,1,100,0,1
203061,-100,4,2,1,70,0,1
204238,-100,4,2,1,80,0,1
204532,-100,4,2,1,90,0,1
204826,-100,4,2,1,100,0,1
204973,-100,4,2,1,80,0,1
205120,-100,4,2,1,60,0,1
205267,-100,4,2,1,85,0,0
206150,-100,4,2,1,65,0,0
206591,-62.5,4,2,1,85,0,1
206738,-62.5,4,2,1,70,0,1
208944,-62.5,4,2,1,85,0,1
209091,-62.5,4,2,1,70,0,1
211297,-62.5,4,2,1,85,0,1
211444,-62.5,4,2,1,70,0,1
213650,-62.5,4,2,1,75,0,1
213797,-62.5,4,2,1,65,0,1
214091,-62.5,4,2,1,75,0,1
214238,-62.5,4,2,1,65,0,1
214532,-62.5,4,2,1,80,0,1
214826,-62.5,4,2,1,85,0,1
215120,-62.5,4,2,1,90,0,1
215414,-62.5,4,2,1,65,0,1
216003,-58.8235294117647,4,2,1,85,0,0
216150,-58.8235294117647,4,2,1,67,0,0
233650,-58.8235294117647,4,2,1,70,0,0
233944,-58.8235294117647,4,2,1,75,0,0
234238,-58.8235294117647,4,2,1,80,0,0
234532,-58.8235294117647,4,2,1,85,0,0

[Colours]
Combo1 : 211,214,190
Combo2 : 143,129,173
Combo3 : 228,154,105

[HitObjects]
157,348,17179,6,0,L|122:341,2,34.9999989318848,2|2|0,0:3|0:3|0:0,0:0:0:0:
238,367,17620,1,2,0:3:0:0:
238,367,17914,1,2,0:3:0:0:
392,274,18061,6,0,L|435:266,2,34.9999989318848,2|2|0,0:3|0:3|0:0,0:0:0:0:
311,293,18502,1,2,0:3:0:0:
311,293,18796,1,4,3:0:0:0:
304,263,18870,1,4,3:0:0:0:
298,233,18944,6,2,P|339:198|373:203,1,87.5,8|0,0:0|0:0,1:1:0:0:
370,202,19532,6,0,B|386:160|386:160|372:122,1,85.0000016212464,8|0,0:0|1:0,0:0:0:0:
317,13,19826,1,0,1:0:0:0:
487,96,19973,5,8,0:0:0:0:
358,95,20120,1,0,1:0:0:0:
272,189,20267,1,0,1:0:0:0:
491,221,20414,2,0,P|464:187|425:170,1,85.0000016212464,10|0,0:0|1:0,0:0:0:0:
86,167,20709,6,0,B|119:193|119:193|162:186,1,85.0000016212464,10|0,0:0|1:0,0:0:0:0:
348,148,21003,1,0,1:0:0:0:
137,108,21150,5,10,0:0:0:0:
264,198,21297,1,0,1:0:0:0:
294,48,21444,1,0,1:0:0:0:
247,273,21591,2,0,L|261:356,1,85.0000016212464,10|0,0:0|1:0,0:0:0:0:
86,47,21885,6,0,P|129:50|168:72,1,85.0000016212464,10|0,0:0|1:0,0:0:0:0:
269,167,22179,1,0,1:0:0:0:
27,166,22326,2,0,P|64:145|106:140,1,85.0000016212464,10|0,0:0|1:0,0:0:0:0:
261,197,22620,1,0,1:0:0:0:
44,298,22767,2,0,P|62:260|94:232,1,85.0000016212464,10|0,0:0|1:0,0:0:0:0:
413,146,23061,6,0,P|375:127|332:126,1,85.0000016212464,10|0,0:0|1:0,0:0:0:0:
227,291,23356,1,0,1:0:0:0:
265,66,23503,5,10,0:0:0:0:
309,227,23650,1,0,1:0:0:0:
183,131,23797,1,0,1:0:0:0:
370,276,23944,2,0,B|396:309|396:309|396:351,1,85.0000016212464,10|0,0:0|1:0,0:0:0:0:
92,305,24238,5,8,0:0:0:0:
214,268,24385,1,0,1:0:0:0:
317,342,24532,1,0,1:0:0:0:
113,221,24679,5,8,0:0:0:0:
236,248,24826,1,0,1:0:0:0:
289,364,24973,1,0,1:0:0:0:
199,164,25120,2,0,P|202:121|224:85,1,85.0000016212464,10|0,0:0|1:0,0:0:0:0:
477,259,25414,6,0,L|391:252,1,85.0000016212464,10|0,0:0|1:0,0:0:0:0:
254,242,25709,1,0,1:0:0:0:
410,124,25856,2,0,B|365:136|365:136|344:168,1,85.0000016212464,10|0,0:0|1:0,0:0:0:0:
292,345,26150,1,0,1:0:0:0:
219,145,26297,2,0,L|213:60,1,85.0000016212464,10|0,0:0|1:0,0:0:0:0:
68,311,26591,5,10,0:0:0:0:
292,234,26738,1,0,1:0:0:0:
111,140,26885,1,0,1:0:0:0:
303,347,27032,5,10,0:0:0:0:
127,225,27179,1,0,1:0:0:0:
333,128,27326,1,0,1:0:0:0:
101,236,27473,2,0,P|59:229|28:201,1,85.0000016212464,10|0,0:0|1:0,0:0:0:0:
276,21,27767,5,10,0:0:0:0:
230,224,27914,1,0,1:0:0:0:
434,125,28061,1,0,1:0:0:0:
152,109,28209,6,0,B|177:141|177:141|226:146,1,85.0000016212464,10|0,0:0|1:0,0:0:0:0:
396,148,28503,1,0,1:0:0:0:
243,251,28650,1,0,1:0:0:0:
246,284,28723,1,0,1:0:0:0:
249,317,28797,1,0,1:0:0:0:
253,350,28870,1,0,1:0:0:0:
286,382,28944,6,0,B|249:364|249:364|206:377,2,85.0000016212464,8|0|0,0:0|1:0|1:0,0:0:0:0:
504,157,29385,1,8,0:0:0:0:
382,195,29532,1,0,1:0:0:0:
342,316,29679,1,0,1:0:0:0:
427,101,29826,2,0,L|416:17,1,85.0000016212464,10|0,0:0|1:0,0:0:0:0:
89,216,30120,6,0,P|125:237|167:237,1,85.0000016212464,10|0,0:0|1:0,0:0:0:0:
314,118,30414,1,0,1:0:0:0:
234,317,30561,5,10,0:0:0:0:
201,140,30709,1,0,1:0:0:0:
356,207,30856,1,0,1:0:0:0:
178,131,31003,2,0,P|157:94|150:52,1,85.0000016212464,10|0,0:0|1:0,0:0:0:0:
500,150,31297,6,0,B|471:183|471:183|432:193,1,85.0000016212464,10|0,0:0|1:0,0:0:0:0:
259,78,31591,1,0,1:0:0:0:
418,290,31738,2,0,B|374:282|374:282|346:252,1,85.0000016212464,10|0,0:0|1:0,0:0:0:0:
341,30,32032,1,0,1:0:0:0:
262,299,32179,2,0,B|246:257|246:257|258:218,1,85.0000016212464,10|0,0:0|1:0,0:0:0:0:
445,28,32473,6,0,B|404:11|404:11|364:21,1,85.0000016212464,10|0,0:0|1:0,0:0:0:0:
174,112,32767,1,0,1:0:0:0:
399,107,32914,5,10,0:0:0:0:
216,36,33061,1,0,1:0:0:0:
386,104,33209,1,0,1:0:0:0:
148,118,33356,2,0,B|115:147|115:147|110:191,1,85.0000016212464,10|0,0:0|1:0,0:0:0:0:
305,347,33650,5,8,0:0:0:0:
199,260,33797,1,0,1:0:0:0:
65,283,33944,1,0,1:0:0:0:
297,204,34091,5,8,0:0:0:0:
169,250,34238,1,0,1:0:0:0:
125,381,34385,1,0,1:0:0:0:
0,200,34532,2,0,B|9:115,1,85.0000016212464,10|0,0:0|1:0,0:0:0:0:
348,199,34826,6,0,B|332:238|332:238|290:246,1,85.0000016212464,10|0,0:0|1:0,0:0:0:0:
107,181,35120,1,0,1:0:0:0:
332,45,35267,2,0,B|368:62|368:62|374:106,1,85.0000016212464,10|0,0:0|1:0,0:0:0:0:
344,315,35561,1,0,1:0:0:0:
199,123,35709,2,0,P|268:108|284:163,1,127.50000243187,10|0,0:0|2:0,0:0:0:0:
198,230,36003,6,0,B|232:219|232:219|281:236|281:236|320:225,1,127.50000243187,4|0,1:0|0:0,0:0:0:0:
397,199,36297,1,8,0:0:0:0:
226,317,36444,1,0,1:0:0:0:
297,135,36591,5,0,1:0:0:0:
354,348,36738,2,0,B|391:368|391:368|445:360,1,85.0000016212464,0|0,1:0|0:0,0:0:0:0:
206,206,37032,5,8,0:0:0:0:
400,283,37179,1,2,0:0:0:0:
185,197,37326,1,0,1:0:0:0:
423,292,37473,1,8,0:0:0:0:
211,318,37620,1,0,1:0:0:0:
207,330,37694,1,0,1:0:0:0:
203,342,37767,6,0,L|206:384,1,42.5000008106232,8|0,0:0|0:3,0:0:0:0:
313,225,37914,2,0,L|316:183,1,42.5000008106232,4|0,0:3|0:3,0:0:0:0:
161,44,38061,6,0,L|165:89,1,44.999998626709,8|0,0:0|0:0,0:0:0:0:
144,120,38356,6,2,P|188:125|224:151,1,89.9999972534181,4|0,1:0|0:0,1:1:0:0:
71,232,38797,2,2,P|107:207|152:204,1,89.9999972534181,0|0,0:0|0:0,1:1:0:0:
84,264,39385,2,2,P|115:233|158:238,1,89.9999972534181,0|0,0:0|0:0,1:1:0:0:
95,294,39973,2,2,P|123:259|165:268,1,89.9999972534181,0|0,0:0|0:0,1:1:0:0:
217,332,40414,2,0,L|215:393,1,44.999998626709,2|2,0:0|0:0,0:0:0:0:
325,228,40709,6,2,P|366:244|394:278,1,89.9999972534181,0|0,0:0|0:0,1:1:0:0:
225,317,41150,2,2,P|267:302|310:311,1,89.9999972534181,0|0,0:0|0:0,1:1:0:0:
161,377,41591,5,0,1:0:0:0:
229,219,41738,2,0,L|221:174,1,44.999998626709,8|0,0:0|0:0,0:0:0:0:
48,297,42032,1,0,1:0:0:0:
60,301,42106,1,0,1:0:0:0:
73,304,42179,2,0,L|117:299,1,44.999998626709,8|0,0:0|0:0,0:0:0:0:
349,368,42473,5,8,0:0:0:0:
253,308,42620,1,8,0:3:0:0:
141,320,42767,2,0,L|97:326,1,44.999998626709,4|0,0:3|3:0,0:0:0:0:
24,89,43061,6,0,P|52:100|78:140,1,75.0000028610231,10|0,0:0|1:0,0:0:0:0:
22,260,43356,1,0,1:0:0:0:
187,173,43503,2,0,B|223:169|223:169|256:189,1,75.0000028610231,10|0,0:0|1:0,0:0:0:0:
325,283,43797,1,0,1:0:0:0:
399,113,43944,2,0,L|387:38,1,75.0000028610231,10|0,0:0|1:0,0:0:0:0:
489,329,44238,6,0,P|460:317|434:277,1,75.0000028610231,10|0,0:0|1:0,0:0:0:0:
482,159,44532,1,0,1:0:0:0:
324,260,44679,2,0,L|249:266,2,75.0000028610231,10|0|0,0:0|1:0|1:0,0:0:0:0:
503,147,45120,2,0,L|508:72,1,75.0000028610231,10|0,0:0|1:0,0:0:0:0:
231,8,45414,6,0,L|240:85,1,75.0000028610231,10|0,0:0|1:0,0:0:0:0:
385,117,45709,1,0,1:0:0:0:
191,179,45856,1,10,0:0:0:0:
352,211,46003,2,0,P|373:245|375:292,1,75.0000028610231,0|0,1:0|1:0,0:0:0:0:
191,384,46297,2,2,P|219:338|272:342,1,112.500004291535,8|0,0:0|0:0,1:1:0:0:
271,342,46591,6,0,P|288:309|282:272,1,75.0000028610231,0|0,1:0|1:0,0:0:0:0:
66,163,46885,2,0,P|85:194|119:207,1,75.0000028610231,10|0,0:0|1:0,0:0:0:0:
295,51,47179,5,8,0:3:0:0:
219,151,47326,1,8,0:3:0:0:
412,109,47473,5,4,0:3:0:0:
309,133,47620,1,4,0:3:0:0:
497,89,47767,6,0,P|512:121|512:156,1,69.9999978637696,4|0,1:0|1:0,0:0:0:0:
400,307,48061,1,8,0:0:0:0:
345,43,48209,2,0,B|398:63|398:63|412:109,1,104.999996795654,4|0,1:0|2:0,0:0:0:0:
428,191,48503,1,0,1:0:0:0:
247,136,48650,1,10,0:0:0:0:
474,255,48797,6,0,B|454:225|416:217|416:217|347:226,1,139.999995727539,4|0,1:0|1:0,0:0:0:0:
140,258,49238,1,10,0:0:0:0:
324,310,49385,1,0,1:0:0:0:
199,384,49532,2,0,B|188:348|188:348|200:318,1,69.9999978637696,2|0,0:0|1:0,0:0:0:0:
243,243,49753,1,0,1:0:0:0:
250,231,49826,2,0,L|241:162,1,69.9999978637696,8|0,0:0|0:0,0:0:0:0:
101,65,50120,5,4,1:0:0:0:
255,127,50267,1,0,1:0:0:0:
82,203,50414,1,8,0:0:0:0:
329,95,50561,2,0,B|365:107|365:107|377:180,1,104.999996795654,4|0,1:0|2:0,0:0:0:0:
389,260,50856,1,0,1:0:0:0:
229,204,51003,1,10,0:0:0:0:
445,123,51150,6,0,P|462:93|458:59,1,69.9999978637696,4|0,1:0|0:0,0:0:0:0:
192,94,51444,1,8,0:0:0:0:
376,173,51591,1,8,0:0:0:0:
208,102,51738,1,0,1:0:0:0:
361,85,51885,5,8,0:0:0:0:
236,191,52032,1,0,1:0:0:0:
342,40,52179,5,8,0:0:0:0:
259,181,52326,1,0,1:0:0:0:
445,123,52473,6,0,B|466:155|466:155|459:191,1,75.0000028610231,4|0,1:0|1:0,0:0:0:0:
313,290,52767,1,0,1:0:0:0:
488,335,52914,2,0,P|469:302|438:282,1,75.0000028610231,10|0,0:0|1:0,0:0:0:0:
297,303,53209,1,0,1:0:0:0:
347,147,53356,2,0,L|336:72,1,75.0000028610231,10|0,0:0|1:0,0:0:0:0:
138,243,53650,6,0,L|127:318,1,75.0000028610231,10|0,0:0|1:0,0:0:0:0:
80,124,53944,1,0,1:0:0:0:
229,194,54091,1,8,0:0:0:0:
10,171,54238,2,0,B|-5:136|-5:136|0:100,1,75.0000028610231,0|0,1:0|1:0,0:0:0:0:
245,46,54532,2,0,B|260:80|260:80|254:116,1,75.0000028610231,10|0,0:0|1:0,0:0:0:0:
40,334,54826,5,4,1:0:0:0:
145,223,54973,1,0,1:0:0:0:
173,384,55120,1,10,0:0:0:0:
141,194,55267,2,0,B|148:160|148:160|179:134,1,75.0000028610231,2|0,0:0|1:0,0:0:0:0:
446,284,55561,5,10,0:0:0:0:
300,216,55709,1,0,1:0:0:0:
438,169,55856,1,0,1:0:0:0:
217,246,56003,2,0,P|191:272|180:308,1,75.0000028610231,10|0,0:0|1:0,0:0:0:0:
353,90,56297,2,0,P|342:54|317:27,1,75.0000028610231,10|0,0:0|1:0,0:0:0:0:
45,142,56591,6,0,B|64:171|64:171|129:176,1,100.000003814697,0|8,1:0|0:0,0:0:0:0:
235,142,56885,2,0,P|247:120|253:96,2,50.0000019073487,8|4|12,0:3|0:3|0:3,0:0:0:0:
53,256,57179,5,4,1:0:0:0:
109,24,66003,6,0,P|108:46|99:66,1,43.75,4|0,0:3|0:0,0:0:0:0:
3,111,66591,6,0,P|44:83|92:75,1,100,4|0,1:0|0:0,0:0:0:0:
175,147,67032,1,0,1:0:0:0:
302,31,67179,2,0,L|350:41,1,50,8|0,0:0|0:0,0:0:0:0:
448,312,67473,6,0,P|451:262|430:217,1,100,4|0,1:0|0:0,0:0:0:0:
262,116,67914,2,0,P|311:116|355:139,1,100,8|0,0:0|1:0,0:0:0:0:
423,384,68356,1,8,0:0:0:0:
423,384,68650,5,0,1:0:0:0:
508,170,68797,1,8,0:0:0:0:
268,326,68944,6,0,P|219:318|178:290,1,100,4|0,1:0|0:0,0:0:0:0:
130,190,69385,1,0,1:0:0:0:
51,340,69532,2,0,L|2:346,1,50,8|0,0:0|0:0,0:0:0:0:
158,20,69826,6,0,P|175:66|172:115,1,100,4|0,1:0|0:0,0:0:0:0:
13,250,70267,1,8,0:0:0:0:
130,190,70414,1,0,1:0:0:0:
248,242,70561,1,0,1:0:0:0:
367,110,70709,2,0,L|375:60,1,50,8|0,0:0|1:0,0:0:0:0:
404,292,71003,5,8,0:0:0:0:
250,104,71150,1,8,0:0:0:0:
158,384,71297,6,0,P|164:334|190:292,1,100,4|0,1:0|0:0,0:0:0:0:
279,227,71738,1,0,1:0:0:0:
160,117,71885,2,0,L|152:68,1,50,8|0,0:0|0:0,0:0:0:0:
446,155,72179,6,0,P|400:135|350:137,1,100,4|0,1:0|0:0,0:0:0:0:
173,214,72620,1,8,0:0:0:0:
246,65,72767,2,0,P|253:41|256:16,1,50,0|0,0:0|1:0,0:0:0:0:
68,233,73061,2,0,P|64:208|57:184,1,50,8|0,0:0|0:0,0:0:0:0:
215,380,73356,2,0,P|217:356|224:332,1,50,0|0,1:0|0:0,0:0:0:0:
468,173,73650,5,12,0:0:0:0:
265,261,73797,1,0,1:0:0:0:
484,271,73944,5,12,0:0:0:0:
270,162,74091,1,0,1:0:0:0:
477,166,74238,5,8,0:0:0:0:
338,219,74385,1,8,0:3:0:0:
497,281,74532,1,4,0:3:0:0:
404,79,74679,5,4,0:3:0:0:
409,59,74973,1,4,0:3:0:0:
409,39,75267,1,4,0:3:0:0:
477,127,75561,5,4,0:3:0:0:
323,46,75709,2,0,L|279:51,1,44.999998626709,8|0,0:0|0:0,0:0:0:0:
176,10,76003,6,0,P|204:51|212:100,1,100,4|0,1:0|0:0,0:0:0:0:
161,196,76444,1,0,1:0:0:0:
312,295,76591,2,0,L|315:344,1,50,8|0,0:0|0:0,0:0:0:0:
0,267,76885,6,0,P|32:229|77:208,1,100,4|0,1:0|0:0,0:0:0:0:
312,295,77326,2,0,P|263:285|222:257,1,100,8|0,0:0|1:0,0:0:0:0:
205,42,77767,6,0,P|207:66|201:90,1,50,8|0,0:0|1:0,0:0:0:0:
105,187,78061,1,0,1:0:0:0:
315,145,78209,1,8,0:0:0:0:
161,371,78356,6,0,P|169:322|200:279,1,100,4|0,1:0|0:0,0:0:0:0:
287,219,78797,1,0,1:0:0:0:
163,97,78944,2,0,L|157:47,1,50,8|0,0:0|0:0,0:0:0:0:
398,225,79238,6,0,P|389:176|358:133,1,100,4|0,1:0|0:0,0:0:0:0:
187,195,79679,1,8,0:0:0:0:
288,18,79826,2,0,L|277:76,1,50,0|0,1:0|1:0,0:0:0:0:
70,168,80120,2,0,L|80:215,1,50,8|0,0:0|1:0,0:0:0:0:
291,245,80414,5,8,0:0:0:0:
134,74,80561,1,8,0:0:0:0:
193,384,80709,6,0,P|201:335|229:294,1,100,4|0,1:0|0:0,0:0:0:0:
366,212,81150,1,0,1:0:0:0:
201,148,81297,2,0,L|150:157,1,50,8|0,0:0|0:0,0:0:0:0:
477,57,81591,6,0,P|465:105|437:146,1,100,4|0,1:0|0:0,0:0:0:0:
255,216,82032,1,8,0:0:0:0:
415,282,82179,2,0,L|409:331,1,50,0|0,0:0|1:0,0:0:0:0:
240,204,82473,2,0,L|233:155,1,50,8|0,0:0|0:0,0:0:0:0:
77,312,82767,2,0,L|69:348,2,33.3333333333333,8|8|8,0:0|0:0|0:0,0:0:0:0:
8,271,83061,6,0,P|56:262|97:234,1,100,4|0,1:0|0:0,0:0:0:0:
171,3,83503,2,0,P|153:49|158:98,1,100,8|0,0:0|1:0,0:0:0:0:
500,238,83944,6,0,P|466:208|419:198,1,68.5000019336701,4|0,1:0|0:0,0:0:0:0:
213,327,84238,2,0,P|252:313|282:283,1,68.5000019336701,0|0,1:0|0:0,0:0:0:0:
306,28,84532,1,10,0:0:0:0:
272,27,84605,1,0,1:0:0:0:
250,53,84679,1,0,1:0:0:0:
255,86,84752,1,0,1:0:0:0:
279,109,84826,6,0,L|324:104,1,44.999998626709,0|0,1:0|1:0,0:0:0:0:
484,82,84973,2,0,L|439:77,1,44.999998626709,0|0,1:0|1:0,0:0:0:0:
256,144,85120,6,0,L|301:139,1,44.999998626709,0|0,1:0|1:0,0:0:0:0:
512,110,85267,2,0,L|467:105,1,44.999998626709,0|0,1:0|1:0,0:0:0:0:
173,155,85414,6,0,P|144:202|144:258,1,112.500004291535,4|0,1:0|0:0,0:0:0:0:
190,345,85709,2,0,B|212:317|212:317|290:308,1,112.500004291535,8|0,0:0|0:0,0:0:0:0:
298,317,86003,2,0,P|330:335|367:341,1,75.0000028610231,0|0,1:0|1:0,0:0:0:0:
391,145,86297,1,2,0:0:0:0:
252,219,86444,1,8,0:0:0:0:
464,99,86591,6,0,P|492:123|510:160,1,75.0000028610231,2|0,0:0|1:0,0:0:0:0:
365,252,86885,1,8,0:0:0:0:
336,41,87032,2,0,P|369:23|406:19,1,75.0000028610231,2|0,0:0|1:0,0:0:0:0:
372,232,87326,1,0,1:0:0:0:
243,163,87473,2,0,B|239:121|239:121|260:92,1,75.0000028610231,10|0,0:0|0:0,0:0:0:0:
271,369,87767,6,0,P|326:365|368:330,1,112.500004291535,4|0,1:0|0:0,0:0:0:0:
357,245,88061,1,8,0:0:0:0:
144,289,88209,2,0,P|162:322|194:341,1,75.0000028610231,2|0,0:0|1:0,0:0:0:0:
351,259,88503,1,0,1:0:0:0:
140,203,88650,1,2,0:0:0:0:
299,155,88797,1,8,0:0:0:0:
58,228,88944,6,0,P|27:206|10:173,1,75.0000028610231,2|0,0:0|1:0,0:0:0:0:
129,48,89238,1,8,0:0:0:0:
16,260,89385,2,0,P|4:224|5:187,1,75.0000028610231,2|0,0:0|1:0,0:0:0:0:
185,118,89679,1,0,1:0:0:0:
3,63,89826,1,10,0:0:0:0:
216,6,89973,1,8,0:0:0:0:
248,17,90047,1,8,0:0:0:0:
278,30,90120,6,0,P|308:76|306:131,1,112.500004291535,4|0,1:0|0:0,0:0:0:0:
265,226,90414,2,0,P|315:202|369:211,1,112.500004291535,8|0,0:0|0:0,0:0:0:0:
377,222,90709,2,0,L|370:296,1,75.0000028610231,0|0,1:0|1:0,0:0:0:0:
221,142,91003,1,2,0:0:0:0:
412,88,91150,1,8,0:0:0:0:
200,148,91297,6,0,P|160:123|136:88,1,75.0000028610231,2|0,0:0|1:0,0:0:0:0:
307,34,91591,1,8,0:0:0:0:
215,240,91738,2,0,P|168:234|131:212,1,75.0000028610231,2|0,0:0|1:0,0:0:0:0:
329,121,92032,1,0,1:0:0:0:
276,310,92179,2,0,L|281:384,1,75.0000028610231,10|0,0:0|0:0,0:0:0:0:
410,188,92473,6,0,B|339:199|339:199|313:231,1,112.500004291535,4|0,1:0|0:0,0:0:0:0:
362,309,92767,1,8,0:0:0:0:
509,136,92914,2,0,P|478:114|443:102,1,75.0000028610231,2|0,0:0|1:0,0:0:0:0:
251,156,93209,1,0,1:0:0:0:
375,44,93356,1,2,0:0:0:0:
314,231,93503,1,8,0:0:0:0:
278,17,93650,6,0,P|244:2|206:0,1,75.0000028610231,2|0,0:0|1:0,0:0:0:0:
122,135,93944,1,8,0:0:0:0:
267,26,94091,2,0,P|229:26|194:39,1,75.0000028610231,2|0,0:0|1:0,0:0:0:0:
165,207,94385,1,8,0:0:0:0:
168,233,94459,1,8,0:0:0:0:
171,258,94532,1,8,0:0:0:0:
0,101,94679,1,8,0:0:0:0:
3,75,94753,1,8,0:0:0:0:
7,50,94826,6,0,B|72:30|72:30|111:50,1,112.500004291535,4|0,1:0|0:0,0:0:0:0:
164,117,95120,2,0,L|276:108,1,112.500004291535,8|0,0:0|0:0,0:0:0:0:
287,107,95414,2,0,P|321:91|344:62,1,75.0000028610231,0|0,1:0|1:0,0:0:0:0:
121,189,95709,1,2,0:0:0:0:
233,32,95856,1,8,0:0:0:0:
196,245,96003,6,0,B|201:282|201:282|233:300,1,75.0000028610231,2|0,0:0|1:0,0:0:0:0:
356,180,96297,1,8,0:0:0:0:
265,373,96444,2,0,B|302:371|302:371|324:341,1,75.0000028610231,2|0,0:0|1:0,0:0:0:0:
278,144,96738,1,0,1:0:0:0:
396,302,96885,2,0,L|470:310,1,75.0000028610231,10|0,0:0|0:0,0:0:0:0:
479,36,97179,6,0,B|445:53|445:53|426:125,1,112.500004291535,4|0,1:0|0:0,0:0:0:0:
451,206,97473,1,8,0:0:0:0:
298,104,97620,2,0,L|313:177,1,75.0000028610231,2|0,0:0|1:0,0:0:0:0:
480,287,97914,1,0,0:0:0:0:
275,248,98061,1,2,0:0:0:0:
477,192,98209,1,8,0:0:0:0:
198,270,98356,6,0,B|163:250|163:250|146:218,1,75.0000028610231,2|0,0:0|1:0,0:0:0:0:
213,68,98650,1,8,0:0:0:0:
159,299,98797,2,0,B|140:263|140:263|143:227,1,75.0000028610231,2|0,0:0|1:0,0:0:0:0:
318,128,99091,1,0,1:0:0:0:
349,139,99164,1,0,1:0:0:0:
380,152,99238,2,0,B|398:187|398:187|395:223,1,75.0000028610231,10|0,0:0|1:0,0:0:0:0:
136,146,99532,5,8,0:0:0:0:
296,233,99679,1,4,0:3:0:0:
306,343,99826,1,4,0:3:0:0:
96,247,99973,5,8,0:0:0:0:
314,207,100120,1,4,0:3:0:0:
280,366,100267,1,4,0:3:0:0:
487,245,100414,2,0,L|474:170,1,75.0000028610231,8|4,0:0|0:3,0:0:0:0:
235,54,100709,6,0,B|205:75|205:75|192:111,1,75.0000028610231,10|4,0:0|0:3,0:0:0:0:
251,274,101003,1,4,0:3:0:0:
395,68,101150,2,0,B|367:43|367:43|329:39,1,75.0000028610231,10|4,0:0|0:3,0:0:0:0:
174,207,101444,1,4,0:3:0:0:
440,149,101591,1,10,0:0:0:0:
273,129,101738,1,4,0:3:0:0:
479,269,101885,5,10,0:0:0:0:
352,197,102032,1,4,0:3:0:0:
490,276,102179,1,4,0:3:0:0:
341,190,102326,1,8,0:3:0:0:
392,337,102473,5,6,0:3:0:0:
435,139,102620,1,4,0:3:0:0:
390,351,102767,1,14,0:3:0:0:
438,124,102914,1,4,0:3:0:0:
264,294,103062,6,0,L|190:304,1,75.0000028610231,10|4,0:0|0:3,0:0:0:0:
92,50,103356,1,8,0:0:0:0:
308,113,103503,1,8,0:0:0:0:
59,189,103650,1,8,0:0:0:0:
301,262,103797,1,8,0:0:0:0:
23,330,103944,1,8,0:0:0:0:
194,162,104091,6,0,L|188:122,1,40,4|2,0:0|0:0,0:0:0:0:
430,251,108650,5,8,0:0:0:0:
137,91,108944,6,0,P|166:69|202:60,1,75.0000028610231,4|0,1:0|1:0,1:1:0:0:
85,260,109238,1,8,0:0:0:0:
46,138,109385,1,0,1:0:0:0:
142,184,109532,1,8,0:3:0:0:
56,144,109679,1,0,1:0:0:0:
93,290,109826,2,0,L|84:364,1,75.0000028610231,8|0,0:0|1:0,0:0:0:0:
299,191,110120,6,0,P|268:168|232:159,1,75.0000028610231,0|0,1:0|1:0,0:0:0:0:
375,268,110414,1,8,0:0:0:0:
246,318,110561,1,0,1:0:0:0:
343,355,110709,1,8,0:3:0:0:
257,323,110856,1,0,1:0:0:0:
401,258,111003,2,0,L|409:183,1,75.0000028610231,8|0,0:0|1:0,0:0:0:0:
201,40,111297,6,0,L|214:113,1,75.0000028610231,0|0,1:0|1:0,0:0:0:0:
118,249,111591,1,8,0:0:0:0:
207,130,111738,1,0,1:0:0:0:
50,121,111885,2,0,P|79:143|115:154,1,75.0000028610231,8|0,0:3|1:0,0:0:0:0:
289,53,112179,2,0,P|339:30|395:36,1,112.500004291535,8|0,0:0|0:0,0:0:0:0:
467,87,112473,6,0,L|460:161,1,75.0000028610231,0|0,1:0|1:0,0:0:0:0:
309,260,112767,2,0,L|315:334,1,75.0000028610231,8|0,0:0|0:0,0:0:0:0:
225,149,113061,5,8,0:0:0:0:
384,209,113209,1,8,0:0:0:0:
190,255,113356,5,8,0:0:0:0:
460,162,113503,1,8,0:0:0:0:
164,268,113650,5,4,1:0:0:0:
295,323,113797,1,0,1:0:0:0:
295,323,114091,5,0,1:0:0:0:
118,375,114238,2,0,P|99:351|92:322,1,59.9999981689454,8|0,0:0|0:0,0:0:0:0:
154,159,114532,1,0,1:0:0:0:
4,246,114679,6,0,B|63:239,1,59.9999981689454,8|0,0:0|0:0,0:0:0:0:
297,180,114973,2,0,B|238:173,1,59.9999981689454,0|0,1:0|0:0,0:0:0:0:
29,67,115267,1,0,1:0:0:0:
125,53,115414,1,0,0:0:0:0:
16,71,115561,1,0,1:0:0:0:
214,36,115709,2,0,P|241:51|261:73,1,59.9999981689454,8|0,0:0|0:0,0:0:0:0:
175,229,116003,5,0,1:0:0:0:
329,172,116150,1,0,1:0:0:0:
329,172,116444,5,0,1:0:0:0:
143,91,116591,2,0,P|125:117|117:149,1,59.9999981689454,8|0,0:0|0:0,0:0:0:0:
220,301,116885,1,0,1:0:0:0:
35,246,117032,5,8,0:0:0:0:
189,202,117179,2,0,L|247:213,1,59.9999981689454,2|0,0:0|1:0,0:0:0:0:
79,147,117473,1,8,0:0:0:0:
136,303,117620,1,0,1:0:0:0:
227,104,117767,2,0,L|223:84,5,19.9999993896485,0|0|0|0|0|0,1:0|1:0|1:0|1:0|1:0|1:0,0:0:0:0:
314,142,118061,2,0,L|374:132,1,59.9999981689454,8|0,0:0|0:0,0:0:0:0:
511,344,118356,6,0,P|503:309|484:280,1,69.9999978637696,4|0,1:0|1:0,0:0:0:0:
328,222,118650,1,8,0:0:0:0:
474,116,118797,2,0,L|482:46,1,69.9999978637696,0|0,1:0|1:0,0:0:0:0:
366,0,119091,1,0,1:0:0:0:
490,200,119238,6,0,P|455:201|425:184,1,69.9999978637696,8|0,0:0|1:0,0:0:0:0:
320,79,119532,1,0,1:0:0:0:
223,199,119679,1,0,1:0:0:0:
119,48,119826,6,0,P|92:29|52:27,1,69.9999978637696,8|0,0:0|1:0,0:0:0:0:
289,146,120120,2,0,P|315:125|331:94,1,69.9999978637696,0|0,1:0|1:0,0:0:0:0:
81,217,120414,2,0,P|49:232|27:258,1,69.9999978637696,8|0,0:0|1:0,0:0:0:0:
286,366,120709,6,0,L|290:296,1,69.9999978637696,4|0,1:0|1:0,0:0:0:0:
204,111,121003,1,8,0:0:0:0:
386,163,121150,1,0,1:0:0:0:
194,203,121297,5,8,0:0:0:0:
416,156,121444,1,0,1:0:0:0:
184,294,121591,5,8,0:0:0:0:
446,149,121738,2,0,L|495:162,1,44.999998626709,0|0,1:0|1:0,0:0:0:0:
296,359,121885,5,8,0:0:0:0:
280,319,121959,1,8,0:0:0:0:
280,277,122032,1,8,0:0:0:0:
298,239,122106,1,8,0:0:0:0:
324,207,122179,1,8,0:3:0:0:
340,171,122253,1,8,0:3:0:0:
341,136,122326,1,8,0:3:0:0:
330,106,122400,1,8,0:3:0:0:
313,77,122473,6,0,L|231:67,1,82.5000007867813,8|0,0:3|1:0,0:0:0:0:
191,145,122694,1,0,1:0:0:0:
176,159,122767,5,8,0:0:0:0:
135,161,122840,1,4,0:3:0:0:
93,163,122914,1,4,0:3:0:0:
52,165,122987,1,4,0:3:0:0:
10,167,123061,6,0,L|16:206,1,40,4|0,1:0|0:0,0:0:0:0:
88,331,123356,2,0,L|94:291,1,40,0|0,1:0|0:0,0:0:0:0:
226,217,123650,2,0,L|232:256,1,40,0|0,1:0|0:0,0:0:0:0:
314,384,123944,2,0,L|320:344,1,40,0|0,1:0|0:0,0:0:0:0:
511,344,124238,6,0,P|495:334|475:330,1,40,0|0,1:0|0:0,0:0:0:0:
398,253,124532,2,0,P|379:257|362:268,1,40,0|0,1:0|0:0,0:0:0:0:
253,267,124826,2,0,P|242:283|239:303,1,40,0|0,1:0|0:0,0:0:0:0:
129,338,125120,1,0,1:0:0:0:
244,384,125267,1,0,0:0:0:0:
108,328,125414,6,0,L|68:333,1,40,0|0,1:0|0:0,0:0:0:0:
175,213,125709,2,0,L|180:252,1,40,0|0,1:0|0:0,0:0:0:0:
79,141,126003,2,0,L|118:135,1,40,0|0,1:0|0:0,0:0:0:0:
12,256,126297,2,0,L|6:216,1,40,0|0,1:0|0:0,0:0:0:0:
183,69,126591,5,0,1:0:0:0:
0,182,126738,1,8,0:0:0:0:
147,265,126885,2,0,L|141:225,1,40,0|0,1:0|0:0,0:0:0:0:
46,75,127179,6,0,L|52:36,1,40,0|0,1:0|0:0,0:0:0:0:
240,210,127473,2,0,L|234:170,1,40,0|0,1:0|0:0,0:0:0:0:
450,67,127767,6,0,L|412:76,1,40,4|0,1:0|0:0,0:0:0:0:
250,22,128061,2,0,L|259:60,1,40,0|0,1:0|0:0,0:0:0:0:
201,219,128356,2,0,L|239:210,1,40,0|0,1:0|0:0,0:0:0:0:
398,268,128650,2,0,L|389:230,1,40,0|0,1:0|0:0,0:0:0:0:
100,120,128944,6,0,L|91:158,1,40,0|0,1:0|0:0,0:0:0:0:
160,347,129238,2,0,L|169:309,1,40,0|0,1:0|0:0,0:0:0:0:
282,86,129532,2,0,L|271:130,1,40,0|0,1:0|0:0,0:0:0:0:
352,351,129826,2,0,L|362:306,1,40,0|0,1:0|0:0,0:0:0:0:
453,55,130120,5,8,0:0:0:0:
189,105,130414,1,8,0:0:0:0:
493,136,130709,1,8,0:0:0:0:
149,25,131003,1,8,0:0:0:0:
378,36,131297,6,0,L|374:111,1,75.0000028610231,0|0,1:0|0:0,0:0:0:0:
367,250,131591,2,0,L|363:325,1,75.0000028610231,0|0,1:0|0:0,0:0:0:0:
305,151,131885,5,8,0:0:0:0:
439,207,132032,1,8,0:3:0:0:
313,181,132179,1,4,0:3:0:0:
431,178,132326,1,4,0:3:0:0:
337,293,132473,6,0,L|345:342,1,50,2|2,0:3|0:3,0:0:0:0:
340,350,133209,2,0,L|331:300,1,50,2|2,0:3|0:3,0:0:0:0:
233,268,133650,2,0,L|241:218,1,50,2|2,0:3|0:3,0:0:0:0:
158,155,134091,2,0,L|182:111,1,50,2|2,0:3|0:3,0:0:0:0:
123,23,134532,1,2,0:3:0:0:
39,250,134826,6,0,L|47:299,1,50,2|2,0:3|0:3,0:0:0:0:
42,307,135561,2,0,L|33:257,1,50,2|2,0:3|0:3,0:0:0:0:
107,147,136003,5,0,0:0:0:0:
27,231,136150,1,2,0:0:0:0:
177,280,136297,1,0,1:0:0:0:
177,280,136444,1,0,1:0:0:0:
310,136,136591,5,8,0:0:0:0:
310,136,137179,6,0,P|339:154|380:155,1,67.4999979400635,6|0,1:0|0:0,0:0:0:0:
262,62,137473,2,0,P|269:95|298:124,1,67.4999979400635,6|0,1:0|0:0,0:0:0:0:
435,102,137767,5,8,0:0:0:0:
289,236,137914,2,0,L|283:280,1,44.999998626709,2|0,1:0|0:0,0:0:0:0:
222,175,138209,5,0,0:0:0:0:
368,309,138356,2,0,L|374:353,1,44.999998626709,2|0,1:0|0:0,0:0:0:0:
424,229,138650,5,0,0:0:0:0:
226,348,138797,1,2,1:0:0:0:
114,238,138944,2,0,L|66:232,1,44.999998626709,10|0,0:0|0:0,0:0:0:0:
316,160,139238,2,0,L|364:154,1,44.999998626709,2|0,0:0|0:0,0:0:0:0:
91,60,139532,6,0,P|68:86|56:126,1,67.4999979400635,6|0,1:0|0:0,0:0:0:0:
167,25,139826,2,0,P|134:30|105:47,1,67.4999979400635,6|0,1:0|0:0,0:0:0:0:
93,197,140120,5,8,0:0:0:0:
267,123,140267,2,0,L|312:131,1,44.999998626709,2|0,1:0|0:0,0:0:0:0:
385,214,140561,1,0,0:0:0:0:
479,23,140709,5,0,1:0:0:0:
418,91,140856,2,0,L|426:135,2,44.999998626709,2|0|0,0:0|0:0|0:0,0:0:0:0:
275,218,141297,2,0,L|226:228,1,44.999998626709,10|0,0:0|2:0,2:2:0:0:
466,296,141591,2,0,L|515:306,1,44.999998626709,2|0,0:0|2:0,2:2:0:0:
225,357,141885,6,0,B|189:349|189:349|169:324,1,67.4999979400635,6|0,1:0|0:0,0:0:0:0:
309,347,142179,2,0,B|277:366|277:366|246:362,1,67.4999979400635,6|0,1:0|0:0,0:0:0:0:
117,382,142473,5,8,0:0:0:0:
252,255,142620,2,0,B|259:210,1,44.999998626709,2|0,1:0|0:0,0:0:0:0:
320,323,142914,5,0,0:0:0:0:
164,211,143061,2,0,B|156:166,1,44.999998626709,2|0,1:0|0:0,0:0:0:0:
88,264,143356,5,0,0:0:0:0:
266,134,143503,1,2,1:0:0:0:
163,32,143650,2,0,L|104:21,1,44.999998626709,10|0,0:0|0:0,0:0:0:0:
353,120,143944,2,0,L|412:109,1,44.999998626709,2|0,0:0|0:0,0:0:0:0:
182,272,144238,6,0,B|189:306|189:306|215:325,1,67.4999979400635,6|0,1:0|0:0,0:0:0:0:
191,192,144532,2,0,B|172:221|172:221|178:253,1,67.4999979400635,6|0,1:0|0:0,0:0:0:0:
287,353,144826,5,8,0:0:0:0:
95,279,144973,2,0,B|42:270,1,44.999998626709,2|0,1:0|0:0,0:0:0:0:
140,379,145267,1,0,0:0:0:0:
302,234,145414,5,8,0:0:0:0:
388,303,145561,2,2,L|417:307,1,29.9999990844727,2|2,0:3|0:3,0:0:0:0:
417,307,146003,1,2,0:3:0:0:
241,330,146297,5,10,0:0:0:0:
480,231,146444,1,10,0:0:0:0:
480,231,146885,6,0,L|484:186,1,44.999998626709,0|0,1:0|0:0,0:0:0:0:
512,317,147179,5,6,1:0:0:0:
397,179,147326,2,0,L|384:69,1,110.000003356934,6|0,1:0|0:0,0:0:0:0:
359,305,147767,2,0,P|381:289|395:265,1,55.0000016784668,6|0,1:0|0:0,0:0:0:0:
235,205,148061,5,0,0:0:0:0:
284,383,148209,1,2,1:0:0:0:
99,293,148356,2,0,L|44:301,1,55.0000016784668,10|0,0:0|0:0,0:0:0:0:
314,164,148650,2,0,L|369:172,1,55.0000016784668,2|0,0:1|0:0,0:0:0:0:
105,63,148944,6,0,P|135:35|174:21,1,82.5000025177003,6|0,1:0|0:0,0:0:0:0:
45,205,149238,2,0,P|45:163|60:125,1,82.5000025177003,6|0,1:0|0:0,0:0:0:0:
241,83,149532,5,8,0:0:0:0:
304,241,149679,2,0,L|358:245,1,55.0000016784668,2|0,1:0|0:0,0:0:0:0:
444,166,149973,1,0,0:0:0:0:
445,359,150120,5,2,1:0:0:0:
370,263,150267,1,2,0:0:0:0:
257,306,150414,1,2,0:0:0:0:
140,206,150561,2,0,L|135:179,2,27.5000008392334,0|0|8,0:0|0:0|0:0,0:0:0:0:
243,334,150856,5,2,0:0:0:0:
337,259,151003,1,2,0:0:0:0:
433,332,151150,1,2,0:0:0:0:
367,168,151297,6,0,B|326:161|326:161|290:181,1,82.5000025177003,6|0,1:0|0:0,0:0:0:0:
510,229,151591,2,0,B|484:195|484:195|445:186,1,82.5000025177003,6|0,1:0|0:0,0:0:0:0:
228,232,151885,5,8,0:0:0:0:
322,79,152032,2,0,B|312:17,1,55.0000016784668,2|0,1:0|0:0,0:0:0:0:
431,103,152326,1,0,0:0:0:0:
258,146,152473,6,0,P|226:141|200:123,1,55.0000016784668,2|0,1:0|0:0,0:0:0:0:
401,249,152767,2,0,P|413:278|410:310,1,55.0000016784668,2|0,0:1|0:0,0:0:0:0:
418,73,153061,2,0,P|437:47|466:34,1,55.0000016784668,10|0,0:0|0:0,0:0:0:0:
328,197,153356,1,2,0:0:0:0:
486,153,153503,1,2,0:0:0:0:
247,225,153650,6,0,L|237:315,1,82.5000025177003,6|0,1:0|0:0,0:0:0:0:
265,65,153944,2,0,L|255:155,1,82.5000025177003,6|0,1:0|0:0,0:0:0:0:
331,300,154238,5,8,0:0:0:0:
163,233,154385,2,0,L|104:239,1,55.0000016784668,2|0,1:0|0:0,0:0:0:0:
39,320,154679,1,0,0:0:0:0:
120,118,154826,6,0,L|110:63,1,55.0000016784668,2|0,1:0|1:0,0:0:0:0:
193,246,155120,1,8,0:3:0:0:
39,189,155267,1,8,0:3:0:0:
256,145,155414,5,8,0:0:0:0:
87,256,155561,1,8,0:0:0:0:
294,118,155709,1,8,0:0:0:0:
48,282,155856,1,8,0:0:0:0:
359,187,156003,6,0,B|388:206|388:206|398:250,1,80,6|0,1:0|0:0,0:0:0:0:
238,325,156297,1,8,0:0:0:0:
294,118,156444,2,0,P|330:97|384:93,1,80,2|0,1:0|1:0,0:0:0:0:
354,347,156738,1,2,0:0:0:0:
209,228,156885,1,8,0:0:0:0:
424,275,157032,6,0,P|466:262|499:235,1,80,2|0,0:0|1:0,0:0:0:0:
306,137,157326,1,2,0:0:0:0:
273,302,157473,1,8,0:0:0:0:
444,146,157620,1,2,0:0:0:0:
444,146,157767,2,0,B|449:103|449:103|432:66,1,80,2|0,1:0|0:0,0:0:0:0:
245,0,158061,2,0,B|240:43|240:43|256:79,1,80,10|0,0:0|0:0,0:0:0:0:
418,257,158356,6,0,P|391:230|352:223,1,80,6|0,1:0|0:0,0:0:0:0:
232,340,158650,1,10,0:0:0:0:
109,168,158797,2,0,L|96:89,1,80,2|0,0:0|1:0,0:0:0:0:
39,292,159091,1,2,0:0:0:0:
214,215,159238,1,8,0:0:0:0:
162,368,159385,6,0,B|152:329|152:329|172:289,1,80,2|0,0:0|1:0,0:0:0:0:
261,147,159679,1,2,0:0:0:0:
116,226,159826,1,8,0:0:0:0:
337,194,159973,1,2,0:0:0:0:
337,194,160120,2,0,B|349:156|349:156|336:116,1,80,2|0,1:0|0:0,0:0:0:0:
182,0,160414,2,0,B|169:37|169:37|182:77,1,80,10|0,0:0|0:0,0:0:0:0:
465,149,160709,5,10,0:0:0:0:
251,230,160856,1,0,1:0:0:0:
429,302,161003,1,8,0:0:0:0:
181,354,161150,5,2,1:0:0:0:
363,228,161297,1,8,0:0:0:0:
125,219,161444,5,2,1:0:0:0:
333,324,161591,1,8,0:0:0:0:
252,120,161738,6,0,L|261:199,1,80,2|8,1:0|0:0,0:0:0:0:
52,368,162032,2,0,L|62:285,1,80,2|8,1:0|0:0,0:0:0:0:
0,100,162326,1,0,1:0:0:0:
153,318,162473,6,0,B|162:238,1,80,10|0,0:0|1:0,0:0:0:0:
341,65,162767,2,0,B|350:145,1,80,8|0,0:0|1:0,0:0:0:0:
476,325,163061,5,10,0:0:0:0:
289,222,163209,1,0,1:0:0:0:
339,384,163356,1,8,0:0:0:0:
452,140,163503,5,2,1:0:0:0:
342,294,163650,1,8,0:0:0:0:
324,44,163797,5,2,1:0:0:0:
362,267,163944,1,8,0:0:0:0:
174,145,164091,1,2,1:0:0:0:
146,160,164164,1,0,1:0:0:0:
116,177,164238,6,0,L|107:226,1,50,10|0,0:0|0:0,0:0:0:0:
234,343,164385,2,0,L|225:293,1,50,10|0,0:0|0:0,0:0:0:0:
245,91,164532,1,0,1:0:0:0:
237,78,164606,1,0,1:0:0:0:
228,65,164679,2,0,L|178:58,1,50,2|0,1:0|0:0,0:0:0:0:
48,306,164826,5,10,0:0:0:0:
92,328,164900,1,0,1:0:0:0:
141,325,164973,1,0,1:0:0:0:
182,297,165047,1,0,1:0:0:0:
219,264,165120,1,8,0:0:0:0:
262,251,165194,1,8,0:3:0:0:
301,259,165267,1,4,0:3:0:0:
331,279,165340,1,12,0:3:0:0:
348,301,165414,6,4,L|345:358,1,50,4|0,1:0|0:0,0:0:0:0:
276,170,165709,2,0,L|271:121,1,50,0|0,1:0|0:0,0:0:0:0:
192,312,166003,2,0,L|187:362,1,50,0|0,1:0|0:0,0:0:0:0:
71,211,166297,2,0,L|66:162,1,50,0|0,1:0|0:0,0:0:0:0:
23,363,166591,6,0,L|72:358,1,50,0|0,1:0|0:0,0:0:0:0:
206,228,166885,2,0,L|156:223,1,50,0|0,1:0|0:0,0:0:0:0:
316,384,167179,2,0,L|365:379,1,50,0|0,1:0|0:0,0:0:0:0:
469,211,167473,2,0,L|419:206,1,50,0|0,1:0|0:0,0:0:0:0:
280,30,167767,6,0,L|230:35,1,50,0|0,1:0|0:0,0:0:0:0:
62,140,168061,2,0,L|112:145,1,50,0|0,1:0|0:0,0:0:0:0:
212,237,168356,2,0,L|262:232,1,50,0|0,1:0|0:0,0:0:0:0:
430,127,168650,2,0,L|380:122,1,50,0|0,1:0|0:0,0:0:0:0:
312,330,168944,5,0,1:0:0:0:
412,252,169091,2,0,L|468:257,1,50,8|4,0:3|0:3,0:0:0:0:
300,191,169385,5,8,0:3:0:0:
330,307,169532,1,4,0:3:0:0:
297,178,169679,1,12,0:3:0:0:
416,264,169826,2,0,L|472:269,1,50,0|8,1:0|0:3,0:0:0:0:
449,134,170120,6,0,L|454:183,1,50,0|0,1:0|0:0,0:0:0:0:
471,318,170414,2,0,L|465:269,1,50,0|0,1:0|0:0,0:0:0:0:
338,66,170709,6,0,L|333:115,1,50,0|0,1:0|0:0,0:0:0:0:
309,271,171003,2,0,L|315:222,1,50,0|0,1:0|0:0,0:0:0:0:
175,137,171297,6,0,L|180:186,1,50,0|0,1:0|0:0,0:0:0:0:
201,355,171591,2,0,L|195:306,1,50,0|0,1:0|0:0,0:0:0:0:
41,75,171885,6,0,L|36:124,1,50,0|0,1:0|0:0,0:0:0:0:
15,325,172179,2,0,L|21:276,1,50,0|0,1:0|0:0,0:0:0:0:
187,33,172473,5,8,0:0:0:0:
125,207,172620,1,0,1:0:0:0:
283,161,172767,1,0,1:0:0:0:
117,307,172914,5,8,0:0:0:0:
203,127,173061,1,0,1:0:0:0:
305,246,173209,1,0,1:0:0:0:
406,85,173356,2,0,L|412:10,1,75.0000028610231,8|0,0:0|1:0,0:0:0:0:
429,335,173650,5,8,0:0:0:0:
339,151,173797,1,0,1:0:0:0:
330,345,173944,5,8,0:0:0:0:
434,174,174091,1,0,1:0:0:0:
242,231,174238,5,8,0:0:0:0:
496,258,174385,1,8,0:0:0:0:
228,230,174532,1,8,0:0:0:0:
508,259,174679,1,8,0:0:0:0:
407,69,185414,6,0,P|416:47|419:22,1,50,0|0,1:0|0:0,0:0:0:0:
477,198,185856,1,8,0:0:0:0:
244,181,186297,5,0,1:0:0:0:
327,167,186591,1,2,0:0:0:0:
410,151,186885,1,0,1:0:0:0:
244,181,187179,1,8,0:0:0:0:
124,201,187767,6,0,P|114:179|111:154,1,50,0|0,1:0|0:0,0:0:0:0:
55,330,188209,1,8,0:0:0:0:
288,313,188650,5,0,1:0:0:0:
205,299,188944,1,2,0:0:0:0:
122,283,189238,1,0,1:0:0:0:
288,313,189532,1,8,0:0:0:0:
200,108,190120,6,0,P|180:124|157:134,1,50,0|0,1:0|0:0,0:0:0:0:
238,17,190561,1,8,0:0:0:0:
200,242,191003,1,0,1:0:0:0:
200,242,191591,5,0,1:0:0:0:
423,231,191885,2,0,P|425:188|398:154,1,87.5,8|0,0:0|0:0,1:1:0:0:
334,114,192473,6,0,L|481:121,1,146.514143154359,4|0,0:2|0:0,0:0:0:0:
496,118,193356,6,0,B|481:85|418:40|303:69|312:193|199:211|103:129|114:51|144:1,1,500,4|6,2:1|2:0,0:0:0:0:
362,348,196591,6,0,P|363:326|372:306,1,43.75,4|0,0:3|0:0,0:0:0:0:
468,261,197179,6,0,P|427:289|379:297,1,100,4|0,1:0|0:0,0:0:0:0:
286,227,197620,1,0,1:0:0:0:
158,349,197767,2,0,L|110:359,1,50,8|0,0:0|0:0,0:0:0:0:
274,61,198061,6,0,P|305:100|313:149,1,100,4|0,1:0|0:0,0:0:0:0:
237,311,198503,2,0,P|276:281|297:236,1,100,8|0,0:0|1:0,0:0:0:0:
217,6,198944,1,8,0:0:0:0:
217,6,199238,5,0,1:0:0:0:
425,79,199385,1,8,0:0:0:0:
146,210,199532,6,0,P|162:163|196:126,1,100,4|0,1:0|0:0,0:0:0:0:
313,92,199973,1,0,1:0:0:0:
122,39,200120,2,0,L|73:45,1,50,8|0,0:0|0:0,0:0:0:0:
250,357,200414,6,0,P|237:309|200:265,1,100,4|0,1:0|0:0,0:0:0:0:
36,261,200855,1,8,0:0:0:0:
140,178,201002,1,0,1:0:0:0:
272,220,201149,1,0,1:0:0:0:
315,66,201297,2,0,L|307:16,1,50,8|0,0:0|1:0,0:0:0:0:
459,170,201591,5,8,0:0:0:0:
230,118,201738,1,8,0:0:0:0:
440,340,201885,6,0,P|434:290|408:248,1,100,4|0,1:0|0:0,0:0:0:0:
298,198,202326,1,0,1:0:0:0:
425,88,202473,2,0,L|433:39,1,50,8|0,0:0|0:0,0:0:0:0:
123,214,202767,6,0,P|169:234|219:232,1,100,4|0,1:0|0:0,0:0:0:0:
334,124,203208,1,8,0:0:0:0:
477,255,203355,2,0,P|450:255|427:260,1,50,0|0,0:0|1:0,0:0:0:0:
275,361,203649,2,0,B|252:350|252:350|228:342,1,50,8|0,0:0|0:0,0:0:0:0:
87,203,203944,2,0,P|62:206|38:215,1,50,0|0,1:0|0:0,0:0:0:0:
296,51,204238,5,12,0:0:0:0:
208,254,204385,1,0,1:0:0:0:
198,35,204532,5,12,0:0:0:0:
307,249,204679,1,0,1:0:0:0:
302,31,204826,5,8,0:0:0:0:
249,170,204973,1,8,0:3:0:0:
187,11,205120,1,4,0:3:0:0:
394,93,205267,5,4,0:3:0:0:
397,112,205561,1,4,0:3:0:0:
400,131,205856,1,4,0:3:0:0:
466,22,206150,5,8,0:0:0:0:
423,233,206297,1,8,0:0:0:0:
259,94,206444,1,8,0:0:0:0:
494,178,206591,6,0,P|513:212|509:251,1,80,4|0,1:0|0:0,0:0:0:0:
345,351,206885,1,8,0:0:0:0:
294,201,207032,2,0,B|257:182|257:182|217:192,1,80,0|0,1:0|0:0,0:0:0:0:
69,224,207326,1,0,1:0:0:0:
134,61,207473,6,0,P|145:99|136:137,1,80,8|0,0:0|0:0,0:0:0:0:
8,277,207767,1,0,0:0:0:0:
186,210,207914,1,0,1:0:0:0:
147,373,208061,2,0,B|133:335|133:335|145:296,1,80,8|0,0:0|0:0,0:0:0:0:
240,144,208356,5,0,1:0:0:0:
68,185,208503,1,0,1:0:0:0:
264,139,208650,2,0,P|303:146|335:168,1,80,8|0,0:0|0:0,0:0:0:0:
369,372,208944,6,0,L|361:292,1,80,4|0,1:0|0:0,0:0:0:0:
407,120,209238,1,8,0:0:0:0:
507,231,209385,2,0,P|468:225|435:202,1,80,0|0,1:0|0:0,0:0:0:0:
381,28,209679,1,0,1:0:0:0:
238,92,209826,6,0,P|316:89|377:36,1,160,8|0,0:0|0:0,0:0:0:0:
177,25,210267,1,0,1:0:0:0:
236,193,210414,2,0,P|208:221|170:229,1,80,8|0,0:0|0:0,0:0:0:0:
21,109,210709,2,0,P|59:118|85:147,1,80,0|0,1:0|0:0,0:0:0:0:
56,337,211003,2,0,P|44:299|57:261,1,80,8|0,0:0|0:0,0:0:0:0:
328,158,211297,6,0,B|338:197|338:197|318:245,1,80,4|0,1:0|0:0,0:0:0:0:
240,354,211591,1,8,0:0:0:0:
392,303,211738,2,0,L|479:315,1,80,0|0,1:0|0:0,0:0:0:0:
257,331,212032,1,0,1:0:0:0:
416,219,212179,6,0,B|436:141|436:141|432:94|396:63,1,160,8|0,0:0|0:0,0:0:0:0:
306,23,212620,1,0,1:0:0:0:
183,213,212767,2,0,P|143:212|113:182,1,80,8|0,0:0|0:0,0:0:0:0:
319,115,213061,2,0,P|338:149|327:189,1,80,0|0,1:0|1:0,0:0:0:0:
167,47,213356,2,0,P|187:13|227:2,1,80,8|0,0:0|1:0,0:0:0:0:
283,285,213650,5,8,0:0:0:0:
221,128,213797,1,0,1:0:0:0:
277,268,213944,1,0,1:0:0:0:
340,101,214091,2,0,B|347:60|347:60|319:21,1,80,8|0,0:0|1:0,0:0:0:0:
122,131,214385,1,0,1:0:0:0:
331,206,214532,5,10,0:0:0:0:
151,113,214679,1,0,1:0:0:0:
384,120,214826,5,10,0:0:0:0:
128,95,214973,1,0,1:0:0:0:
405,22,215120,5,10,0:0:0:0:
103,79,215267,1,0,1:0:0:0:
259,212,215414,5,8,0:0:0:0:
288,220,215488,1,0,1:0:0:0:
317,212,215561,1,0,1:0:0:0:
342,195,215635,1,0,1:0:0:0:
363,172,215709,1,0,1:0:0:0:
388,156,215782,1,0,1:0:0:0:
417,152,215856,1,0,1:0:0:0:
444,161,215929,1,0,1:0:0:0:
469,204,216003,6,0,L|475:119,2,85.0000016212464,4|0|0,1:0|1:0|1:0,0:0:0:0:
272,355,216444,1,8,0:0:0:0:
376,283,216591,1,0,1:0:0:0:
497,321,216738,1,0,1:0:0:0:
324,200,216885,2,0,L|314:115,1,85.0000016212464,10|0,0:0|1:0,0:0:0:0:
154,349,217180,6,0,B|131:313|131:313|143:271,1,85.0000016212464,10|0,0:0|1:0,0:0:0:0:
195,84,217473,1,0,1:0:0:0:
237,295,217621,5,10,0:0:0:0:
59,214,217768,1,0,1:0:0:0:
253,170,217915,1,0,1:0:0:0:
28,224,218062,2,0,P|3:190|0:148,1,85.0000016212464,10|0,0:0|1:0,0:0:0:0:
301,23,218356,6,0,B|317:62|317:62|307:104,1,85.0000016212464,10|0,0:0|1:0,0:0:0:0:
271,272,218650,1,0,1:0:0:0:
161,37,218797,2,0,B|201:39|201:39|224:85,1,85.0000016212464,10|0,0:0|1:0,0:0:0:0:
263,254,219091,1,0,1:0:0:0:
58,123,219238,2,0,L|142:120,1,85.0000016212464,10|0,0:0|1:0,0:0:0:0:
416,102,219532,6,0,L|332:107,1,85.0000016212464,10|0,0:0|1:0,0:0:0:0:
191,197,219827,1,0,1:0:0:0:
339,11,219974,5,10,0:0:0:0:
396,192,220121,1,0,1:0:0:0:
241,111,220267,1,0,1:0:0:0:
449,103,220415,2,0,B|488:126|488:126|494:165,1,85.0000016212464,10|0,0:0|1:0,0:0:0:0:
505,241,220635,1,0,1:0:0:0:
507,257,220709,5,8,0:0:0:0:
386,214,220856,1,0,1:0:0:0:
292,300,221003,1,0,1:0:0:0:
494,165,221150,5,8,0:0:0:0:
387,235,221297,1,0,1:0:0:0:
408,360,221444,1,0,1:0:0:0:
264,200,221591,2,0,L|276:115,1,85.0000016212464,10|0,0:0|1:0,0:0:0:0:
108,295,221885,6,0,B|116:340|116:340|159:367,1,85.0000016212464,10|0,0:0|1:0,0:0:0:0:
292,300,222180,1,0,1:0:0:0:
135,129,222327,2,0,L|148:217,1,85.0000016212464,10|0,0:0|1:0,0:0:0:0:
170,376,222620,1,0,1:0:0:0:
272,191,222767,2,0,B|305:211|305:211|313:256,1,85.0000016212464,10|0,0:0|1:0,0:0:0:0:
16,241,223062,5,10,0:0:0:0:
236,264,223209,1,0,1:0:0:0:
67,376,223356,1,0,1:0:0:0:
329,351,223503,5,10,0:0:0:0:
109,291,223650,1,0,1:0:0:0:
283,169,223797,1,0,1:0:0:0:
54,118,223944,2,0,L|41:33,1,85.0000016212464,10|0,0:0|1:0,0:0:0:0:
236,264,224238,5,10,0:0:0:0:
195,64,224385,1,0,1:0:0:0:
39,214,224532,1,0,1:0:0:0:
308,154,224680,6,0,B|340:179|340:179|345:228,1,85.0000016212464,10|0,0:0|1:0,0:0:0:0:
353,384,224974,1,0,1:0:0:0:
143,283,225121,1,0,1:0:0:0:
146,250,225194,1,0,1:0:0:0:
149,217,225268,1,0,1:0:0:0:
153,184,225341,1,0,1:0:0:0:
180,151,225415,6,0,B|140:163|140:163|99:149,2,85.0000016212464,8|0|0,0:0|1:0|1:0,0:0:0:0:
325,4,225856,1,8,0:0:0:0:
264,126,226003,1,0,1:0:0:0:
307,254,226150,1,0,1:0:0:0:
238,38,226297,2,0,P|205:11|163:7,1,85.0000016212464,10|0,0:0|1:0,0:0:0:0:
385,209,226591,6,0,B|426:192|426:192|441:148,1,85.0000016212464,10|0,0:0|1:0,0:0:0:0:
469,25,226885,1,0,1:0:0:0:
296,136,227032,5,10,0:0:0:0:
509,100,227180,1,0,1:0:0:0:
326,43,227327,1,0,1:0:0:0:
475,231,227474,2,0,L|488:318,1,85.0000016212464,10|0,0:0|1:0,0:0:0:0:
218,366,227768,6,0,P|225:324|252:286,1,85.0000016212464,10|0,0:0|1:0,0:0:0:0:
376,183,228061,1,0,1:0:0:0:
155,259,228209,2,0,P|182:226|224:206,1,85.0000016212464,10|0,0:0|1:0,0:0:0:0:
394,188,228502,1,0,1:0:0:0:
153,134,228650,2,0,P|192:119|239:123,1,85.0000016212464,10|0,0:0|1:0,0:0:0:0:
453,263,228944,6,0,P|438:222|405:190,1,85.0000016212464,10|0,0:0|1:0,0:0:0:0:
219,207,229238,1,0,1:0:0:0:
365,75,229385,5,10,0:0:0:0:
314,263,229532,1,0,1:0:0:0:
370,61,229680,1,0,1:0:0:0:
308,281,229826,2,0,L|225:300,1,85.0000016212464,10|0,0:0|1:0,0:0:0:0:
31,175,230121,5,8,0:0:0:0:
163,211,230268,1,0,1:0:0:0:
221,334,230415,1,0,1:0:0:0:
152,99,230562,5,8,0:0:0:0:
188,230,230709,1,0,1:0:0:0:
106,341,230856,1,0,1:0:0:0:
23,161,231003,2,0,B|32:76,1,85.0000016212464,10|0,0:0|1:0,0:0:0:0:
293,2,231297,6,0,B|304:88,1,85.0000016212464,10|0,0:0|1:0,0:0:0:0:
331,258,231591,1,0,1:0:0:0:
156,124,231738,2,0,B|120:141|120:141|114:185,1,85.0000016212464,10|0,0:0|1:0,0:0:0:0:
105,322,232032,1,0,1:0:0:0:
311,171,232179,2,0,B|347:188|347:188|353:232,1,85.0000016212464,10|0,0:0|1:0,0:0:0:0:
179,384,232473,6,0,P|182:342|206:307,1,85.0000016212464,10|0,0:0|1:0,0:0:0:0:
369,328,232767,1,0,1:0:0:0:
223,214,232914,1,8,0:0:0:0:
388,343,233061,2,0,L|479:353,1,85.0000016212464,0|0,1:0|1:0,0:0:0:0:
205,196,233356,2,0,L|120:204,1,85.0000016212464,8|0,0:0|1:0,0:0:0:0:
480,85,233650,5,8,0:0:0:0:
420,317,233797,1,0,1:0:0:0:
394,74,233944,5,8,0:0:0:0:
334,306,234091,1,0,1:0:0:0:
308,63,234238,5,8,0:0:0:0:
248,295,234385,1,0,1:0:0:0:
284,26,234532,5,10,0:0:0:0:
440,351,234679,1,10,0:0:0:0:
