osu file format v14

[General]
AudioFilename: audio.mp3
AudioLeadIn: 0
PreviewTime: 65929
Countdown: 0
SampleSet: Soft
StackLeniency: 0.5
Mode: 0
LetterboxInBreaks: 0
WidescreenStoryboard: 0

[Editor]
DistanceSpacing: 0.8
BeatDivisor: 4
GridSize: 4
TimelineZoom: 2.2

[Metadata]
Title:Black Rail
TitleUnicode:Black Rail
Artist:MY FIRST STORY
ArtistUnicode:MY FIRST STORY
Creator:Saut
Version:Collab Hard
Source:
Tags:pishifat appleeaterx dailycare 虚言itsuwari kyogen neurose emo rock alternative post-hardcore
BeatmapID:986173
BeatmapSetID:439396

[Difficulty]
HPDrainRate:5
CircleSize:4
OverallDifficulty:6.5
ApproachRate:7.5
SliderMultiplier:1
SliderTickRate:1

[Events]
//Background and Video events
0,0,"bg.jpg",0,0
//Break Periods
2,38556,40913
2,57379,65178
2,104438,107825
2,132673,135178
2,176003,184589
//Storyboard Layer 0 (Background)
//Storyboard Layer 1 (Fail)
//Storyboard Layer 2 (Pass)
//Storyboard Layer 3 (Foreground)
//Storyboard Sound Samples

[TimingPoints]
709,294.117647058824,4,2,1,50,1,0
17179,-142.857142857143,4,2,1,15,0,0
18944,-129.87012987013,4,2,1,50,0,0
19459,-129.87012987013,4,2,2,5,0,0
19532,-71.4285714285714,4,2,1,67,0,0
35929,-71.4285714285714,4,2,1,5,0,0
36003,-71.4285714285714,4,2,1,75,0,0
36223,-71.4285714285714,4,2,1,5,0,0
36297,-71.4285714285714,4,2,1,75,0,0
38061,-71.4285714285714,4,2,1,50,0,0
38282,-71.4285714285714,4,2,1,5,0,0
38356,-142.857142857143,4,2,1,65,0,0
38650,-142.857142857143,4,2,1,20,0,0
38797,-142.857142857143,4,2,1,65,0,0
39091,-142.857142857143,4,2,1,20,0,0
39385,-142.857142857143,4,2,1,65,0,0
39679,-142.857142857143,4,2,1,20,0,0
39973,-142.857142857143,4,2,1,65,0,0
40267,-142.857142857143,4,2,1,20,0,0
40561,-142.857142857143,4,2,3,35,0,0
40709,-142.857142857143,4,2,1,65,0,0
41003,-142.857142857143,4,2,1,35,0,0
41150,-142.857142857143,4,2,1,65,0,0
41444,-142.857142857143,4,2,1,35,0,0
41591,-90.9090909090909,4,2,1,50,0,0
42473,-90.9090909090909,4,2,1,62,0,0
42914,-90.9090909090909,4,2,1,25,0,0
43061,-83.3333333333333,4,2,1,55,0,0
46517,-83.3333333333333,4,2,1,5,0,0
46591,-83.3333333333333,4,2,1,50,0,0
47179,-83.3333333333333,4,2,1,60,0,0
47473,-83.3333333333333,4,2,1,70,0,0
47767,-83.3333333333333,4,2,1,80,0,0
47914,-83.3333333333333,4,2,1,55,0,0
48209,-83.3333333333333,4,2,1,80,0,0
48429,-83.3333333333333,4,2,1,5,0,0
48503,-83.3333333333333,4,2,1,55,0,0
48797,-83.3333333333333,4,2,1,90,0,0
49091,-83.3333333333333,4,2,1,55,0,0
50120,-83.3333333333333,4,2,1,80,0,0
50267,-83.3333333333333,4,2,1,55,0,0
50561,-83.3333333333333,4,2,1,80,0,0
50782,-83.3333333333333,4,2,1,5,0,0
50856,-83.3333333333333,4,2,1,55,0,0
51150,-83.3333333333333,4,2,1,90,0,0
51297,-83.3333333333333,4,2,1,55,0,0
51885,-83.3333333333333,4,2,1,65,0,0
52179,-83.3333333333333,4,2,1,75,0,0
52473,-76.9230769230769,4,2,1,85,0,0
52620,-76.9230769230769,4,2,1,65,0,0
54826,-76.9230769230769,4,2,1,85,0,0
54973,-76.9230769230769,4,2,1,65,0,0
56885,-76.9230769230769,4,2,1,75,0,0
57179,-76.9230769230769,4,2,1,85,0,0
65856,-76.9230769230769,4,2,1,85,0,0
66003,-200,4,2,1,50,0,0
66076,-285.714285714286,4,2,1,5,0,0
66591,-100,4,2,1,85,0,1
66885,-100,4,2,1,70,0,1
67473,-100,4,2,1,95,0,1
67767,-100,4,2,1,70,0,1
68944,-100,4,2,1,85,0,1
69238,-100,4,2,1,70,0,1
69826,-100,4,2,1,95,0,1
70120,-100,4,2,1,70,0,1
71003,-100,4,2,1,80,0,1
71297,-100,4,2,1,90,0,1
71591,-100,4,2,1,70,0,1
72179,-100,4,2,1,100,0,1
72473,-100,4,2,1,70,0,1
73650,-83.3333333333333,4,2,1,80,0,1
73944,-83.3333333333333,4,2,1,90,0,1
74238,-83.3333333333333,4,2,1,100,0,1
74385,-83.3333333333333,4,2,1,80,0,1
74532,-83.3333333333333,4,2,1,60,0,1
74679,-100,4,2,1,85,0,0
75561,-166.666666666667,4,2,1,75,0,0
75929,-166.666666666667,4,2,1,5,0,0
76003,-100,4,2,1,85,0,1
76297,-100,4,2,1,70,0,1
76885,-100,4,2,1,95,0,1
77179,-100,4,2,1,70,0,1
78356,-100,4,2,1,85,0,1
78650,-100,4,2,1,70,0,1
79238,-100,4,2,1,95,0,1
79532,-100,4,2,1,70,0,1
80414,-100,4,2,1,80,0,1
80709,-100,4,2,1,90,0,1
81003,-100,4,2,1,70,0,1
81591,-100,4,2,1,100,0,1
81885,-100,4,2,1,70,0,1
83061,-100,4,2,1,90,0,1
83356,-100,4,2,1,70,0,1
83503,-100,4,2,1,90,0,1
83797,-100,4,2,1,70,0,1
83944,-83.3333333333333,4,2,1,100,0,1
84091,-83.3333333333333,4,2,1,50,0,1
84238,-83.3333333333333,4,2,1,100,0,1
84385,-83.3333333333333,4,2,1,50,0,1
84532,-83.3333333333333,4,2,1,100,0,1
84606,-83.3333333333333,4,2,1,70,0,1
85414,-71.4285714285714,4,2,1,85,0,0
85561,-71.4285714285714,4,2,1,65,0,0
85929,-71.4285714285714,4,2,1,5,0,0
86003,-71.4285714285714,4,2,1,65,0,0
87988,-71.4285714285714,4,2,1,5,0,0
88061,-71.4285714285714,4,2,1,65,0,0
90341,-71.4285714285714,4,2,1,5,0,0
90414,-71.4285714285714,4,2,1,65,0,0
92694,-71.4285714285714,4,2,1,5,0,0
92767,-71.4285714285714,4,2,1,65,0,0
94826,-71.4285714285714,4,2,1,85,0,0
95047,-71.4285714285714,4,2,1,5,0,0
95120,-71.4285714285714,4,2,1,65,0,0
97400,-71.4285714285714,4,2,1,5,0,0
97473,-71.4285714285714,4,2,1,65,0,0
99532,-71.4285714285714,4,2,1,70,0,0
99679,-71.4285714285714,4,2,1,45,0,0
99973,-71.4285714285714,4,2,1,75,0,0
100120,-71.4285714285714,4,2,1,50,0,0
100414,-71.4285714285714,4,2,1,80,0,0
100561,-71.4285714285714,4,2,1,55,0,0
100709,-71.4285714285714,4,2,1,75,0,0
101885,-71.4285714285714,4,2,1,85,0,0
102032,-71.4285714285714,4,2,1,60,0,0
102473,-71.4285714285714,4,2,1,90,0,0
102620,-71.4285714285714,4,2,1,65,0,0
103061,-71.4285714285714,4,2,1,75,0,0
103209,-71.4285714285714,4,2,1,45,0,0
103356,-71.4285714285714,4,2,1,75,0,0
103503,-71.4285714285714,4,2,1,80,0,0
103650,-71.4285714285714,4,2,1,85,0,0
103797,-71.4285714285714,4,2,1,90,0,0
103944,-71.4285714285714,4,2,1,95,0,0
104091,-142.857142857143,4,2,1,73,0,0
108650,-83.3333333333333,4,2,1,65,0,0
108944,-83.3333333333333,4,2,1,55,0,0
112400,-83.3333333333333,4,2,1,5,0,0
112473,-83.3333333333333,4,2,1,55,0,0
113061,-83.3333333333333,4,2,1,65,0,0
113356,-83.3333333333333,4,2,1,75,0,0
113650,-83.3333333333333,4,2,1,85,0,0
113797,-83.3333333333333,4,2,1,35,0,0
118061,-83.3333333333333,4,2,1,50,0,0
118356,-83.3333333333333,4,2,1,75,0,0
118503,-83.3333333333333,4,2,1,60,0,0
120709,-83.3333333333333,4,2,1,75,0,0
120856,-83.3333333333333,4,2,1,50,0,0
121003,-83.3333333333333,4,2,1,65,0,0
121297,-83.3333333333333,4,2,1,75,0,0
121591,-83.3333333333333,4,2,1,85,0,0
121811,-83.3333333333333,4,2,1,25,0,0
121885,-83.3333333333333,4,2,1,65,0,0
121959,-83.3333333333333,4,2,1,35,0,0
122179,-83.3333333333333,4,2,1,45,0,0
122473,-83.3333333333333,4,2,1,50,0,0
122767,-83.3333333333333,4,2,1,45,0,0
123061,-142.857142857143,4,2,1,75,0,0
123356,-142.857142857143,4,2,1,45,0,0
127767,-142.857142857143,4,2,1,65,0,0
127914,-142.857142857143,4,2,1,50,0,0
128356,-142.857142857143,4,2,1,55,0,0
128944,-142.857142857143,4,2,1,60,0,0
129238,-142.857142857143,4,2,1,65,0,0
129532,-142.857142857143,4,2,1,70,0,0
129826,-142.857142857143,4,2,1,75,0,0
130120,-142.857142857143,4,2,1,50,0,0
130414,-142.857142857143,4,2,1,60,0,0
130709,-142.857142857143,4,2,1,70,0,0
131003,-142.857142857143,4,2,1,80,0,0
131297,-100,4,2,1,60,0,0
132473,-100,4,2,1,17,0,0
136003,-100,4,2,1,45,0,0
136591,-142.857142857143,4,2,1,55,0,0
137106,-142.857142857143,4,2,1,5,0,0
137179,-111.111111111111,4,2,1,65,0,0
137400,-111.111111111111,4,2,1,5,0,0
137473,-111.111111111111,4,2,1,65,0,0
137694,-111.111111111111,4,2,1,5,0,0
137767,-111.111111111111,4,2,1,55,0,0
139532,-111.111111111111,4,2,1,65,0,0
139753,-111.111111111111,4,2,1,5,0,0
139826,-111.111111111111,4,2,1,65,0,0
140047,-111.111111111111,4,2,1,5,0,0
140120,-111.111111111111,4,2,1,55,0,0
141885,-111.111111111111,4,2,1,65,0,0
142106,-111.111111111111,4,2,1,5,0,0
142179,-111.111111111111,4,2,1,65,0,0
142400,-111.111111111111,4,2,1,5,0,0
142473,-111.111111111111,4,2,1,55,0,0
144238,-111.111111111111,4,2,1,65,0,0
144459,-111.111111111111,4,2,1,5,0,0
144532,-111.111111111111,4,2,1,65,0,0
144753,-111.111111111111,4,2,1,5,0,0
144826,-111.111111111111,4,2,1,55,0,0
145414,-111.111111111111,4,2,1,55,0,0
145561,-111.111111111111,4,2,1,33,0,0
146297,-111.111111111111,4,2,1,65,0,0
146885,-166.666666666667,4,2,1,50,0,0
147106,-166.666666666667,4,2,1,5,0,0
147179,-100,4,2,1,65,0,0
147473,-100,4,2,1,55,0,0
147767,-100,4,2,1,70,0,0
147914,-100,4,2,1,55,0,0
148944,-100,4,2,1,65,0,0
149164,-100,4,2,1,5,0,0
149238,-100,4,2,1,65,0,0
149459,-100,4,2,1,5,0,0
149532,-100,4,2,1,55,0,0
151297,-100,4,2,1,65,0,0
151517,-100,4,2,1,5,0,0
151591,-100,4,2,1,65,0,0
151811,-100,4,2,1,5,0,0
151885,-100,4,2,1,55,0,0
153650,-100,4,2,1,65,0,0
153870,-100,4,2,1,5,0,0
153944,-100,4,2,1,65,0,0
154164,-100,4,2,1,5,0,0
154238,-100,4,2,1,55,0,0
154826,-100,4,2,1,65,0,0
155120,-100,4,2,1,45,0,0
155414,-100,4,2,1,55,0,0
155561,-100,4,2,1,60,0,0
155709,-100,4,2,1,65,0,0
155856,-100,4,2,1,70,0,0
156003,-76.9230769230769,4,2,2,80,0,0
156150,-76.9230769230769,4,2,2,60,0,0
160709,-76.9230769230769,4,2,2,70,0,0
164238,-66.6666666666667,4,2,2,75,0,0
164826,-66.6666666666667,4,2,2,85,0,0
165120,-66.6666666666667,4,2,2,55,0,0
165414,-100,4,2,1,75,0,0
165561,-100,4,2,1,45,0,0
170120,-100,4,2,1,50,0,0
170709,-100,4,2,1,55,0,0
171297,-100,4,2,1,60,0,0
171885,-100,4,2,1,65,0,0
172473,-66.6666666666667,4,2,1,70,0,0
172620,-66.6666666666667,4,2,1,55,0,0
172914,-66.6666666666667,4,2,1,75,0,0
173061,-66.6666666666667,4,2,1,55,0,0
173650,-66.6666666666667,4,2,1,75,0,0
173944,-66.6666666666667,4,2,1,80,0,0
174238,-66.6666666666667,4,2,1,85,0,0
185414,-200,4,2,1,40,0,0
192473,-187.695190505934,4,2,1,25,0,0
192492,-187.695190505934,4,2,2,5,0,0
193356,-100,4,2,1,25,0,0
193374,-100,4,2,2,5,0,0
194826,-100,4,2,1,55,0,0
196591,-200,4,2,1,50,0,0
196664,-200,4,2,1,5,0,0
197179,-100,4,2,1,85,0,1
197473,-100,4,2,1,70,0,1
198061,-100,4,2,1,95,0,1
198355,-100,4,2,1,70,0,1
199532,-100,4,2,1,85,0,1
199826,-100,4,2,1,70,0,1
200414,-100,4,2,1,95,0,1
200708,-100,4,2,1,70,0,1
201591,-100,4,2,1,80,0,1
201885,-100,4,2,1,90,0,1
202179,-100,4,2,1,70,0,1
202767,-100,4,2,1,100,0,1
203061,-100,4,2,1,70,0,1
204238,-83.3333333333333,4,2,1,80,0,1
204532,-83.3333333333333,4,2,1,90,0,1
204826,-83.3333333333333,4,2,1,100,0,1
204973,-83.3333333333333,4,2,1,80,0,1
205120,-83.3333333333333,4,2,1,60,0,1
205267,-100,4,2,1,85,0,0
206150,-100,4,2,1,65,0,0
206591,-71.4285714285714,4,2,1,85,0,1
206738,-71.4285714285714,4,2,1,70,0,1
208944,-71.4285714285714,4,2,1,85,0,1
209091,-71.4285714285714,4,2,1,70,0,1
211297,-71.4285714285714,4,2,1,85,0,1
211444,-71.4285714285714,4,2,1,70,0,1
213650,-71.4285714285714,4,2,1,75,0,1
213797,-71.4285714285714,4,2,1,65,0,1
214091,-71.4285714285714,4,2,1,75,0,1
214238,-71.4285714285714,4,2,1,65,0,1
214532,-71.4285714285714,4,2,1,80,0,1
214826,-71.4285714285714,4,2,1,85,0,1
215120,-71.4285714285714,4,2,1,90,0,1
215414,-71.4285714285714,4,2,1,65,0,1
216003,-66.6666666666667,4,2,1,85,0,0
216150,-66.6666666666667,4,2,1,67,0,0
233650,-66.6666666666667,4,2,1,70,0,0
233944,-66.6666666666667,4,2,1,75,0,0
234238,-66.6666666666667,4,2,1,80,0,0
234532,-66.6666666666667,4,2,1,85,0,0

[Colours]
Combo1 : 211,214,190
Combo2 : 143,129,173
Combo3 : 228,154,105

[HitObjects]
184,346,17179,6,0,P|218:338|248:309,1,69.9999978637696,2|0,0:3|0:0,0:0:0:0:
266,235,17620,1,2,0:3:0:0:
424,164,18061,6,0,P|400:138|359:127,1,69.9999978637696,2|0,0:3|0:0,0:0:0:0:
286,148,18502,1,2,0:3:0:0:
146,47,18797,5,4,3:0:0:0:
119,128,18944,2,2,P|68:152|12:140,1,115.499997708893,8|0,0:0|0:0,0:0:0:0:
12,140,19532,6,0,B|57:204|57:204|50:273,1,139.999995727539,8|0,0:0|1:0,0:0:0:0:
90,347,19973,2,0,P|131:379|218:367,1,139.999995727539,8|0,0:0|1:0,0:0:0:0:
286,313,20414,2,0,L|357:324,1,69.9999978637696,10|0,0:0|1:0,0:0:0:0:
432,373,20709,6,0,B|396:322|396:322|404:244,1,139.999995727539,10|0,0:0|1:0,0:0:0:0:
459,171,21150,2,0,B|408:207|408:207|330:198,1,139.999995727539,10|0,0:0|1:0,0:0:0:0:
241,183,21591,2,0,P|217:150|212:112,1,69.9999978637696,10|0,0:0|1:0,0:0:0:0:
267,27,21885,6,0,P|213:70|144:75,1,139.999995727539,10|0,0:0|1:0,0:0:0:0:
65,29,22326,2,0,P|108:82|113:151,1,139.999995727539,10|0,0:0|1:0,0:0:0:0:
39,204,22767,2,0,P|16:233|20:272,1,69.9999978637696,10|0,0:0|1:0,0:0:0:0:
65,342,23061,6,0,L|134:335,1,69.9999978637696,10|0,0:0|1:0,0:0:0:0:
218,371,23356,1,0,1:0:0:0:
274,299,23503,2,0,L|343:305,2,69.9999978637696,10|0|0,0:0|1:0|1:0,0:0:0:0:
189,265,23944,2,0,P|171:235|168:200,1,69.9999978637696,10|0,0:0|1:0,0:0:0:0:
199,115,24238,6,0,L|338:124,1,139.999995727539,8|0,0:0|1:0,0:0:0:0:
423,156,24679,2,0,P|456:138|472:109,2,69.9999978637696,8|0|0,0:0|1:0|1:0,0:0:0:0:
352,213,25120,2,0,P|349:243|371:287,1,69.9999978637696,10|0,0:0|1:0,0:0:0:0:
427,343,25414,6,0,B|354:309|354:309|295:318,1,139.999995727539,10|0,0:0|1:0,0:0:0:0:
223,375,25856,2,0,L|70:359,1,139.999995727539,10|0,0:0|1:0,0:0:0:0:
7,314,26297,2,0,P|39:274|40:248,1,69.9999978637696,10|0,0:0|1:0,0:0:0:0:
0,154,26591,6,0,L|138:172,1,139.999995727539,10|0,0:0|1:0,0:0:0:0:
234,240,27032,2,0,L|215:101,1,139.999995727539,10|0,0:0|1:0,0:0:0:0:
195,6,27473,2,0,L|264:14,1,69.9999978637696,10|0,0:0|1:0,0:0:0:0:
326,101,27767,6,0,P|397:122|466:74,1,139.999995727539,10|0,0:0|1:0,0:0:0:0:
384,29,28209,2,0,L|399:168,1,139.999995727539,10|0,0:0|1:0,0:0:0:0:
473,221,28650,2,0,L|463:290,1,69.9999978637696,0|0,1:0|1:0,0:0:0:0:
408,362,28944,6,0,P|375:381|331:382,1,69.9999978637696,8|0,0:0|1:0,0:0:0:0:
272,328,29238,1,0,1:0:0:0:
195,279,29385,2,0,P|160:283|130:301,2,69.9999978637696,8|0|0,0:0|1:0|1:0,0:0:0:0:
276,237,29826,2,0,P|295:208|296:160,1,69.9999978637696,10|0,0:0|1:0,0:0:0:0:
285,83,30120,6,0,L|141:68,1,139.999995727539,10|0,0:0|1:0,0:0:0:0:
63,29,30561,2,0,B|1:100|1:100|7:163,1,139.999995727539,10|0,0:0|1:0,0:0:0:0:
79,199,31003,2,0,P|102:220|120:265,1,69.9999978637696,10|0,0:0|1:0,0:0:0:0:
54,341,31297,6,0,P|110:300|178:299,1,139.999995727539,10|0,0:0|1:0,0:0:0:0:
265,359,31738,2,0,P|224:302|223:234,1,139.999995727539,10|0,0:0|1:0,0:0:0:0:
251,147,32179,2,0,L|242:66,1,69.9999978637696,10|0,0:0|1:0,0:0:0:0:
322,33,32473,6,0,P|404:43|403:86,1,139.999995727539,10|0,0:0|1:0,0:0:0:0:
346,152,32914,2,0,B|374:191|374:191|489:177,1,139.999995727539,10|0,0:0|1:0,0:0:0:0:
472,271,33356,2,0,P|463:305|437:327,1,69.9999978637696,10|0,0:0|1:0,0:0:0:0:
355,360,33650,6,0,L|272:342,1,69.9999978637696,8|0,0:0|1:0,0:0:0:0:
205,384,33944,1,0,1:0:0:0:
134,326,34091,2,0,L|65:340,2,69.9999978637696,8|0|0,0:0|1:0|1:0,0:0:0:0:
219,294,34532,2,0,L|228:218,1,69.9999978637696,10|0,0:0|1:0,0:0:0:0:
235,133,34826,6,0,P|210:106|179:91,1,69.9999978637696,10|0,0:0|1:0,0:0:0:0:
97,130,35120,1,0,1:0:0:0:
111,40,35267,2,0,B|137:-3|192:3|192:3|240:30,1,139.999995727539,10|0,0:0|1:0,0:0:0:0:
306,77,35709,2,0,L|420:66,1,104.999996795654,10|0,0:0|2:0,0:0:0:0:
427,59,36003,6,0,B|413:124|478:121|465:188,1,139.999995727539,4|8,1:0|0:0,0:0:0:0:
413,361,36591,2,0,P|372:305|302:297,1,139.999995727539,0|0,1:0|0:0,0:0:0:0:
220,328,37032,1,8,0:0:0:0:
238,238,37179,2,0,B|235:163|235:163|174:120,1,139.999995727539,2|8,0:0|0:0,0:0:0:0:
72,270,37767,6,0,L|2:278,2,69.9999978637696,8|4|8,0:0|0:3|0:0,0:0:0:0:
232,357,38356,1,4,1:0:0:0:
38,62,41738,6,0,L|157:64,1,110.000003356934,8|0,0:0|1:0,0:0:0:0:
165,56,42106,1,0,1:0:0:0:
183,49,42179,2,0,P|208:50|235:63,1,55.0000016784668,8|0,0:0|0:0,0:0:0:0:
301,119,42473,2,0,L|375:116,2,55.0000016784668,8|8|4,0:0|0:3|0:3,0:0:0:0:
119,181,43061,6,0,P|166:215|183:272,1,119.999996337891,10|0,0:0|1:0,0:0:0:0:
154,364,43503,2,0,L|214:354,1,59.9999981689454,8|0,0:0|1:0,0:0:0:0:
306,376,43797,1,0,1:0:0:0:
277,284,43944,2,0,P|285:254|313:229,1,59.9999981689454,10|0,0:0|1:0,0:0:0:0:
392,195,44238,6,0,L|511:200,1,119.999996337891,10|0,0:0|1:0,0:0:0:0:
495,294,44679,2,0,L|375:288,1,119.999996337891,10|0,0:0|1:0,0:0:0:0:
315,364,45121,2,0,P|288:377|259:383,1,59.9999981689454,10|0,0:0|1:0,0:0:0:0:
178,331,45414,6,0,L|95:323,2,59.9999981689454,10|0|0,0:0|1:0|1:0,0:0:0:0:
265,290,45856,1,10,0:0:0:0:
217,206,46003,2,0,B|150:190|150:190|81:224,1,119.999996337891,0|8,1:0|0:0,0:0:0:0:
26,36,46591,6,0,L|105:48,1,59.9999981689454,0|0,1:0|1:0,0:0:0:0:
179,61,46885,1,8,0:0:0:0:
16,162,47179,2,0,P|1:196|7:241,1,59.9999981689454,8|8,0:3|0:3,0:0:0:0:
13,313,47473,2,0,P|34:342|76:360,1,59.9999981689454,4|4,0:3|0:3,0:0:0:0:
149,360,47767,6,0,L|143:220,1,119.999996337891,4|8,1:0|0:0,0:0:0:0:
162,145,48209,2,0,P|204:186|262:196,1,119.999996337891,4|0,1:0|1:0,0:0:0:0:
349,155,48650,1,8,0:0:0:0:
435,113,48797,6,0,B|487:177|487:177|486:232,1,119.999996337891,4|0,1:0|1:0,0:0:0:0:
475,309,49238,2,0,P|462:328|418:351,1,59.9999981689454,8|0,0:0|1:0,0:0:0:0:
350,296,49532,2,0,P|332:280|284:270,1,59.9999981689454,2|0,0:0|1:0,0:0:0:0:
276,279,49753,1,0,1:0:0:0:
254,288,49826,2,0,L|194:284,1,59.9999981689454,8|0,0:0|0:0,0:0:0:0:
98,300,50120,6,0,P|60:257|62:198,1,119.999996337891,4|8,1:0|0:0,0:0:0:0:
96,108,50561,2,0,L|215:103,1,119.999996337891,4|0,1:0|1:0,0:0:0:0:
283,172,51003,1,8,0:0:0:0:
305,78,51150,6,0,P|322:53|349:41,1,59.9999981689454,4|0,1:0|0:0,0:0:0:0:
445,49,51444,2,0,P|470:64|484:90,1,59.9999981689454,8|8,0:0|0:0,0:0:0:0:
391,137,51738,1,0,1:0:0:0:
358,227,51885,2,0,L|385:295,1,59.9999981689454,8|0,0:0|1:0,0:0:0:0:
408,374,52179,2,0,L|340:363,1,59.9999981689454,8|0,0:0|1:0,0:0:0:0:
266,325,52473,6,0,L|191:339,2,64.9999970245363,4|0|0,1:0|1:0|1:0,0:0:0:0:
347,278,52914,2,0,L|422:292,2,64.9999970245363,10|0|0,0:0|1:0|1:0,0:0:0:0:
265,236,53356,2,0,P|245:195|251:161,1,64.9999970245363,10|0,0:0|1:0,0:0:0:0:
315,116,53650,6,0,L|378:127,2,64.9999970245363,10|0|0,0:0|1:0|1:0,0:0:0:0:
233,76,54091,2,0,L|169:87,2,64.9999970245363,8|0|0,0:0|1:0|1:0,0:0:0:0:
310,28,54532,2,0,L|373:40,1,64.9999970245363,10|0,0:0|1:0,0:0:0:0:
457,77,54826,6,0,P|495:135|489:209,1,129.999994049073,4|8,1:0|0:0,0:0:0:0:
454,275,55267,2,0,P|425:291|379:282,1,64.9999970245363,2|0,0:0|1:0,0:0:0:0:
307,261,55561,2,0,L|299:174,1,64.9999970245363,10|0,0:0|1:0,0:0:0:0:
340,113,55856,1,0,1:0:0:0:
256,76,56003,6,0,P|233:52|217:24,2,64.9999970245363,10|0|10,0:0|1:0|0:0,0:0:0:0:
383,186,56591,2,0,P|431:171|467:133,1,97.4999955368044,0|8,0:0|0:0,0:0:0:0:
476,115,56885,2,0,L|464:244,1,129.999994049073,4|4,1:3|1:0,0:0:0:0:
256,17,66003,6,0,L|252:104,1,87.5,4|0,0:3|0:0,0:0:0:0:
246,125,66591,6,0,P|319:93|388:111,1,150,4|0,1:0|1:0,0:0:0:0:
447,173,67179,2,0,L|445:222,1,50,8|0,0:0|0:0,0:0:0:0:
506,288,67473,6,0,P|439:256|367:271,1,150,4|8,1:0|0:0,0:0:0:0:
209,358,68209,1,0,1:0:0:0:
209,358,68356,2,0,L|220:241,1,100,8|0,0:0|1:0,0:0:0:0:
273,187,68797,1,8,0:0:0:0:
253,99,68944,6,0,P|192:57|119:66,1,150,4|0,1:0|1:0,0:0:0:0:
60,134,69532,2,0,L|62:183,1,50,8|0,0:0|0:0,0:0:0:0:
9,256,69826,6,0,P|69:214|142:223,1,150,4|8,1:0|0:0,0:0:0:0:
192,298,70414,2,0,L|241:294,1,50,0|0,1:0|1:0,0:0:0:0:
307,231,70709,2,0,L|356:234,1,50,8|0,0:0|1:0,0:0:0:0:
435,278,71003,1,8,0:0:0:0:
466,193,71150,1,8,0:0:0:0:
494,107,71297,6,0,P|456:65|407:54,1,100,4|0,1:0|0:0,0:0:0:0:
340,102,71738,1,0,1:0:0:0:
266,153,71885,2,0,L|193:155,1,50,8|0,0:0|0:0,0:0:0:0:
151,217,72179,6,0,P|76:223|21:173,1,150,4|8,1:0|0:0,0:0:0:0:
150,46,72914,1,0,1:0:0:0:
150,46,73061,2,0,B|110:83|110:83|106:130,1,100,8|0,0:0|1:0,0:0:0:0:
165,333,73650,6,0,P|187:313|213:299,1,59.9999981689454,12|0,0:0|1:0,0:0:0:0:
257,213,73944,2,0,P|286:209|316:213,1,59.9999981689454,12|0,0:0|1:0,0:0:0:0:
389,151,74238,2,0,P|444:180|483:238,1,119.999996337891,8|4,0:0|0:3,0:0:0:0:
464,311,74679,5,4,0:3:0:0:
309,351,74973,1,4,0:3:0:0:
481,305,75267,1,4,0:3:0:0:
346,228,75561,5,4,0:3:0:0:
346,228,75709,2,0,L|291:236,1,44.999998626709,8|0,0:0|0:0,0:0:0:0:
287,251,76003,6,0,B|235:245|235:245|193:221|193:221|144:224,1,150,4|0,1:0|1:0,0:0:0:0:
64,266,76591,2,0,P|46:282|30:310,1,50,8|0,0:0|0:0,0:0:0:0:
93,369,76885,6,0,L|263:360,1,150,4|8,1:0|0:0,0:0:0:0:
271,163,77621,1,0,1:0:0:0:
271,163,77768,2,0,P|226:121|177:114,1,100,8|0,0:0|0:0,0:0:0:0:
108,152,78209,1,8,0:0:0:0:
73,235,78356,6,0,P|81:162|37:103,1,150,4|0,1:0|1:0,0:0:0:0:
21,14,78944,2,0,L|72:10,1,50,8|0,0:0|0:0,0:0:0:0:
153,44,79238,6,0,B|250:18|250:18|295:37,1,150,4|8,1:0|0:0,0:0:0:0:
358,102,79826,2,0,L|411:96,1,50,0|0,1:0|1:0,0:0:0:0:
445,177,80120,2,0,L|395:182,1,50,8|0,0:0|1:0,0:0:0:0:
330,245,80415,1,8,0:0:0:0:
381,318,80562,1,8,0:0:0:0:
306,367,80709,6,0,B|231:388|249:313|164:343,1,150,4|0,1:0|1:0,0:0:0:0:
78,362,81297,2,0,B|53:351|53:351|30:313,1,50,8|0,0:0|0:0,0:0:0:0:
112,276,81591,6,0,L|115:97,1,150,4|8,1:0|0:0,0:0:0:0:
270,35,82326,1,0,1:0:0:0:
270,35,82473,2,0,P|255:82|294:115,1,100,8|8,0:0|0:0,0:0:0:0:
468,132,83061,6,0,B|400:135|400:135|376:157,1,100,4|0,1:0|0:0,0:0:0:0:
308,216,83503,2,0,L|195:213,1,100,8|0,0:0|1:0,0:0:0:0:
131,155,83944,5,4,1:0:0:0:
217,326,84238,1,0,1:0:0:0:
28,287,84532,6,0,L|90:278,1,59.9999981689454,8|0,0:0|1:0,0:0:0:0:
173,235,84826,2,0,L|235:244,1,59.9999981689454,0|0,1:0|1:0,0:0:0:0:
309,300,85120,2,0,L|371:291,1,59.9999981689454,0|0,1:0|1:0,0:0:0:0:
456,328,85414,6,0,B|499:271|499:271|488:183,1,139.999995727539,4|8,1:0|0:0,0:0:0:0:
376,42,86003,2,0,L|371:111,1,69.9999978637696,0|0,1:0|1:0,0:0:0:0:
317,192,86297,2,0,P|287:212|254:220,1,69.9999978637696,2|8,0:0|0:0,0:0:0:0:
156,209,86591,2,0,L|171:364,1,139.999995727539,2|8,0:0|0:0,0:0:0:0:
77,380,87032,2,0,L|63:240,1,139.999995727539,2|0,0:0|1:0,0:0:0:0:
9,159,87473,1,10,0:0:0:0:
9,159,87767,6,0,P|47:101|105:128,1,139.999995727539,4|10,1:0|0:0,0:0:0:0:
181,182,88209,2,0,B|160:271|160:271|163:324,1,139.999995727539,0|0,0:0|1:0,0:0:0:0:
248,366,88650,2,0,L|332:378,1,69.9999978637696,2|8,0:0|0:0,0:0:0:0:
408,338,88944,6,0,P|371:274|367:191,1,139.999995727539,2|8,0:0|0:0,0:0:0:0:
286,148,89385,2,0,P|308:83|356:32,1,139.999995727539,2|0,0:0|1:0,0:0:0:0:
454,33,89826,1,10,0:0:0:0:
497,120,89973,1,8,0:0:0:0:
504,217,90120,6,0,L|364:208,1,139.999995727539,4|8,1:0|0:0,0:0:0:0:
192,116,90709,2,0,L|94:122,1,69.9999978637696,0|0,1:0|1:0,0:0:0:0:
28,152,91003,2,0,P|16:192|12:228,1,69.9999978637696,2|8,0:0|0:0,0:0:0:0:
36,316,91297,2,0,P|96:296|188:284,1,139.999995727539,2|8,0:0|0:0,0:0:0:0:
256,336,91738,2,0,P|272:288|224:200,1,139.999995727539,2|0,0:0|1:0,0:0:0:0:
228,112,92179,1,10,0:0:0:0:
228,112,92473,6,0,P|264:72|352:96,1,139.999995727539,4|8,1:0|0:0,0:0:0:0:
440,68,92914,2,0,B|456:164|456:164|428:224,1,139.999995727539,0|0,0:0|1:0,0:0:0:0:
396,292,93356,2,0,P|344:272|304:260,1,69.9999978637696,2|8,0:0|0:0,0:0:0:0:
236,292,93650,6,0,B|217:253|217:253|233:157,1,139.999995727539,2|8,0:0|0:0,0:0:0:0:
208,64,94091,2,0,L|52:84,1,139.999995727539,2|8,0:0|0:0,0:0:0:0:
44,85,94459,1,8,0:0:0:0:
20,89,94532,2,0,P|7:129|6:164,1,69.9999978637696,8|8,0:0|0:0,0:0:0:0:
36,248,94826,6,0,B|108:260|108:260|204:232,1,139.999995727539,4|8,1:0|0:0,0:0:0:0:
348,324,95414,2,0,P|368:276|368:240,1,69.9999978637696,0|0,1:0|1:0,0:0:0:0:
432,184,95709,2,0,L|424:96,1,69.9999978637696,2|8,0:0|0:0,0:0:0:0:
492,40,96003,2,0,B|452:12|452:12|340:28,1,139.999995727539,2|8,0:0|0:0,0:0:0:0:
304,104,96444,2,0,P|256:68|156:88,1,139.999995727539,2|0,0:0|1:0,0:0:0:0:
116,148,96885,1,10,0:0:0:0:
116,148,97179,6,0,L|132:292,1,139.999995727539,4|8,1:0|0:0,0:0:0:0:
228,300,97620,2,0,L|212:160,1,139.999995727539,0|0,0:0|1:0,0:0:0:0:
176,72,98061,2,0,P|120:52|88:56,1,69.9999978637696,2|8,0:0|0:0,0:0:0:0:
16,32,98356,6,0,P|36:96|-4:176,1,139.999995727539,2|8,0:0|0:0,0:0:0:0:
80,232,98797,2,0,L|244:216,1,139.999995727539,2|0,0:0|1:0,0:0:0:0:
237,234,99164,1,0,1:0:0:0:
256,249,99238,2,0,L|342:240,1,69.9999978637696,10|0,0:0|1:0,0:0:0:0:
412,288,99532,6,0,L|498:297,2,69.9999978637696,8|4|4,0:0|0:3|0:3,0:0:0:0:
408,192,99973,2,0,P|420:160|412:108,2,69.9999978637696,8|4|4,0:0|0:3|0:3,0:0:0:0:
325,241,100414,2,0,P|313:273|321:325,1,69.9999978637696,8|4,0:0|0:3,0:0:0:0:
232,360,100709,6,0,L|148:364,2,69.9999978637696,10|4|4,0:0|0:3|0:3,0:0:0:0:
184,276,101150,2,0,L|100:272,2,69.9999978637696,10|4|4,0:0|0:3|0:3,0:0:0:0:
248,204,101591,2,0,P|260:172|252:120,1,69.9999978637696,10|4,0:0|0:3,0:0:0:0:
264,40,101885,6,0,P|225:43|184:48,1,69.9999978637696,10|4,0:0|0:3,0:0:0:0:
96,40,102179,2,0,L|104:136,1,69.9999978637696,4|8,0:3|0:3,0:0:0:0:
160,188,102473,2,0,L|152:284,1,69.9999978637696,6|4,0:3|0:3,0:0:0:0:
108,344,102767,2,0,P|69:340|28:336,1,69.9999978637696,14|4,0:3|0:3,0:0:0:0:
12,244,103061,5,10,0:0:0:0:
12,244,103356,2,0,P|51:248|92:252,1,69.9999978637696,8|8,0:0|0:0,0:0:0:0:
160,188,103650,2,0,P|199:184|240:180,2,69.9999978637696,8|8|8,0:0|0:0|0:0,0:0:0:0:
76,144,104091,6,0,P|77:123|80:104,1,34.9999989318848,4|2,0:0|0:0,0:0:0:0:
79,109,108650,5,8,0:0:0:0:
79,109,108944,6,0,P|120:152|112:232,1,119.999996337891,4|8,1:0|0:0,0:0:0:0:
72,292,109385,2,0,P|100:320|128:336,1,59.9999981689454,0|8,1:0|0:3,0:0:0:0:
208,304,109679,1,0,1:0:0:0:
280,368,109826,2,0,L|352:356,1,59.9999981689454,8|0,0:0|1:0,0:0:0:0:
432,384,110120,6,0,L|440:252,1,119.999996337891,0|8,1:0|0:0,0:0:0:0:
364,204,110561,2,0,L|372:72,1,119.999996337891,0|0,1:0|1:0,0:0:0:0:
432,8,111003,2,0,L|516:24,1,59.9999981689454,8|0,0:0|1:0,0:0:0:0:
508,112,111297,6,0,B|432:96|432:96|392:116,1,119.999996337891,0|8,1:0|0:0,0:0:0:0:
312,164,111738,1,0,1:0:0:0:
228,212,111885,2,0,B|190:230|190:230|114:214,1,119.999996337891,8|8,0:3|0:0,0:0:0:0:
8,56,112473,6,0,P|52:40|88:40,1,59.9999981689454,0|0,1:0|1:0,0:0:0:0:
160,52,112767,1,8,0:0:0:0:
28,192,113061,2,0,L|36:272,1,59.9999981689454,8|8,0:0|0:0,0:0:0:0:
120,296,113356,2,0,L|125:236,1,59.9999981689454,8|8,0:0|0:0,0:0:0:0:
184,160,113650,6,0,P|232:176|264:192,1,59.9999981689454,4|0,1:0|1:0,0:0:0:0:
364,328,114091,1,0,1:0:0:0:
424,252,114238,2,0,L|292:240,1,119.999996337891,8|0,0:0|1:0,0:0:0:0:
212,260,114679,6,0,B|217:307|217:307|227:330|227:330|234:394,2,119.999996337891,8|0|0,0:0|1:0|1:0,0:0:0:0:
336,116,115561,2,0,L|348:32,2,59.9999981689454,0|8|0,1:0|0:0|0:0,0:0:0:0:
256,168,116003,6,0,P|240:120|240:96,1,59.9999981689454,0|0,1:0|1:0,0:0:0:0:
72,16,116444,1,0,1:0:0:0:
4,84,116591,2,0,B|36:108|36:108|140:104,1,119.999996337891,8|0,0:0|1:0,0:0:0:0:
208,80,117032,6,0,P|224:120|188:208,1,119.999996337891,8|0,0:0|1:0,0:0:0:0:
120,240,117473,2,0,P|136:288|148:316,1,59.9999981689454,8|0,0:0|1:0,0:0:0:0:
192,376,117767,2,0,B|240:344|240:344|312:352,1,119.999996337891,0|8,1:0|0:0,0:0:0:0:
488,308,118356,6,0,P|504:256|464:184,1,119.999996337891,4|8,1:0|0:0,0:0:0:0:
388,172,118797,1,0,1:0:0:0:
304,216,118944,2,0,P|296:180|296:144,1,59.9999981689454,0|0,1:0|1:0,0:0:0:0:
252,72,119238,6,0,B|360:40|327:117|450:76,1,179.999994506836,8|0,0:0|1:0,0:0:0:0:
508,136,119826,2,0,P|500:172|488:208,1,59.9999981689454,8|0,0:0|1:0,0:0:0:0:
484,288,120120,2,0,L|408:280,1,59.9999981689454,0|0,1:0|1:0,0:0:0:0:
356,212,120414,2,0,L|280:220,1,59.9999981689454,8|0,0:0|1:0,0:0:0:0:
212,268,120709,5,4,1:0:0:0:
32,200,121003,2,0,P|32:156|40:124,1,59.9999981689454,8|0,0:0|1:0,0:0:0:0:
4,52,121297,2,0,L|64:48,1,59.9999981689454,8|0,0:0|1:0,0:0:0:0:
156,16,121591,2,0,L|216:20,1,59.9999981689454,8|0,0:0|1:0,0:0:0:0:
236,31,121811,1,0,1:0:0:0:
257,44,121885,6,0,P|264:77|267:131,1,59.9999981689454,8|8,0:0|0:0,0:0:0:0:
358,133,122179,2,0,P|350:97|348:46,1,59.9999981689454,8|8,0:3|0:3,0:0:0:0:
414,5,122473,2,0,P|461:16|489:37,1,59.9999981689454,8|0,0:3|1:0,0:0:0:0:
490,35,122694,1,0,1:0:0:0:
506,52,122767,2,0,L|496:135,1,59.9999981689454,8|4,0:0|0:3,0:0:0:0:
470,217,123061,6,0,L|478:297,1,69.9999978637696,4|0,1:0|0:0,0:0:0:0:
389,330,123650,2,0,L|381:250,1,69.9999978637696,0|0,1:0|1:0,0:0:0:0:
286,240,124238,2,0,L|294:320,1,69.9999978637696,0|0,1:0|1:0,0:0:0:0:
205,353,124827,2,0,L|197:273,1,69.9999978637696,0|0,1:0|0:0,0:0:0:0:
130,212,125414,6,0,P|155:194|203:187,1,69.9999978637696,0|0,1:0|1:0,0:0:0:0:
276,237,126003,2,0,P|301:255|349:262,1,69.9999978637696,0|0,1:0|1:0,0:0:0:0:
435,247,126591,2,0,L|444:164,1,69.9999978637696,0|0,1:0|1:0,0:0:0:0:
511,107,127179,2,0,L|502:24,1,69.9999978637696,0|0,1:0|1:0,0:0:0:0:
407,17,127767,6,0,P|397:49|367:82,1,69.9999978637696,4|0,1:0|1:0,0:0:0:0:
367,174,128356,2,0,P|337:189|292:190,1,69.9999978637696,0|0,1:0|1:0,0:0:0:0:
227,254,128944,2,0,P|195:242|163:211,1,69.9999978637696,0|0,1:0|1:0,0:0:0:0:
72,209,129532,2,0,P|58:178|58:133,1,69.9999978637696,0|0,1:0|1:0,0:0:0:0:
6,58,130120,5,8,0:0:0:0:
103,46,130414,1,8,0:0:0:0:
200,34,130709,1,8,0:0:0:0:
297,23,131003,1,8,0:0:0:0:
394,12,131297,6,0,L|386:127,1,100,0|0,1:0|1:0,0:0:0:0:
235,209,131885,2,0,L|239:266,1,50,8|8,0:0|0:3,0:0:0:0:
321,292,132179,2,0,L|317:349,1,50,4|4,0:3|0:3,0:0:0:0:
235,377,132473,1,2,0:3:0:0:
320,292,136003,5,0,0:0:0:0:
320,292,136297,2,0,L|252:297,1,50,0|0,1:0|1:0,0:0:0:0:
163,257,136591,6,0,P|154:224|185:155,1,104.999996795654,8|0,0:0|0:0,0:0:0:0:
207,146,137179,6,0,L|271:151,1,44.999998626709,6|0,1:0|0:0,0:0:0:0:
320,200,137473,2,0,L|384:195,1,44.999998626709,6|0,1:0|0:0,0:0:0:0:
444,228,137767,1,8,0:0:0:0:
504,168,137914,2,0,L|496:60,1,89.9999972534181,2|0,1:0|0:0,0:0:0:0:
420,116,138356,2,0,L|412:8,1,89.9999972534181,2|0,1:0|0:0,0:0:0:0:
336,64,138797,1,2,1:0:0:0:
264,16,138944,5,10,0:0:0:0:
128,120,139238,1,2,0:0:0:0:
280,200,139532,6,0,P|232:192|220:192,1,44.999998626709,6|0,1:0|0:0,0:0:0:0:
176,256,139826,2,0,P|128:264|116:264,1,44.999998626709,6|0,1:0|0:0,0:0:0:0:
60,308,140120,1,8,0:0:0:0:
8,240,140267,2,0,L|16:140,1,89.9999972534181,2|0,1:0|0:0,0:0:0:0:
92,108,140709,5,0,1:0:0:0:
64,28,140856,2,0,B|111:23|111:23|153:50,1,89.9999972534181,2|0,1:0|0:0,0:0:0:0:
220,92,141297,1,10,0:0:0:0:
100,212,141591,1,2,0:0:0:0:
168,368,141885,6,0,P|172:340|180:304,1,44.999998626709,6|0,1:0|0:0,0:0:0:0:
252,288,142179,2,0,P|248:260|240:224,1,44.999998626709,6|0,1:0|0:0,0:0:0:0:
188,180,142473,1,8,0:0:0:0:
244,116,142620,2,0,L|352:120,1,89.9999972534181,2|0,1:0|0:0,0:0:0:0:
316,204,143061,2,0,L|424:208,1,89.9999972534181,2|0,1:0|0:0,0:0:0:0:
388,292,143503,1,2,1:0:0:0:
472,296,143650,5,10,0:0:0:0:
420,132,143944,2,0,P|424:104|432:76,1,44.999998626709,2|0,0:0|0:0,0:0:0:0:
356,40,144238,6,0,P|352:68|344:96,1,44.999998626709,6|0,1:0|0:0,0:0:0:0:
280,136,144532,2,0,P|284:164|292:192,1,44.999998626709,6|0,1:0|0:0,0:0:0:0:
320,260,144826,1,8,0:0:0:0:
288,340,144973,2,0,B|257:355|223:361|223:361|189:343|162:313,1,134.999995880127,2|8,1:0|0:0,0:0:0:0:
169,321,146297,6,0,L|172:256,1,44.999998626709,10|10,0:0|0:0,0:0:0:0:
44,160,146885,5,0,1:0:0:0:
44,160,147179,6,0,P|68:140|152:148,1,100,6|0,1:0|0:0,0:0:0:0:
192,204,147620,1,0,0:0:0:0:
280,188,147767,2,0,B|344:200|344:200|400:188,1,100,6|0,1:0|0:0,0:0:0:0:
440,128,148209,1,2,1:0:0:0:
508,188,148356,6,0,L|504:237,1,50,10|0,0:0|0:0,0:0:0:0:
436,296,148650,2,0,L|432:356,1,50,2|0,1:0|0:0,0:0:0:0:
344,320,148944,6,0,L|340:271,1,50,6|0,1:0|0:0,0:0:0:0:
272,212,149238,2,0,L|268:152,1,50,6|0,1:0|0:0,0:0:0:0:
316,84,149532,1,8,0:0:0:0:
228,60,149679,2,0,P|192:68|164:84,1,50,2|0,1:0|0:0,0:0:0:0:
0,92,150120,6,0,B|20:122|20:122|29:206,1,100,2|2,1:0|0:0,0:0:0:0:
72,264,150561,2,0,P|100:268|140:264,1,50,0|8,0:0|0:0,0:0:0:0:
208,240,150856,2,0,P|232:246|254:256,2,50,2|2|2,0:0|0:0|0:0,0:0:0:0:
136,184,151297,6,0,L|132:120,1,50,6|0,1:0|0:0,0:0:0:0:
216,104,151591,2,0,L|212:40,1,50,6|0,1:0|0:0,0:0:0:0:
300,32,151885,1,8,0:0:0:0:
364,95,152032,2,0,L|360:159,1,50,2|0,1:0|0:0,0:0:0:0:
208,240,152473,6,0,P|216:276|232:308,1,50,2|0,1:0|0:0,0:0:0:0:
308,308,152767,2,0,P|335:283|354:253,1,50,2|0,1:0|0:0,0:0:0:0:
320,184,153061,1,10,0:0:0:0:
484,260,153356,2,0,P|496:225|499:189,1,50,2|2,0:0|0:0,0:0:0:0:
488,124,153650,6,0,L|424:128,1,50,6|0,1:0|0:0,0:0:0:0:
460,40,153944,2,0,L|396:44,1,50,6|0,1:0|0:0,0:0:0:0:
328,84,154238,1,8,0:0:0:0:
260,24,154385,2,0,L|210:20,1,50,2|0,1:0|0:0,0:0:0:0:
36,60,154826,6,0,P|40:88|44:128,1,50,2|0,1:0|1:0,0:0:0:0:
124,148,155120,2,0,P|119:176|116:216,1,50,8|8,0:3|0:3,0:0:0:0:
80,280,155414,5,8,0:0:0:0:
168,268,155561,2,0,L|240:280,2,50,8|8|8,0:0|0:0|0:0,0:0:0:0:
8,228,156003,6,0,P|8:176|28:148,1,64.9999970245363,6|0,1:0|0:0,0:0:0:0:
88,112,156297,1,8,0:0:0:0:
52,28,156444,2,0,P|86:25|136:24,1,64.9999970245363,2|0,1:0|1:0,0:0:0:0:
196,72,156738,2,0,P|230:74|280:76,1,64.9999970245363,2|8,0:0|0:0,0:0:0:0:
348,48,157032,6,0,P|352:88|336:124,1,64.9999970245363,2|0,0:0|1:0,0:0:0:0:
300,192,157326,2,0,P|271:220|234:231,1,64.9999970245363,2|8,0:0|0:0,0:0:0:0:
156,228,157620,1,2,0:0:0:0:
76,272,157767,2,0,P|72:236|64:180,1,64.9999970245363,2|0,1:0|0:0,0:0:0:0:
132,140,158061,2,0,P|136:104|144:48,1,64.9999970245363,10|0,0:0|0:0,0:0:0:0:
60,32,158356,6,0,P|48:62|51:94,1,64.9999970245363,6|0,1:0|0:0,0:0:0:0:
128,148,158650,1,10,0:0:0:0:
203,90,158797,2,0,P|247:86|287:86,1,64.9999970245363,2|0,0:0|1:0,0:0:0:0:
340,24,159091,2,0,P|384:28|424:28,1,64.9999970245363,2|8,0:0|0:0,0:0:0:0:
488,68,159385,6,0,P|464:92|448:132,1,64.9999970245363,2|0,0:0|1:0,0:0:0:0:
364,148,159679,2,0,P|360:181|373:222,1,64.9999970245363,2|8,0:0|0:0,0:0:0:0:
356,304,159973,1,2,0:0:0:0:
276,260,160120,2,0,L|268:188,1,64.9999970245363,2|0,1:0|0:0,0:0:0:0:
184,236,160414,2,0,L|176:164,1,64.9999970245363,10|0,0:0|0:0,0:0:0:0:
230,95,160709,6,0,P|186:79|150:83,1,64.9999970245363,8|2,0:0|1:0,0:0:0:0:
96,140,161003,2,0,P|52:156|16:152,1,64.9999970245363,8|2,0:0|1:0,0:0:0:0:
32,248,161297,6,0,P|64:250|93:263,1,64.9999970245363,8|2,0:0|1:0,0:0:0:0:
165,324,161591,2,0,P|197:321|226:308,1,64.9999970245363,8|2,0:0|1:0,0:0:0:0:
320,316,161885,6,0,L|328:236,1,64.9999970245363,8|2,0:0|0:0,0:0:0:0:
412,284,162179,2,0,L|420:204,1,64.9999970245363,8|2,0:0|1:0,0:0:0:0:
488,160,162473,6,0,L|480:80,1,64.9999970245363,8|2,0:0|1:0,0:0:0:0:
396,128,162767,2,0,L|388:48,1,64.9999970245363,8|2,0:0|1:0,0:0:0:0:
308,20,163061,6,0,P|304:60|288:88,1,64.9999970245363,8|2,0:0|1:0,0:0:0:0:
220,140,163356,2,0,P|224:180|240:208,1,64.9999970245363,8|2,0:0|1:0,0:0:0:0:
260,292,163650,6,0,L|195:298,1,64.9999970245363,8|2,0:0|1:0,0:0:0:0:
116,348,163944,2,0,P|102:318|100:286,1,64.9999970245363,8|2,0:0|1:0,0:0:0:0:
24,224,164238,5,10,0:0:0:0:
24,224,164311,1,0,0:0:0:0:
24,224,164385,2,0,P|34:196|186:192,1,187.500007152558,10|0,0:0|0:0,0:0:0:0:
194,206,164826,2,0,B|221:170|221:170|226:61,1,150.000005722046,10|8,0:0|0:0,0:0:0:0:
401,17,165414,6,0,P|426:41|430:120,1,100,4|0,1:0|1:0,0:0:0:0:
471,239,166003,2,0,L|359:230,1,100,0|0,1:0|1:0,0:0:0:0:
259,146,166591,6,0,L|159:154,1,100,0|0,1:0|1:0,0:0:0:0:
37,222,167179,2,0,P|17:179|26:116,1,100,0|0,1:0|1:0,0:0:0:0:
116,25,167767,6,0,B|155:15|155:15|237:22,1,100,0|0,1:0|1:0,0:0:0:0:
300,130,168356,2,0,B|261:140|261:140|201:134,1,100,0|0,1:0|1:0,0:0:0:0:
76,197,168944,6,0,P|68:240|102:308,1,100,0|4,1:0|0:3,0:0:0:0:
212,352,169532,2,0,L|330:338,1,100,4|0,0:3|1:0,0:0:0:0:
447,373,170120,5,0,1:0:0:0:
351,271,170414,1,0,1:0:0:0:
490,284,170709,5,0,1:0:0:0:
394,182,171003,1,0,1:0:0:0:
264,233,171297,6,0,P|235:218|148:220,1,100,0|0,1:0|1:0,0:0:0:0:
43,276,171885,2,0,B|31:217|31:217|49:163,1,100,0|0,1:0|1:0,0:0:0:0:
9,33,172473,6,0,L|111:43,1,75.0000028610231,8|0,0:0|1:0,0:0:0:0:
163,80,172767,1,0,1:0:0:0:
222,12,172914,2,0,B|252:56|252:56|238:169,1,150.000005722046,8|0,0:0|1:0,0:0:0:0:
221,240,173356,2,0,P|258:238|295:223,1,75.0000028610231,8|0,0:0|1:0,0:0:0:0:
372,266,173650,6,0,P|381:216|372:179,1,75.0000028610231,8|0,0:0|1:0,0:0:0:0:
306,136,173944,2,0,P|297:86|306:49,1,75.0000028610231,8|0,0:0|1:0,0:0:0:0:
385,31,174238,6,0,L|393:114,1,75.0000028610231,8|8,0:0|0:0,0:0:0:0:
462,162,174532,2,0,L|470:245,1,75.0000028610231,8|8,0:0|0:0,0:0:0:0:
462,162,185414,6,0,L|470:245,1,75.0000028610231,0|8,1:0|0:0,0:0:0:0:
441,330,186297,2,0,P|397:302|344:311,1,100,0|0,1:0|1:0,0:0:0:0:
289,379,187179,1,8,0:0:0:0:
276,249,187767,6,0,L|285:170,1,75,0|8,1:0|0:0,0:0:0:0:
330,88,188650,2,0,P|279:91|236:54,1,100,0|0,1:0|1:0,0:0:0:0:
154,100,189532,1,8,0:0:0:0:
30,60,190120,6,0,L|35:138,1,75,0|8,1:0|0:0,0:0:0:0:
113,192,191003,2,0,L|106:297,1,100,0|0,1:0|1:0,0:0:0:0:
42,362,191885,1,8,0:0:0:0:
177,332,192473,5,4,0:2:0:0:
256,192,193356,12,6,194826,2:0:0:0:
177,332,196591,5,4,0:3:0:0:
177,332,197179,6,0,B|195:230|195:230|160:171,1,150,4|0,1:0|1:0,0:0:0:0:
121,115,197767,2,0,P|144:106|169:101,1,50,8|0,0:0|0:0,0:0:0:0:
244,53,198061,6,0,P|308:42|372:106,1,150,4|8,1:0|0:0,0:0:0:0:
450,255,198797,1,0,1:0:0:0:
450,255,198944,2,0,P|388:238|343:241,1,100,8|0,0:0|1:0,0:0:0:0:
273,281,199385,1,8,0:0:0:0:
230,360,199532,6,0,L|233:198,1,150,4|0,1:0|1:0,0:0:0:0:
157,160,200120,2,0,L|155:92,1,50,8|0,0:0|0:0,0:0:0:0:
233,65,200414,6,0,L|83:57,1,150,4|8,1:0|0:0,0:0:0:0:
5,103,201003,2,0,L|6:152,1,50,0|0,1:0|0:0,0:0:0:0:
76,209,201297,2,0,L|74:258,1,50,8|0,0:0|1:0,0:0:0:0:
13,325,201591,1,8,0:0:0:0:
166,231,201885,6,0,P|208:270|313:253,1,150,4|0,1:0|1:0,0:0:0:0:
364,207,202473,2,0,L|370:151,1,50,8|0,0:0|0:0,0:0:0:0:
312,87,202767,6,0,B|405:63|405:63|461:84,1,150,4|8,1:0|0:0,0:0:0:0:
498,257,203503,1,0,1:0:0:0:
498,257,203650,2,0,L|378:245,1,100,8|0,0:0|1:0,0:0:0:0:
194,318,204238,6,0,P|185:281|186:251,1,59.9999981689454,12|0,0:0|1:0,0:0:0:0:
112,196,204532,2,0,P|118:158|131:131,1,59.9999981689454,12|0,0:0|1:0,0:0:0:0:
86,52,204826,2,0,P|107:20|130:1,2,59.9999981689454,8|8|4,0:0|0:3|0:3,0:0:0:0:
11,104,205267,5,4,0:3:0:0:
66,275,205561,1,4,0:3:0:0:
182,136,205856,1,4,0:3:0:0:
23,112,206150,5,8,0:0:0:0:
92,168,206297,1,8,0:0:0:0:
74,255,206444,1,8,0:0:0:0:
143,315,206591,6,0,P|202:280|269:294,1,139.999995727539,4|8,1:0|0:0,0:0:0:0:
338,363,207032,2,0,B|364:268|364:268|344:223,1,139.999995727539,0|0,1:0|1:0,0:0:0:0:
404,150,207473,2,0,P|362:134|334:133,1,69.9999978637696,8|0,0:0|0:0,0:0:0:0:
266,65,207767,5,0,0:0:0:0:
226,154,207914,1,0,1:0:0:0:
186,243,208061,2,0,P|151:239|119:225,1,69.9999978637696,8|0,0:0|0:0,0:0:0:0:
21,239,208356,5,0,1:0:0:0:
61,150,208503,1,0,1:0:0:0:
55,52,208650,2,0,P|90:56|122:70,1,69.9999978637696,8|0,0:0|0:0,0:0:0:0:
162,158,208944,6,0,B|258:150|258:150|304:112,1,139.999995727539,4|8,1:0|0:0,0:0:0:0:
356,48,209385,2,0,P|330:109|356:183,1,139.999995727539,0|0,1:0|1:0,0:0:0:0:
440,215,209826,2,0,B|453:286|453:286|403:358,1,139.999995727539,8|0,0:0|0:0,0:0:0:0:
320,312,210267,5,0,1:0:0:0:
240,369,210414,2,0,P|222:331|227:281,1,69.9999978637696,8|0,0:0|0:0,0:0:0:0:
122,312,210709,2,0,P|124:277|140:246,1,69.9999978637696,0|0,1:0|0:0,0:0:0:0:
229,206,211003,2,0,L|309:214,1,69.9999978637696,8|0,0:0|0:0,0:0:0:0:
392,185,211297,6,0,P|366:140|269:126,1,139.999995727539,4|8,1:0|0:0,0:0:0:0:
223,43,211738,2,0,B|127:52|127:52|94:92,1,139.999995727539,0|0,1:0|1:0,0:0:0:0:
11,42,212179,2,0,P|-1:96|67:179,1,139.999995727539,8|0,0:0|0:0,0:0:0:0:
136,181,212620,5,0,1:0:0:0:
207,248,212767,2,0,P|230:213|230:170,1,69.9999978637696,8|0,0:0|0:0,0:0:0:0:
188,99,213061,2,0,P|221:95|262:94,1,69.9999978637696,0|0,1:0|1:0,0:0:0:0:
326,22,213356,2,0,P|359:25|400:27,1,69.9999978637696,8|0,0:0|1:0,0:0:0:0:
493,14,213650,6,0,L|486:115,1,69.9999978637696,8|0,0:0|1:0,0:0:0:0:
430,163,213944,1,0,1:0:0:0:
502,229,214091,2,0,B|461:261|461:261|345:247,1,139.999995727539,8|0,0:0|1:0,0:0:0:0:
289,300,214532,6,0,P|276:258|285:206,1,69.9999978637696,10|0,0:0|1:0,0:0:0:0:
180,246,214826,2,0,P|185:202|214:158,1,69.9999978637696,10|0,0:0|1:0,0:0:0:0:
102,152,215120,2,0,P|124:114|169:86,1,69.9999978637696,10|0,0:0|1:0,0:0:0:0:
192,12,215414,2,0,P|208:24|222:37,3,34.9999989318848,8|0|0|0,0:0|1:0|1:0|1:0,0:0:0:0:
233,54,215709,2,0,L|299:46,3,34.9999989318848,0|0|0|0,1:0|1:0|1:0|1:0,0:0:0:0:
309,24,216003,6,0,B|292:119|292:119|330:196,1,150.000005722046,4|0,1:0|1:0,0:0:0:0:
279,257,216444,2,0,L|428:243,1,150.000005722046,8|0,0:0|1:0,0:0:0:0:
506,184,216885,2,0,P|497:137|494:95,1,75.0000028610231,10|0,0:0|1:0,0:0:0:0:
433,33,217179,6,0,B|360:17|360:17|292:64,1,150.000005722046,10|0,0:0|1:0,0:0:0:0:
265,151,217620,2,0,B|203:193|203:193|130:177,1,150.000005722046,10|0,0:0|1:0,0:0:0:0:
46,228,218061,2,0,P|34:192|34:155,1,75.0000028610231,10|0,0:0|1:0,0:0:0:0:
6,61,218356,6,0,L|171:70,1,150.000005722046,10|0,0:0|1:0,0:0:0:0:
238,120,218797,2,0,L|403:111,1,150.000005722046,10|0,0:0|1:0,0:0:0:0:
482,90,219238,2,0,P|477:145|476:197,1,75.0000028610231,10|0,0:0|1:0,0:0:0:0:
496,260,219532,6,0,L|405:246,1,75.0000028610231,10|0,0:0|1:0,0:0:0:0:
329,279,219826,1,0,1:0:0:0:
270,201,219973,2,0,L|179:187,2,75.0000028610231,10|0|0,0:0|1:0|1:0,0:0:0:0:
363,174,220414,2,0,P|384:131|379:87,1,75.0000028610231,10|0,0:0|1:0,0:0:0:0:
329,23,220709,6,0,B|226:39|226:39|206:86,1,150.000005722046,8|0,0:0|1:0,0:0:0:0:
150,159,221150,2,0,P|110:174|65:171,2,75.0000028610231,8|0|0,0:0|1:0|1:0,0:0:0:0:
245,177,221591,2,0,P|251:225|258:272,1,75.0000028610231,10|0,0:0|1:0,0:0:0:0:
327,316,221885,6,0,B|261:279|261:279|177:301,1,150.000005722046,10|0,0:0|1:0,0:0:0:0:
107,351,222326,2,0,L|87:195,1,150.000005722046,10|0,0:0|1:0,0:0:0:0:
18,134,222767,2,0,P|52:115|97:104,1,75.0000028610231,10|0,0:0|1:0,0:0:0:0:
142,25,223061,6,0,B|179:74|179:74|167:174,1,150.000005722046,10|0,0:0|1:0,0:0:0:0:
201,254,223503,2,0,P|249:290|347:263,1,150.000005722046,10|0,0:0|1:0,0:0:0:0:
429,287,223944,2,0,P|437:248|440:206,1,75.0000028610231,10|0,0:0|1:0,0:0:0:0:
489,129,224238,6,0,B|427:118|427:118|405:122|405:122|331:108,1,150.000005722046,10|0,0:0|1:0,0:0:0:0:
274,38,224679,2,0,P|304:80|282:175,1,150.000005722046,10|0,0:0|1:0,0:0:0:0:
201,221,225120,2,0,L|132:208,3,37.5000014305115,0|0|0|0,1:0|1:0|1:0|1:0,0:0:0:0:
140,207,225414,6,0,B|152:301,1,75.0000028610231,8|0,0:0|1:0,0:0:0:0:
203,363,225709,1,0,1:0:0:0:
292,323,225856,2,0,P|342:328|374:350,2,75.0000028610231,8|0|0,0:0|1:0|1:0,0:0:0:0:
242,238,226297,2,0,B|232:163,1,75.0000028610231,10|0,0:0|1:0,0:0:0:0:
167,90,226591,6,0,B|240:68|240:68|329:108,1,150.000005722046,10|0,0:0|1:0,0:0:0:0:
361,179,227032,2,0,L|354:17,1,150.000005722046,10|0,0:0|1:0,0:0:0:0:
451,38,227473,2,0,L|453:112,1,75.0000028610231,10|0,0:0|1:0,0:0:0:0:
508,193,227767,6,0,P|521:239|454:341,1,150.000005722046,10|0,0:0|1:0,0:0:0:0:
387,363,228209,2,0,B|295:378|334:320|212:340,1,150.000005722046,10|0,0:0|0:0,0:0:0:0:
154,377,228650,2,0,P|150:331|149:292,1,75.0000028610231,10|0,0:0|1:0,0:0:0:0:
74,239,228944,6,0,P|124:264|195:194,1,150.000005722046,10|0,0:0|1:0,0:0:0:0:
203,116,229385,2,0,P|254:66|321:90,1,150.000005722046,10|0,0:0|1:0,0:0:0:0:
378,169,229826,2,0,P|373:216|370:252,1,75.0000028610231,10|0,0:0|1:0,0:0:0:0:
274,256,230120,6,0,P|279:209|282:173,1,75.0000028610231,8|0,0:0|1:0,0:0:0:0:
203,116,230414,1,0,1:0:0:0:
117,162,230561,2,0,P|71:156|20:152,2,75.0000028610231,8|0|0,0:0|1:0|1:0,0:0:0:0:
187,230,231003,2,0,P|189:271|170:318,1,75.0000028610231,10|0,0:0|1:0,0:0:0:0:
99,359,231297,6,0,B|90:266|90:266|32:220,1,150.000005722046,10|0,0:0|1:0,0:0:0:0:
2,143,231738,2,0,P|28:106|152:114,1,150.000005722046,10|0,0:0|1:0,0:0:0:0:
203,152,232179,2,0,P|254:167|303:174,1,75.0000028610231,10|0,0:0|1:0,0:0:0:0:
371,156,232473,6,0,L|352:330,1,150.000005722046,10|0,0:0|1:0,0:0:0:0:
427,370,232914,1,8,0:0:0:0:
508,316,233061,2,0,L|503:234,2,75.0000028610231,0|0|8,1:0|1:0|0:0,0:0:0:0:
427,370,233503,1,0,1:0:0:0:
354,305,233650,6,0,L|349:230,1,75.0000028610231,8|0,0:0|1:0,0:0:0:0:
265,278,233944,2,0,L|260:203,1,75.0000028610231,8|0,0:0|1:0,0:0:0:0:
178,150,234238,6,0,L|173:224,1,75.0000028610231,8|0,0:0|1:0,0:0:0:0:
89,177,234532,2,0,L|84:251,1,75.0000028610231,10|10,0:0|0:0,0:0:0:0:
