osu file format v14

[General]
AudioFilename: audio.mp3
AudioLeadIn: 0
PreviewTime: 65929
Countdown: 0
SampleSet: Soft
StackLeniency: 0.5
Mode: 0
LetterboxInBreaks: 0
WidescreenStoryboard: 0

[Editor]
DistanceSpacing: 0.6
BeatDivisor: 4
GridSize: 4
TimelineZoom: 2.499999

[Metadata]
Title:Black Rail
TitleUnicode:Black Rail
Artist:MY FIRST STORY
ArtistUnicode:MY FIRST STORY
Creator:Saut
Version:Collab Extra
Source:
Tags:pishifat appleeaterx dailycare 虚言itsuwari kyogen neurose emo rock alternative post-hardcore
BeatmapID:982251
BeatmapSetID:439396

[Difficulty]
HPDrainRate:5.5
CircleSize:5
OverallDifficulty:8.6
ApproachRate:9.2
SliderMultiplier:1
SliderTickRate:2

[Events]
//Background and Video events
0,0,"bg.jpg",0,0
//Break Periods
2,57379,65433
2,104438,108080
2,176003,184844
//Storyboard Layer 0 (Background)
//Storyboard Layer 1 (Fail)
//Storyboard Layer 2 (Pass)
//Storyboard Layer 3 (Foreground)
//Storyboard Sound Samples

[TimingPoints]
709,294.117647058824,4,2,1,50,1,0
17179,-142.857142857143,4,2,1,15,0,0
18797,-100,4,2,1,15,0,0
18944,-200,4,2,1,50,0,0
19459,-200,4,2,2,5,0,0
19532,-65.359477124183,4,2,1,67,0,0
33650,-61.7283950617284,4,2,1,67,0,0
35929,-61.7283950617284,4,2,1,5,0,0
36003,-61.7283950617284,4,2,1,75,0,0
36223,-61.7283950617284,4,2,1,5,0,0
36297,-61.7283950617284,4,2,1,75,0,0
38061,-100,4,2,1,50,0,0
38282,-100,4,2,1,5,0,0
38356,-100,4,2,1,65,0,0
38503,-100,4,2,1,55,0,0
41591,-100,4,2,1,50,0,0
41885,-100,4,2,1,50,0,0
42473,-100,4,2,1,62,0,0
42914,-100,4,2,1,25,0,0
43061,-66.6666666666667,4,2,1,55,0,0
46517,-66.6666666666667,4,2,1,5,0,0
46591,-66.6666666666667,4,2,1,50,0,0
47179,-76.9230769230769,4,2,1,60,0,0
47473,-90.9090909090909,4,2,1,70,0,0
47767,-71.4285714285714,4,2,1,80,0,0
47914,-66.6666666666667,4,2,1,55,0,0
48209,-71.4285714285714,4,2,1,80,0,0
48429,-100,4,2,1,5,0,0
48503,-71.4285714285714,4,2,1,55,0,0
48797,-71.4285714285714,4,2,1,90,0,0
49091,-71.4285714285714,4,2,1,55,0,0
50120,-71.4285714285714,4,2,1,80,0,0
50267,-66.6666666666667,4,2,1,55,0,0
50561,-71.4285714285714,4,2,1,80,0,0
50782,-100,4,2,1,5,0,0
50856,-71.4285714285714,4,2,1,55,0,0
51150,-71.4285714285714,4,2,1,90,0,0
51297,-71.4285714285714,4,2,1,55,0,0
51444,-62.5,4,2,1,55,0,0
51885,-66.6666666666667,4,2,1,65,0,0
52179,-66.6666666666667,4,2,1,75,0,0
52473,-66.6666666666667,4,2,1,85,0,0
52620,-66.6666666666667,4,2,1,65,0,0
54826,-66.6666666666667,4,2,1,85,0,0
54973,-66.6666666666667,4,2,1,65,0,0
56885,-66.6666666666667,4,2,1,75,0,0
57179,-66.6666666666667,4,2,1,85,0,0
66003,-200,4,2,1,50,0,0
66076,-100,4,2,1,5,0,0
66591,-100,4,2,1,85,0,1
66885,-100,4,2,1,70,0,1
67473,-100,4,2,1,95,0,1
67767,-100,4,2,1,70,0,1
68944,-100,4,2,1,85,0,1
69238,-100,4,2,1,70,0,1
69826,-100,4,2,1,95,0,1
70120,-100,4,2,1,70,0,1
71003,-100,4,2,1,80,0,1
71297,-100,4,2,1,90,0,1
71591,-100,4,2,1,70,0,1
72179,-100,4,2,1,100,0,1
72473,-100,4,2,1,70,0,1
73650,-71.4285714285714,4,2,1,80,0,1
73944,-71.4285714285714,4,2,1,90,0,1
74238,-71.4285714285714,4,2,1,100,0,1
74385,-71.4285714285714,4,2,1,80,0,1
74532,-71.4285714285714,4,2,1,60,0,1
74679,-100,4,2,1,85,0,0
75267,-125,4,2,1,85,0,0
75561,-100,4,2,1,75,0,0
75929,-100,4,2,1,5,0,0
76003,-100,4,2,1,85,0,1
76297,-100,4,2,1,70,0,1
76885,-100,4,2,1,95,0,1
77179,-100,4,2,1,70,0,1
78356,-100,4,2,1,85,0,1
78650,-100,4,2,1,70,0,1
79238,-100,4,2,1,95,0,1
79532,-100,4,2,1,70,0,1
80414,-100,4,2,1,80,0,1
80709,-100,4,2,1,90,0,1
81003,-100,4,2,1,70,0,1
81591,-100,4,2,1,100,0,1
81885,-100,4,2,1,70,0,1
83061,-90.9090909090909,4,2,1,90,0,1
83356,-90.9090909090909,4,2,1,70,0,1
83503,-83.3333333333333,4,2,1,90,0,1
83797,-83.3333333333333,4,2,1,70,0,1
83944,-66.6666666666667,4,2,1,100,0,1
84091,-66.6666666666667,4,2,1,50,0,1
84238,-66.6666666666667,4,2,1,100,0,1
84385,-66.6666666666667,4,2,1,50,0,1
84532,-66.6666666666667,4,2,1,100,0,1
84606,-66.6666666666667,4,2,1,70,0,1
84826,-100,4,2,1,70,0,1
85120,-66.6666666666667,4,2,1,70,0,1
85414,-65.359477124183,4,2,1,85,0,0
85561,-65.359477124183,4,2,1,65,0,0
85709,-57.1428571428571,4,2,1,65,0,0
85929,-57.1428571428571,4,2,1,5,0,0
86003,-57.1428571428571,4,2,1,65,0,0
87988,-57.1428571428571,4,2,1,5,0,0
88061,-57.1428571428571,4,2,1,65,0,0
90341,-57.1428571428571,4,2,1,5,0,0
90414,-57.1428571428571,4,2,1,65,0,0
92694,-57.1428571428571,4,2,1,5,0,0
92767,-57.1428571428571,4,2,1,65,0,0
94385,-57.1428571428571,4,2,1,55,0,0
94826,-57.1428571428571,4,2,1,85,0,0
95047,-57.1428571428571,4,2,1,5,0,0
95120,-57.1428571428571,4,2,1,65,0,0
97400,-57.1428571428571,4,2,1,5,0,0
97473,-57.1428571428571,4,2,1,65,0,0
99532,-64.5161290322581,4,2,1,70,0,0
99679,-64.5161290322581,4,2,1,45,0,0
99973,-64.5161290322581,4,2,1,75,0,0
100120,-64.5161290322581,4,2,1,50,0,0
100414,-64.5161290322581,4,2,1,80,0,0
100561,-64.5161290322581,4,2,1,55,0,0
100709,-64.5161290322581,4,2,1,75,0,0
101885,-74.0740740740741,4,2,1,85,0,0
102032,-74.0740740740741,4,2,1,60,0,0
102473,-74.0740740740741,4,2,1,90,0,0
102620,-74.0740740740741,4,2,1,65,0,0
103061,-74.0740740740741,4,2,1,75,0,0
103209,-74.0740740740741,4,2,1,45,0,0
103356,-74.0740740740741,4,2,1,75,0,0
103503,-74.0740740740741,4,2,1,80,0,0
103650,-74.0740740740741,4,2,1,85,0,0
103797,-74.0740740740741,4,2,1,90,0,0
103944,-74.0740740740741,4,2,1,95,0,0
104091,-74.0740740740741,4,2,1,73,0,0
104238,-74.0740740740741,4,2,1,44,0,0
108650,-74.0740740740741,4,2,1,65,0,0
108944,-66.6666666666667,4,2,1,55,0,0
112400,-66.6666666666667,4,2,1,5,0,0
112473,-66.6666666666667,4,2,1,55,0,0
113061,-66.6666666666667,4,2,1,65,0,0
113356,-66.6666666666667,4,2,1,75,0,0
113650,-74.0740740740741,4,2,1,85,0,0
113797,-74.0740740740741,4,2,1,45,0,0
118061,-100,4,2,1,50,0,0
118356,-68.9655172413793,4,2,1,75,0,0
118503,-68.9655172413793,4,2,1,60,0,0
120709,-68.9655172413793,4,2,1,75,0,0
120856,-68.9655172413793,4,2,1,50,0,0
121003,-68.9655172413793,4,2,1,65,0,0
121297,-68.9655172413793,4,2,1,75,0,0
121591,-68.9655172413793,4,2,1,85,0,0
121811,-68.9655172413793,4,2,1,25,0,0
121885,-68.9655172413793,4,2,1,65,0,0
121959,-100,4,2,1,35,0,0
122179,-100,4,2,1,45,0,0
122326,-66.6666666666667,4,2,1,45,0,0
122473,-68.9655172413793,4,2,1,50,0,0
122767,-68.9655172413793,4,2,1,45,0,0
123061,-95.2380952380952,4,2,1,75,0,0
123356,-95.2380952380952,4,2,1,45,0,0
127767,-95.2380952380952,4,2,1,65,0,0
127914,-95.2380952380952,4,2,1,50,0,0
128356,-95.2380952380952,4,2,1,55,0,0
128944,-95.2380952380952,4,2,1,60,0,0
129238,-95.2380952380952,4,2,1,65,0,0
129532,-95.2380952380952,4,2,1,70,0,0
129826,-95.2380952380952,4,2,1,75,0,0
130120,-95.2380952380952,4,2,1,50,0,0
130414,-95.2380952380952,4,2,1,60,0,0
130709,-95.2380952380952,4,2,1,70,0,0
131003,-95.2380952380952,4,2,1,80,0,0
131297,-68.9655172413793,4,2,1,60,0,0
132473,-142.857142857143,4,2,1,17,0,0
136003,-105.263157894737,4,2,1,45,0,0
136591,-105.263157894737,4,2,1,55,0,0
137106,-105.263157894737,4,2,1,5,0,0
137179,-86.9565217391304,4,2,1,65,0,0
137400,-86.9565217391304,4,2,1,5,0,0
137473,-86.9565217391304,4,2,1,65,0,0
137694,-86.9565217391304,4,2,1,5,0,0
137767,-86.9565217391304,4,2,1,55,0,0
139532,-86.9565217391304,4,2,1,65,0,0
139753,-86.9565217391304,4,2,1,5,0,0
139826,-86.9565217391304,4,2,1,65,0,0
140047,-86.9565217391304,4,2,1,5,0,0
140120,-86.9565217391304,4,2,1,55,0,0
141885,-86.9565217391304,4,2,1,65,0,0
142106,-86.9565217391304,4,2,1,5,0,0
142179,-86.9565217391304,4,2,1,65,0,0
142400,-86.9565217391304,4,2,1,5,0,0
142473,-86.9565217391304,4,2,1,55,0,0
144238,-86.9565217391304,4,2,1,65,0,0
144459,-86.9565217391304,4,2,1,5,0,0
144532,-86.9565217391304,4,2,1,65,0,0
144753,-86.9565217391304,4,2,1,5,0,0
144826,-86.9565217391304,4,2,1,55,0,0
145561,-86.9565217391304,4,2,1,33,0,0
146297,-86.9565217391304,4,2,1,65,0,0
146885,-117.647058823529,4,2,1,50,0,0
147106,-117.647058823529,4,2,1,5,0,0
147179,-74.0740740740741,4,2,1,65,0,0
147473,-74.0740740740741,4,2,1,55,0,0
147767,-74.0740740740741,4,2,1,70,0,0
147914,-74.0740740740741,4,2,1,55,0,0
148944,-74.0740740740741,4,2,1,65,0,0
149164,-74.0740740740741,4,2,1,5,0,0
149238,-74.0740740740741,4,2,1,65,0,0
149459,-74.0740740740741,4,2,1,5,0,0
149532,-74.0740740740741,4,2,1,55,0,0
151297,-74.0740740740741,4,2,1,65,0,0
151517,-74.0740740740741,4,2,1,5,0,0
151591,-74.0740740740741,4,2,1,65,0,0
151811,-74.0740740740741,4,2,1,5,0,0
151885,-74.0740740740741,4,2,1,55,0,0
153650,-74.0740740740741,4,2,1,65,0,0
153870,-74.0740740740741,4,2,1,5,0,0
153944,-74.0740740740741,4,2,1,65,0,0
154164,-74.0740740740741,4,2,1,5,0,0
154238,-74.0740740740741,4,2,1,55,0,0
154826,-74.0740740740741,4,2,1,65,0,0
155120,-74.0740740740741,4,2,1,45,0,0
155414,-74.0740740740741,4,2,1,55,0,0
155561,-74.0740740740741,4,2,1,60,0,0
155709,-74.0740740740741,4,2,1,65,0,0
155856,-74.0740740740741,4,2,1,70,0,0
156003,-64.5161290322581,4,2,2,80,0,0
156150,-64.5161290322581,4,2,2,60,0,0
160709,-57.1428571428571,4,2,2,70,0,0
164238,-57.1428571428571,4,2,2,75,0,0
164826,-57.1428571428571,4,2,2,85,0,0
165120,-57.1428571428571,4,2,2,55,0,0
165414,-100,4,2,1,75,0,0
165561,-100,4,2,1,45,0,0
170120,-86.9565217391304,4,2,1,50,0,0
170709,-86.9565217391304,4,2,1,55,0,0
171297,-86.9565217391304,4,2,1,60,0,0
171885,-86.9565217391304,4,2,1,65,0,0
172473,-64.5161290322581,4,2,1,70,0,0
172620,-64.5161290322581,4,2,1,55,0,0
172914,-64.5161290322581,4,2,1,75,0,0
173061,-64.5161290322581,4,2,1,55,0,0
173650,-74.0740740740741,4,2,1,75,0,0
173944,-74.0740740740741,4,2,1,80,0,0
174238,-74.0740740740741,4,2,1,85,0,0
185414,-142.857142857143,4,2,1,40,0,0
185856,-175.438596491228,4,2,1,40,0,0
186885,-142.857142857143,4,2,1,40,0,0
187179,-200,4,2,1,40,0,0
187767,-142.857142857143,4,2,1,40,0,0
188209,-175.438596491228,4,2,1,40,0,0
189238,-142.857142857143,4,2,1,40,0,0
189532,-200,4,2,1,40,0,0
191885,-129.87012987013,4,2,1,40,0,0
192473,-200,4,2,1,25,0,0
192492,-200,4,2,2,5,0,0
193282,-200,4,2,2,5,0,0
193356,-111.111111111111,4,2,1,25,0,0
193374,-111.111111111111,4,2,2,5,0,0
194826,-111.111111111111,4,2,1,55,0,0
196591,-200,4,2,1,50,0,0
196664,-200,4,2,1,5,0,0
197106,-100,4,2,1,5,0,0
197179,-100,4,2,1,85,0,1
197473,-100,4,2,1,70,0,1
198061,-100,4,2,1,95,0,1
198355,-100,4,2,1,70,0,1
199532,-100,4,2,1,85,0,1
199826,-100,4,2,1,70,0,1
200414,-100,4,2,1,95,0,1
200708,-100,4,2,1,70,0,1
201591,-100,4,2,1,80,0,1
201885,-100,4,2,1,90,0,1
202179,-100,4,2,1,70,0,1
202767,-100,4,2,1,100,0,1
203061,-100,4,2,1,70,0,1
204238,-71.4285714285714,4,2,1,80,0,1
204532,-71.4285714285714,4,2,1,90,0,1
204826,-71.4285714285714,4,2,1,100,0,1
204973,-71.4285714285714,4,2,1,80,0,1
205120,-71.4285714285714,4,2,1,60,0,1
205267,-71.4285714285714,4,2,1,85,0,0
205856,-125,4,2,1,85,0,0
206150,-125,4,2,1,65,0,0
206591,-71.4285714285714,4,2,1,85,0,1
206738,-71.4285714285714,4,2,1,70,0,1
208944,-71.4285714285714,4,2,1,85,0,1
209091,-71.4285714285714,4,2,1,70,0,1
211297,-71.4285714285714,4,2,1,85,0,1
211444,-71.4285714285714,4,2,1,70,0,1
213650,-58.8235294117647,4,2,1,75,0,1
213797,-58.8235294117647,4,2,1,65,0,1
214091,-58.8235294117647,4,2,1,75,0,1
214238,-58.8235294117647,4,2,1,65,0,1
214532,-58.8235294117647,4,2,1,80,0,1
214826,-58.8235294117647,4,2,1,85,0,1
215120,-58.8235294117647,4,2,1,90,0,1
215414,-58.8235294117647,4,2,1,65,0,1
216003,-65.359477124183,4,2,1,85,0,0
216150,-65.359477124183,4,2,1,67,0,0
233650,-65.359477124183,4,2,1,70,0,0
233944,-65.359477124183,4,2,1,75,0,0
234238,-65.359477124183,4,2,1,80,0,0
234532,-65.359477124183,4,2,1,85,0,0

[Colours]
Combo1 : 211,214,190
Combo2 : 143,129,173
Combo3 : 228,154,105

[HitObjects]
52,38,17179,6,0,L|8:42,1,34.9999989318848,2|2,0:3|0:3,0:0:0:0:
57,46,17473,2,0,L|13:50,1,34.9999989318848,0|2,0:0|0:3,0:0:0:0:
154,97,17914,1,2,0:3:0:0:
157,105,18061,2,0,L|112:101,1,34.9999989318848,2|2,0:3|0:3,0:0:0:0:
160,113,18356,2,0,L|115:109,1,34.9999989318848,0|2,0:0|0:3,0:0:0:0:
226,25,18797,5,4,3:0:0:0:
260,29,18870,1,4,3:0:0:0:
296,34,18944,2,2,P|261:53|268:100,1,87.5,8|0,0:0|0:0,1:1:0:0:
264,95,19532,6,0,B|288:126|288:126|277:251,1,153.000006887055,8|0,0:0|1:0,0:0:0:0:
132,159,19973,2,0,L|225:149,1,76.5000034435274,8|0,0:0|1:0,0:0:0:0:
362,129,20267,1,0,1:0:0:0:
205,225,20414,5,10,0:0:0:0:
264,95,20561,1,0,1:0:0:0:
194,234,20709,6,0,P|158:250|104:241,2,76.5000034435274,10|0|0,0:0|1:0|1:0,0:0:0:0:
270,83,21150,1,10,0:0:0:0:
145,173,21297,1,0,1:0:0:0:
145,173,21444,1,0,1:0:0:0:
326,145,21591,5,10,0:0:0:0:
177,96,21738,1,0,1:0:0:0:
302,223,21885,6,0,B|340:225|340:225|391:202,1,76.5000034435274,10|0,0:0|1:0,0:0:0:0:
395,109,22179,1,0,1:0:0:0:
249,167,22326,2,0,P|226:211|241:268,1,76.5000034435274,10|0,0:0|1:0,0:0:0:0:
357,297,22620,1,0,1:0:0:0:
315,99,22767,2,0,L|226:89,1,76.5000034435274,10|0,0:0|1:0,0:0:0:0:
66,181,23061,6,0,L|153:173,1,76.5000034435274,10|0,0:0|1:0,0:0:0:0:
249,167,23356,1,0,1:0:0:0:
94,104,23503,5,10,0:0:0:0:
116,257,23650,1,0,1:0:0:0:
116,257,23797,1,0,1:0:0:0:
125,83,23944,5,10,0:0:0:0:
84,271,24091,1,0,1:0:0:0:
216,94,24238,6,0,B|255:89|255:89|322:112|322:112|382:107,1,153.000006887055,8|0,0:0|1:0,0:0:0:0:
228,20,24679,1,8,0:0:0:0:
249,167,24826,1,0,1:0:0:0:
249,167,24973,1,0,1:0:0:0:
413,59,25120,2,0,B|378:37|378:37|320:41,1,76.5000034435274,10|0,0:0|1:0,0:0:0:0:
170,173,25414,6,0,B|72:181,1,76.5000034435274,10|0,0:0|1:0,0:0:0:0:
129,61,25709,1,0,1:0:0:0:
218,240,25856,2,0,L|305:246,1,76.5000034435274,10|0,0:0|1:0,0:0:0:0:
262,123,26150,1,0,1:0:0:0:
166,300,26297,2,0,B|84:308,1,76.5000034435274,10|0,0:0|1:0,0:0:0:0:
324,171,26591,6,0,P|369:217|372:242,1,76.5000034435274,10|0,0:0|1:0,0:0:0:0:
242,300,26885,1,0,1:0:0:0:
262,123,27032,2,0,P|302:96|351:99,1,76.5000034435274,10|0,0:0|1:0,0:0:0:0:
293,243,27326,1,0,1:0:0:0:
180,131,27473,2,0,P|197:77|224:56,1,76.5000034435274,10|0,0:0|1:0,0:0:0:0:
429,71,27767,5,10,0:0:0:0:
265,126,27914,1,0,1:0:0:0:
265,126,28061,1,0,1:0:0:0:
373,16,28209,5,10,0:0:0:0:
214,68,28356,1,0,1:0:0:0:
214,68,28503,1,0,1:0:0:0:
427,173,28650,5,0,1:0:0:0:
456,164,28723,1,0,1:0:0:0:
456,133,28797,1,0,1:0:0:0:
426,124,28870,1,0,1:0:0:0:
407,148,28944,6,0,B|366:151|366:151|296:132|296:132|246:139,1,153.000006887055,8|0,0:0|1:0,0:0:0:0:
175,245,29385,1,8,0:0:0:0:
296,212,29532,1,0,1:0:0:0:
296,212,29679,1,0,1:0:0:0:
111,215,29826,2,0,B|91:180|91:180|98:115,1,76.5000034435274,10|0,0:0|1:0,0:0:0:0:
312,72,30120,6,0,B|333:104|333:104|329:158,1,76.5000034435274,10|0,0:0|1:0,0:0:0:0:
239,258,30414,1,0,1:0:0:0:
193,104,30561,2,0,B|231:110|231:110|275:152,1,76.5000034435274,10|0,0:0|1:0,0:0:0:0:
310,283,30856,1,0,1:0:0:0:
141,219,31003,2,0,B|169:192|169:192|218:183,1,76.5000034435274,10|0,0:0|1:0,0:0:0:0:
340,363,31297,6,0,L|259:354,1,76.5000034435274,10|0,0:0|1:0,0:0:0:0:
169,334,31591,1,0,1:0:0:0:
386,291,31738,2,0,L|305:282,1,76.5000034435274,10|0,0:0|1:0,0:0:0:0:
206,264,32032,1,0,1:0:0:0:
442,347,32179,2,0,P|461:314|463:276,1,76.5000034435274,10|0,0:0|1:0,0:0:0:0:
314,91,32473,6,0,B|290:123|290:123|296:195,1,76.5000034435274,10|0,0:0|1:0,0:0:0:0:
309,282,32767,1,0,1:0:0:0:
391,109,32914,5,10,0:0:0:0:
256,233,33061,1,0,1:0:0:0:
256,233,33209,1,0,1:0:0:0:
412,136,33356,5,10,0:0:0:0:
228,198,33503,1,0,1:0:0:0:
471,192,33650,6,0,B|492:156|492:156|483:25,1,162.000003955078,8|0,0:0|1:0,0:0:0:0:
227,120,34091,2,0,P|265:91|326:92,1,81.0000019775391,8|0,0:0|1:0,0:0:0:0:
412,136,34385,1,0,1:0:0:0:
254,205,34532,2,0,L|170:197,1,81.0000019775391,10|0,0:0|1:0,0:0:0:0:
254,15,34826,5,10,0:0:0:0:
324,164,34973,1,0,1:0:0:0:
324,164,35120,1,0,1:0:0:0:
118,77,35267,6,0,B|150:54|150:54|209:62,1,81.0000019775391,10|0,0:0|1:0,0:0:0:0:
348,91,35561,1,0,1:0:0:0:
172,132,35709,5,10,0:0:0:0:
254,15,35856,1,0,0:0:0:0:
285,218,36003,6,0,P|231:252|147:226,1,121.500002966309,4|0,1:0|0:0,0:0:0:0:
76,241,36297,2,0,P|112:224|152:227,1,81.0000019775391,8|0,0:0|1:0,0:0:0:0:
309,295,36591,1,0,1:0:0:0:
216,181,36738,2,0,B|208:39,1,121.500002966309,0|0,1:0|0:0,0:0:0:0:
207,24,37032,1,8,0:0:0:0:
358,121,37179,6,0,B|326:94|326:94|277:90,1,81.0000019775391,2|0,0:0|1:0,0:0:0:0:
138,144,37473,1,8,0:0:0:0:
138,144,37620,2,0,P|164:126|184:122,1,40.5000009887696,0|0,1:0|1:0,0:0:0:0:
334,187,37767,5,8,0:0:0:0:
312,206,37841,1,0,0:3:0:0:
283,204,37914,1,4,0:3:0:0:
255,200,37988,1,0,0:3:0:0:
229,222,38061,6,0,L|317:233,1,75,8|0,0:0|0:0,0:0:0:0:
376,266,38356,5,4,1:0:0:0:
376,266,38503,2,0,P|370:295|371:333,1,50,2|0,0:0|1:0,0:0:0:0:
447,238,38797,2,0,P|443:188|433:132,1,100,2|0,0:0|0:0,1:1:0:0:
400,73,39238,1,0,1:0:0:0:
400,73,39385,6,0,L|336:80,1,50,2|0,0:0|1:0,0:0:0:0:
267,56,39679,1,2,0:0:0:0:
286,122,39826,1,0,1:0:0:0:
303,188,39973,2,0,P|258:166|206:161,1,100,2|0,0:0|0:0,0:0:0:0:
130,176,40414,1,0,1:0:0:0:
286,307,40709,5,0,1:0:0:0:
286,307,40856,2,0,P|279:277|283:244,1,50,2|0,0:0|1:0,0:0:0:0:
378,147,41150,2,0,P|372:200|355:250,1,100,2|0,0:0|0:0,0:0:0:0:
445,201,41591,1,0,1:0:0:0:
206,235,41738,1,10,0:0:0:0:
300,161,41885,6,0,L|234:153,1,50,2|0,0:0|1:0,0:0:0:0:
235,155,42106,1,0,1:0:0:0:
220,156,42179,1,8,0:0:0:0:
259,78,42326,1,0,0:0:0:0:
125,107,42473,5,8,0:0:0:0:
142,178,42620,1,8,0:3:0:0:
122,93,42767,1,4,0:3:0:0:
353,282,43061,6,0,B|392:285|392:285|445:264,1,75.0000028610231,10|0,0:0|1:0,0:0:0:0:
319,192,43356,1,0,1:0:0:0:
360,358,43503,5,10,0:0:0:0:
281,257,43650,1,0,1:0:0:0:
281,257,43797,1,0,1:0:0:0:
499,281,43944,2,0,L|404:269,1,75.0000028610231,10|0,0:0|1:0,0:0:0:0:
202,241,44238,6,0,B|182:273|182:273|195:340,1,75.0000028610231,10|0,0:0|1:0,0:0:0:0:
353,282,44532,1,0,1:0:0:0:
174,170,44679,2,0,L|95:177,2,75.0000028610231,10|0|0,0:0|1:0|1:0,0:0:0:0:
383,148,45120,1,10,0:0:0:0:
236,120,45267,1,0,1:0:0:0:
434,209,45414,6,0,B|457:178|457:178|464:112,1,75.0000028610231,10|0,0:0|1:0,0:0:0:0:
388,68,45709,1,0,1:0:0:0:
500,236,45856,1,10,0:0:0:0:
383,148,46003,2,0,P|320:134|281:144,1,75.0000028610231,0|0,1:0|1:0,0:0:0:0:
188,246,46297,2,2,P|255:240|288:217,1,75.0000028610231,8|0,0:0|0:0,1:1:0:0:
388,68,46591,5,0,1:0:0:0:
388,68,46738,1,0,1:0:0:0:
214,168,46885,2,0,L|85:156,1,112.500004291535,10|0,0:0|0:0,0:0:0:0:
48,101,47179,6,0,P|75:83|107:79,2,64.9999970245363,8|8|4,0:3|0:3|0:3,0:0:0:0:
13,212,47620,1,4,0:3:0:0:
205,88,47767,5,4,1:0:0:0:
116,227,47914,2,0,B|97:194|97:194|102:151,1,75.0000028610231,0|8,1:0|0:0,0:0:0:0:
253,26,48209,2,0,B|284:58|284:58|271:173,1,139.999995727539,4|0,1:0|1:0,0:0:0:0:
345,4,48650,1,10,0:0:0:0:
326,216,48797,6,0,P|262:244|193:245,1,139.999995727539,4|0,1:0|1:0,0:0:0:0:
352,142,49238,1,10,0:0:0:0:
175,67,49385,1,0,1:0:0:0:
247,165,49532,2,0,L|257:81,1,69.9999978637696,2|0,0:0|1:0,0:0:0:0:
258,77,49753,1,0,1:0:0:0:
260,59,49826,2,0,P|287:40|338:33,1,69.9999978637696,8|0,0:0|0:0,0:0:0:0:
490,72,50120,5,4,1:0:0:0:
328,109,50267,2,0,B|367:108|367:108|407:133,1,75.0000028610231,0|8,1:0|0:0,0:0:0:0:
512,262,50561,2,0,P|437:256|376:275,1,139.999995727539,4|0,1:0|1:0,0:0:0:0:
475,180,51003,1,10,0:0:0:0:
342,344,51150,1,4,1:0:0:0:
485,169,51297,5,0,0:0:0:0:
305,236,51444,2,0,P|265:233|194:196,1,120,8|0,0:0|0:0,0:0:0:0:
178,166,51738,1,0,1:0:0:0:
387,112,51885,6,0,P|352:130|332:159,1,75.0000028610231,8|0,0:0|1:0,0:0:0:0:
406,294,52179,2,0,P|402:260|369:206,1,75.0000028610231,8|0,0:0|1:0,0:0:0:0:
105,191,52473,6,0,B|149:198|149:198|206:171|206:171|271:178,1,150.000005722046,4|0,1:0|1:0,0:0:0:0:
169,0,52914,1,10,0:0:0:0:
133,119,53061,1,0,1:0:0:0:
133,119,53209,1,0,1:0:0:0:
320,28,53356,2,0,B|287:11|287:11|239:15,1,75.0000028610231,10|0,0:0|1:0,0:0:0:0:
53,128,53650,5,10,0:0:0:0:
197,73,53797,1,0,1:0:0:0:
38,134,53944,1,0,1:0:0:0:
258,123,54091,5,8,0:0:0:0:
109,210,54238,2,0,P|113:172|137:131,1,75.0000028610231,0|0,1:0|1:0,0:0:0:0:
271,48,54532,1,10,0:0:0:0:
150,13,54679,1,0,1:0:0:0:
258,123,54826,6,0,B|356:133,1,75.0000028610231,4|0,1:0|1:0,0:0:0:0:
489,146,55120,1,10,0:0:0:0:
398,0,55267,2,0,B|373:32|373:32|380:92,1,75.0000028610231,2|0,0:0|1:0,0:0:0:0:
433,259,55561,5,10,0:0:0:0:
413,143,55709,1,0,1:0:0:0:
413,143,55856,1,0,1:0:0:0:
282,304,56003,6,0,B|244:308|244:308|186:279,1,75.0000028610231,10|0,0:0|1:0,0:0:0:0:
235,110,56297,2,0,P|263:154|261:220,1,112.500004291535,10|0,0:0|0:0,0:0:0:0:
255,232,56591,6,0,B|221:209|221:209|155:218,1,100.000003814697,0|8,1:0|0:0,0:0:0:0:
96,235,56885,1,8,0:3:0:0:
109,244,56983,2,0,P|135:242|157:229,1,50.0000019073487,4|12,0:3|0:3,0:0:0:0:
163,145,57179,5,4,1:0:0:0:
326,78,66003,6,0,L|269:82,1,50,4|0,0:3|0:0,0:0:0:0:
276,81,66591,6,0,P|350:96|381:121,1,100,4|0,1:0|0:0,0:0:0:0:
389,188,67032,1,0,1:0:0:0:
261,175,67179,2,0,L|332:166,1,50,8|0,0:0|0:0,0:0:0:0:
173,304,67473,6,0,P|171:251|199:197,1,100,4|0,1:0|0:0,0:0:0:0:
67,55,67914,2,0,P|104:117|105:163,1,100,8|0,0:0|1:0,0:0:0:0:
95,221,68356,5,8,0:0:0:0:
95,221,68650,1,0,1:0:0:0:
280,194,68797,1,8,0:0:0:0:
129,384,68944,6,0,P|145:342|142:273,1,100,4|0,1:0|0:0,0:0:0:0:
207,240,69385,1,0,1:0:0:0:
272,341,69532,2,0,L|267:280,1,50,8|0,0:0|0:0,0:0:0:0:
378,81,69826,6,0,P|357:127|368:196,1,100,4|0,1:0|0:0,0:0:0:0:
291,66,70267,1,8,0:0:0:0:
252,160,70414,2,0,P|238:128|222:111,1,50,0|0,1:0|1:0,0:0:0:0:
77,150,70709,5,8,0:0:0:0:
148,165,70856,1,0,1:0:0:0:
75,71,71003,5,8,0:0:0:0:
168,193,71150,1,8,0:0:0:0:
270,3,71297,6,0,P|231:4|173:43,1,100,4|0,1:0|0:0,0:0:0:0:
137,106,71738,1,0,1:0:0:0:
301,94,71885,2,0,P|261:83|239:84,1,50,8|0,0:0|0:0,0:0:0:0:
283,257,72179,6,0,P|283:211|252:153,1,100,4|0,1:0|0:0,0:0:0:0:
212,283,72620,1,8,0:0:0:0:
316,329,72767,6,0,P|339:314|354:295,1,50,0|0,0:0|1:0,0:0:0:0:
360,170,73061,2,0,P|361:197|370:219,1,50,8|0,0:0|0:0,0:0:0:0:
478,289,73356,2,0,P|453:276|429:273,1,50,0|0,1:0|0:0,0:0:0:0:
214,365,73650,6,0,B|179:371|179:371|116:346,1,69.9999978637696,12|0,0:0|1:0,0:0:0:0:
127,175,73944,1,12,0:0:0:0:
284,227,74091,1,0,1:0:0:0:
113,169,74238,5,8,0:0:0:0:
152,257,74385,1,8,0:3:0:0:
196,129,74532,1,4,0:3:0:0:
70,257,74679,5,4,0:3:0:0:
58,258,74973,1,4,0:3:0:0:
45,260,75267,2,0,P|82:229|123:224,1,80,4|4,0:3|0:3,0:0:0:0:
196,129,75709,6,0,L|188:189,1,50,8|0,0:0|0:0,0:0:0:0:
402,338,76003,6,0,P|403:291|371:230,1,100,4|0,1:0|0:0,0:0:0:0:
318,199,76444,1,0,1:0:0:0:
236,311,76591,2,0,P|239:285|253:254,1,50,8|0,0:0|0:0,0:0:0:0:
484,149,76885,6,0,P|456:164|381:165,1,100,4|0,1:0|0:0,0:0:0:0:
476,9,77326,2,0,P|465:46|421:92,1,100,8|0,0:0|1:0,0:0:0:0:
217,78,77767,6,0,L|272:82,1,50,8|0,0:0|1:0,0:0:0:0:
344,88,78061,1,0,1:0:0:0:
203,1,78209,1,8,0:0:0:0:
272,183,78356,6,0,P|223:158|178:158,1,100,4|0,1:0|0:0,0:0:0:0:
106,196,78797,1,0,1:0:0:0:
215,237,78944,2,0,P|190:247|166:276,1,50,8|0,0:0|0:0,0:0:0:0:
330,345,79238,6,0,P|326:303|286:254,1,100,4|0,1:0|0:0,0:0:0:0:
408,335,79679,1,8,0:0:0:0:
258,376,79826,2,0,L|198:367,1,50,0|0,1:0|1:0,0:0:0:0:
284,150,80120,5,8,0:0:0:0:
347,198,80267,1,0,1:0:0:0:
212,184,80414,5,8,0:0:0:0:
387,122,80561,1,8,0:0:0:0:
200,291,80709,6,0,P|236:258|285:248,1,100,4|0,1:0|0:0,0:0:0:0:
362,271,81150,1,0,1:0:0:0:
212,184,81297,2,0,L|203:121,1,50,8|0,0:0|0:0,0:0:0:0:
418,58,81591,6,0,P|364:84|308:80,1,100,4|0,1:0|0:0,0:0:0:0:
445,137,82032,1,8,0:0:0:0:
331,193,82179,2,0,P|299:161|286:137,1,50,0|0,0:0|1:0,0:0:0:0:
314,1,82473,5,8,0:0:0:0:
314,1,82767,2,0,P|341:1|365:10,2,33.3333333333333,8|8|8,0:0|0:0|0:0,0:0:0:0:
237,45,83061,6,0,P|188:42|125:9,1,110.000003356934,4|0,1:0|0:0,0:0:0:0:
9,146,83503,2,0,P|47:120|132:113,1,119.999996337891,8|0,0:0|1:0,0:0:0:0:
271,234,83944,6,0,P|232:231|200:214,1,75.0000028610231,4|0,1:0|0:0,0:0:0:0:
0,117,84238,2,0,P|31:97|67:89,1,75.0000028610231,0|0,1:0|0:0,0:0:0:0:
274,26,84532,1,10,0:0:0:0:
298,49,84606,1,0,1:0:0:0:
303,82,84679,1,0,1:0:0:0:
288,112,84753,1,0,1:0:0:0:
262,134,84826,5,0,1:0:0:0:
244,104,84900,1,0,1:0:0:0:
214,89,84973,1,0,1:0:0:0:
180,91,85047,1,0,1:0:0:0:
152,108,85120,6,0,P|143:125|138:143,1,37.5000014305115,0|0,1:0|1:0,0:0:0:0:
248,224,85267,2,0,P|236:209|221:197,1,37.5000014305115,0|0,1:0|1:0,0:0:0:0:
67,215,85414,6,0,P|109:239|157:238,1,76.5000034435274,4|0,1:0|0:0,0:0:0:0:
136,241,85709,6,0,B|48:248|48:248|-2:293,1,131.250001251698,8|0,0:0|0:0,0:0:0:0:
0,357,86003,2,0,B|115:350,1,87.500000834465,0|0,1:0|1:0,0:0:0:0:
226,239,86297,1,2,0:0:0:0:
104,339,86444,1,8,0:0:0:0:
239,233,86591,6,0,B|341:225,2,87.500000834465,2|0|8,0:0|1:0|0:0,0:0:0:0:
103,200,87032,1,2,0:0:0:0:
198,323,87179,1,0,1:0:0:0:
198,323,87326,1,0,1:0:0:0:
30,232,87473,2,0,B|24:188|24:188|40:148,1,87.500000834465,10|0,0:0|0:0,0:0:0:0:
230,26,87767,6,0,P|258:72|267:162,1,131.250001251698,4|0,1:0|0:0,0:0:0:0:
258,183,88061,1,8,0:0:0:0:
335,22,88209,1,2,0:0:0:0:
194,126,88356,2,0,P|175:173|182:220,1,87.500000834465,0|0,1:0|1:0,0:0:0:0:
357,328,88650,5,2,0:0:0:0:
258,183,88797,1,8,0:0:0:0:
142,296,88944,6,0,L|253:284,1,87.500000834465,2|0,0:0|1:0,0:0:0:0:
408,268,89238,2,0,B|381:233|381:233|315:223,1,87.500000834465,8|2,0:0|0:0,0:0:0:0:
179,209,89532,1,0,1:0:0:0:
179,209,89679,1,0,1:0:0:0:
364,330,89826,5,10,0:0:0:0:
262,138,89973,1,8,0:0:0:0:
262,138,90047,1,8,0:0:0:0:
262,138,90120,6,0,L|253:280,1,131.250001251698,4|0,1:0|0:0,0:0:0:0:
209,333,90414,2,0,P|169:347|115:343,1,87.500000834465,8|0,0:0|0:0,0:0:0:0:
98,147,90709,2,0,P|166:154|197:176,1,87.500000834465,0|0,1:0|1:0,0:0:0:0:
323,300,91003,5,2,0:0:0:0:
154,266,91150,1,8,0:0:0:0:
337,295,91297,6,0,B|356:253|356:253|347:206,1,87.500000834465,2|0,0:0|1:0,0:0:0:0:
276,59,91591,1,8,0:0:0:0:
181,162,91738,2,0,L|288:151,1,87.500000834465,2|0,0:0|1:0,0:0:0:0:
451,106,92032,1,0,1:0:0:0:
451,106,92179,2,0,P|403:107|349:129,1,87.500000834465,10|0,0:0|0:0,0:0:0:0:
233,246,92473,6,0,P|124:271|73:261,1,131.250001251698,4|0,1:0|0:0,0:0:0:0:
70,253,92767,1,8,0:0:0:0:
244,325,92914,1,2,0:0:0:0:
129,188,93061,2,0,B|122:142|122:142|145:94,1,87.500000834465,0|0,1:0|1:0,0:0:0:0:
240,17,93356,5,2,0:0:0:0:
64,78,93503,1,8,0:0:0:0:
204,155,93650,6,0,P|252:145|304:103,1,87.500000834465,2|0,0:0|1:0,0:0:0:0:
149,10,93944,1,8,0:0:0:0:
128,189,94091,2,0,P|160:222|228:239,1,87.500000834465,2|0,0:0|1:0,0:0:0:0:
317,30,94385,5,8,0:0:0:0:
283,13,94459,1,8,0:0:0:0:
251,25,94532,1,8,0:0:0:0:
229,53,94606,1,8,0:0:0:0:
232,86,94679,1,8,0:0:0:0:
255,111,94753,1,8,0:0:0:0:
287,116,94826,6,0,P|346:87|411:87,1,131.250001251698,4|0,1:0|0:0,0:0:0:0:
480,123,95120,2,0,B|507:158|507:158|510:223,1,87.500000834465,8|0,0:0|0:0,0:0:0:0:
318,246,95414,1,0,1:0:0:0:
361,175,95561,1,0,1:0:0:0:
475,271,95709,2,0,B|364:284,1,87.500000834465,2|8,0:0|0:0,0:0:0:0:
200,294,96003,5,2,0:0:0:0:
200,294,96150,1,0,1:0:0:0:
335,337,96297,1,8,0:0:0:0:
213,213,96444,2,0,B|165:217|165:217|109:262,1,87.500000834465,2|0,0:0|1:0,0:0:0:0:
233,362,96738,1,0,1:0:0:0:
294,194,96885,2,0,B|273:154|273:154|219:120,1,87.500000834465,10|0,0:0|0:0,0:0:0:0:
30,116,97179,6,0,P|96:122|162:99,1,131.250001251698,4|0,1:0|0:0,0:0:0:0:
182,75,97473,1,8,0:0:0:0:
119,197,97620,1,2,0:0:0:0:
121,14,97767,2,0,P|160:-6|225:-2,1,87.500000834465,0|0,1:0|0:0,0:0:0:0:
315,30,98061,5,2,0:0:0:0:
103,101,98209,1,8,0:0:0:0:
220,233,98356,6,0,P|265:237|322:202,1,87.500000834465,2|0,0:0|1:0,0:0:0:0:
402,89,98650,1,8,0:0:0:0:
244,68,98797,2,0,L|252:165,1,87.500000834465,2|0,0:0|1:0,0:0:0:0:
274,326,99091,1,0,1:0:0:0:
274,326,99164,1,0,1:0:0:0:
274,326,99238,1,10,0:0:0:0:
170,166,99385,1,0,1:0:0:0:
375,236,99532,6,0,B|339:217|339:217|299:221,1,77.5000005912781,8|4,0:0|0:3,0:0:0:0:
180,244,99826,1,4,0:3:0:0:
395,380,99973,2,0,B|415:346|415:346|410:301,1,77.5000005912781,8|4,0:0|0:3,0:0:0:0:
385,153,100267,1,4,0:3:0:0:
333,308,100414,5,8,0:0:0:0:
484,213,100561,1,4,0:3:0:0:
319,315,100709,6,0,B|279:311|279:311|236:278,1,77.5000005912781,10|4,0:0|0:3,0:0:0:0:
226,167,101003,1,4,0:3:0:0:
370,206,101150,2,0,L|277:210,1,77.5000005912781,10|4,0:0|0:3,0:0:0:0:
128,220,101444,1,4,0:3:0:0:
298,127,101591,5,10,0:0:0:0:
158,241,101738,1,4,0:3:0:0:
246,64,101885,6,0,P|280:49|332:50,2,67.5000002574921,10|4|4,0:0|0:3|0:3,0:0:0:0:
195,169,102326,1,8,0:3:0:0:
370,206,102473,6,0,L|379:122,1,67.5000002574921,6|4,0:3|0:3,0:0:0:0:
270,276,102767,2,0,L|263:203,1,67.5000002574921,14|4,0:3|0:3,0:0:0:0:
430,329,103061,5,10,0:0:0:0:
436,341,103356,1,8,0:0:0:0:
370,206,103503,1,8,0:0:0:0:
312,314,103650,5,8,0:0:0:0:
485,228,103797,1,8,0:0:0:0:
299,321,103944,2,0,P|266:318|224:298,1,67.5000002574921,8|2,0:0|0:0,0:0:0:0:
339,138,104238,5,4,0:0:0:0:
308,84,108650,5,8,0:0:0:0:
297,93,108944,6,0,L|222:88,1,75.0000028610231,4|0,1:0|1:0,1:1:0:0:
97,84,109238,1,8,0:0:0:0:
156,223,109385,2,0,B|175:189|175:189|170:125,1,75.0000028610231,0|8,1:0|0:3,0:0:0:0:
153,27,109679,1,0,1:0:0:0:
29,128,109826,2,0,P|76:163|118:165,1,75.0000028610231,8|0,0:0|1:0,0:0:0:0:
254,202,110120,6,0,L|338:195,1,75.0000028610231,0|0,1:0|1:0,0:0:0:0:
399,273,110414,1,8,0:0:0:0:
280,359,110561,2,0,B|280:320|280:320|298:289,1,75.0000028610231,0|8,1:0|0:3,0:0:0:0:
416,189,110856,1,0,1:0:0:0:
437,361,111003,2,0,P|400:365|365:352,1,75.0000028610231,8|0,0:0|1:0,0:0:0:0:
232,223,111297,6,0,L|145:230,1,75.0000028610231,0|0,1:0|1:0,0:0:0:0:
288,126,111591,1,8,0:0:0:0:
318,261,111738,1,0,1:0:0:0:
446,194,111885,2,0,B|412:176|412:176|375:180,1,75.0000028610231,8|0,0:3|1:0,0:0:0:0:
241,298,112179,1,8,0:0:0:0:
292,145,112326,1,0,0:0:0:0:
161,209,112473,6,0,L|74:202,1,75.0000028610231,0|0,1:0|1:0,0:0:0:0:
17,55,112767,2,0,P|53:51|86:69,1,75.0000028610231,8|0,0:0|0:0,0:0:0:0:
53,288,113061,5,8,0:0:0:0:
34,130,113209,1,8,0:0:0:0:
188,222,113356,1,8,0:0:0:0:
206,66,113503,1,8,0:0:0:0:
173,297,113650,6,0,L|183:363,2,67.5000002574921,4|0|0,1:0|1:0|0:0,0:0:0:0:
140,118,114091,1,0,1:0:0:0:
203,211,114238,2,0,P|234:228|269:233,1,67.5000002574921,8|0,0:0|0:0,0:0:0:0:
340,168,114532,1,0,1:0:0:0:
329,377,114679,6,0,B|323:329|323:329|349:282|349:282|343:249,1,135.000000514984,8|0,0:0|1:0,0:0:0:0:
409,348,115120,1,0,0:0:0:0:
264,263,115267,2,0,B|233:240|174:257|174:257|147:290,1,135.000000514984,0|0,1:0|1:0,0:0:0:0:
16,354,115709,2,0,L|86:365,1,67.5000002574921,8|0,0:0|0:0,0:0:0:0:
221,328,116003,5,0,1:0:0:0:
78,252,116150,2,0,L|10:257,1,67.5000002574921,0|0,1:0|0:0,0:0:0:0:
161,373,116444,1,0,1:0:0:0:
141,193,116591,2,0,P|111:176|78:169,1,67.5000002574921,8|0,0:0|0:0,0:0:0:0:
186,261,116885,1,0,1:0:0:0:
142,103,117032,1,8,0:0:0:0:
290,208,117179,6,0,L|357:214,1,67.5000002574921,2|0,0:0|1:0,0:0:0:0:
233,132,117473,1,8,0:0:0:0:
286,292,117620,1,0,1:0:0:0:
415,159,117767,2,0,L|446:163,5,22.5000000858307,0|0|0|0|0|0,1:0|1:0|1:0|1:0|1:0|1:0,0:0:0:0:
491,206,118061,2,0,P|505:181|503:140,1,67.5000002574921,8|0,0:0|0:0,0:0:0:0:
330,24,118356,6,0,L|336:96,1,72.5000022125245,4|0,1:0|1:0,0:0:0:0:
357,242,118650,1,8,0:0:0:0:
219,172,118797,2,0,B|182:183|182:183|172:220,1,72.5000022125245,0|0,1:0|1:0,0:0:0:0:
157,320,119091,1,0,1:0:0:0:
160,111,119238,6,0,P|99:99|112:159,1,145.000004425049,8|0,0:0|1:0,0:0:0:0:
290,150,119679,1,0,1:0:0:0:
145,240,119826,2,0,L|73:228,1,72.5000022125245,8|0,0:0|1:0,0:0:0:0:
272,265,120120,2,0,P|300:286|319:317,1,72.5000022125245,0|0,1:0|1:0,0:0:0:0:
109,313,120414,2,0,P|81:337|68:371,1,72.5000022125245,8|0,0:0|1:0,0:0:0:0:
269,186,120709,6,0,L|274:113,1,72.5000022125245,4|0,1:0|1:0,0:0:0:0:
193,312,121003,2,0,L|199:384,1,72.5000022125245,8|0,0:0|1:0,0:0:0:0:
358,294,121297,2,0,L|365:219,1,72.5000022125245,8|0,0:0|1:0,0:0:0:0:
254,40,121591,5,8,0:0:0:0:
280,244,121738,2,0,L|284:204,1,36.2500011062622,0|0,1:0|1:0,0:0:0:0:
324,81,121885,5,8,0:0:0:0:
353,59,121958,1,8,0:0:0:0:
388,67,122032,1,8,0:0:0:0:
408,96,122105,1,8,0:0:0:0:
402,131,122179,1,8,0:3:0:0:
374,154,122252,1,8,0:3:0:0:
337,150,122326,2,0,L|280:141,1,37.5000014305115,8|8,0:3|0:3,0:0:0:0:
208,129,122473,6,0,P|165:144|143:177,1,72.5000022125245,8|0,0:3|1:0,0:0:0:0:
159,240,122694,1,0,1:0:0:0:
171,252,122767,5,8,0:0:0:0:
174,280,122841,1,4,0:3:0:0:
176,308,122914,1,4,0:3:0:0:
179,337,122988,1,4,0:3:0:0:
182,359,123061,6,0,P|204:372|232:377,1,52.4999983978272,4|0,1:0|0:0,0:0:0:0:
281,272,123356,2,0,P|303:258|331:254,1,52.4999983978272,0|0,1:0|0:0,0:0:0:0:
372,366,123650,2,0,P|394:379|422:384,1,52.4999983978272,0|0,1:0|0:0,0:0:0:0:
490,226,123944,2,0,B|493:166,1,52.4999983978272,0|0,1:0|0:0,0:0:0:0:
379,43,124238,6,0,L|391:147,1,104.999996795654,0|0,1:0|1:0,0:0:0:0:
380,264,124679,2,0,P|346:215|287:195,1,104.999996795654
183,255,125120,1,0,1:0:0:0:
279,298,125267,1,0,0:0:0:0:
168,240,125414,6,0,L|115:243,1,52.4999983978272,0|0,1:0|0:0,0:0:0:0:
200,328,125709,1,0,1:0:0:0:
284,193,125856,2,0,L|336:196,1,52.4999983978272,0|0,0:0|1:0,0:0:0:0:
377,273,126151,1,0,0:0:0:0:
205,173,126297,6,0,B|195:114|195:114|194:95|211:72,1,104.999996795654,0|0,1:0|1:0,0:0:0:0:
378,91,126738,1,8,0:0:0:0:
313,17,126885,2,0,L|260:21,1,52.4999983978272,0|0,1:0|0:0,0:0:0:0:
132,99,127179,2,0,L|79:94,1,52.4999983978272,0|0,1:0|0:0,0:0:0:0:
273,181,127473,2,0,L|326:174,1,52.4999983978272,0|0,1:0|0:0,0:0:0:0:
85,251,127767,6,0,P|71:265|57:300,1,52.4999983978272,4|0,1:0|0:0,0:0:0:0:
182,384,128061,2,0,L|172:333,1,52.4999983978272,0|0,1:0|0:0,0:0:0:0:
209,231,128356,2,0,L|198:180,1,52.4999983978272,0|0,1:0|0:0,0:0:0:0:
236,78,128650,2,0,L|225:27,1,52.4999983978272,0|0,1:0|0:0,0:0:0:0:
397,151,128944,6,0,L|389:203,1,52.4999983978272,0|0,1:0|0:0,0:0:0:0:
322,351,129238,2,0,L|311:300,1,52.4999983978272,0|0,1:0|0:0,0:0:0:0:
234,114,129532,2,0,L|226:166,1,52.4999983978272,0|0,1:0|0:0,0:0:0:0:
158,370,129826,2,0,L|147:319,1,52.4999983978272,0|0,1:0|0:0,0:0:0:0:
34,190,130120,5,8,0:0:0:0:
183,226,130414,1,8,0:0:0:0:
0,256,130709,5,8,0:0:0:0:
239,172,131003,1,8,0:0:0:0:
103,367,131297,6,0,L|85:259,1,108.750003318787,0|0,1:0|0:0,0:0:0:0:
72,191,131591,2,0,P|89:140|131:107,1,108.750003318787,0|0,1:0|0:0,0:0:0:0:
250,143,131885,5,8,0:0:0:0:
190,41,132032,1,8,0:3:0:0:
215,214,132179,5,4,0:3:0:0:
238,125,132326,1,4,0:3:0:0:
190,294,132473,6,0,L|197:364,1,69.9999978637696,2|2,0:3|0:3,0:0:0:0:
173,382,133209,2,0,L|180:312,1,69.9999978637696,2|2,0:3|0:3,0:0:0:0:
119,258,133650,2,0,L|126:188,1,69.9999978637696,2|2,0:3|0:3,0:0:0:0:
65,134,134091,2,0,L|72:64,1,69.9999978637696,2|2,0:3|0:3,0:0:0:0:
18,5,134532,1,2,0:3:0:0:
154,35,134826,6,0,L|224:29,1,69.9999978637696,2|2,0:3|0:3,0:0:0:0:
223,29,135562,2,0,L|215:98,1,69.9999978637696,2|2,0:3|0:3,0:0:0:0:
296,192,136003,6,0,L|343:187,1,47.4999987316132,0|2,0:0|0:0,0:0:0:0:
417,107,136297,1,0,1:0:0:0:
417,107,136444,1,0,1:0:0:0:
385,284,136591,1,8,0:0:0:0:
69,37,137179,5,6,1:0:0:0:
105,354,137473,1,6,1:0:0:0:
213,99,137767,5,8,0:0:0:0:
165,210,137914,2,0,P|126:239|51:226,1,115.000002193451,2|0,1:0|0:0,0:0:0:0:
231,287,138356,2,0,P|183:297|120:254,1,115.000002193451,2|0,1:0|0:0,0:0:0:0:
274,384,138797,1,2,1:0:0:0:
362,274,138944,6,0,L|355:216,1,57.5000010967255,10|0,0:0|0:0,0:0:0:0:
376,147,139238,2,0,L|387:232,1,86.2500016450882,2|0,0:0|0:0,0:0:0:0:
412,344,139532,5,6,1:0:0:0:
446,36,139826,1,6,1:0:0:0:
212,193,140120,5,8,0:0:0:0:
321,120,140267,2,0,L|434:137,1,115.000002193451,2|0,1:0|0:0,0:0:0:0:
512,152,140709,1,0,1:0:0:0:
440,252,140856,2,0,B|451:315,2,57.5000010967255,2|0|0,0:0|0:0|0:0,0:0:0:0:
314,342,141297,6,0,L|256:349,1,57.5000010967255,10|0,0:0|2:0,2:2:0:0:
63,241,141591,2,0,L|121:248,1,57.5000010967255,2|0,0:0|2:0,2:2:0:0:
355,197,141885,5,6,1:0:0:0:
59,352,142179,1,6,1:0:0:0:
272,244,142473,5,8,0:0:0:0:
161,185,142620,2,0,B|118:146|118:146|109:89,1,115.000002193451,2|0,1:0|0:0,0:0:0:0:
80,268,143061,2,0,L|97:154,1,115.000002193451,2|0,1:0|0:0,0:0:0:0:
59,36,143503,1,2,1:0:0:0:
259,94,143650,6,0,B|315:84,1,57.5000010967255,10|0,0:0|0:0,0:0:0:0:
198,155,143944,1,2,0:0:0:0:
237,25,144091,1,0,0:0:0:0:
172,227,144238,5,6,1:0:0:0:
453,352,144532,1,6,1:0:0:0:
194,309,144826,5,8,0:0:0:0:
307,278,144973,2,0,B|377:265|377:265|416:301,1,115.000002193451,2|0,1:0|0:0,0:0:0:0:
476,186,145414,6,2,L|486:129,2,57.5000010967255,8|2|2,0:0|0:3|0:3,0:0:0:0:
509,276,146003,1,2,0:3:0:0:
304,122,146297,5,10,0:0:0:0:
457,55,146444,1,10,0:0:0:0:
457,55,146885,6,0,L|450:118,1,63.7500012159348,0|0,1:0|0:0,0:0:0:0:
444,153,147179,5,6,1:0:0:0:
299,38,147326,2,0,P|267:24|234:25,1,67.5000002574921,6|0,1:0|0:0,0:0:0:0:
373,89,147620,1,0,0:0:0:0:
247,102,147767,6,0,B|213:113|213:113|195:139,1,67.5000002574921,6|0,1:0|0:0,0:0:0:0:
207,279,148061,1,0,0:0:0:0:
107,143,148209,1,2,1:0:0:0:
264,197,148356,2,0,L|334:201,1,67.5000002574921,10|0,0:0|0:0,0:0:0:0:
99,238,148650,2,0,P|85:254|70:303,1,67.5000002574921,2|0,0:1|0:0,0:0:0:0:
333,377,148944,5,6,1:0:0:0:
198,79,149238,1,6,1:0:0:0:
420,246,149532,5,8,0:0:0:0:
363,136,149679,2,0,L|372:69,1,67.5000002574921,2|0,1:0|0:0,0:0:0:0:
439,9,149973,1,0,0:0:0:0:
280,73,150120,6,0,P|246:67|218:49,2,67.5000002574921,2|2|2,1:0|0:0|0:0,0:0:0:0:
455,108,150561,1,0,0:0:0:0:
452,128,150635,1,0,0:0:0:0:
450,148,150709,5,8,0:0:0:0:
357,181,150856,1,2,0:0:0:0:
470,222,151003,1,2,0:0:0:0:
349,259,151150,1,2,0:0:0:0:
437,367,151297,5,6,1:0:0:0:
144,209,151591,1,6,1:0:0:0:
319,120,151885,5,8,0:0:0:0:
172,52,152032,2,0,B|183:118,1,67.5000002574921,2|0,1:0|0:0,0:0:0:0:
144,209,152326,1,0,0:0:0:0:
301,269,152473,6,0,P|282:302|246:318,1,67.5000002574921,2|0,1:0|0:0,0:0:0:0:
133,384,152767,2,0,P|98:368|78:334,1,67.5000002574921,2|0,0:1|0:0,0:0:0:0:
0,232,153061,2,0,P|11:195|43:172,1,67.5000002574921,10|0,0:0|0:0,0:0:0:0:
223,200,153356,1,2,0:0:0:0:
125,152,153503,1,2,0:0:0:0:
338,82,153650,5,6,1:0:0:0:
68,273,153944,1,6,1:0:0:0:
314,322,154238,5,8,0:0:0:0:
240,198,154385,2,0,B|244:63,1,135.000000514984,2|0,1:0|0:0,0:0:0:0:
469,169,154826,6,0,P|492:145|506:109,1,67.5000002574921,2|0,1:0|1:0,0:0:0:0:
374,197,155120,1,8,0:3:0:0:
493,245,155267,1,8,0:3:0:0:
338,111,155414,5,8,0:0:0:0:
366,288,155561,1,8,0:0:0:0:
335,95,155709,1,8,0:0:0:0:
367,302,155856,1,8,0:0:0:0:
259,93,156003,6,0,B|232:67|232:67|191:70,1,77.5000005912781,6|0,1:0|0:0,0:0:0:0:
73,140,156297,1,8,0:0:0:0:
204,223,156444,2,0,B|213:182|213:182|197:149,1,77.5000005912781,2|0,1:0|1:0,0:0:0:0:
0,127,156738,1,2,0:0:0:0:
159,82,156885,1,8,0:0:0:0:
31,227,157032,6,0,L|108:235,1,77.5000005912781,2|0,0:0|1:0,0:0:0:0:
284,325,157326,1,2,0:0:0:0:
150,377,157473,1,8,0:0:0:0:
227,229,157620,1,2,0:0:0:0:
226,229,157767,2,0,P|257:204|294:194,1,77.5000005912781,2|0,1:0|0:0,0:0:0:0:
467,293,158061,2,0,L|373:278,1,77.5000005912781,10|0,0:0|0:0,0:0:0:0:
447,50,158356,6,0,B|460:89|460:89|444:121,1,77.5000005912781,6|0,1:0|0:0,0:0:0:0:
375,203,158650,1,10,0:0:0:0:
286,65,158797,2,0,B|321:65|321:65|354:92,1,77.5000005912781,2|0,0:0|1:0,0:0:0:0:
463,210,159091,1,2,0:0:0:0:
302,250,159238,1,8,0:0:0:0:
444,349,159385,6,0,L|368:333,1,77.5000005912781,2|0,0:0|1:0,0:0:0:0:
209,357,159679,1,2,0:0:0:0:
311,236,159826,1,8,0:0:0:0:
126,287,159973,1,2,0:0:0:0:
126,287,160120,2,0,B|106:250|106:250|114:215,1,77.5000005912781,2|0,1:0|0:0,0:0:0:0:
259,42,160414,2,0,L|249:121,1,77.5000005912781,10|0,0:0|0:0,0:0:0:0:
55,56,160709,5,10,0:0:0:0:
169,149,160856,1,0,1:0:0:0:
24,85,161003,5,8,0:0:0:0:
173,123,161150,1,2,1:0:0:0:
9,119,161297,5,8,0:0:0:0:
177,97,161444,1,2,1:0:0:0:
0,158,161591,5,8,0:0:0:0:
181,71,161738,1,2,1:0:0:0:
98,203,161885,6,0,B|111:289,1,87.500000834465,8|2,0:0|1:0,0:0:0:0:
269,115,162179,2,0,B|282:28,1,87.500000834465,8|0,0:0|1:0,0:0:0:0:
207,334,162473,6,0,B|193:247,1,87.500000834465,10|0,0:0|1:0,0:0:0:0:
354,113,162767,2,0,B|340:199,1,87.500000834465,8|0,0:0|1:0,0:0:0:0:
435,359,163062,5,10,0:0:0:0:
330,273,163208,1,0,1:0:0:0:
485,282,163356,5,8,0:0:0:0:
333,296,163503,1,2,1:0:0:0:
463,194,163650,5,8,0:0:0:0:
334,318,163797,1,2,1:0:0:0:
390,141,163943,5,8,0:0:0:0:
336,341,164090,1,2,1:0:0:0:
441,207,164238,6,0,L|484:213,1,43.7500004172325,10|0,0:0|0:0,0:0:0:0:
330,273,164385,2,0,L|286:280,3,43.7500004172325,10|0|0|0,0:0|1:0|1:0|1:0,0:0:0:0:
373,165,164679,2,0,L|367:208,1,43.7500004172325,2|0,1:0|0:0,0:0:0:0:
218,343,164826,5,10,0:0:0:0:
199,318,164900,1,0,1:0:0:0:
191,288,164973,1,0,1:0:0:0:
197,257,165047,1,0,1:0:0:0:
208,228,165120,1,8,0:0:0:0:
228,205,165194,1,8,0:3:0:0:
239,176,165267,1,4,0:3:0:0:
234,145,165340,1,12,0:3:0:0:
220,117,165414,6,4,L|171:121,1,50,4|0,1:0|0:0,0:0:0:0:
41,160,165709,2,0,L|90:156,1,50,0|0,1:0|0:0,0:0:0:0:
229,98,166003,2,0,L|180:102,1,50,0|0,1:0|0:0,0:0:0:0:
50,141,166297,2,0,L|99:137,1,50,0|0,1:0|0:0,0:0:0:0:
311,62,166591,6,0,L|360:66,1,50,0|0,1:0|0:0,0:0:0:0:
490,105,166886,2,0,L|441:101,1,50,0|0,1:0|0:0,0:0:0:0:
302,43,167180,2,0,L|351:47,1,50,0|0,1:0|0:0,0:0:0:0:
481,86,167474,2,0,L|432:82,1,50,0|0,1:0|0:0,0:0:0:0:
309,185,167767,6,0,L|358:189,1,50,0|0,1:0|0:0,0:0:0:0:
439,224,168062,2,0,L|488:228,1,50,0|0,1:0|0:0,0:0:0:0:
265,278,168356,2,0,L|314:282,1,50,0|0,1:0|0:0,0:0:0:0:
394,316,168651,2,0,L|443:320,1,50,0|0,1:0|0:0,0:0:0:0:
180,330,168944,5,0,1:0:0:0:
253,255,169091,2,0,L|302:259,1,50,8|4,0:3|0:3,0:0:0:0:
150,234,169385,1,8,0:3:0:0:
223,159,169532,2,0,L|272:163,1,50,4|12,0:3|0:3,0:0:0:0:
131,255,169826,2,0,L|82:251,1,50,0|8,1:0|0:3,0:0:0:0:
43,84,170120,6,0,L|109:74,1,57.5000010967255,0|0,1:0|0:0,0:0:0:0:
200,57,170414,2,0,L|266:47,1,57.5000010967255,0|0,1:0|0:0,0:0:0:0:
406,180,170709,6,0,L|339:170,1,57.5000010967255,0|0,1:0|0:0,0:0:0:0:
249,153,171003,2,0,L|182:143,1,57.5000010967255,0|0,1:0|0:0,0:0:0:0:
49,272,171297,6,0,L|115:262,1,57.5000010967255,0|0,1:0|0:0,0:0:0:0:
206,245,171591,2,0,L|272:235,1,57.5000010967255,0|0,1:0|0:0,0:0:0:0:
412,368,171886,6,0,L|345:358,1,57.5000010967255,0|0,1:0|0:0,0:0:0:0:
255,341,172180,2,0,L|188:331,1,57.5000010967255,0|0,1:0|0:0,0:0:0:0:
442,287,172473,6,0,P|467:258|479:221,1,77.5000005912781,8|0,0:0|1:0,0:0:0:0:
448,100,172767,1,0,1:0:0:0:
395,209,172914,2,0,P|386:171|362:140,1,77.5000005912781,8|0,0:0|1:0,0:0:0:0:
245,95,173208,1,0,1:0:0:0:
402,37,173356,1,8,0:0:0:0:
290,181,173503,1,0,1:0:0:0:
158,82,173650,6,0,L|90:74,1,67.5000002574921,8|0,0:0|1:0,0:0:0:0:
351,115,173944,2,0,P|378:94|392:64,1,67.5000002574921,8|0,0:0|1:0,0:0:0:0:
179,190,174238,1,8,0:0:0:0:
318,248,174385,1,8,0:0:0:0:
142,308,174532,1,8,0:0:0:0:
332,378,174679,1,8,0:0:0:0:
42,83,185414,6,0,L|119:70,1,69.9999978637696,0|0,1:0|0:0,0:0:0:0:
143,45,185856,2,0,L|136:103,1,56.9999993041992,8|0,0:0|0:0,0:0:0:0:
152,129,186297,1,0,1:0:0:0:
142,208,186591,1,2,0:0:0:0:
178,316,186885,2,0,L|181:279,1,34.9999989318848,0|0,1:0|0:0,0:0:0:0:
220,180,187179,6,0,L|212:266,1,75,8|0,0:0|0:0,0:0:0:0:
205,346,187767,6,0,L|282:359,1,69.9999978637696,0|0,1:0|0:0,0:0:0:0:
306,384,188209,2,0,L|299:326,1,56.9999993041992,8|0,0:0|0:0,0:0:0:0:
315,300,188650,1,0,1:0:0:0:
305,221,188944,1,2,0:0:0:0:
341,113,189238,2,0,L|344:150,1,34.9999989318848,0|0,1:0|0:0,0:0:0:0:
383,249,189532,6,0,L|375:163,1,75,8|0,0:0|0:0,0:0:0:0:
367,84,190120,5,0,1:0:0:0:
145,150,190561,1,8,0:0:0:0:
301,214,191003,1,0,1:0:0:0:
301,214,191591,1,0,1:0:0:0:
185,346,191885,6,0,P|239:315|221:256,1,134.749997327042,8|0,0:0|0:0,1:1:0:0:
228,239,192473,6,0,L|90:242,1,137.5,4|0,0:2|0:0,0:0:0:0:
83,242,193356,5,4,2:1:0:0:
256,192,193429,12,6,194826,2:0:0:0:
363,306,196591,6,0,L|422:298,1,50,4|0,0:3|0:0,0:0:0:0:
412,299,197179,6,0,P|363:295|319:271,1,100,4|0,1:0|0:0,0:0:0:0:
268,194,197620,1,0,1:0:0:0:
235,322,197767,2,0,L|224:255,1,50,8|0,0:0|0:0,0:0:0:0:
311,60,198061,6,0,P|271:95|212:108,1,100,4|0,1:0|0:0,0:0:0:0:
48,16,198503,2,0,P|95:30|131:64,1,100,8|0,0:0|1:0,0:0:0:0:
137,161,198944,5,8,0:0:0:0:
137,161,199238,1,0,1:0:0:0:
297,212,199385,1,8,0:0:0:0:
108,331,199532,6,0,P|147:301|199:307,1,100,4|0,1:0|0:0,0:0:0:0:
265,367,199973,1,0,1:0:0:0:
307,244,200120,2,0,L|312:293,1,50,8|0,0:0|0:0,0:0:0:0:
464,190,200414,6,0,P|490:142|487:85,1,100,4|0,1:0|0:0,0:0:0:0:
439,19,200855,1,8,0:0:0:0:
351,97,201002,2,0,L|415:102,1,50,0|0,1:0|1:0,0:0:0:0:
246,189,201297,5,8,0:0:0:0:
317,174,201444,1,0,1:0:0:0:
174,121,201591,5,8,0:0:0:0:
298,250,201738,1,8,0:0:0:0:
294,261,201811,1,8,0:0:0:0:
291,273,201885,6,0,P|244:272|194:313,1,100,4|0,1:0|0:0,0:0:0:0:
167,370,202326,1,0,1:0:0:0:
135,247,202473,2,0,P|107:225|76:220,1,50,8|0,0:0|0:0,0:0:0:0:
209,49,202767,6,0,P|209:99|187:144,1,100,4|0,1:0|0:0,0:0:0:0:
68,220,203209,1,8,0:0:0:0:
252,255,203355,6,0,P|236:235|214:222,1,50,0|0,0:0|1:0,0:0:0:0:
367,139,203650,2,0,P|351:158|330:170,1,50,8|0,0:0|0:0,0:0:0:0:
460,288,203944,2,0,P|444:268|422:255,1,50,0|0,1:0|0:0,0:0:0:0:
290,32,204238,6,0,B|279:66|279:66|288:98,1,69.9999978637696,12|0,0:0|1:0,0:0:0:0:
471,167,204532,1,12,0:0:0:0:
327,256,204679,1,0,1:0:0:0:
407,88,204826,5,8,0:0:0:0:
391,192,204973,1,8,0:3:0:0:
406,100,205120,1,4,0:3:0:0:
460,275,205267,5,4,0:3:0:0:
466,289,205561,1,4,0:3:0:0:
471,304,205856,2,0,P|462:321|445:332,1,40,4|0,0:3|0:0,0:0:0:0:
228,238,206150,5,8,0:0:0:0:
387,274,206297,1,8,0:0:0:0:
213,234,206444,1,8,0:0:0:0:
421,195,206591,6,0,B|349:195|349:195|329:227,1,104.999996795654,4|0,1:0|0:0,0:0:0:0:
321,245,206885,1,8,0:0:0:0:
362,98,207032,2,0,P|322:44|255:49,1,139.999995727539,0|0,1:0|1:0,0:0:0:0:
72,149,207473,6,0,B|101:168|101:168|141:162,1,69.9999978637696,8|0,0:0|0:0,0:0:0:0:
290,114,207767,1,0,0:0:0:0:
156,67,207914,1,0,1:0:0:0:
227,203,208061,2,0,B|221:272,1,69.9999978637696,8|0,0:0|0:0,0:0:0:0:
86,332,208356,5,0,1:0:0:0:
195,294,208503,1,0,1:0:0:0:
286,372,208650,2,0,L|366:382,1,69.9999978637696,8|0,0:0|0:0,0:0:0:0:
362,205,208944,6,0,P|313:222|288:267,1,104.999996795654,4|0,1:0|0:0,0:0:0:0:
287,291,209238,1,8,0:0:0:0:
482,306,209385,2,0,B|451:264|451:264|398:274,1,104.999996795654,0|0,1:0|0:0,0:0:0:0:
373,285,209679,1,0,1:0:0:0:
493,172,209826,6,0,B|504:93|504:93|503:56|483:32,1,139.999995727539,8|0,0:0|0:0,0:0:0:0:
356,3,210267,1,0,1:0:0:0:
407,158,210414,2,0,B|391:190|391:190|358:204,1,69.9999978637696,8|0,0:0|0:0,0:0:0:0:
163,157,210709,2,0,B|193:139|193:139|227:142,1,69.9999978637696,0|0,1:0|0:0,0:0:0:0:
364,293,211003,2,0,B|328:292|328:292|302:269,1,69.9999978637696,8|0,0:0|0:0,0:0:0:0:
332,15,211297,6,0,L|321:119,1,104.999996795654,4|0,1:0|0:0,0:0:0:0:
318,145,211591,1,8,0:0:0:0:
182,35,211738,2,0,P|129:37|89:70,1,104.999996795654,0|0,1:0|0:0,0:0:0:0:
90,97,212032,1,0,1:0:0:0:
225,226,212179,6,0,B|222:149|222:149|170:112,1,139.999995727539,8|0,0:0|0:0,0:0:0:0:
29,31,212620,1,0,1:0:0:0:
29,206,212767,2,0,P|62:198|90:177,1,69.9999978637696,8|0,0:0|0:0,0:0:0:0:
217,53,213061,2,0,P|250:60|278:81,1,69.9999978637696,0|0,1:0|1:0,0:0:0:0:
355,242,213356,2,0,P|388:234|416:213,1,69.9999978637696,8|0,0:0|1:0,0:0:0:0:
218,171,213650,5,8,0:0:0:0:
308,313,213797,1,0,1:0:0:0:
342,227,213945,1,0,1:0:0:0:
228,367,214091,2,0,P|259:338|300:331,1,85.0000016212464,8|0,0:0|1:0,0:0:0:0:
385,383,214386,1,0,1:0:0:0:
493,247,214532,6,0,L|503:162,1,85.0000016212464,10|0,0:0|1:0,0:0:0:0:
360,52,214826,1,10,0:0:0:0:
402,206,214973,1,0,1:0:0:0:
356,35,215120,5,10,0:0:0:0:
407,223,215267,1,0,1:0:0:0:
216,124,215414,5,8,0:0:0:0:
245,105,215488,1,0,1:0:0:0:
279,107,215561,1,0,1:0:0:0:
305,128,215635,1,0,1:0:0:0:
317,159,215708,6,0,P|314:179|305:199,1,42.5000008106232,0|0,1:0|1:0,0:0:0:0:
171,199,215855,2,0,P|191:194|212:194,1,42.5000008106232,0|0,1:0|1:0,0:0:0:0:
365,354,216002,6,0,B|301:372|254:327|254:327|260:277,1,170.000003242493,4|0,1:0|1:0,0:0:0:0:
82,128,216444,2,0,L|90:204,1,76.5000034435274,8|0,0:0|1:0,0:0:0:0:
103,330,216738,1,0,1:0:0:0:
168,182,216885,5,10,0:0:0:0:
47,269,217032,1,0,1:0:0:0:
179,170,217180,6,0,P|215:154|269:163,2,76.5000034435274,10|0|0,0:0|1:0|1:0,0:0:0:0:
108,320,217621,1,10,0:0:0:0:
71,190,217768,1,0,1:0:0:0:
71,190,217915,1,0,1:0:0:0:
193,299,218062,5,10,0:0:0:0:
43,353,218209,1,0,1:0:0:0:
214,287,218356,6,0,B|252:285|252:285|278:312,1,76.5000034435274,10|0,0:0|1:0,0:0:0:0:
332,384,218650,1,0,1:0:0:0:
350,195,218797,2,0,B|373:227|373:227|368:263,1,76.5000034435274,10|0,0:0|1:0,0:0:0:0:
351,364,219091,1,0,1:0:0:0:
472,296,219238,2,0,L|482:207,1,76.5000034435274,10|0,0:0|1:0,0:0:0:0:
371,43,219532,6,0,L|379:130,1,76.5000034435274,10|0,0:0|1:0,0:0:0:0:
389,211,219827,1,0,1:0:0:0:
459,72,219974,5,10,0:0:0:0:
295,98,220121,1,0,1:0:0:0:
295,98,220268,1,0,1:0:0:0:
458,158,220415,5,10,0:0:0:0:
345,23,220562,1,0,1:0:0:0:
323,14,220635,1,0,1:0:0:0:
302,3,220709,6,0,B|209:14|209:14|193:71,1,153.000006887055,8|0,0:0|1:0,0:0:0:0:
264,219,221150,1,8,0:0:0:0:
151,148,221297,1,0,1:0:0:0:
151,148,221444,1,0,1:0:0:0:
344,152,221591,2,0,B|309:130|309:130|273:132,1,76.5000034435274,10|0,0:0|1:0,0:0:0:0:
151,248,221885,6,0,B|74:254,1,76.5000034435274,10|0,0:0|1:0,0:0:0:0:
40,167,222180,1,0,1:0:0:0:
223,207,222327,2,0,P|236:242|227:279,1,76.5000034435274,10|0,0:0|1:0,0:0:0:0:
107,328,222621,1,0,1:0:0:0:
137,147,222768,2,0,B|167:123|167:123|212:124,1,76.5000034435274,10|0,0:0|1:0,0:0:0:0:
362,197,223062,6,0,L|352:277,1,76.5000034435274,10|0,0:0|1:0,0:0:0:0:
332,384,223356,1,0,1:0:0:0:
448,178,223503,2,0,L|438:258,1,76.5000034435274,10|0,0:0|1:0,0:0:0:0:
420,368,223797,1,0,1:0:0:0:
266,308,223944,2,0,P|242:278|235:241,1,76.5000034435274,10|0,0:0|1:0,0:0:0:0:
345,112,224238,5,10,0:0:0:0:
328,243,224385,1,0,1:0:0:0:
328,243,224532,1,0,1:0:0:0:
428,90,224679,5,10,0:0:0:0:
411,221,224826,1,0,1:0:0:0:
411,221,224973,1,0,1:0:0:0:
279,89,225121,5,0,1:0:0:0:
250,98,225194,1,0,1:0:0:0:
250,129,225268,1,0,1:0:0:0:
280,138,225341,1,0,1:0:0:0:
300,113,225415,6,0,B|342:79|391:161|443:115,1,153.000006887055,8|0,0:0|1:0,0:0:0:0:
328,197,225856,1,8,0:0:0:0:
405,54,226003,1,0,1:0:0:0:
405,54,226150,1,0,1:0:0:0:
320,213,226297,2,0,B|281:219|281:219|247:203,1,76.5000034435274,10|0,0:0|1:0,0:0:0:0:
138,84,226591,6,0,B|63:99,1,76.5000034435274,10|0,0:0|1:0,0:0:0:0:
12,186,226885,1,0,1:0:0:0:
167,231,227032,2,0,P|143:199|109:183,1,76.5000034435274,10|0,0:0|1:0,0:0:0:0:
24,278,227327,1,0,1:0:0:0:
197,326,227474,2,0,B|235:312|235:312|255:281,1,76.5000034435274,10|0,0:0|1:0,0:0:0:0:
209,77,227768,6,0,L|200:153,1,76.5000034435274,10|0,0:0|1:0,0:0:0:0:
183,248,228062,1,0,1:0:0:0:
279,128,228209,5,10,0:0:0:0:
125,182,228356,1,0,1:0:0:0:
125,182,228503,1,0,1:0:0:0:
299,118,228650,2,0,L|375:126,1,76.5000034435274,10|0,0:0|1:0,0:0:0:0:
452,218,228944,6,0,B|418:232|418:232|401:268,1,76.5000034435274,10|0,0:0|1:0,0:0:0:0:
392,359,229238,1,0,1:0:0:0:
330,206,229385,5,10,0:0:0:0:
478,295,229532,1,0,1:0:0:0:
478,295,229680,1,0,1:0:0:0:
307,226,229827,5,10,0:0:0:0:
505,272,229973,1,0,1:0:0:0:
274,308,230121,6,0,B|263:155,1,153.000006887055,8|0,0:0|1:0,0:0:0:0:
49,115,230561,2,0,P|74:144|109:158,1,76.5000034435274,8|0,0:0|1:0,0:0:0:0:
254,76,230856,1,0,1:0:0:0:
113,6,231002,2,0,B|108:46|108:46|126:77,1,76.5000034435274,10|0,0:0|1:0,0:0:0:0:
334,102,231297,5,10,0:0:0:0:
187,134,231443,1,0,1:0:0:0:
187,134,231590,1,0,1:0:0:0:
342,226,231738,6,0,B|328:188|328:188|292:172,1,76.5000034435274,10|0,0:0|1:0,0:0:0:0:
132,201,232032,1,0,1:0:0:0:
234,62,232180,5,10,0:0:0:0:
223,231,232327,1,0,1:0:0:0:
236,39,232473,6,0,P|276:14|316:16,1,76.5000034435274,10|0,0:0|1:0,0:0:0:0:
393,84,232767,1,0,1:0:0:0:
262,151,232914,1,8,0:0:0:0:
416,199,233061,2,0,P|442:226|458:261,1,76.5000034435274,0|0,1:0|1:0,0:0:0:0:
318,384,233356,2,0,L|323:307,1,76.5000034435274,8|0,0:0|1:0,0:0:0:0:
402,107,233650,5,8,0:0:0:0:
336,232,233797,1,0,1:0:0:0:
504,166,233944,5,8,0:0:0:0:
312,206,234091,1,0,1:0:0:0:
512,282,234238,5,8,0:0:0:0:
287,179,234385,1,0,1:0:0:0:
374,360,234532,5,10,0:0:0:0:
406,91,234679,1,10,0:0:0:0:
