osu file format v14

[General]
AudioFilename: audio.mp3
AudioLeadIn: 0
PreviewTime: 59702
Countdown: 0
SampleSet: Soft
StackLeniency: 0.7
Mode: 0
LetterboxInBreaks: 0
WidescreenStoryboard: 1

[Editor]
Bookmarks: 79010
DistanceSpacing: 1
BeatDivisor: 4
GridSize: 4
TimelineZoom: 2

[Metadata]
Title:Ashen
TitleUnicode:Ashen
Artist:MY FIRST STORY
ArtistUnicode:MY FIRST STORY
Creator:HabiHolic
Version:Normal
Source:明日方舟
Tags:mobile game Arknights 4.5 Anniversary image song mfs japanese rock jrock j-rock hiroki moriuchi nobuaki katou teruki nishizawa shouhei sasaki 森内寛樹 加藤伸明 佐々木翔平 西澤照貴 nob teru hiro kid'z hanabyte chang Akitoshi -laura- corinn
BeatmapID:4392156
BeatmapSetID:2087611

[Difficulty]
HPDrainRate:3.5
CircleSize:3
OverallDifficulty:4
ApproachRate:5.5
SliderMultiplier:1.15
SliderTickRate:1

[Events]
//Background and Video events
0,0,"bg.jpg",0,0
Video,2075,"Video.mp4"
//Break Periods
2,25825,34347
//Storyboard Layer 0 (Background)
//Storyboard Layer 1 (Fail)
//Storyboard Layer 2 (Pass)
//Storyboard Layer 3 (Foreground)
//Storyboard Layer 4 (Overlay)
//Storyboard Sound Samples

[TimingPoints]
3472,307.692307692308,4,2,1,30,1,0
8395,-133.333333333333,4,2,1,50,0,0
9625,-133.333333333333,4,2,1,60,0,0
10856,-133.333333333333,4,2,1,75,0,0
13318,-100,4,2,1,75,0,0
35472,-133.333333333333,4,2,1,65,0,0
44856,-133.333333333333,4,2,1,70,0,0
45318,-100,4,2,1,70,0,0
55164,-133.333333333333,4,2,1,60,0,0
60087,-100,4,2,1,75,0,0
74856,-100,4,2,1,75,0,0
77318,-100,4,2,1,75,0,0

[Colours]
Combo1 : 0,208,104
Combo2 : 255,172,214
Combo3 : 128,185,255
Combo4 : 249,149,164

[HitObjects]
256,192,3471,12,2,7163,0:0:0:0:
24,261,8395,6,0,B|119:235|91:308|186:291,1,172.500006580353,2|10,1:0|0:0,0:0:0:0:
341,217,9625,1,2,1:0:0:0:
341,216,9779,2,0,P|358:155|335:96,1,129.375004935265,2|8,1:0|0:0,0:0:0:0:
109,48,10856,5,8,0:0:0:0:
109,48,11010,2,0,L|130:136,1,86.2500032901765,2|0,1:0|1:0,0:0:0:0:
119,173,11472,2,0,P|158:158|200:165,1,86.2500032901765,10|2,0:0|1:0,0:0:0:0:
233,194,11933,1,2,0:0:0:0:
233,194,12087,6,0,L|326:177,1,86.2500032901765,0|8,1:0|3:0,0:0:0:0:
397,212,12702,2,0,L|444:203,1,43.1250016450883,8|4,3:0|3:0,0:0:0:0:
466,170,13010,1,8,0:0:0:0:
383,89,13318,5,4,1:2:0:0:
383,89,13472,2,0,L|326:77,1,57.5,2|10,1:0|0:0,0:0:0:0:
283,39,13779,2,0,L|168:64,1,115,2|2,0:0|1:0,0:0:0:0:
122,31,14241,1,8,0:0:0:0:
25,92,14548,5,2,1:2:0:0:
82,191,14856,1,10,0:0:0:0:
191,155,15164,2,0,L|253:174,1,57.5,2|2,1:0|1:0,0:0:0:0:
284,128,15472,1,10,0:0:0:0:
374,201,15779,5,2,1:0:0:0:
459,123,16087,1,10,0:0:0:0:
386,33,16395,2,0,P|333:12|280:31,1,115,2|10,1:0|0:0,0:0:0:0:
192,104,17010,5,10,0:0:0:0:
89,52,17318,1,10,0:0:0:0:
20,143,17625,1,10,0:0:0:0:
75,238,17933,2,0,L|138:224,1,57.5,8|8,0:0|0:0,0:0:0:0:
179,195,18241,6,0,L|291:219,1,115,4|10,1:0|0:0,0:0:0:0:
321,262,18702,1,2,0:0:0:0:
321,262,18856,2,0,L|447:245,1,115,2|8,1:0|0:0,0:0:0:0:
510,159,19472,5,2,1:0:0:0:
447,63,19779,1,10,0:0:0:0:
351,126,20087,2,0,L|289:112,1,57.5,2|2,1:0|1:0,0:0:0:0:
245,142,20395,1,10,0:0:0:0:
149,78,20702,5,10,0:0:0:0:
52,141,21010,1,10,0:0:0:0:
109,243,21318,6,0,L|165:261,1,57.5,10|2,0:0|1:0,0:0:0:0:
204,305,21625,1,10,0:0:0:0:
204,305,21779,2,0,L|334:285,1,115,2|8,1:0|0:0,0:0:0:0:
363,322,22241,1,8,3:0:0:0:
458,257,22548,2,0,L|475:199,1,57.5,8|8,3:0|3:0,0:0:0:0:
458,145,22856,5,4,3:0:0:0:
340,194,23164,1,12,0:0:0:0:
134,77,24395,6,0,L|117:21,2,57.5,0|8|8,1:0|0:0|0:0,0:0:0:0:
114,131,24856,1,0,1:0:0:0:
205,201,25164,1,0,1:0:0:0:
205,201,25318,1,8,0:0:0:0:
294,129,25625,5,4,1:2:0:0:
474,349,35472,6,0,P|426:282|342:278,1,172.500006580353,4|2,1:2|1:0,0:0:0:0:
267,321,36395,1,2,1:0:0:0:
203,262,36702,2,0,L|115:283,1,86.2500032901765,2|2,1:0|1:0,0:0:0:0:
98,197,37318,2,0,L|181:176,1,86.2500032901765,2|2,1:0|1:0,0:0:0:0:
247,121,37933,6,0,P|314:173|398:164,1,172.500006580353,2|2,1:0|1:0,0:0:0:0:
459,103,38856,1,0,1:0:0:0:
435,20,39164,2,0,P|392:18|356:41,1,86.2500032901765,2|2,1:0|1:0,0:0:0:0:
280,81,39779,2,0,L|195:63,1,86.2500032901765,2|2,1:0|1:0,0:0:0:0:
121,17,40395,6,0,P|65:78|74:161,1,172.500006580353,2|0,1:0|1:0,0:0:0:0:
121,233,41318,1,2,1:0:0:0:
182,172,41625,2,0,P|220:193|263:190,1,86.2500032901765,2|2,1:0|1:0,0:0:0:0:
330,135,42241,2,0,L|312:48,1,86.2500032901765,2|2,1:0|1:0,0:0:0:0:
391,15,42856,6,0,L|429:194,1,172.500006580353,2|2,1:0|1:0,0:0:0:0:
486,241,43779,1,2,1:0:0:0:
417,287,44087,2,0,L|333:267,1,86.2500032901765,2|2,1:0|1:0,0:0:0:0:
227,191,44856,1,0,1:0:0:0:
227,191,45010,1,10,0:0:0:0:
115,220,45318,6,0,L|85:104,1,115,4|8,1:2|0:0,0:0:0:0:
109,56,45779,1,2,0:0:0:0:
216,97,46087,1,2,1:0:0:0:
310,30,46395,2,0,P|366:31|406:70,1,115,2|2,0:0|1:2,0:0:0:0:
464,75,46856,1,8,0:0:0:0:
464,75,47010,2,0,L|436:187,1,115,2|2,0:0|1:0,0:0:0:0:
347,260,47625,5,2,0:0:0:0:
347,260,47779,2,0,P|308:219|252:215,1,115,2|8,1:0|0:0,0:0:0:0:
207,253,48241,1,2,0:0:0:0:
97,219,48548,2,0,L|79:163,1,57.5,2|10,1:0|0:0,0:0:0:0:
63,108,48856,2,0,B|128:95|114:133|173:125,1,115,2|0,0:0|1:0,0:0:0:0:
215,82,49318,1,8,0:0:0:0:
297,161,49625,2,0,L|415:143,1,115,0|10,1:0|0:0,0:0:0:0:
483,244,50241,6,0,P|428:252|397:298,1,115,6|10,1:2|0:0,0:0:0:0:
374,351,50702,1,2,0:0:0:0:
292,270,51010,1,2,1:0:0:0:
205,345,51318,2,0,B|144:343|156:317|89:317,1,115,2|0,0:0|1:0,0:0:0:0:
45,346,51779,1,10,0:0:0:0:
45,346,51933,2,0,L|14:227,1,115,2|0,1:0|1:0,0:0:0:0:
44,184,52395,1,10,0:0:0:0:
44,184,52548,6,0,P|125:197|183:138,1,172.5,6|8,1:2|0:0,0:0:0:0:
259,47,53318,2,0,P|307:75|364:72,1,115,10|10,0:0|0:0,0:0:0:0:
412,40,53779,2,0,P|371:114|394:195,1,172.5,4|8,1:2|0:0,0:0:0:0:
429,304,54548,2,0,L|496:285,2,57.5,0|0|8,1:0|1:0|3:0,0:0:0:0:
383,340,55010,1,4,3:0:0:0:
383,340,55164,6,0,L|214:305,1,172.500006580353,8|8,3:0|0:0,0:0:0:0:
140,349,56087,1,2,0:0:0:0:
67,302,56395,2,0,P|55:261|66:219,1,86.2500032901765,2|2,1:0|1:0,0:0:0:0:
142,180,57010,1,10,0:0:0:0:
213,228,57318,1,2,1:0:0:0:
274,167,57625,6,0,P|264:127|275:83,1,86.2500032901765,0|8,1:0|0:0,0:0:0:0:
288,42,58087,2,0,L|200:57,1,86.2500032901765,8|4,0:0|3:0,0:0:0:0:
166,33,58548,2,0,B|96:32|113:70|36:72,1,129.375004935265,6|4,1:2|1:2,0:0:0:0:
327,342,60087,6,0,P|299:294|246:278,1,115,4|10,1:2|0:0,0:0:0:0:
193,301,60548,1,2,1:0:0:0:
144,196,60856,2,0,L|85:213,1,57.5,2|10,1:2|0:2,0:0:0:0:
42,246,61164,2,0,L|13:128,1,115,6|0,1:2|1:0,0:0:0:0:
38,82,61625,1,8,0:0:0:0:
152,91,61933,2,0,L|133:33,2,57.5,2|2|10,1:0|1:0|0:0,0:0:0:0:
192,132,62395,1,2,0:0:0:0:
192,132,62548,6,0,L|304:105,1,115,4|10,1:2|0:0,0:0:0:0:
337,57,63010,1,2,0:0:0:0:
426,128,63318,1,10,0:0:0:0:
383,234,63625,2,0,P|339:200|282:197,1,115,6|0,1:2|1:0,0:0:0:0:
232,228,64087,1,10,0:0:0:0:
117,212,64395,2,0,L|100:152,1,57.5,8|4,3:0|3:0,0:0:0:0:
127,113,64702,1,10,0:0:0:0:
207,31,65010,5,4,1:2:0:0:
207,31,65164,2,0,L|268:48,1,57.5,2|8,1:0|0:0,0:0:0:0:
300,89,65472,2,0,L|418:71,1,115,2|2,0:0|1:2,0:0:0:0:
458,35,65933,1,10,0:0:0:0:
458,35,66087,2,0,P|429:84|438:140,1,115,4|0,1:2|1:0,0:0:0:0:
474,183,66548,1,10,0:0:0:0:
402,273,66856,1,0,1:0:0:0:
301,216,67164,1,10,0:0:0:0:
210,288,67472,6,0,L|98:266,1,115,4|8,1:2|0:0,0:0:0:0:
17,170,68087,2,0,L|79:157,1,57.5,2|2,1:2|1:0,0:0:0:0:
114,117,68395,1,10,0:0:0:0:
114,117,68548,2,0,L|231:143,1,115,2|0,0:0|1:0,0:0:0:0:
269,103,69010,1,8,0:0:0:0:
357,176,69318,2,0,L|423:164,1,57.5,8|0,3:0|1:0,0:0:0:0:
465,191,69625,1,10,0:0:0:0:
474,304,69933,6,0,P|423:285|376:314,1,115,4|10,1:2|0:0,0:0:0:0:
338,358,70395,1,2,1:0:0:0:
270,265,70702,2,0,L|201:284,1,57.5,2|10,1:2|0:2,0:0:0:0:
181,327,71010,2,0,L|65:306,1,115,4|0,1:2|1:0,0:0:0:0:
21,271,71472,1,8,0:0:0:0:
108,196,71779,6,0,L|167:212,2,57.5,2|2|10,1:0|1:0|0:0,0:0:0:0:
58,166,72241,1,2,0:0:0:0:
58,166,72395,2,0,L|31:52,1,115,6|10,1:2|0:0,0:0:0:0:
139,13,73010,1,2,1:2:0:0:
139,13,73164,2,0,L|197:33,1,57.5,2|8,1:0|0:0,0:0:0:0:
236,70,73472,6,0,L|358:50,1,115,4|0,1:2|1:0,0:0:0:0:
400,30,73933,1,10,0:0:0:0:
399,30,74087,2,0,P|380:83|393:138,1,115,0|8,1:0|3:0,0:0:0:0:
432,180,74548,1,4,3:0:0:0:
373,278,74856,6,0,B|248:241|277:348|148:307,1,230,4|8,1:2|0:0,0:0:0:0:
65,237,75779,1,2,1:0:0:0:
16,132,76087,2,0,P|70:115|123:134,1,115,0|2,1:0|0:0,0:0:0:0:
204,215,76702,1,10,0:0:0:0:
289,137,77010,1,2,0:0:0:0:
378,64,77318,6,0,B|442:62|428:91|490:93,1,115,4|8,1:2|0:0,0:0:0:0:
486,208,77933,2,0,B|422:206|436:235|374:237,1,115,0|8,1:0|0:0,0:0:0:0:
297,153,78548,2,0,L|234:168,1,57.5,14|2,0:0|1:0,0:0:0:0:
193,200,78856,1,2,1:0:0:0:
193,200,79010,2,0,L|78:171,1,115,4|0,1:2|1:0,0:0:0:0:
21,270,79625,5,2,0:0:0:0:
21,270,79779,2,0,L|84:288,1,57.5,6|2,1:2|1:0,0:0:0:0:
120,323,80087,1,10,0:0:0:0:
120,323,80241,2,0,L|236:303,1,115,2|2,1:2|1:0,0:0:0:0:
334,349,80856,1,2,1:0:0:0:
334,349,81010,6,0,B|391:351|379:320|445:323,1,115,2|10,1:0|0:0,0:0:0:0:
506,226,81625,2,0,L|448:211,1,57.5,2|2,1:0|1:0,0:0:0:0:
396,232,81933,1,8,0:0:0:0:
339,131,82241,6,0,L|221:158,1,115,2|10,1:0|0:0,0:0:0:0:
121,110,82856,1,2,1:0:0:0:
32,183,83164,1,10,0:0:0:0:
92,281,83472,6,0,L|212:260,1,115,10|10,0:0|0:0,0:0:0:0:
287,184,84087,1,10,0:0:0:0:
353,277,84395,2,0,L|423:263,1,57.5,10|8,0:0|0:0,0:0:0:0:
459,293,84702,6,0,L|484:172,1,115,6|10,1:2|0:0,0:0:0:0:
461,126,85164,1,2,0:0:0:0:
376,48,85472,2,0,L|315:64,1,57.5,2|10,1:2|0:0,0:0:0:0:
276,99,85779,1,2,0:0:0:0:
276,99,85933,2,0,L|150:72,1,115,2|10,1:0|0:0,0:0:0:0:
67,139,86548,2,0,P|51:193|67:248,1,115,2|10,1:0|0:0,0:0:0:0:
162,314,87164,5,10,0:0:0:0:
256,248,87472,1,10,0:0:0:0:
344,321,87779,1,10,0:0:0:0:
439,256,88087,1,10,0:0:0:0:
439,256,88241,1,14,0:2:0:0:
255,77,89625,5,14,0:0:0:0:
