osu file format v14

[General]
AudioFilename: audio.mp3
AudioLeadIn: 0
PreviewTime: 175875
Countdown: 0
SampleSet: Soft
StackLeniency: 0.4
Mode: 0
LetterboxInBreaks: 0
WidescreenStoryboard: 0

[Editor]
DistanceSpacing: 0.5
BeatDivisor: 8
GridSize: 32
TimelineZoom: 1.300003

[Metadata]
Title:Ai Kotoba
TitleUnicode:あいことば
Artist:MY FIRST STORY
ArtistUnicode:MY FIRST STORY
Creator:HowRengar
Version:Emotions
Source:
Tags:J-Rock Japanese Rock V
BeatmapID:2681836
BeatmapSetID:1292179

[Difficulty]
HPDrainRate:6
CircleSize:5
OverallDifficulty:8.8
ApproachRate:9
SliderMultiplier:2.8
SliderTickRate:1

[Events]
//Background and Video events
0,0,"bg.png",0,0
//Break Periods
2,205143,211218
2,251038,258881
//Storyboard Layer 0 (Background)
//Storyboard Layer 1 (Fail)
//Storyboard Layer 2 (Pass)
//Storyboard Layer 3 (Foreground)
//Storyboard Layer 4 (Overlay)
//Storyboard Sound Samples

[TimingPoints]
-11527,784.313725490196,4,2,1,30,1,0
629,-333.333333333333,4,2,1,30,0,0
727,-333.333333333333,4,2,1,5,0,0
825,-333.333333333333,4,2,1,30,0,0
923,-333.333333333333,4,2,1,5,0,0
1022,-125,4,2,1,30,0,0
11806,-125,4,2,1,40,0,0
13571,-90.9090909090909,4,2,1,50,0,0
15825,-90.9090909090909,4,2,1,5,0,0
15923,-90.9090909090909,4,2,1,50,0,0
18963,-90.9090909090909,4,2,1,5,0,0
19061,-90.9090909090909,4,2,1,50,0,0
20923,-90.9090909090909,4,2,1,5,0,0
21022,-90.9090909090909,4,2,1,50,0,0
22100,-90.9090909090909,4,2,1,5,0,0
22394,-250,4,2,1,50,0,0
22492,-90.9090909090909,4,2,1,5,0,0
22590,-71.4285714285714,4,2,1,60,0,0
23374,-90.9090909090909,4,2,1,50,0,0
25727,-333.333333333333,4,2,1,50,0,0
26021,-333.333333333333,4,2,1,5,0,0
26120,-133.333333333333,4,2,1,35,0,0
32296,-133.333333333333,4,2,1,5,0,0
32394,-133.333333333333,4,2,1,35,0,0
37394,-133.333333333333,4,2,1,5,0,0
37492,-133.333333333333,4,2,1,35,0,0
37786,-133.333333333333,4,2,1,5,0,0
37884,-133.333333333333,4,2,1,35,0,0
38178,-133.333333333333,4,2,1,5,0,0
38276,-133.333333333333,4,2,1,35,0,0
38669,-100,4,2,1,35,0,0
39453,-133.333333333333,4,2,1,35,0,0
40237,-86.9565217391303,4,2,1,35,0,0
41414,-133.333333333333,4,2,1,35,0,0
43669,-133.333333333333,4,2,1,5,0,0
43767,-133.333333333333,4,2,1,35,0,0
49649,-666.666666666658,4,2,1,35,0,0
50825,-133.333333333333,4,2,1,35,0,0
51218,-100,4,2,1,40,0,0
53080,-100,4,2,1,5,0,0
53178,-100,4,2,1,40,0,0
62492,-100,4,2,1,5,0,0
62590,-100,4,2,1,40,0,0
62884,-100,4,2,1,5,0,0
62982,-100,4,2,1,40,0,0
63276,-100,4,2,1,5,0,0
63374,-100,4,2,1,40,0,0
64845,-100,4,2,1,5,0,0
64943,-100,4,2,1,40,0,0
68080,-83.3333333333333,4,2,1,40,0,0
68570,-83.3333333333333,4,2,1,5,0,0
68669,-100,4,2,1,40,0,0
72296,-100,4,2,1,5,0,0
72394,-100,4,2,1,40,0,0
73178,-71.4285714285714,4,2,1,40,0,0
73472,-71.4285714285714,4,2,1,5,0,0
73571,-71.4285714285714,4,2,1,40,0,0
73963,-71.4285714285714,4,2,1,50,0,0
75531,-1000,4,2,1,40,0,0
76316,-71.4285714285714,4,2,1,65,0,1
76610,-71.4285714285714,4,2,1,5,0,1
76708,-71.4285714285714,4,2,1,65,0,1
76806,-71.4285714285714,4,2,1,5,0,1
76904,-71.4285714285714,4,2,1,65,0,1
77002,-71.4285714285714,4,2,1,5,0,1
77100,-71.4285714285714,4,2,1,65,0,1
77394,-71.4285714285714,4,2,1,5,0,1
77492,-71.4285714285714,4,2,1,65,0,1
78178,-71.4285714285714,4,2,1,5,0,1
78276,-71.4285714285714,4,2,1,65,0,1
78570,-71.4285714285714,4,2,1,5,0,1
78668,-71.4285714285714,4,2,1,65,0,1
78962,-71.4285714285714,4,2,1,5,0,1
79060,-71.4285714285714,4,2,1,65,0,1
79747,-71.4285714285714,4,2,1,5,0,1
79845,-71.4285714285714,4,2,1,65,0,1
82884,-71.4285714285714,4,2,1,5,0,1
82982,-71.4285714285714,4,2,1,65,0,1
83178,-71.4285714285714,4,2,1,65,0,1
83276,-71.4285714285714,4,2,1,5,0,1
83374,-71.4285714285714,4,2,1,65,0,1
83669,-71.4285714285714,4,2,1,5,0,1
83767,-71.4285714285714,4,2,1,65,0,1
86022,-71.4285714285714,4,2,1,5,0,1
86120,-71.4285714285714,4,2,1,65,0,1
86218,-71.4285714285714,4,2,1,5,0,1
86316,-71.4285714285714,4,2,1,65,0,1
88472,-333.333333333333,4,2,1,65,0,1
88766,-333.333333333333,4,2,1,5,0,1
88864,-71.4285714285714,4,2,1,65,0,1
89158,-71.4285714285714,4,2,1,5,0,1
89256,-71.4285714285714,4,2,1,65,0,1
89354,-71.4285714285714,4,2,1,5,0,1
89452,-71.4285714285714,4,2,1,65,0,1
89551,-71.4285714285714,4,2,1,5,0,1
89649,-71.4285714285714,4,2,1,65,0,1
89943,-71.4285714285714,4,2,1,5,0,1
90041,-71.4285714285714,4,2,1,65,0,1
92296,-71.4285714285714,4,2,1,5,0,1
92394,-71.4285714285714,4,2,1,65,0,1
92492,-71.4285714285714,4,2,1,5,0,1
92590,-71.4285714285714,4,2,1,65,0,1
92688,-71.4285714285714,4,2,1,5,0,1
92786,-71.4285714285714,4,2,1,65,0,1
93080,-71.4285714285714,4,2,1,5,0,1
93178,-71.4285714285714,4,2,1,65,0,1
94649,-71.4285714285714,4,2,1,5,0,1
94747,-71.4285714285714,4,2,1,65,0,1
96217,-71.4285714285714,4,2,1,5,0,1
96315,-71.4285714285714,4,2,1,65,0,1
96413,-71.4285714285714,4,2,1,5,0,1
96511,-71.4285714285714,4,2,1,65,0,1
96805,-71.4285714285714,4,2,1,5,0,1
96903,-71.4285714285714,4,2,1,65,0,1
97786,-71.4285714285714,4,2,1,5,0,1
97884,-71.4285714285714,4,2,1,65,0,1
98276,-100,4,2,1,65,0,1
98962,-100,4,2,1,5,0,1
99060,-125,4,2,1,65,0,1
99845,-100,4,2,1,50,0,0
101021,-200,4,2,1,50,0,0
101119,-200,4,2,1,5,0,0
101217,-200,4,2,1,50,0,0
101315,-200,4,2,1,5,0,0
101413,-90.9090909090909,4,2,1,50,0,0
103668,-90.9090909090909,4,2,1,5,0,0
103766,-90.9090909090909,4,2,1,50,0,0
106805,-90.9090909090909,4,2,1,5,0,0
106903,-90.9090909090909,4,2,1,50,0,0
109354,-90.9090909090909,4,2,1,5,0,0
109452,-90.9090909090909,4,2,1,50,0,0
109943,-90.9090909090909,4,2,1,5,0,0
110041,-90.9090909090909,4,2,1,50,0,0
116217,-90.9090909090909,4,2,1,5,0,0
116315,-90.9090909090909,4,2,1,50,0,0
119354,-90.9090909090909,4,2,1,5,0,0
119452,-90.9090909090909,4,2,1,50,0,0
121315,-90.9090909090909,4,2,1,5,0,0
121413,-90.9090909090909,4,2,1,50,0,0
122786,-250,4,2,1,50,0,0
122884,-250,4,2,1,5,0,0
122982,-71.4285714285714,4,2,1,50,0,0
123766,-90.9090909090909,4,2,1,50,0,0
126119,-250,4,2,1,50,0,0
126413,-250,4,2,1,5,0,0
126511,-100,4,2,1,50,0,0
131315,-100,4,2,1,5,0,0
131413,-100,4,2,1,50,0,0
137786,-100,4,2,1,5,0,0
137884,-100,4,2,1,50,0,0
138178,-100,4,2,1,5,0,0
138276,-100,4,2,1,50,0,0
138570,-100,4,2,1,5,0,0
138668,-100,4,2,1,50,0,0
140139,-100,4,2,1,5,0,0
140237,-100,4,2,1,50,0,0
143374,-83.3333333333333,4,2,1,50,0,0
143864,-83.3333333333333,4,2,1,5,0,0
143962,-100,4,2,1,50,0,0
147002,-100,4,2,1,5,0,0
147100,-100,4,2,1,50,0,0
149845,-76.9230769230769,4,2,1,50,0,0
150139,-76.9230769230769,4,2,1,5,0,0
150237,-100,4,2,1,50,0,0
153472,-100,4,2,1,5,0,0
153570,-100,4,2,1,50,0,0
156413,-100,4,2,1,5,0,0
156511,-100,4,2,1,50,0,0
162884,-100,4,2,1,5,0,0
162982,-100,4,2,1,50,0,0
163276,-100,4,2,1,5,0,0
163374,-100,4,2,1,50,0,0
163668,-100,4,2,1,5,0,0
163766,-100,4,2,1,50,0,0
165237,-100,4,2,1,5,0,0
165335,-100,4,2,1,50,0,0
168962,-100,4,2,1,5,0,0
169060,-100,4,2,1,50,0,0
173570,-71.4285714285714,4,2,1,50,0,0
173864,-71.4285714285714,4,2,1,5,0,0
173962,-71.4285714285714,4,2,1,50,0,0
175237,-71.4285714285714,4,2,1,5,0,0
175335,-100,4,2,1,50,0,0
176708,-71.4285714285714,4,2,1,65,0,1
177002,-71.4285714285714,4,2,1,5,0,1
177100,-71.4285714285714,4,2,1,65,0,1
177198,-71.4285714285714,4,2,1,5,0,1
177296,-71.4285714285714,4,2,1,65,0,1
177394,-71.4285714285714,4,2,1,5,0,1
177492,-71.4285714285714,4,2,1,65,0,1
177786,-71.4285714285714,4,2,1,5,0,1
177884,-71.4285714285714,4,2,1,65,0,1
178570,-71.4285714285714,4,2,1,5,0,1
178668,-71.4285714285714,4,2,1,65,0,1
178962,-71.4285714285714,4,2,1,5,0,1
179060,-71.4285714285714,4,2,1,65,0,1
180139,-71.4285714285714,4,2,1,5,0,1
180237,-71.4285714285714,4,2,1,65,0,1
182492,-71.4285714285714,4,2,1,5,0,1
182590,-71.4285714285714,4,2,1,65,0,1
183276,-71.4285714285714,4,2,1,5,0,1
183374,-71.4285714285714,4,2,1,65,0,1
183472,-71.4285714285714,4,2,1,5,0,1
183570,-71.4285714285714,4,2,1,65,0,1
183668,-71.4285714285714,4,2,1,5,0,1
183766,-71.4285714285714,4,2,1,65,0,1
184060,-71.4285714285714,4,2,1,5,0,1
184158,-71.4285714285714,4,2,1,65,0,1
186413,-71.4285714285714,4,2,1,5,0,1
186511,-71.4285714285714,4,2,1,65,0,1
186609,-71.4285714285714,4,2,1,5,0,1
186707,-71.4285714285714,4,2,1,65,0,1
188864,-333.333333333333,4,2,1,65,0,1
189158,-333.333333333333,4,2,1,5,0,1
189256,-71.4285714285714,4,2,1,65,0,1
189551,-71.4285714285714,4,2,1,5,0,1
189649,-71.4285714285714,4,2,1,65,0,1
189747,-71.4285714285714,4,2,1,5,0,1
189845,-71.4285714285714,4,2,1,65,0,1
189943,-71.4285714285714,4,2,1,5,0,1
190041,-71.4285714285714,4,2,1,65,0,1
190335,-71.4285714285714,4,2,1,5,0,1
190433,-71.4285714285714,4,2,1,65,0,1
192688,-71.4285714285714,4,2,1,5,0,1
192786,-71.4285714285714,4,2,1,65,0,1
192884,-71.4285714285714,4,2,1,5,0,1
192982,-71.4285714285714,4,2,1,65,0,1
193080,-71.4285714285714,4,2,1,5,0,1
193178,-71.4285714285714,4,2,1,65,0,1
195041,-71.4285714285714,4,2,1,5,0,1
195139,-71.4285714285714,4,2,1,65,0,1
196609,-71.4285714285714,4,2,1,5,0,1
196707,-71.4285714285714,4,2,1,65,0,1
196805,-71.4285714285714,4,2,1,5,0,1
196903,-71.4285714285714,4,2,1,65,0,1
197198,-71.4285714285714,4,2,1,5,0,1
197296,-71.4285714285714,4,2,1,65,0,1
198178,-71.4285714285714,4,2,1,5,0,1
198276,-71.4285714285714,4,2,1,65,0,1
198668,-100,4,2,1,65,0,1
199354,-100,4,2,1,5,0,1
199452,-100,4,2,1,65,0,1
200237,-71.4285714285714,4,2,1,50,0,0
200531,-71.4285714285714,4,2,1,5,0,0
200629,-71.4285714285714,4,2,1,50,0,0
200825,-125,4,2,1,50,0,0
201119,-125,4,2,1,5,0,0
201217,-125,4,2,1,50,0,0
202590,-125,4,2,1,40,0,0
203374,-125,4,2,1,30,0,0
204159,-125,4,2,1,20,0,0
204943,-125,4,2,2,50,0,0
212786,-100,4,2,1,50,0,0
213080,-100,4,2,1,5,0,0
213178,-90.9090909090909,4,2,1,50,0,0
213472,-90.9090909090909,4,2,1,5,0,0
213570,-125,4,2,1,50,0,0
213864,-125,4,2,1,5,0,0
213962,-200,4,2,1,50,0,0
214256,-200,4,2,1,5,0,0
214354,-666.666666666667,4,2,3,50,0,0
222198,-400,4,2,3,50,0,0
223766,-200,4,2,1,50,0,0
225139,-66.6666666666667,4,2,1,50,0,0
225433,-66.6666666666667,4,2,1,5,0,0
225531,-66.6666666666667,4,2,1,50,0,0
225727,-83.3333333333333,4,2,1,50,0,0
226904,-71.4285714285714,4,2,1,60,0,1
227198,-71.4285714285714,4,2,1,5,0,1
227296,-71.4285714285714,4,2,1,60,0,1
227982,-71.4285714285714,4,2,1,5,0,1
228080,-71.4285714285714,4,2,1,60,0,1
231119,-71.4285714285714,4,2,1,5,0,1
231217,-71.4285714285714,4,2,1,60,0,1
235825,-71.4285714285714,4,2,1,5,0,1
235923,-71.4285714285714,4,2,1,60,0,1
236021,-71.4285714285714,4,2,1,5,0,1
236119,-71.4285714285714,4,2,1,60,0,1
238276,-100,4,2,1,60,0,1
239453,-172.413793103448,4,2,1,50,0,0
242590,-172.413793103448,4,2,1,50,0,0
243374,-172.413793103448,4,2,1,45,0,0
244372,833.333333333333,4,2,1,40,1,0
245205,-100,4,2,1,35,0,0
246038,-100,4,2,1,30,0,0
246872,-100,4,2,1,25,0,0
247705,-100,4,2,1,20,0,0
248538,-100,4,2,1,15,0,0
249372,-100,4,2,1,10,0,0
250205,-100,4,2,1,5,0,0
251038,784.313725490196,4,2,1,50,1,0
260743,-71.4285714285714,4,2,1,5,0,0
260841,-71.4285714285714,4,2,1,50,0,0
261626,-333.333333333333,4,2,1,50,0,0
261724,-333.333333333333,4,2,1,5,0,0
261822,-333.333333333333,4,2,1,50,0,0
262018,-100,4,2,1,50,0,0
262312,-100,4,2,1,5,0,0
262410,-100,4,2,1,50,0,0
262802,-1000,4,2,1,50,0,0
263587,-62.5,4,2,1,65,0,1
263881,-62.5,4,2,1,5,0,1
263979,-71.4285714285714,4,2,1,65,0,1
264077,-71.4285714285714,4,2,1,5,0,1
264175,-71.4285714285714,4,2,1,65,0,1
264273,-71.4285714285714,4,2,1,5,0,1
264371,-71.4285714285714,4,2,1,65,0,1
264665,-71.4285714285714,4,2,1,5,0,1
264763,-71.4285714285714,4,2,1,65,0,1
265449,-71.4285714285714,4,2,1,5,0,1
265547,-71.4285714285714,4,2,1,65,0,1
265841,-71.4285714285714,4,2,1,5,0,1
265939,-71.4285714285714,4,2,1,65,0,1
267018,-71.4285714285714,4,2,1,5,0,1
267116,-71.4285714285714,4,2,1,65,0,1
270155,-71.4285714285714,4,2,1,5,0,1
270253,-71.4285714285714,4,2,1,65,0,1
270351,-71.4285714285714,4,2,1,5,0,1
270449,-71.4285714285714,4,2,1,65,0,1
270547,-71.4285714285714,4,2,1,5,0,1
270645,-71.4285714285714,4,2,1,65,0,1
270939,-71.4285714285714,4,2,1,5,0,1
271037,-71.4285714285714,4,2,1,65,0,1
273292,-71.4285714285714,4,2,1,5,0,1
273390,-71.4285714285714,4,2,1,65,0,1
273881,-71.4285714285714,4,2,1,5,0,1
273979,-71.4285714285714,4,2,1,65,0,1
274469,-71.4285714285714,4,2,1,5,0,1
274567,-90.9090909090909,4,2,1,65,0,1
276136,-57.1428571428571,4,2,1,65,0,1
276430,-57.1428571428571,4,2,1,5,0,1
276528,-71.4285714285714,4,2,1,65,0,1
276626,-71.4285714285714,4,2,1,5,0,1
276724,-71.4285714285714,4,2,1,65,0,1
276822,-71.4285714285714,4,2,1,5,0,1
276920,-71.4285714285714,4,2,1,65,0,1
277214,-71.4285714285714,4,2,1,5,0,1
277312,-71.4285714285714,4,2,1,65,0,1
279567,-71.4285714285714,4,2,1,5,0,1
279665,-71.4285714285714,4,2,1,65,0,1
279763,-71.4285714285714,4,2,1,5,0,1
279861,-71.4285714285714,4,2,1,65,0,1
279959,-71.4285714285714,4,2,1,5,0,1
280057,-71.4285714285714,4,2,1,65,0,1
281920,-71.4285714285714,4,2,1,5,0,1
282018,-71.4285714285714,4,2,1,65,0,1
282410,-83.3333333333333,4,2,1,65,0,1
282704,-71.4285714285714,4,2,1,5,0,1
282802,-83.3333333333333,4,2,1,65,0,1
283488,-83.3333333333333,4,2,1,5,0,1
283586,-83.3333333333333,4,2,1,65,0,1
285057,-83.3333333333333,4,2,1,5,0,1
285155,-83.3333333333333,4,2,1,65,0,1
287214,-83.3333333333333,4,2,1,5,0,1
287312,-83.3333333333333,4,2,1,65,0,1
288685,-71.4285714285714,4,2,1,50,0,0
288979,-71.4285714285714,4,2,1,5,0,0
289077,-71.4285714285714,4,2,1,50,0,0
289371,-71.4285714285714,4,2,1,5,0,0
289469,-400,4,2,1,50,0,0
290057,-400,4,2,1,5,0,0
290253,-400,4,2,1,50,0,0
291822,-500,4,2,1,25,0,0
292116,-500,4,2,1,5,0,0
292214,-250,4,2,1,40,0,0
292508,-250,4,2,1,5,0,0
292606,-125,4,2,1,55,0,0
292900,-125,4,2,1,5,0,0
292998,-62.5,4,2,1,70,0,0
294763,-100,4,2,1,50,0,0
296136,-250,4,2,1,50,0,0
296234,-250,4,2,1,5,0,0
296332,-250,4,2,1,50,0,0
296430,-250,4,2,1,5,0,0
296528,784.313725490196,4,2,1,50,1,0
296528,-83.3333333333333,4,2,1,50,0,0
300743,-83.3333333333333,4,2,1,5,0,0
300841,-83.3333333333333,4,2,1,50,0,0
302312,-83.3333333333333,4,2,1,5,0,0
302410,-83.3333333333333,4,2,1,50,0,0
305449,-83.3333333333333,4,2,1,5,0,0
305547,-83.3333333333333,4,2,1,50,0,0
307639,-83.3333333333333,4,2,1,55,0,0
307770,-83.3333333333333,4,2,1,60,0,0
308292,-83.3333333333333,4,2,1,55,0,0
308685,-83.3333333333333,4,2,1,50,0,0
309077,-80,4,2,1,50,0,0
309371,-83.3333333333333,4,2,1,5,0,0
309469,-80,4,2,1,50,0,0
315351,-200,4,2,1,40,0,0
315645,-200,4,2,1,5,0,0
315743,-200,4,2,1,40,0,0
316038,-200,4,2,1,5,0,0
316136,-200,4,2,1,40,0,0
316430,-200,4,2,1,5,0,0
316528,-200,4,2,1,40,0,0
316822,-200,4,2,1,5,0,0
316920,-100,4,2,1,50,0,0
317214,-100,4,2,1,5,0,0
317312,-100,4,2,1,50,0,0
317606,-100,4,2,1,5,0,0
317704,-100,4,2,1,50,0,0
317998,-100,4,2,1,5,0,0
318096,-100,4,2,1,50,0,0
318390,-100,4,2,1,5,0,0
318488,-66.6666666666667,4,2,1,60,0,0
318783,-66.6666666666667,4,2,1,5,0,0
318881,-66.6666666666667,4,2,1,60,0,0
319175,-66.6666666666667,4,2,1,5,0,0
319273,-66.6666666666667,4,2,1,60,0,0
319567,-66.6666666666667,4,2,1,5,0,0
319665,-66.6666666666667,4,2,1,60,0,0
319959,-66.6666666666667,4,2,1,5,0,0
320057,-50,4,2,1,70,0,0
320351,-50,4,2,1,5,0,0
320449,-50,4,2,1,70,0,0
320743,-50,4,2,1,5,0,0
320841,-50,4,2,1,70,0,0
321136,-50,4,2,1,5,0,0
321234,-50,4,2,1,70,0,0
321528,-50,4,2,1,5,0,0
321626,-1000,4,2,1,40,0,0
322410,-1000,4,2,1,5,0,0
324683,930.232558139535,4,2,1,30,1,0
324915,1363.63636363636,4,2,1,30,1,0
325170,-100,4,2,1,5,0,0
325255,839.16083916084,4,2,1,30,1,0
325622,-100,4,2,1,5,0,0
325674,810.81081081081,4,2,1,30,1,0
325674,-100,4,2,1,30,0,0
326079,1714.28571428571,4,2,1,30,1,0
326510,1690.14084507042,4,2,1,30,1,0
326883,1428.57142857143,4,2,1,30,1,0
327597,1714.28571428571,4,2,1,30,1,0
328025,1600,4,2,1,30,1,0
328325,-100,4,2,1,5,0,0
328425,1967.2131147541,4,2,1,30,1,0
328670,-100,4,2,1,5,0,0
328793,-100,4,2,1,30,0,0
328916,1153.84615384615,4,2,1,30,1,0
329204,1643.83561643836,4,2,1,30,1,0
329614,1578.94736842105,4,2,1,30,1,0
330008,1518.98734177215,4,2,1,30,1,0
330292,-100,4,2,1,5,0,0
330387,-100,4,2,1,30,0,0
330672,-100,4,2,1,5,0,0
330767,1739.13043478261,4,2,1,30,1,0
331201,1538.46153846154,4,2,1,30,1,0
331489,-100,4,2,1,5,0,0
331585,1518.98734177215,4,2,1,30,1,0
332344,1481.48148148148,4,2,1,30,1,0
332344,-83.3333333333333,4,2,1,30,0,0
332899,-83.3333333333333,4,2,1,5,0,0
333084,-83.3333333333333,4,2,1,30,0,0
333825,1818.18181818182,4,2,1,30,1,0
334279,1481.48148148148,4,2,1,30,1,0
334556,-100,4,2,1,5,0,0
334649,1600,4,2,1,30,1,0
335249,-100,4,2,1,5,0,0
335449,1666.66666666667,4,2,1,30,1,0
335865,1764.70588235294,4,2,1,30,1,0
336306,1600,4,2,1,30,1,0
336706,1818.18181818182,4,2,1,30,1,0
337160,2181.81818181818,4,2,1,30,1,0
337705,1411.76470588235,4,2,1,30,1,0
338057,1463.41463414634,4,2,1,30,1,0
343910,-100,4,2,1,5,0,0

[Colours]
Combo1 : 241,222,86
Combo2 : 240,236,151
Combo3 : 255,197,138
Combo4 : 236,168,94

[HitObjects]
32,47,629,6,0,L|51:42,1,10.4999996795654
39,54,825,2,0,L|58:49,1,10.4999996795654,0|0,0:0|0:0,0:0:0:0:
115,7,1022,6,0,P|120:62|123:118,1,112,2|0,0:0|0:0,0:0:0:0:
161,252,1806,2,0,P|188:246|216:242,1,56,2|0,0:0|0:0,0:0:0:0:
296,235,2198,1,0,0:0:0:0:
318,358,2394,2,0,P|287:315|228:321,1,112,2|0,0:0|0:0,0:0:0:0:
113,384,2982,1,2,0:0:0:0:
113,384,3374,2,0,L|107:328,1,56,2|0,0:0|0:0,0:0:0:0:
21,291,3767,2,0,L|27:347,1,56,2|0,0:0|0:0,0:0:0:0:
0,204,4159,6,0,B|46:209|46:209|68:200|68:200|109:203,1,112,2|0,0:0|0:0,0:0:0:0:
218,18,4943,2,0,B|190:28|190:28|145:17,1,56,2|0,0:0|0:0,0:0:0:0:
143,115,5335,1,0,0:0:0:0:
246,109,5531,2,0,B|298:90|298:90|350:109,1,112,2|0,0:0|0:0,0:0:0:0:
375,230,6120,1,2,0:0:0:0:
375,230,6512,2,0,L|366:289,1,56,2|0,0:0|0:0,0:0:0:0:
457,361,6904,2,0,L|465:305,1,56,2|0,0:0|0:0,0:0:0:0:
300,367,7296,5,2,0:0:0:0:
226,304,7688,1,0,0:0:0:0:
112,373,8080,1,2,0:0:0:0:
11,263,8473,1,2,0:0:0:0:
78,212,8669,2,0,B|104:169|72:136|72:136|66:165,1,112,2|0,0:0|0:0,0:0:0:0:
120,285,9257,1,2,0:0:0:0:
120,285,9649,2,0,L|177:270,1,56,2|0,0:0|0:0,0:0:0:0:
221,158,10041,2,0,L|166:172,1,56,2|0,0:0|0:0,0:0:0:0:
301,237,10433,5,2,0:0:0:0:
370,156,10825,2,0,L|351:42,1,112,2|0,0:0|0:0,0:0:0:0:
242,3,11610,2,0,L|252:62,1,56,2|8,0:0|0:0,0:0:0:0:
244,65,11904,1,8,0:0:0:0:
237,72,12002,1,10,0:1:0:0:
237,72,12394,1,8,0:3:0:0:
158,166,12590,5,8,0:0:0:0:
165,173,12688,1,8,0:0:0:0:
172,180,12786,1,10,0:1:0:0:
270,158,12982,1,8,0:3:0:0:
407,233,13178,1,4,0:3:0:0:
407,233,13571,6,0,P|405:194|401:156,1,77.0000023498536,6|0,1:0|0:0,0:0:0:0:
501,47,13963,2,0,P|496:85|495:123,1,77.0000023498536,2|0,1:0|0:0,0:0:0:0:
505,292,14355,2,0,P|478:225|407:232,1,154.000004699707,10|2,0:1|0:0,0:0:0:0:
331,352,14943,2,0,P|371:346|405:338,1,77.0000023498536,8|0,0:1|0:0,0:0:0:0:
316,239,15335,1,0,1:0:0:0:
252,302,15531,2,0,P|196:289|139:280,1,115.50000352478,2|0,1:0|0:0,0:0:0:0:
71,291,15923,2,0,B|52:257|52:257|65:197,1,77.0000023498536,10|0,0:1|0:0,0:0:0:0:
135,42,16316,2,0,B|154:76|154:76|141:136,1,77.0000023498536,2|8,0:0|0:0,0:0:0:0:
138,120,16610,1,8,0:0:0:0:
131,127,16708,6,0,B|143:111|163:106|163:106|179:117|198:118,1,77.0000023498536,2|0,1:0|0:0,0:0:0:0:
302,22,17100,2,0,B|282:20|266:9|266:9|246:14|234:30,1,77.0000023498536,2|0,1:0|0:0,0:0:0:0:
300,248,17492,2,0,B|265:212|274:178|274:178|302:142|292:95,1,154.000004699707,10|2,0:1|0:0,0:0:0:0:
78,25,18080,2,0,P|113:40|150:49,1,77.0000023498536,8|0,0:1|0:0,0:0:0:0:
0,0,18473,1,0,1:0:0:0:
72,109,18669,2,0,P|59:165|50:222,1,115.50000352478,2|0,1:0|0:0,0:0:0:0:
52,293,19061,2,0,P|87:306|125:300,1,77.0000023498536,10|0,0:1|0:0,0:0:0:0:
244,242,19453,1,2,0:0:0:0:
401,359,19649,5,8,0:0:0:0:
408,366,19747,1,8,0:0:0:0:
415,373,19845,2,0,L|405:291,1,77.0000023498536,6|0,1:2|0:0,0:0:0:0:
244,242,20237,2,0,L|254:160,1,77.0000023498536,2|0,1:0|0:0,0:0:0:0:
386,0,20629,2,0,L|402:126,1,115.50000352478,10|0,0:1|0:0,0:0:0:0:
474,135,21022,6,0,B|406:110|406:194|328:155,1,154.000004699707,2|0,0:0|1:0,0:0:0:0:
282,93,21610,1,8,0:0:0:0:
65,162,21806,1,10,0:1:0:0:
238,312,22002,2,0,L|280:291,1,38.5000011749268,8|0,0:1|0:0,0:0:0:0:
273,295,22394,6,0,L|259:274,1,14,0|0,1:0|0:0,0:0:0:0:
211,193,22590,6,0,B|164:220|224:326|330:207,1,195.999994018555,6|0,1:0|0:0,0:0:0:0:
497,179,23178,1,8,0:0:0:0:
427,268,23374,2,0,P|418:231|408:184,1,77.0000023498536,2|0,1:0|0:0,0:0:0:0:
468,363,23767,2,0,P|431:300|360:311,1,154.000004699707,10|2,0:1|0:0,0:0:0:0:
263,370,24355,5,8,0:0:0:0:
256,377,24453,1,8,0:0:0:0:
249,384,24551,1,8,0:1:0:0:
95,307,24747,1,8,0:1:0:0:
192,227,24943,2,0,P|195:267|198:303,1,77.0000023498536,2|0,1:0|0:0,0:0:0:0:
71,179,25335,5,10,0:1:0:0:
275,123,25531,1,8,0:1:0:0:
157,5,25727,2,0,L|150:35,1,31.4999990386963,10|0,0:3|0:0,0:0:0:0:
134,101,26120,6,0,P|159:104|186:103,1,52.5000020027161,2|0,0:0|0:0,0:0:0:0:
248,45,26512,2,0,P|274:41|300:43,1,52.5000020027161,2|0,0:0|0:0,0:0:0:0:
375,82,26904,1,2,0:0:0:0:
461,38,27100,2,0,L|452:89,1,52.5000020027161,2|0,0:0|0:0,0:0:0:0:
407,148,27492,1,2,0:0:0:0:
464,225,27688,2,0,B|415:207|416:254|363:240,1,105.000004005432,2|2,0:0|0:0,0:0:0:0:
290,117,28276,2,0,B|307:95|307:95|335:127|324:166,1,105.000004005432,2|0,0:0|0:0,0:0:0:0:
283,235,28865,2,0,L|224:226,1,52.5000020027161,2|0,0:0|0:0,0:0:0:0:
149,193,29257,6,0,P|144:141|136:89,2,105.000004005432
65,301,30433,1,0,0:0:0:0:
140,354,30629,2,0,B|159:368|189:371|189:371|213:366|236:348,1,105.000004005432
313,321,31218,2,0,P|320:295|323:269,1,52.5000020027161
264,209,31610,2,0,P|256:183|253:157,1,52.5000020027161,0|0,0:0|0:0,0:0:0:0:
348,78,32002,2,0,P|359:119|335:164,1,78.7500030040742
335,153,32394,5,2,0:0:0:0:
264,80,32590,1,2,0:0:0:0:
171,136,32786,2,0,P|176:161|179:187,1,52.5000020027161,2|0,0:0|0:0,0:0:0:0:
244,259,33178,2,0,P|238:284|235:310,1,52.5000020027161,2|0,0:0|0:0,0:0:0:0:
191,384,33571,1,2,0:0:0:0:
89,340,33767,1,2,0:0:0:0:
141,280,33963,2,0,P|192:271|243:259,1,105.000004005432,2|0,0:0|0:0,0:0:0:0:
322,171,34551,2,0,B|308:150|308:150|284:185|318:230,1,105.000004005432,2|0,0:0|0:0,0:0:0:0:
401,211,35139,2,0,P|408:182|406:153,1,52.5000020027161,2|0,0:0|0:0,0:0:0:0:
408,71,35531,6,0,P|460:70|512:61,2,105.000004005432
408,71,36708,2,0,P|382:67|355:64,1,52.5000020027161,2|0,0:0|0:0,0:0:0:0:
271,31,37100,6,0,B|263:71|263:71|284:112,1,78.7500030040742,2|0,0:0|0:0,0:0:0:0:
321,160,37492,2,0,L|300:239,1,78.7500030040742,2|0,0:0|0:0,0:0:0:0:
285,303,37884,2,0,P|322:314|361:312,1,78.7500030040742,2|0,0:0|0:0,0:0:0:0:
434,290,38276,1,2,0:0:0:0:
434,290,38669,6,0,B|455:227|554:272|521:364|437:372,1,210,2|0,0:0|0:0,0:0:0:0:
354,384,39453,2,0,P|328:378|302:374,1,52.5000020027161
227,310,39845,1,2,0:0:0:0:
131,341,40041,5,2,0:0:0:0:
124,348,40139,1,2,0:0:0:0:
117,355,40237,2,0,B|75:349|47:387|47:387|54:339|25:313,2,161.000003070831,2|0|0,0:0|0:0|0:0,0:0:0:0:
117,355,41414,2,0,P|116:328|113:296,1,52.5000020027162
61,224,41806,6,0,L|4:241,1,52.5000020027161,2|0,0:0|0:0,0:0:0:0:
136,156,42198,2,0,L|193:173,1,52.5000020027161,2|0,0:0|0:0,0:0:0:0:
41,129,42590,2,0,L|28:77,1,52.5000020027161,2|0,0:0|0:0,0:0:0:0:
105,0,42982,1,2,0:0:0:0:
119,77,43178,1,0,0:0:0:0:
203,87,43374,6,0,P|242:77|281:72,1,78.7500030040742,2|0,0:0|0:0,0:0:0:0:
294,73,43767,1,2,0:0:0:0:
363,119,43963,2,0,P|380:69|362:20,1,105.000004005432,2|0,0:0|0:0,0:0:0:0:
290,155,44551,2,0,L|303:210,1,52.5000020027161,2|0,0:0|0:0,0:0:0:0:
371,264,44943,6,0,P|351:218|302:206,1,105.000004005432,2|0,0:0|0:0,0:0:0:0:
219,303,45727,2,0,P|192:300|166:297,1,52.5000020027161,2|0,0:0|0:0,0:0:0:0:
102,245,46120,1,2,0:0:0:0:
174,189,46316,2,0,P|180:138|182:85,1,105.000004005432,2|0,0:0|0:0,0:0:0:0:
158,5,46904,1,2,0:0:0:0:
292,34,47100,2,0,P|266:30|240:26,1,52.5000020027161,2|0,0:0|0:0,0:0:0:0:
182,84,47492,2,0,P|156:90|130:93,1,52.5000020027161,2|0,0:0|0:0,0:0:0:0:
265,116,47884,1,2,0:0:0:0:
371,29,48080,5,2,0:0:0:0:
455,63,48473,1,0,0:0:0:0:
439,186,48865,1,2,0:0:0:0:
355,152,49257,1,0,0:0:0:0:
500,47,49649,6,0,L|489:111,1,62.9999980773926,2|0,0:3|0:0,0:0:0:0:
463,221,51022,2,0,L|468:238,2,17.500000667572,2|2|2,0:0|0:0|0:0,0:0:0:0:
457,207,51218,5,6,1:0:0:0:
354,185,51414,1,2,0:0:0:0:
289,290,51610,1,2,1:0:0:0:
392,268,51806,1,2,0:0:0:0:
251,207,52002,2,0,P|216:212|181:217,1,70,10|0,0:1|0:0,0:0:0:0:
91,233,52394,1,2,0:0:0:0:
158,66,52590,1,10,0:1:0:0:
48,21,52786,6,0,P|58:72|66:124,1,105,2|0,0:0|0:0,0:0:0:0:
67,142,53178,1,2,1:0:0:0:
26,255,53374,2,0,P|56:238|91:232,1,70,2|8,0:0|0:1,0:0:0:0:
181,278,53767,1,2,0:0:0:0:
265,219,53963,2,0,L|271:145,1,70,2|8,0:0|0:0,0:0:0:0:
263,142,54257,1,8,0:0:0:0:
256,134,54355,6,0,P|288:147|345:145,1,70,0|8,1:0|0:0,0:0:0:0:
460,84,54747,1,0,1:0:0:0:
460,84,55139,2,0,B|430:149|430:149|446:221,1,140,8|0,0:1|0:0,0:0:0:0:
512,342,55727,2,0,B|492:308|447:314|447:314|434:347|403:358,1,140,8|0,0:1|0:0,0:0:0:0:
288,269,56316,2,0,B|317:261|317:261|338:265|354:275,1,70,0|0,1:0|0:0,0:0:0:0:
299,373,56708,2,0,P|230:361|148:349,1,140,8|0,0:1|0:0,0:0:0:0:
82,273,57296,5,8,0:0:0:0:
75,280,57394,1,8,0:0:0:0:
68,287,57492,2,0,L|0:275,2,70,2|10|2,1:0|0:0|1:0,0:0:0:0:
173,259,58080,1,0,0:0:0:0:
99,120,58276,2,0,B|87:153|87:153|103:194,1,70,10|0,0:1|0:0,0:0:0:0:
199,156,58669,1,2,0:0:0:0:
3,83,58865,1,10,0:1:0:0:
90,24,59061,6,0,B|124:14|124:14|166:43,1,70,2|0,0:0|1:0,0:0:0:0:
227,85,59453,1,2,1:0:0:0:
315,93,59649,2,0,P|329:61|330:26,1,70,2|8,0:0|0:1,0:0:0:0:
153,34,60041,1,2,0:0:0:0:
199,156,60237,2,0,P|204:197|208:239,1,70,2|8,0:0|0:0,0:0:0:0:
199,232,60531,1,8,0:0:0:0:
192,239,60629,6,0,B|226:231|226:231|258:243,1,70,0|0,1:0|0:0,0:0:0:0:
366,284,61022,1,0,1:0:0:0:
366,284,61414,2,0,B|394:236|370:185|370:185|362:208|346:230,1,140,8|0,0:1|0:0,0:0:0:0:
286,340,62002,1,8,0:1:0:0:
465,364,62198,6,0,L|474:242,1,105,2|0,0:0|0:0,0:0:0:0:
469,188,62590,2,0,B|420:169|420:169|370:186,1,105,2|0,1:0|0:0,0:0:0:0:
298,188,62982,2,0,B|257:156|276:106|276:106|291:128,1,105,10|0,0:1|0:0,0:0:0:0:
284,129,63374,1,2,0:0:0:0:
132,212,63571,5,8,0:0:0:0:
125,219,63669,1,8,0:0:0:0:
118,226,63767,2,0,B|120:173|120:173|135:142|135:142|137:89,1,140,6|0,1:0|1:0,0:0:0:0:
0,50,64551,2,0,P|27:7|86:14,1,105,8|0,0:1|0:0,0:0:0:0:
86,16,64943,1,2,0:0:0:0:
165,112,65139,6,0,P|199:106|233:99,1,70,10|0,0:1|0:0,0:0:0:0:
287,0,65531,1,0,1:0:0:0:
375,19,65727,2,0,P|409:24|443:31,1,70,0|0,1:0|0:0,0:0:0:0:
469,232,66120,2,0,P|410:199|412:133,1,140,8|0,0:1|0:0,0:0:0:0:
492,324,66708,5,10,0:0:0:0:
485,331,66806,1,8,0:0:0:0:
478,338,66904,2,0,L|408:331,1,70,2|0,1:0|0:0,0:0:0:0:
281,183,67296,2,0,P|295:216|305:249,1,70,2|0,1:0|0:0,0:0:0:0:
277,362,67688,2,0,B|246:345|246:345|206:358,1,70,10|0,0:1|0:0,0:0:0:0:
52,319,68080,1,2,0:0:0:0:
148,203,68276,6,0,B|208:215|208:166|269:178,1,125.999996154785,10|0,0:1|0:0,0:0:0:0:
281,183,68669,1,0,1:0:0:0:
338,98,68865,1,2,1:0:0:0:
412,175,69061,2,0,P|408:210|406:245,1,70,2|8,0:0|0:1,0:0:0:0:
258,327,69453,1,0,1:0:0:0:
200,252,69649,2,0,P|197:217|194:182,1,70,2|10,0:0|0:0,0:0:0:0:
187,175,69943,1,8,0:0:0:0:
180,168,70041,6,0,P|246:171|279:113,1,140,4|0,1:0|1:0,0:0:0:0:
31,94,70825,2,0,P|65:95|100:90,1,70,10|0,0:1|0:0,0:0:0:0:
187,76,71218,1,2,0:0:0:0:
233,0,71414,2,0,P|267:-2|302:3,1,70,10|0,0:1|0:0,0:0:0:0:
352,90,71806,1,0,1:0:0:0:
512,0,72002,2,0,P|462:1|454:65,1,105,2|0,1:0|0:0,0:0:0:0:
479,108,72394,2,0,P|487:142|491:176,1,70,10|0,0:1|0:0,0:0:0:0:
444,277,72786,1,2,0:0:0:0:
255,247,72982,5,8,0:0:0:0:
248,240,73080,1,8,0:0:0:0:
241,233,73178,2,0,P|317:222|400:255,1,146.999995513916,6|0,1:2|0:0,0:0:0:0:
444,277,73571,2,0,P|410:241|389:197,1,97.9999970092774,2|8,1:0|0:0,0:0:0:0:
390,186,73865,1,8,0:0:0:0:
391,175,73963,5,10,0:1:0:0:
215,299,74159,1,8,0:1:0:0:
93,204,74355,1,10,0:1:0:0:
269,79,74551,1,8,0:1:0:0:
269,79,75531,6,0,L|268:95,1,14,2|0,0:3|0:0,0:0:0:0:
268,93,76316,6,0,B|203:114|202:40|131:62,1,146.999995513916,6|0,1:0|0:0,0:0:0:0:
83,116,76708,2,0,P|91:138|98:165,1,48.9999985046387,2|0,1:0|0:0,0:0:0:0:
213,180,76904,2,0,P|205:202|198:229,1,48.9999985046387,2|0,0:0|0:0,0:0:0:0:
3,321,77100,2,0,B|-28:289|27:222|116:293,1,146.999995513916,10|0,0:1|0:0,0:0:0:0:
102,289,77492,1,2,0:0:0:0:
295,258,77688,1,10,0:1:0:0:
223,371,77884,6,0,P|208:299|198:226,1,146.999995513916,0|0,1:0|0:0,0:0:0:0:
196,213,78276,1,2,1:0:0:0:
271,154,78473,2,0,P|275:129|276:105,1,48.9999985046387,2|0,0:0|0:0,0:0:0:0:
204,60,78669,2,0,P|263:87|282:24,1,146.999995513916,10|0,0:1|0:0,0:0:0:0:
269,14,79061,1,2,0:0:0:0:
98,174,79257,5,10,0:0:0:0:
91,181,79355,1,8,0:0:0:0:
84,187,79453,2,0,B|53:181|48:151|48:151|108:119|158:166,1,146.999995513916,2|0,1:0|0:0,0:0:0:0:
173,217,79845,2,0,P|166:265|162:314,1,97.9999970092774,2|0,1:0|0:0,0:0:0:0:
370,180,80237,1,10,0:1:0:0:
447,246,80433,1,2,0:0:0:0:
344,384,80629,2,0,B|327:338|327:338|341:281,1,97.9999970092774,2|8,0:0|0:0,0:0:0:0:
345,283,80923,1,8,0:0:0:0:
352,276,81022,5,0,1:0:0:0:
269,207,81218,1,0,1:0:0:0:
468,151,81414,1,2,1:0:0:0:
320,13,81610,1,2,0:0:0:0:
412,51,81806,2,0,P|315:43|217:34,1,195.999994018555,10|2,0:1|0:0,0:0:0:0:
14,163,82394,5,10,0:0:0:0:
7,170,82492,1,8,0:0:0:0:
0,177,82590,2,0,P|70:158|144:158,1,146.999995513916,4|0,1:2|0:0,0:0:0:0:
156,161,82982,1,0,1:0:0:0:
235,251,83178,2,0,P|224:273|215:296,1,48.9999985046387,2|0,0:0|0:0,0:0:0:0:
270,364,83374,2,0,B|292:357|301:330|301:330|264:289|212:304,1,146.999995513916,10|0,0:1|0:0,0:0:0:0:
209,314,83767,1,2,0:0:0:0:
89,263,83963,6,0,P|96:311|103:359,1,97.9999970092774,10|0,0:1|0:0,0:0:0:0:
288,228,84355,1,0,1:0:0:0:
202,106,84551,1,2,1:0:0:0:
440,88,84747,1,0,0:0:0:0:
417,0,84943,2,0,P|410:99|407:198,1,195.999994018555,10|2,0:1|0:0,0:0:0:0:
304,350,85531,5,10,0:0:0:0:
297,357,85629,1,8,0:0:0:0:
290,364,85727,2,0,B|262:348|262:348|308:306|374:332,1,146.999995513916,4|0,1:2|0:0,0:0:0:0:
448,358,86120,2,0,P|453:333|448:303,1,48.9999985046387,2|0,1:0|0:0,0:0:0:0:
407,195,86316,2,0,P|401:146|408:98,1,97.9999970092774,2|8,0:0|0:1,0:0:0:0:
463,0,86708,1,2,0:0:0:0:
340,12,86904,2,0,P|292:21|244:24,1,97.9999970092774,2|8,0:0|0:1,0:0:0:0:
131,53,87296,5,0,0:0:0:0:
181,135,87492,1,0,1:0:0:0:
131,229,87688,1,0,1:0:0:0:
27,146,87884,1,8,0:0:0:0:
51,141,87982,1,8,0:0:0:0:
75,137,88080,1,10,0:1:0:0:
238,225,88276,1,8,0:3:0:0:
172,360,88473,6,0,P|155:358|139:356,1,31.4999990386963,4|0,0:3|0:0,0:0:0:0:
35,340,88865,6,0,P|106:355|179:367,1,146.999995513916,6|0,1:0|0:0,0:0:0:0:
253,384,89257,2,0,P|279:373|306:356,1,48.9999985046387,2|0,1:0|0:0,0:0:0:0:
372,306,89453,2,0,P|346:295|319:278,1,48.9999985046387,2|0,0:0|0:0,0:0:0:0:
262,200,89649,2,0,B|242:240|264:270|264:270|303:290|334:274,1,146.999995513916,10|0,0:1|0:0,0:0:0:0:
340,265,90041,1,2,0:0:0:0:
474,146,90237,6,0,P|470:194|468:243,1,97.9999970092774,10|0,0:1|0:0,0:0:0:0:
375,163,90629,1,0,1:0:0:0:
340,265,90825,1,2,1:0:0:0:
179,141,91022,1,2,0:0:0:0:
273,4,91218,2,0,P|264:102|262:200,1,195.999994018555,10|2,0:1|0:0,0:0:0:0:
105,42,91806,5,8,0:0:0:0:
98,35,91904,1,8,0:0:0:0:
91,28,92002,2,0,B|126:-21|191:8|191:8|181:26|176:39,1,146.999995513916,2|0,1:0|0:0,0:0:0:0:
141,106,92394,2,0,P|142:132|148:160,1,48.9999985046387,2|0,1:0|0:0,0:0:0:0:
267,248,92590,2,0,P|266:224|262:200,1,48.9999985046387,2|0,0:0|0:0,0:0:0:0:
267,121,92786,2,0,B|231:113|190:139|214:154|175:183|138:160,1,146.999995513916,10|0,0:1|0:0,0:0:0:0:
128,165,93178,1,2,0:0:0:0:
15,265,93374,5,10,0:0:0:0:
8,272,93473,1,8,0:0:0:0:
1,279,93571,2,0,P|51:270|85:301,1,97.9999970092774,0|0,1:0|1:0,0:0:0:0:
139,378,93963,2,0,P|189:387|223:356,1,97.9999970092774,0|0,1:0|0:0,0:0:0:0:
271,178,94355,2,0,B|248:222|270:260|270:260|301:274|313:301,1,146.999995513916,10|0,0:1|0:0,0:0:0:0:
297,368,94747,2,0,P|327:332|374:336,1,97.9999970092774,2|10,0:0|0:0,0:0:0:0:
381,343,95041,1,8,0:0:0:0:
387,350,95139,6,0,P|394:252|397:154,1,195.999994018555,4|0,1:2|1:0,0:0:0:0:
185,0,95923,2,0,P|188:73|194:146,1,146.999995513916,10|0,0:1|0:0,0:0:0:0:
233,205,96316,2,0,P|230:229|226:263,1,48.9999985046387,2|0,0:0|0:0,0:0:0:0:
83,217,96512,2,0,B|86:189|104:176|104:176|160:190|152:251,1,146.999995513916,10|0,0:1|0:0,0:0:0:0:
147,263,96904,1,0,1:0:0:0:
67,299,97100,2,0,P|59:348|90:384,1,97.9999970092774,2|0,1:0|0:0,0:0:0:0:
213,350,97492,2,0,B|319:309|284:308|349:337,1,146.999995513916,10|0,0:1|0:0,0:0:0:0:
361,347,97884,1,2,0:0:0:0:
478,190,98080,5,10,0:0:0:0:
480,197,98178,1,8,0:0:0:0:
481,207,98276,2,0,B|477:258|422:263|422:263|383:230|394:187|410:198|424:156|395:120,1,245,4|0,1:2|0:0,0:0:0:0:
301,136,99061,2,0,P|344:213|381:124,1,224,4|0,1:0|0:0,0:0:0:0:
301,136,101022,6,0,L|272:130,1,17.5,0|0,0:0|0:0,0:0:0:0:
294,129,101218,2,0,L|265:123,1,17.5,0|0,0:0|0:0,0:0:0:0:
189,82,101414,6,0,P|193:120|194:158,1,77.0000023498536,6|0,1:0|0:0,0:0:0:0:
263,290,101806,2,0,P|263:251|268:213,1,77.0000023498536,2|0,1:0|0:0,0:0:0:0:
407,60,102198,2,0,P|335:66|308:0,1,154.000004699707,10|2,0:1|0:0,0:0:0:0:
507,55,102786,2,0,P|505:96|502:136,1,77.0000023498536,8|0,0:1|0:0,0:0:0:0:
414,193,103178,1,0,1:0:0:0:
481,341,103374,2,0,P|524:307|509:254,1,115.50000352478,2|0,1:0|0:0,0:0:0:0:
438,265,103767,2,0,B|400:273|400:273|366:254,1,77.0000023498536,10|0,0:1|0:0,0:0:0:0:
285,175,104159,2,0,B|251:156|251:156|213:164,1,77.0000023498536,2|8,0:0|0:0,0:0:0:0:
206,171,104453,1,8,0:0:0:0:
199,178,104551,6,0,B|205:91,1,77.0000023498536,2|0,1:0|0:0,0:0:0:0:
83,48,104943,2,0,B|87:126,1,77.0000023498536,2|0,1:0|0:0,0:0:0:0:
169,258,105335,2,0,B|97:233|97:233|30:271,1,154.000004699707,10|2,0:1|0:0,0:0:0:0:
72,353,105923,2,0,B|110:360|110:360|152:341,1,77.0000023498536,8|0,0:1|0:0,0:0:0:0:
271,250,106316,1,0,1:0:0:0:
318,329,106512,2,0,P|374:342|431:351,1,115.50000352478,2|0,1:0|0:0,0:0:0:0:
499,360,106904,2,0,B|516:325|516:325|505:283,1,77.0000023498536,10|0,0:1|0:0,0:0:0:0:
400,173,107296,1,2,0:0:0:0:
271,250,107492,5,8,0:0:0:0:
264,257,107590,1,8,0:0:0:0:
257,264,107688,2,0,L|175:254,1,77.0000023498536,6|0,1:2|0:0,0:0:0:0:
42,168,108080,2,0,L|124:158,1,77.0000023498536,2|0,1:0|0:0,0:0:0:0:
248,0,108473,2,0,P|236:76|229:152,1,154.000004699707,10|2,0:1|0:0,0:0:0:0:
354,333,109061,2,0,P|378:282|362:228,1,115.50000352478,8|0,0:1|0:0,0:0:0:0:
348,222,109453,1,0,1:0:0:0:
213,307,109649,6,0,B|124:304|145:316|102:257,1,115.50000352478,2|0,1:0|0:0,0:0:0:0:
72,213,110041,2,0,P|37:200|3:216,1,77.0000023498536,10|0,0:1|0:0,0:0:0:0:
160,155,110433,2,0,P|195:168|229:152,1,77.0000023498536,2|8,0:0|0:0,0:0:0:0:
236,145,110727,1,8,0:0:0:0:
243,138,110825,6,0,B|230:175|230:175|243:219,1,77.0000023498536,6|0,1:0|0:0,0:0:0:0:
405,191,111218,2,0,P|367:181|329:176,1,77.0000023498536,2|0,1:0|0:0,0:0:0:0:
485,277,111610,2,0,B|513:206|513:206|497:123,1,154.000004699707,8|2,0:1|0:0,0:0:0:0:
319,0,112198,2,0,P|321:38|324:76,1,77.0000023498536,8|2,0:1|0:0,0:0:0:0:
405,191,112590,1,0,1:0:0:0:
341,258,112786,2,0,P|302:254|264:251,1,77.0000023498536,2|8,1:0|0:0,0:0:0:0:
257,244,113080,1,8,0:0:0:0:
250,237,113178,5,10,0:1:0:0:
364,383,113374,1,8,0:1:0:0:
510,269,113571,1,10,0:1:0:0:
396,123,113767,1,8,0:1:0:0:
278,332,113963,6,0,P|242:320|204:312,1,77.0000023498536,6|0,1:0|0:0,0:0:0:0:
73,352,114355,2,0,P|63:315|69:278,1,77.0000023498536,2|0,1:0|0:0,0:0:0:0:
174,170,114747,2,0,B|205:121|171:78|171:78|176:106|165:130,1,154.000004699707,10|2,0:1|0:0,0:0:0:0:
0,111,115335,2,0,P|37:102|75:96,1,77.0000023498536,8|0,0:1|0:0,0:0:0:0:
248,62,115727,1,0,1:0:0:0:
265,158,115923,2,0,P|322:149|378:135,1,115.50000352478,2|0,1:0|0:0,0:0:0:0:
430,92,116316,2,0,B|421:129|421:129|440:163,1,77.0000023498536,10|0,0:1|0:0,0:0:0:0:
502,238,116708,2,0,B|521:272|521:272|508:332,1,77.0000023498536,2|8,0:0|0:0,0:0:0:0:
505,316,117002,1,8,0:0:0:0:
498,323,117100,6,0,P|467:301|431:312,1,77.0000023498536,2|0,1:0|0:0,0:0:0:0:
371,228,117492,2,0,P|340:249|304:238,1,77.0000023498536,2|0,1:0|0:0,0:0:0:0:
230,85,117884,2,0,B|264:116|255:154|255:154|215:177|209:217,1,154.000004699707,10|2,0:1|0:0,0:0:0:0:
236,312,118473,2,0,P|205:290|169:301,1,77.0000023498536,8|0,0:1|0:0,0:0:0:0:
65,377,118865,1,0,1:0:0:0:
6,309,119061,2,0,P|13:252|22:194,1,115.50000352478,2|0,1:0|0:0,0:0:0:0:
81,155,119453,2,0,P|76:116|70:78,1,77.0000023498536,10|0,0:1|0:0,0:0:0:0:
0,0,119845,1,2,0:0:0:0:
233,0,120041,5,8,0:0:0:0:
240,7,120139,1,8,0:0:0:0:
247,14,120237,2,0,L|237:96,1,77.0000023498536,6|0,1:0|0:0,0:0:0:0:
185,174,120629,1,2,1:0:0:0:
280,236,120825,1,0,1:0:0:0:
125,315,121022,2,0,P|147:264|201:256,1,115.50000352478,10|0,0:1|0:0,0:0:0:0:
259,313,121414,6,0,B|293:329|326:306|326:306|334:311|334:311|364:288|404:300,1,154.000004699707,2|0,0:0|1:0,0:0:0:0:
487,384,122002,1,8,0:0:0:0:
489,377,122100,1,8,0:0:0:0:
491,370,122198,1,10,0:1:0:0:
512,246,122394,1,8,0:1:0:0:
363,160,122590,1,10,0:1:0:0:
443,94,122786,6,0,L|437:120,1,14,0|0,1:0|0:0,0:0:0:0:
329,265,122982,6,0,B|386:237|362:159|362:159|313:156|292:187,1,195.999994018555,6|0,1:0|0:0,0:0:0:0:
134,280,123571,1,8,0:1:0:0:
218,286,123767,2,0,P|220:247|220:209,1,77.0000023498536,2|0,1:0|0:0,0:0:0:0:
315,43,124159,2,0,P|278:105|206:94,1,154.000004699707,14|0,0:1|0:0,0:0:0:0:
207,0,124747,5,8,0:0:0:0:
214,7,124845,1,8,0:0:0:0:
221,14,124943,1,10,0:1:0:0:
129,112,125139,2,0,P|90:109|52:105,1,77.0000023498536,8|2,0:3|0:0,0:0:0:0:
14,13,125531,5,8,0:1:0:0:
102,204,125727,1,10,0:1:0:0:
217,167,125923,1,8,0:3:0:0:
272,239,126120,6,0,P|268:259|266:280,1,42,4|0,0:3|0:0,0:0:0:0:
264,346,126512,6,0,P|299:342|333:339,1,70,6|0,1:0|0:0,0:0:0:0:
447,344,126904,2,0,P|450:309|454:274,1,70,2|0,1:0|0:0,0:0:0:0:
424,104,127296,1,10,0:1:0:0:
440,189,127492,1,2,0:0:0:0:
506,132,127688,1,2,0:0:0:0:
410,16,127884,1,10,0:1:0:0:
344,73,128080,6,0,P|309:67|274:62,1,70,2|0,0:0|1:0,0:0:0:0:
181,48,128473,1,2,1:0:0:0:
104,138,128669,2,0,P|138:130|173:125,1,70,2|8,0:0|0:1,0:0:0:0:
263,142,129061,1,2,0:0:0:0:
238,232,129257,2,0,L|232:301,1,70,2|8,0:0|0:0,0:0:0:0:
239,308,129551,1,8,0:0:0:0:
246,315,129649,6,0,P|218:294|183:296,1,70,0|0,1:0|0:0,0:0:0:0:
50,371,130041,1,0,1:0:0:0:
50,371,130433,2,0,B|84:320|76:356|66:235,1,140,8|0,0:1|0:0,0:0:0:0:
9,171,131022,2,0,B|74:132|31:137|112:161,1,105,8|0,0:1|0:0,0:0:0:0:
114,164,131414,1,0,1:0:0:0:
192,217,131610,2,0,P|207:185|209:151,1,70,0|0,1:0|0:0,0:0:0:0:
68,54,132002,2,0,B|93:88|136:80|136:80|168:46|213:53,1,140,8|0,0:1|0:0,0:0:0:0:
300,101,132590,5,8,0:0:0:0:
292,95,132688,1,8,0:0:0:0:
288,86,132786,1,2,1:0:0:0:
343,8,132982,1,2,0:0:0:0:
410,95,133178,2,0,L|403:166,1,70,2|0,1:0|0:0,0:0:0:0:
295,299,133571,1,10,0:1:0:0:
318,202,133767,1,2,0:0:0:0:
392,266,133963,2,0,P|429:261|473:253,1,70,2|8,0:0|0:1,0:0:0:0:
369,384,134355,6,0,P|334:378|299:375,1,70,2|0,0:0|1:0,0:0:0:0:
210,384,134747,1,2,1:0:0:0:
146,300,134943,2,0,P|180:311|214:288,1,70,2|8,0:0|0:1,0:0:0:0:
116,220,135335,1,2,0:0:0:0:
77,363,135531,2,0,P|43:352|9:375,1,70,2|8,0:0|0:0,0:0:0:0:
7,374,135825,1,8,0:0:0:0:
0,381,135923,6,0,B|17:351|17:351|16:306,1,70,0|0,1:0|0:0,0:0:0:0:
0,148,136316,1,0,1:0:0:0:
0,148,136708,2,0,B|26:169|26:169|142:147,1,140,8|2,0:1|0:0,0:0:0:0:
234,127,137296,1,8,0:1:0:0:
190,262,137492,6,0,P|216:219|266:218,1,105,2|0,0:0|0:0,0:0:0:0:
318,272,137884,2,0,B|368:289|368:289|417:270,1,105,2|0,1:0|0:0,0:0:0:0:
403,199,138276,2,0,B|395:188|395:188|376:238|417:270,1,105,10|0,0:1|0:0,0:0:0:0:
429,266,138669,1,2,0:0:0:0:
512,85,138865,5,8,0:0:0:0:
510,92,138963,1,8,0:0:0:0:
506,98,139061,2,0,B|490:127|449:126|449:126|418:95|377:105,1,140,6|0,1:2|1:0,0:0:0:0:
229,247,139845,2,0,P|240:194|245:127,1,105,8|0,0:1|0:0,0:0:0:0:
239,133,140237,1,2,0:0:0:0:
124,195,140433,6,0,P|90:189|56:182,1,70,10|0,0:1|0:0,0:0:0:0:
3,42,140825,1,0,1:0:0:0:
92,86,141022,2,0,P|126:80|160:73,1,70,0|0,1:0|0:0,0:0:0:0:
317,0,141414,2,0,P|262:36|257:103,1,140,8|0,0:1|0:0,0:0:0:0:
418,111,142002,5,10,0:0:0:0:
413,102,142100,1,8,0:0:0:0:
409,93,142198,2,0,L|340:78,1,70,2|0,1:0|0:0,0:0:0:0:
226,198,142590,2,0,P|257:183|291:188,1,70,2|0,1:0|0:0,0:0:0:0:
417,351,142982,2,0,B|384:361|384:361|353:344,1,70,10|0,0:1|0:0,0:0:0:0:
291,188,143374,1,2,0:0:0:0:
442,217,143571,6,0,P|431:272|421:341,1,125.999996154785,10|0,0:1|0:0,0:0:0:0:
417,351,143963,1,0,1:0:0:0:
288,274,144159,1,2,1:0:0:0:
219,358,144355,2,0,P|183:355|149:351,1,70,2|8,0:0|0:1,0:0:0:0:
84,241,144747,1,0,0:0:0:0:
200,176,144943,2,0,P|203:211|206:246,1,70,2|10,0:0|0:0,0:0:0:0:
198,252,145237,1,8,0:0:0:0:
191,259,145335,6,0,P|226:205|284:233,1,140,0|0,1:0|1:0,0:0:0:0:
427,372,146120,2,0,P|459:382|486:362,1,70,10|0,0:1|0:0,0:0:0:0:
512,266,146512,1,2,0:0:0:0:
446,219,146708,2,0,P|442:166|441:114,1,105,10|0,0:1|0:0,0:0:0:0:
441,102,147100,1,0,1:0:0:0:
512,30,147296,1,2,1:0:0:0:
409,10,147492,2,0,P|371:15|327:20,1,70,2|8,0:0|0:1,0:0:0:0:
270,110,147884,2,0,P|232:105|188:100,1,70,2|0,0:0|0:0,0:0:0:0:
21,37,148276,5,10,0:0:0:0:
14,30,148374,1,8,0:0:0:0:
7,23,148473,2,0,B|34:0|74:3|74:3|104:22|108:59,1,140,2|0,1:0|1:0,0:0:0:0:
31,291,149257,2,0,P|24:221|20:151,1,140,10|0,0:1|0:0,0:0:0:0:
247,102,149845,6,0,P|203:130|190:65,1,136.499993751526,6|0,1:2|0:0,0:0:0:0:
193,63,150237,1,10,0:1:0:0:
356,40,150433,2,0,P|350:84|343:132,1,70,2|8,1:0|0:0,0:0:0:0:
340,118,150727,1,8,0:0:0:0:
333,125,150825,1,8,0:1:0:0:
417,229,151022,1,8,0:3:0:0:
325,283,151218,1,4,0:3:0:0:
401,330,151414,5,8,0:0:0:0:
406,334,151512,1,8,0:0:0:0:
411,338,151610,1,6,1:0:0:0:
495,291,151806,1,2,0:0:0:0:
417,229,152002,1,2,1:0:0:0:
325,283,152198,1,2,0:0:0:0:
250,212,152394,2,0,P|250:177|253:142,1,70,10|0,0:1|0:0,0:0:0:0:
289,64,152786,1,2,0:0:0:0:
83,52,152982,1,10,0:1:0:0:
167,0,153178,6,0,P|171:52|172:104,1,105,2|0,0:0|0:0,0:0:0:0:
172,119,153571,1,2,1:0:0:0:
75,220,153767,2,0,P|76:185|80:150,1,70,2|8,0:0|0:1,0:0:0:0:
252,142,154159,1,2,0:0:0:0:
310,213,154355,2,0,P|308:247|304:282,1,70,2|8,0:0|0:0,0:0:0:0:
297,289,154649,1,8,0:0:0:0:
290,296,154747,6,0,P|322:287|350:307,1,70,0|8,1:0|0:0,0:0:0:0:
431,378,155139,2,0,P|464:377|503:351,1,70,0|0,1:0|0:0,0:0:0:0:
476,227,155531,2,0,P|478:157|484:87,1,140,8|0,0:1|0:0,0:0:0:0:
352,27,156120,2,0,P|356:79|358:131,1,105,8|0,0:1|0:0,0:0:0:0:
358,146,156512,1,0,1:0:0:0:
254,232,156708,2,0,P|246:197|249:162,1,70,0|0,1:0|0:0,0:0:0:0:
141,28,157100,2,0,P|161:61|137:90,1,70,8|0,0:1|0:0,0:0:0:0:
66,139,157492,1,0,0:0:0:0:
240,218,157688,5,8,0:0:0:0:
247,225,157786,1,8,0:0:0:0:
254,232,157884,2,0,P|290:226|324:220,2,70,2|10|2,1:0|0:0|1:0,0:0:0:0:
146,294,158473,1,2,0:0:0:0:
34,192,158669,2,0,P|64:176|97:185,1,70,10|0,0:1|0:0,0:0:0:0:
160,291,159061,1,2,0:0:0:0:
98,381,159257,1,10,0:1:0:0:
14,348,159453,6,0,P|18:313|22:278,1,70,2|0,0:0|1:0,0:0:0:0:
34,192,159845,1,2,1:0:0:0:
173,113,160041,2,0,P|138:117|106:103,1,70,2|8,0:0|0:1,0:0:0:0:
15,49,160433,1,2,0:0:0:0:
160,21,160629,2,0,P|195:16|230:10,1,70,2|8,0:0|0:0,0:0:0:0:
235,5,160923,1,8,0:0:0:0:
240,0,161022,6,0,P|242:73|252:155,2,140,0|0|8,1:0|1:0|0:1,0:0:0:0:
240,0,162198,1,2,0:0:0:0:
396,85,162394,1,8,0:1:0:0:
375,1,162590,6,0,P|365:50|405:80,1,105,2|0,0:0|0:0,0:0:0:0:
472,90,162982,2,0,B|490:109|486:140|486:140|461:148|446:171,1,105,2|0,1:0|0:0,0:0:0:0:
407,225,163374,2,0,B|447:257|439:301|439:301|428:280,1,105,10|0,0:1|0:0,0:0:0:0:
423,278,163767,1,2,0:0:0:0:
493,346,163963,5,8,0:0:0:0:
495,353,164061,1,8,0:0:0:0:
497,360,164159,2,0,P|434:384|374:351,1,140,6|0,1:0|1:0,0:0:0:0:
295,171,164943,2,0,B|312:210|308:246|308:246|296:260|289:273,1,105,8|0,0:1|0:0,0:0:0:0:
286,280,165335,1,2,0:0:0:0:
273,384,165531,6,0,P|247:360|213:358,1,70,10|0,0:1|0:0,0:0:0:0:
110,384,165923,1,0,1:0:0:0:
36,327,166120,2,0,P|32:292|31:257,1,70,0|0,1:0|0:0,0:0:0:0:
9,109,166512,2,0,B|16:140|38:153|38:153|79:142|121:134,1,140,8|0,0:1|0:0,0:0:0:0:
225,241,167100,5,10,0:0:0:0:
227,248,167198,1,8,0:0:0:0:
229,255,167296,2,0,P|199:269|169:253,1,70,2|0,1:0|0:0,0:0:0:0:
219,155,167688,2,0,P|224:118|211:86,1,70,2|0,1:0|0:0,0:0:0:0:
55,43,168080,2,0,B|90:50|90:50|118:30,1,70,10|0,0:1|0:0,0:0:0:0:
212,0,168473,1,2,0:0:0:0:
317,0,168669,6,0,B|296:16|295:41|295:41|314:71|305:105,1,105,10|0,0:1|0:0,0:0:0:0:
305,107,169061,1,0,1:0:0:0:
468,225,169257,1,2,1:0:0:0:
319,275,169453,2,0,P|318:240|315:205,1,70,2|8,0:0|0:1,0:0:0:0:
404,78,169845,1,0,0:0:0:0:
472,155,170041,2,0,P|469:189|468:224,1,70,2|10,0:0|0:0,0:0:0:0:
476,232,170335,1,8,0:0:0:0:
483,239,170433,6,0,B|514:212|460:136|387:210,1,140,6|0,1:2|1:0,0:0:0:0:
213,370,171218,2,0,P|180:379|150:361,1,70,10|0,0:1|0:0,0:0:0:0:
111,272,171610,1,2,0:0:0:0:
203,238,171806,2,0,B|244:199|234:225|228:103,1,140,10|0,0:1|1:0,0:0:0:0:
133,51,172394,2,0,L|138:124,1,70,2|0,1:0|0:0,0:0:0:0:
318,99,172786,2,0,L|313:29,1,70,10|0,0:1|0:0,0:0:0:0:
216,0,173178,1,2,0:0:0:0:
279,178,173374,5,8,0:0:0:0:
281,185,173473,1,8,0:0:0:0:
283,192,173571,2,0,B|344:210|382:170|382:170|366:187|359:205,1,146.999995513916,6|0,1:2|0:0,0:0:0:0:
341,267,173963,2,0,B|340:314|376:311|372:358,1,97.9999970092774,2|8,1:0|0:0,0:0:0:0:
365,364,174257,1,8,0:0:0:0:
358,371,174355,5,10,0:1:0:0:
253,279,174551,1,8,0:3:0:0:
283,192,174747,1,4,0:3:0:0:
436,276,174943,2,0,P|482:268|429:249,1,146.999995513916,4|0,1:0|0:0,0:0:0:0:
428,263,175335,1,8,0:1:0:0:
512,363,175531,1,0,1:0:0:0:
501,149,175727,5,8,0:0:0:0:
490,151,175825,1,8,0:0:0:0:
480,153,175923,1,10,0:1:0:0:
297,69,176120,5,8,0:3:0:0:
416,105,176316,1,8,0:3:0:0:
488,72,176512,1,4,0:3:0:0:
333,0,176708,6,0,P|325:73|321:146,1,146.999995513916,6|0,1:0|0:0,0:0:0:0:
271,197,177100,2,0,P|278:220|281:244,1,48.9999985046387,2|0,1:0|0:0,0:0:0:0:
376,320,177296,2,0,P|379:295|386:272,1,48.9999985046387,2|0,0:0|0:0,0:0:0:0:
512,225,177492,2,0,B|468:209|440:248|457:258|418:286|383:264,1,146.999995513916,10|0,0:1|0:0,0:0:0:0:
381,256,177884,1,2,0:0:0:0:
199,241,178080,1,10,0:1:0:0:
91,385,178276,6,0,P|99:312|104:238,1,146.999995513916,2|0,0:0|0:0,0:0:0:0:
103,228,178669,1,0,1:0:0:0:
0,44,178865,2,0,P|-3:68|2:91,1,48.9999985046387,2|0,0:0|0:0,0:0:0:0:
125,84,179061,2,0,P|46:123|9:43,1,195.999994018555,10|2,0:1|0:0,0:0:0:0:
286,142,179649,5,10,0:0:0:0:
293,149,179747,1,8,0:0:0:0:
300,156,179845,2,0,B|343:120|255:73|216:141,1,146.999995513916,0|0,1:0|0:0,0:0:0:0:
185,210,180237,2,0,P|192:258|196:307,1,97.9999970092774,2|0,1:0|0:0,0:0:0:0:
135,144,180629,1,10,0:1:0:0:
268,249,180825,1,2,0:0:0:0:
397,164,181022,2,0,P|348:157|299:155,1,97.9999970092774,2|8,0:0|0:0,0:0:0:0:
292,162,181316,1,8,0:0:0:0:
285,169,181414,5,0,1:0:0:0:
196,307,181610,1,0,0:0:0:0:
268,249,181806,1,2,1:0:0:0:
432,306,182002,1,2,0:0:0:0:
461,384,182198,2,0,P|466:290|477:197,1,146.999995513916,10|0,0:1|0:0,0:0:0:0:
476,222,182590,1,2,0:0:0:0:
276,109,182786,5,10,0:0:0:0:
267,113,182884,1,8,0:0:0:0:
258,118,182982,2,0,P|274:70|370:84,1,146.999995513916,4|0,1:2|0:0,0:0:0:0:
381,136,183374,2,0,P|370:158|361:181,1,48.9999985046387,2|0,1:0|0:0,0:0:0:0:
242,262,183571,2,0,P|253:284|262:307,1,48.9999985046387,2|0,0:0|0:0,0:0:0:0:
341,274,183767,2,0,B|292:229|262:264|249:279|227:266|227:266|236:260|245:251,1,146.999995513916,10|0,0:1|0:0,0:0:0:0:
247,243,184159,1,2,0:0:0:0:
106,58,184355,2,0,P|113:106|118:156,1,97.9999970092774,10|0,0:1|0:0,0:0:0:0:
97,250,184747,1,0,1:0:0:0:
5,116,184943,5,2,1:0:0:0:
201,79,185139,1,2,0:0:0:0:
106,58,185335,2,0,P|201:48|301:43,1,195.999994018555,10|2,0:1|0:0,0:0:0:0:
479,75,185923,5,10,0:0:0:0:
472,82,186022,1,8,0:0:0:0:
464,88,186120,2,0,B|508:42|377:-1|365:124,1,146.999995513916,4|0,1:0|0:0,0:0:0:0:
355,150,186512,2,0,P|361:174|366:205,1,48.9999985046387,2|0,1:0|0:0,0:0:0:0:
285,237,186708,2,0,P|311:198|358:204,1,97.9999970092774,2|8,0:0|0:1,0:0:0:0:
423,273,187100,1,2,0:0:0:0:
334,332,187296,2,0,P|285:328|237:319,1,97.9999970092774,2|8,0:0|0:1,0:0:0:0:
57,273,187688,5,0,0:0:0:0:
24,375,187884,1,0,1:0:0:0:
146,300,188080,1,0,1:0:0:0:
40,158,188276,1,8,0:0:0:0:
33,165,188374,1,8,0:0:0:0:
26,172,188473,1,10,0:1:0:0:
133,202,188669,1,8,0:3:0:0:
61,12,188865,6,0,L|55:47,1,31.4999990386963,4|0,0:3|0:0,0:0:0:0:
0,92,189257,6,0,B|31:67|31:67|163:90,1,146.999995513916,6|0,1:0|0:0,0:0:0:0:
199,119,189649,2,0,L|247:110,1,48.9999985046387,2|0,1:0|0:0,0:0:0:0:
375,179,189845,2,0,L|327:188,1,48.9999985046387,2|0,0:0|0:0,0:0:0:0:
361,83,190041,2,0,B|309:122|345:178|345:178|382:172,1,146.999995513916,10|0,0:1|0:0,0:0:0:0:
389,165,190433,1,2,0:0:0:0:
501,315,190629,6,0,P|495:266|490:217,1,97.9999970092774,10|0,0:1|0:0,0:0:0:0:
471,98,191022,1,0,1:0:0:0:
296,148,191218,1,2,1:0:0:0:
283,0,191414,1,0,0:0:0:0:
365,80,191610,2,0,P|267:73|170:61,1,195.999994018555,10|2,0:1|0:0,0:0:0:0:
66,170,192198,5,8,0:0:0:0:
68,179,192296,1,8,0:0:0:0:
71,189,192394,2,0,B|124:238|204:156|126:119|115:174,1,146.999995513916,2|0,1:0|0:0,0:0:0:0:
131,231,192786,2,0,P|139:254|141:278,1,48.9999985046387,2|0,1:0|0:0,0:0:0:0:
202,332,192982,2,0,P|194:355|192:379,1,48.9999985046387,2|0,0:0|0:0,0:0:0:0:
54,348,193178,2,0,B|82:305|136:302|136:302|183:333|183:384,1,195.999994018555,10|0,0:1|0:0,0:0:0:0:
392,371,193767,5,10,0:0:0:0:
385,378,193865,1,8,0:0:0:0:
379,384,193963,2,0,P|373:338|372:285,1,97.9999970092774,0|0,1:0|1:0,0:0:0:0:
464,177,194355,2,0,P|470:131|471:78,1,97.9999970092774,0|0,1:0|0:0,0:0:0:0:
316,0,194747,2,0,P|320:73|329:146,1,146.999995513916,10|0,0:1|0:0,0:0:0:0:
350,213,195139,2,0,P|318:177|270:178,1,97.9999970092774,2|10,0:0|0:0,0:0:0:0:
263,185,195433,1,8,0:0:0:0:
255,192,195531,6,0,B|218:237|155:199|179:168|138:131|86:148,1,195.999994018555,4|0,1:2|1:0,0:0:0:0:
68,351,196316,2,0,P|115:299|101:229,1,146.999995513916,10|0,0:1|0:0,0:0:0:0:
26,199,196708,2,0,P|13:179|7:156,1,48.9999985046387,2|0,0:0|0:0,0:0:0:0:
13,30,196904,6,0,B|49:74|20:62|149:70,1,146.999995513916,10|0,0:1|0:0,0:0:0:0:
159,71,197296,1,0,1:0:0:0:
280,115,197492,2,0,P|286:66|289:11,1,97.9999970092774,2|0,1:0|0:0,0:0:0:0:
183,179,197884,2,0,P|187:252|195:325,1,146.999995513916,10|0,0:1|0:0,0:0:0:0:
198,342,198276,1,2,0:0:0:0:
402,289,198473,5,10,0:0:0:0:
409,296,198571,1,8,0:0:0:0:
416,303,198669,2,0,B|476:322|504:222|375:162|321:285,1,245,4|0,1:0|0:0,0:0:0:0:
319,357,199453,2,0,B|368:321|342:253|305:277|278:215|321:169,1,210,4|0,1:0|0:0,0:0:0:0:
467,92,200237,6,0,P|404:103|407:39,1,146.999995513916,6|0,1:0|0:0,0:0:0:0:
419,31,200629,1,10,0:1:0:0:
303,84,200825,6,0,P|261:81|219:77,1,84,6|0,1:0|0:0,0:0:0:0:
200,74,201218,1,8,0:1:0:0:
100,17,201414,1,8,0:3:0:0:
176,0,201610,1,4,0:3:0:0:
226,162,201806,5,6,1:0:0:0:
256,192,201904,12,2,204943,0:3:0:0:
437,90,212786,6,0,P|420:51|395:86,1,105,2|0,0:0|0:0,0:0:0:0:
402,94,213178,6,0,P|416:146|371:176,1,115.50000352478,2|0,0:0|0:0,0:0:0:0:
363,169,213571,6,0,P|328:191|339:231,1,84,2|0,0:0|0:0,0:0:0:0:
342,234,213963,6,0,P|341:259|315:273,1,52.5,2|0,0:0|0:0,0:0:0:0:
309,271,214355,6,0,L|287:268,1,20.9999993591309,4|0,0:0|0:0,0:0:0:0:
198,246,215139,1,2,0:0:0:0:
188,243,215923,1,2,0:0:0:0:
179,241,216708,1,2,0:0:0:0:
18,180,217492,6,0,L|40:177,1,20.9999993591309,4|0,0:0|0:0,0:0:0:0:
134,163,218276,5,2,0:0:0:0:
144,160,218669,1,0,0:0:0:0:
125,85,218865,1,0,0:0:0:0:
184,19,219061,5,2,0:0:0:0:
191,12,219257,1,2,0:0:0:0:
198,5,219845,2,0,L|195:27,1,20.9999993591309,4|0,0:0|0:0,0:0:0:0:
237,125,220433,5,0,0:0:0:0:
239,132,220531,1,0,0:0:0:0:
241,139,220629,1,2,1:2:0:0:
243,146,221414,1,2,1:2:0:0:
245,153,221806,5,0,0:0:0:0:
311,199,222002,1,0,0:0:0:0:
422,148,222198,2,0,L|423:112,1,35,2|0,1:2|0:0,0:0:0:0:
429,155,222982,2,0,L|430:119,1,35,2|0,1:2|0:0,0:0:0:0:
436,127,223767,6,0,L|436:162,1,35,6|0,1:2|0:0,0:0:0:0:
427,269,224159,1,0,1:0:0:0:
305,217,224355,5,8,0:0:0:0:
321,212,224453,1,8,0:0:0:0:
338,208,224551,1,8,0:1:0:0:
204,364,224747,1,8,0:3:0:0:
218,246,224943,1,4,0:3:0:0:
346,365,225139,6,0,B|311:354|283:368|283:368|259:352|259:352|226:368|190:354,1,157.500006008148,4|0,1:0|0:0,0:0:0:0:
189,349,225531,1,8,0:1:0:0:
94,188,225727,2,0,P|108:226|101:267,1,83.9999974365235,0|8,1:0|0:0,0:0:0:0:
94,274,226022,1,8,0:0:0:0:
87,281,226120,5,8,0:1:0:0:
34,82,226316,1,8,0:1:0:0:
233,29,226512,1,8,0:1:0:0:
286,228,226708,1,8,0:1:0:0:
161,155,226904,6,0,B|202:126|202:126|298:138,1,146.999995513916,6|0,1:0|0:0,0:0:0:0:
369,150,227296,2,0,B|399:111|399:111|393:53,1,97.9999970092774,2|2,1:0|0:0,0:0:0:0:
147,8,227688,2,0,L|162:169,1,146.999995513916,8|0,0:1|0:0,0:0:0:0:
162,169,228080,1,2,0:0:0:0:
70,339,228276,1,10,0:1:0:0:
34,241,228473,6,0,P|77:224|114:253,1,97.9999970092774,2|8,1:0|0:1,0:0:0:0:
175,337,228865,2,0,P|218:353|255:324,1,97.9999970092774,2|2,1:0|0:0,0:0:0:0:
295,141,229257,2,0,B|260:182|282:233|282:233|334:249|348:305,1,195.999994018555,8|2,0:1|0:0,0:0:0:0:
477,350,229845,5,10,0:0:0:0:
470,357,229943,1,8,0:0:0:0:
463,364,230041,2,0,B|447:318|447:318|468:261,1,97.9999970092774,2|0,1:0|0:0,0:0:0:0:
383,100,230433,2,0,B|399:146|399:146|378:203,1,97.9999970092774,2|2,1:0|0:0,0:0:0:0:
148,149,230825,2,0,B|217:112|217:112|292:138,1,146.999995513916,8|0,0:1|0:0,0:0:0:0:
298,142,231218,1,2,0:0:0:0:
227,330,231414,1,10,0:1:0:0:
175,234,231610,6,0,L|281:227,1,97.9999970092774,2|8,1:0|0:1,0:0:0:0:
480,106,232002,2,0,L|374:99,1,97.9999970092774,2|2,1:0|0:0,0:0:0:0:
160,3,232394,2,0,P|244:22|216:104,1,195.999994018555,8|2,0:1|0:0,0:0:0:0:
51,111,232982,5,10,0:0:0:0:
44,118,233080,1,8,0:0:0:0:
37,125,233178,2,0,P|43:173|46:222,1,97.9999970092774,6|0,1:2|0:0,0:0:0:0:
26,362,233571,1,2,1:0:0:0:
158,309,233767,2,0,P|164:260|167:211,1,97.9999970092774,2|8,0:0|0:1,0:0:0:0:
202,90,234159,1,10,0:0:0:0:
209,97,234257,1,8,0:0:0:0:
216,104,234355,1,10,0:1:0:0:
396,55,234551,1,8,0:1:0:0:
280,5,234747,5,2,1:0:0:0:
281,191,234943,2,0,P|329:182|376:170,1,97.9999970092774,10|0,0:1|1:0,0:0:0:0:
502,122,235335,1,2,0:0:0:0:
510,284,235531,2,0,B|474:241|504:247|364:274,1,146.999995513916,10|0,0:1|0:0,0:0:0:0:
315,309,235923,2,0,L|254:296,1,48.9999985046387,2|0,0:0|0:0,0:0:0:0:
134,222,236120,5,10,0:0:0:0:
157,216,236218,1,8,0:0:0:0:
181,211,236316,1,4,1:2:0:0:
143,332,236512,1,2,0:0:0:0:
23,252,236708,1,2,1:0:0:0:
108,140,236904,1,2,0:0:0:0:
19,52,237100,2,0,P|13:100|10:149,1,97.9999970092774,10|0,0:1|0:0,0:0:0:0:
146,23,237492,1,2,0:0:0:0:
217,112,237688,6,0,B|255:139|297:116|282:98|320:78|352:99|352:99|324:101|309:119,1,195.999994018555,10|8,0:1|0:1,0:0:0:0:
416,236,238276,2,0,P|412:201|387:179,1,70,0|8,1:0|0:0,0:0:0:0:
376,179,238571,1,8,0:0:0:0:
365,178,238669,1,8,0:1:0:0:
281,331,238865,5,8,0:3:0:0:
231,112,239061,1,8,0:3:0:0:
353,37,239257,1,4,0:3:0:0:
416,236,239453,6,0,B|388:280|315:268|337:240|266:220|222:266|222:266|194:227|200:156|231:112|231:112|193:152|73:218|22:82|123:51,1,649.60001982422,4|0,1:0|0:0,0:0:0:0:
256,192,242786,12,0,250205,0:0:0:0:
446,116,260449,6,0,P|461:80|445:115,1,105,2|0,0:0|0:0,0:0:0:0:
390,153,260841,1,10,0:1:0:0:
225,37,261038,1,6,1:2:0:0:
218,44,261430,1,10,0:1:0:0:
361,18,261626,6,0,L|355:36,1,10.4999996795654,2|0,0:0|0:0,0:0:0:0:
286,124,261822,5,10,0:0:0:0:
284,131,261920,1,8,0:0:0:0:
282,138,262018,2,0,B|239:133|239:133|228:136|228:136|217:130|217:130|179:126,1,105,2|0,1:0|0:0,0:0:0:0:
167,124,262410,1,0,1:0:0:0:
485,277,262802,6,0,L|485:291,1,14,2|0,0:3|0:0,0:0:0:0:
485,291,263587,6,0,B|508:246|432:195|372:263,1,168,6|0,1:0|0:0,0:0:0:0:
316,303,263979,2,0,P|290:291|269:273,1,48.9999985046387,2|0,1:0|0:0,0:0:0:0:
186,231,264175,2,0,P|176:204|173:176,1,48.9999985046387,2|0,0:0|0:0,0:0:0:0:
237,119,264371,2,0,B|256:154|244:192|244:192|207:205|192:240,1,146.999995513916,10|0,0:1|0:0,0:0:0:0:
198,246,264763,1,2,0:0:0:0:
0,266,264959,1,10,0:1:0:0:
83,384,265155,6,0,P|94:311|98:238,1,146.999995513916,0|0,1:0|0:0,0:0:0:0:
90,228,265547,1,0,1:0:0:0:
156,121,265743,2,0,P|161:96|163:72,1,48.9999985046387,2|0,0:0|0:0,0:0:0:0:
46,0,265939,2,0,P|72:85|158:63,1,195.999994018555,10|2,0:1|0:0,0:0:0:0:
376,118,266528,5,10,0:0:0:0:
383,125,266626,1,8,0:0:0:0:
390,132,266724,2,0,B|357:104|327:94|327:94|296:100|257:118,1,146.999995513916,0|0,1:0|0:0,0:0:0:0:
208,182,267116,2,0,B|186:200|166:207|166:207|145:203|120:190,1,97.9999970092774,2|0,1:0|0:0,0:0:0:0:
43,51,267508,1,10,0:1:0:0:
183,96,267704,1,2,0:0:0:0:
113,197,267900,2,0,P|116:245|122:294,1,97.9999970092774,2|8,0:0|0:1,0:0:0:0:
194,379,268292,1,0,0:0:0:0:
248,299,268488,1,0,1:0:0:0:
431,365,268685,5,2,1:0:0:0:
315,378,268881,1,2,0:0:0:0:
355,286,269077,2,0,P|346:188|343:90,1,195.999994018555,10|2,0:1|0:0,0:0:0:0:
487,115,269665,5,10,0:0:0:0:
480,122,269763,1,8,0:0:0:0:
473,129,269861,2,0,B|440:151|394:130|420:102|375:78|334:94,1,146.999995513916,4|0,1:2|0:0,0:0:0:0:
273,111,270253,2,0,P|249:118|232:135,1,48.9999985046387,2|0,1:0|0:0,0:0:0:0:
235,29,270449,2,0,P|259:29|282:37,1,48.9999985046387,2|0,0:0|0:0,0:0:0:0:
348,172,270645,2,0,P|296:119|233:147,1,146.999995513916,10|0,0:1|0:0,0:0:0:0:
241,152,271038,1,2,0:0:0:0:
144,272,271234,6,0,P|147:223|148:174,1,97.9999970092774,10|0,0:1|0:0,0:0:0:0:
172,71,271626,1,0,1:0:0:0:
63,190,271822,1,2,1:0:0:0:
0,89,272018,1,2,0:0:0:0:
82,0,272214,2,0,P|75:97|72:196,1,195.999994018555,10|2,0:1|0:0,0:0:0:0:
354,311,272802,5,10,0:0:0:0:
347,318,272900,1,8,0:0:0:0:
340,325,272998,2,0,B|314:301|321:269|321:269|356:239|346:192,1,146.999995513916,4|0,1:0|0:0,0:0:0:0:
349,175,273390,1,10,0:1:0:0:
142,127,273587,2,0,B|176:116|200:138|200:138|208:184|254:199,1,146.999995513916,6|0,1:2|0:0,0:0:0:0:
266,204,273979,1,10,0:1:0:0:
413,53,274175,2,0,B|406:87|374:97|374:97|331:82|296:114,1,146.999995513916,6|0,1:0|0:0,0:0:0:0:
277,124,274567,6,0,P|261:106|253:81,1,51.3333348999024,4|4,0:3|0:3,0:3:0:0:
252,4,274828,6,0,P|276:10|301:4,2,51.3333348999024,8|4|4,0:3|0:3|0:3,0:0:0:0:
175,0,275221,5,8,0:1:0:0:
153,13,275351,2,0,P|128:11|103:6,1,51.3333348999024,8|8,0:1|0:0,0:0:0:0:
30,77,275613,5,8,0:1:0:0:
43,89,275743,2,0,P|67:81|93:79,1,51.3333348999024,8|4,0:3|0:3,0:0:0:0:
149,137,276005,5,4,0:3:0:0:
143,142,276136,2,0,B|190:117|249:154|202:185|265:218|314:193,1,183.750001752377,6|0,1:0|0:0,0:0:0:0:
375,178,276528,2,0,P|397:169|417:146,1,48.9999985046387,2|0,1:0|0:0,0:0:0:0:
383,83,276724,2,0,P|405:74|429:78,1,48.9999985046387,2|0,0:0|0:0,0:0:0:0:
442,247,276920,2,0,B|410:269|358:217|424:149,1,146.999995513916,10|0,0:1|0:0,0:0:0:0:
434,150,277312,1,2,0:0:0:0:
336,0,277508,1,10,0:1:0:0:
289,123,277704,6,0,P|243:121|189:115,1,97.9999970092774,2|0,0:0|1:0,0:0:0:0:
0,130,278096,1,2,1:0:0:0:
165,32,278292,1,2,0:0:0:0:
78,0,278488,2,0,P|84:77|86:199,1,195.999994018555,10|0,0:1|0:0,0:0:0:0:
62,315,279077,5,10,0:0:0:0:
69,322,279175,1,8,0:0:0:0:
76,329,279273,2,0,B|51:260|51:260|92:184,1,146.999995513916,2|0,1:0|0:0,0:0:0:0:
150,143,279665,2,0,L|197:153,1,48.9999985046387,2|0,1:0|0:0,0:0:0:0:
278,214,279861,2,0,L|325:204,1,48.9999985046387,2|0,0:0|0:0,0:0:0:0:
371,117,280057,2,0,B|381:75|308:63|252:122|336:199,1,195.999994018555,10|2,0:1|0:0,0:0:0:0:
469,370,280645,5,10,0:0:0:0:
471,377,280743,1,8,0:0:0:0:
473,384,280841,2,0,P|481:335|483:286,1,97.9999970092774,0|0,1:0|1:0,0:0:0:0:
332,195,281234,2,0,P|325:146|322:98,1,97.9999970092774,0|0,1:0|0:0,0:0:0:0:
51,150,281626,2,0,B|95:197|63:184|187:169,1,146.999995513916,10|0,0:1|0:0,0:0:0:0:
198,166,282018,1,2,0:0:0:0:
357,65,282214,5,10,0:0:0:0:
339,81,282312,1,8,0:0:0:0:
322,98,282410,2,0,L|197:81,1,125.999996154785,4|0,1:2|0:0,0:0:0:0:
122,93,282802,2,0,P|108:53|110:11,1,83.9999974365235,0|0,1:0|0:0,0:0:0:0:
387,218,283194,2,0,P|345:174|286:187,1,125.999996154785,10|0,0:1|0:0,0:0:0:0:
278,201,283587,1,2,0:0:0:0:
239,296,283783,6,0,P|280:288|321:279,1,83.9999974365235,10|0,0:1|0:0,0:0:0:0:
486,313,284175,1,0,1:0:0:0:
414,384,284371,2,0,P|372:375|331:367,1,83.9999974365235,2|0,1:0|0:0,0:0:0:0:
129,359,284763,2,0,B|138:382|138:382|176:338|138:287,1,125.999996154785,10|0,0:1|0:0,0:0:0:0:
128,276,285155,1,2,0:0:0:0:
14,171,285351,5,10,0:0:0:0:
7,178,285449,1,8,0:0:0:0:
0,185,285547,2,0,B|21:224|63:224|63:224|98:185|148:197,1,167.999994873047,4|0,1:2|1:0,0:0:0:0:
185,329,286332,2,0,P|150:351|108:351,1,83.9999974365235,8|8,0:1|0:3,0:0:0:0:
20,311,286724,1,4,0:3:0:0:
275,222,286920,6,0,B|273:173|273:173|253:147|253:147|253:102,1,125.999996154785,4|0,1:0|0:0,0:0:0:0:
254,87,287312,1,8,0:1:0:0:
424,108,287508,2,0,B|388:128|388:128|342:110,1,83.9999974365235,0|8,1:0|0:0,0:0:0:0:
346,105,287802,1,8,0:0:0:0:
344,98,287900,5,10,0:1:0:0:
441,222,288096,1,8,0:3:0:0:
355,304,288292,1,8,0:3:0:0:
412,378,288488,1,4,0:3:0:0:
498,334,288685,6,0,P|434:298|361:296,1,146.999995513916,4|0,1:2|0:0,0:0:0:0:
355,304,289077,2,0,B|321:346|256:290|327:220,1,146.999995513916,4|0,1:2|0:0,0:0:0:0:
326,220,289469,6,0,P|300:228|273:229,1,52.5,4|0,1:2|0:0,0:0:0:0:
191,189,290253,1,2,0:0:0:0:
256,192,290449,12,0,291430,1:0:0:0:
136,190,291822,6,0,P|134:176|133:165,1,21,4|0,1:2|0:0,0:0:0:0:
126,162,292214,6,0,P|120:141|122:121,1,42,4|0,1:2|0:0,0:0:0:0:
127,103,292606,6,0,P|166:111|219:86,1,84,4|0,1:2|0:0,0:0:0:0:
250,30,292998,6,0,P|249:119|318:61,1,224,4|0,1:2|0:0,0:0:0:0:
32,156,294763,5,8,0:0:0:0:
33,173,294861,1,8,0:0:0:0:
35,190,294959,1,8,0:1:0:0:
175,277,295155,1,0,1:0:0:0:
175,277,295547,5,8,0:0:0:0:
174,294,295645,1,8,0:0:0:0:
172,311,295743,1,8,0:1:0:0:
61,383,295939,1,8,0:3:0:0:
59,258,296136,6,0,L|68:280,1,14,4|0,0:3|0:0,0:0:0:0:
66,251,296332,2,0,L|75:273,1,14
172,311,296528,6,0,P|256:303|354:291,1,167.999994873047,4|0,1:0|1:0,0:0:0:0:
503,384,297312,2,0,P|492:300|485:216,1,167.999994873047,8|0,0:1|0:0,0:0:0:0:
492,92,297900,2,0,P|456:71|417:84,1,83.9999974365235,8|0,0:1|0:0,0:0:0:0:
376,185,298292,1,0,1:0:0:0:
230,105,298488,2,0,P|265:125|304:112,1,83.9999974365235,0|0,1:0|0:0,0:0:0:0:
335,11,298881,2,0,B|293:9|260:3|260:3|240:11|240:11|206:1|155:10,1,167.999994873047,8|2,0:1|0:0,0:0:0:0:
52,32,299469,5,8,0:0:0:0:
45,39,299567,1,8,0:0:0:0:
37,45,299665,2,0,B|27:87|27:87|44:124,1,83.9999974365235,2|0,1:0|0:0,0:0:0:0:
170,148,300057,2,0,B|187:185|187:185|176:226,1,83.9999974365235,2|0,1:0|0:0,0:0:0:0:
9,317,300449,2,0,B|66:290|66:290|116:327,1,125.999996154785,10|0,0:1|0:0,0:0:0:0:
125,336,300841,1,2,0:0:0:0:
310,300,301038,1,10,0:1:0:0:
226,384,301234,6,0,P|221:342|218:300,1,83.9999974365235,2|0,0:0|1:0,0:0:0:0:
368,219,301626,2,0,P|372:177|375:135,1,83.9999974365235,2|0,1:0|0:0,0:0:0:0:
152,136,302018,2,0,P|188:183|246:168,1,125.999996154785,10|0,0:1|0:0,0:0:0:0:
254,158,302410,1,2,0:0:0:0:
292,40,302606,5,10,0:0:0:0:
297,45,302704,1,10,0:0:0:0:
302,50,302802,2,0,P|384:36|466:18,2,167.999994873047,6|0|8,1:2|1:0|0:1,0:0:0:0:
79,2,303979,1,0,0:0:0:0:
145,73,304175,2,0,P|149:114|151:156,1,83.9999974365235,8|0,0:1|0:0,0:0:0:0:
64,230,304567,1,0,1:0:0:0:
173,278,304763,2,0,P|214:280|247:256,1,83.9999974365235,0|0,1:0|0:0,0:0:0:0:
264,137,305155,2,0,P|257:199|253:262,1,125.999996154785,8|0,0:1|0:0,0:0:0:0:
260,269,305547,1,2,0:0:0:0:
439,368,305743,5,10,0:0:0:0:
446,375,305841,1,10,0:0:0:0:
453,382,305939,2,0,P|460:342|467:295,2,83.9999974365235,6|8|0,1:0|0:0|0:0,0:0:0:0:
320,384,306528,1,0,1:0:0:0:
260,269,306724,2,0,P|293:244|334:247,1,83.9999974365235,8|0,0:1|0:0,0:0:0:0:
480,159,307116,2,0,P|438:161|405:137,1,83.9999974365235,8|0,0:1|0:0,0:0:0:0:
224,21,307508,5,0,1:0:0:0:
260,64,307639,1,8,0:1:0:0:
250,116,307770,1,8,0:1:0:0:
188,168,307900,5,8,0:1:0:0:
198,236,308031,1,8,0:1:0:0:
260,269,308162,1,8,0:1:0:0:
295,204,308292,5,8,0:3:0:0:
245,196,308423,1,8,0:3:0:0:
206,222,308554,1,8,0:3:0:0:
159,286,308685,5,4,0:3:0:0:
142,271,308816,1,4,0:3:0:0:
134,255,308947,1,4,0:3:0:0:
127,190,309077,6,0,B|151:258|72:250|96:322,1,131.25,6|0,1:0|0:0,0:0:0:0:
134,365,309469,2,0,P|169:340|211:350,1,87.5,0|0,1:0|0:0,0:0:0:0:
379,381,309861,2,0,B|321:325|337:361|364:210,1,175,8|0,0:1|0:0,0:0:0:0:
404,85,310449,6,0,P|369:60|327:70,1,87.5,8|0,0:1|0:0,0:0:0:0:
225,144,310841,1,0,1:0:0:0:
152,88,311038,2,0,P|156:45|157:0,1,87.5,0|0,1:0|0:0,0:0:0:0:
31,146,311430,2,0,P|71:74|152:88,1,175,8|2,0:1|0:0,0:0:0:0:
189,211,312018,5,10,0:0:0:0:
191,218,312116,1,10,0:0:0:0:
193,225,312214,2,0,B|235:233|235:233|288:211,1,87.5,6|0,1:2|0:0,0:0:0:0:
390,294,312606,2,0,B|348:286|348:286|295:308,1,87.5,0|0,1:0|0:0,0:0:0:0:
457,384,312998,2,0,B|496:306|496:306|468:199,1,175,8|0,0:1|0:0,0:0:0:0:
383,86,313587,6,0,L|358:177,1,87.5,8|2,0:1|0:0,0:0:0:0:
306,303,313979,1,0,1:0:0:0:
276,215,314175,2,0,P|232:212|188:211,1,87.5,2|0,1:0|0:0,0:0:0:0:
57,57,314567,2,0,P|144:55|231:48,1,175,10|2,0:1|0:0,0:0:0:0:
331,0,315155,1,2,0:0:0:0:
465,45,315351,6,0,L|458:98,1,52.5,14|0,0:1|0:0,0:0:0:0:
451,104,315743,2,0,L|458:157,1,52.5,0|0,1:0|0:0,0:0:0:0:
464,163,316136,2,0,L|411:156,1,52.5,0|0,1:0|0:0,0:0:0:0:
404,149,316528,2,0,L|351:156,1,52.5,0|0,1:0|0:0,0:0:0:0:
324,136,316920,6,0,P|347:185|325:241,1,105,0|0,1:0|0:0,0:0:0:0:
316,254,317312,2,0,P|277:233|214:241,1,105,0|0,1:0|0:0,0:0:0:0:
212,266,317704,2,0,P|173:282|111:255,1,105,0|0,1:0|0:0,0:0:0:0:
108,234,318096,2,0,P|124:272|68:329,1,105,0|0,1:0|0:0,0:0:0:0:
24,342,318488,6,0,B|-3:265|-3:265|28:183,1,157.500006008148,8|0,1:1|0:0,0:0:0:0:
53,128,318881,2,0,B|128:156|128:156|209:118,1,157.500006008148,8|0,1:1|0:0,0:0:0:0:
248,175,319273,2,0,B|318:142|318:142|393:170,1,157.500006008148,8|0,1:1|0:0,0:0:0:0:
447,230,319665,2,0,B|419:155|419:155|451:84,1,157.500006008148,8|0,1:1|0:0,0:0:0:0:
510,29,320057,6,0,B|471:-13|404:13|404:13|377:62|312:63,1,210,10|0,1:1|0:0,0:0:0:0:
260,19,320449,6,0,B|330:62|308:153|308:153|298:124|271:108,1,210,10|0,1:0|0:0,0:0:0:0:
204,80,320841,6,0,B|145:93|138:153|138:153|108:100|53:102,1,210,10|0,1:0|0:0,0:0:0:0:
0,207,321234,6,0,P|50:127|118:207,1,210,10|0,1:0|0:0,0:0:0:0:
104,275,321626,6,0,L|76:270,1,28,2|0,0:3|0:0,0:0:0:0:
445,72,324683,6,0,L|441:97,3,17.5
440,106,324915,2,0,P|410:108|382:97,1,52.5,2|0,0:0|0:0,0:0:0:0:
379,90,325255,2,0,P|324:105|338:172,1,122.5,2|0,0:0|0:0,0:0:0:0:
333,169,325674,2,0,L|325:208,1,35
247,33,326079,1,2,0:0:0:0:
185,162,326400,6,0,L|179:181,1,17.5
69,89,326883,2,0,P|34:86|0:82,2,70,2|2|2,0:0|0:0|0:0,0:0:0:0:
185,162,327918,5,0,0:0:0:0:
177,166,328025,2,0,P|175:194|170:223,1,52.5,2|0,0:0|0:0,0:0:0:0:
164,225,328425,2,0,P|168:257|170:273,1,35,2|0,0:0|0:0,0:0:0:0:
161,266,328793,2,0,L|193:263,1,17.5,2|0,0:0|0:0,0:0:0:0:
259,349,329204,1,2,0:0:0:0:
396,325,329409,6,0,L|400:307,2,17.5
370,230,330008,2,0,P|351:211|345:186,1,52.5,2|0,0:0|0:0,0:0:0:0:
352,176,330387,2,0,P|369:157|375:132,1,52.5,2|0,0:0|0:0,0:0:0:0:
369,123,330767,1,2,0:0:0:0:
454,17,331093,5,0,0:0:0:0:
443,31,331201,2,0,P|442:54|465:79,1,52.5,2|0,0:0|0:0,0:0:0:0:
469,82,331585,2,0,B|484:113|462:122|479:157,1,70,2|0,0:0|0:0,0:0:0:0:
506,297,332344,2,0,P|479:244|427:266,1,125.999996154785,2|0,0:0|0:0,0:0:0:0:
427,266,333084,1,2,0:0:0:0:
289,332,333825,1,0,0:0:0:0:
59,329,334165,5,0,0:0:0:0:
73,318,334279,2,0,P|77:300|55:268,1,52.5,2|0,0:0|0:0,0:0:0:0:
54,261,334649,2,0,B|36:203|86:204|68:156,1,105,2|0,0:0|0:0,0:0:0:0:
17,97,335449,1,2,0:0:0:0:
197,2,335865,5,2,0:0:0:0:
159,87,336306,1,2,0:0:0:0:
263,153,336706,5,2,0:0:0:0:
250,80,337160,1,2,0:0:0:0:
116,244,337705,6,0,L|123:266,3,17.5,2|2|2|2,0:0|0:0|0:0|0:0,0:0:0:0:
128,276,338057,2,0,B|179:294|246:268|205:224|269:185|336:230|336:230|275:237|253:321|253:321|342:344|378:291|378:291|390:320|371:366|371:366|404:329|439:331|439:331|497:329|536:243|472:155|472:155|356:187|359:100|233:135,1,1120,2|0,0:3|0:0,0:0:0:0:
