osu file format v14

[General]
AudioFilename: MY FIRST STORY-ALONE.mp3
AudioLeadIn: 0
PreviewTime: 58954
Countdown: 0
SampleSet: Soft
StackLeniency: 0.4
Mode: 0
LetterboxInBreaks: 0
WidescreenStoryboard: 1

[Editor]
Bookmarks: 89254,137254,178054
DistanceSpacing: 0.2
BeatDivisor: 4
GridSize: 4
TimelineZoom: 1.799999

[Metadata]
Title:ALONE
TitleUnicode:ALONE
Artist:MY FIRST STORY
ArtistUnicode:MY FIRST STORY
Creator:Nevo
Version:A r M i N's Extreme ft. xChorse
Source:
Tags:armin a_r_m_i_n xchorse mordred smokelind ataraxia soop so0p kowari agatsu dorsalplum collab mfs japanese rock
BeatmapID:2273951
BeatmapSetID:1073483

[Difficulty]
HPDrainRate:6
CircleSize:3.8
OverallDifficulty:9
ApproachRate:9.3
SliderMultiplier:1.8
SliderTickRate:1

[Events]
//Background and Video events
0,0,"bg.jpg",0,0
//Break Periods
2,96516,98312
//Storyboard Layer 0 (Background)
//Storyboard Layer 1 (Fail)
//Storyboard Layer 2 (Pass)
//Storyboard Layer 3 (Foreground)
//Storyboard Layer 4 (Overlay)
//Storyboard Sound Samples

[TimingPoints]
466,300,4,2,69,60,1,0
11866,-100,4,2,69,80,0,0
12316,-100,4,2,69,60,0,0
14941,-100,4,2,69,5,0,0
15016,-100,4,2,69,60,0,0
19741,-100,4,2,69,5,0,0
19816,-100,4,2,69,60,0,0
20641,-100,4,2,69,5,0,0
20716,-100,4,2,69,60,0,0
22066,-125,4,2,69,75,0,0
22591,-125,4,2,69,5,0,0
22666,-125,4,2,69,75,0,0
22891,-125,4,2,69,5,0,0
22966,-125,4,2,69,75,0,0
26341,-125,4,2,69,15,0,0
26416,-125,4,2,69,75,0,0
26491,-125,4,2,69,15,0,0
26566,-125,4,2,69,75,0,0
26641,-125,4,2,69,15,0,0
26716,-125,4,2,69,75,0,0
27391,-125,4,2,69,5,0,0
27466,-125,4,2,69,75,0,0
27691,-125,4,2,69,5,0,0
27766,-125,4,2,69,75,0,0
30616,-125,4,2,69,60,0,0
32191,-125,4,2,69,5,0,0
32266,-125,4,2,69,60,0,0
32491,-125,4,2,69,5,0,0
32566,-125,4,2,69,60,0,0
36991,-125,4,2,69,5,0,0
37066,-125,4,2,69,60,0,0
37291,-125,4,2,69,5,0,0
37366,-125,4,2,69,60,0,0
38566,-100,4,2,69,70,0,0
38941,-100,4,2,69,5,0,0
39016,-100,4,2,69,70,0,0
39541,-100,4,2,69,5,0,0
39616,-100,4,2,69,70,0,0
40141,-100,4,2,69,5,0,0
40216,-100,4,2,69,70,0,0
41116,-100,4,2,69,75,0,0
45241,-100,4,2,69,5,0,0
45316,-100,4,2,69,75,0,0
50866,-125,4,2,69,65,0,0
52441,-125,4,2,69,5,0,0
52516,-125,4,2,69,65,0,0
59266,-250,4,2,69,60,0,0
59284,-250,4,2,69,30,0,0
59566,-250,4,2,69,50,0,0
59716,-250,4,2,69,60,0,0
59866,-250,4,2,69,70,0,0
59941,-250,4,2,69,80,0,0
60016,-250,4,2,69,90,0,0
60091,-250,4,2,69,100,0,0
60166,-250,4,2,69,25,0,0
60316,-83.3333333333333,4,2,69,85,0,1
60541,-83.3333333333333,4,2,69,5,0,1
60616,-83.3333333333333,4,2,69,85,0,1
62941,-83.3333333333333,4,2,69,5,0,1
63016,-83.3333333333333,4,2,69,85,0,1
65341,-83.3333333333333,4,2,69,5,0,1
65416,-83.3333333333333,4,2,69,85,0,1
65791,-83.3333333333333,4,2,69,5,0,1
65866,-83.3333333333333,4,2,69,85,0,1
66991,-83.3333333333333,4,2,69,5,0,1
67066,-83.3333333333333,4,2,69,85,0,1
68791,-83.3333333333333,4,2,69,5,0,1
68866,-100,4,2,69,85,0,0
69916,-83.3333333333333,4,2,69,85,0,1
72541,-83.3333333333333,4,2,69,5,0,1
72616,-83.3333333333333,4,2,69,85,0,1
77341,-83.3333333333333,4,2,69,5,0,1
77416,-83.3333333333333,4,2,69,85,0,1
78091,-83.3333333333333,4,2,69,5,0,1
78166,-83.3333333333333,4,2,69,85,0,1
79516,-100,4,2,69,70,0,0
80191,-100,4,2,69,5,0,0
80266,-100,4,2,69,70,0,0
81916,-83.3333333333333,4,2,69,80,0,1
82141,-83.3333333333333,4,2,69,5,0,1
82216,-83.3333333333333,4,2,69,80,0,1
84316,-100,4,2,69,70,0,0
89266,-100,4,2,69,60,0,0
98791,-100,4,2,69,5,0,0
98866,-100,4,2,69,60,0,0
105916,-66.6666666666667,4,2,69,75,0,0
106141,-66.6666666666667,4,2,69,5,0,0
106216,-66.6666666666667,4,2,69,75,0,0
106741,-66.6666666666667,4,2,69,5,0,0
106816,-66.6666666666667,4,2,69,75,0,0
107341,-66.6666666666667,4,2,69,5,0,0
107416,-66.6666666666667,4,2,69,75,0,0
108166,-100,4,2,69,75,0,0
108466,-100,4,2,69,70,0,0
115666,-100,4,2,69,60,0,0
117916,-83.3333333333333,4,2,69,85,0,1
118141,-83.3333333333333,4,2,69,5,0,1
118216,-83.3333333333333,4,2,69,85,0,1
120541,-83.3333333333333,4,2,69,5,0,1
120616,-83.3333333333333,4,2,69,85,0,1
122941,-83.3333333333333,4,2,69,5,0,1
123016,-83.3333333333333,4,2,69,85,0,1
123391,-83.3333333333333,4,2,69,5,0,1
123466,-83.3333333333333,4,2,69,85,0,1
124591,-83.3333333333333,4,2,69,5,0,1
124666,-83.3333333333333,4,2,69,85,0,1
126466,-100,4,2,69,85,0,0
127516,-83.3333333333333,4,2,69,85,0,1
130141,-83.3333333333333,4,2,69,5,0,1
130216,-83.3333333333333,4,2,69,85,0,1
134941,-83.3333333333333,4,2,69,5,0,1
135016,-83.3333333333333,4,2,69,85,0,1
137266,-125,4,2,69,60,0,0
156466,-100,4,2,69,90,0,0
158941,-100,4,2,69,5,0,0
159016,-100,4,2,69,90,0,0
160141,-100,4,2,69,5,0,0
160216,-100,4,2,69,90,0,0
163741,-100,4,2,69,5,0,0
163816,-100,4,2,69,90,0,0
166291,-100,4,2,69,5,0,0
166366,-100,4,2,69,90,0,0
171166,-100,4,2,69,10,0,0
175366,-100,4,2,69,15,0,0
175666,-100,4,2,69,20,0,0
175966,-100,4,2,69,5,0,0
178066,-100,4,2,0,20,0,0
178516,-100,4,2,0,10,0,0
178966,-100,4,2,0,5,0,0

[Colours]
Combo1 : 160,160,160
Combo2 : 238,200,226
Combo3 : 174,202,197
Combo4 : 197,177,226
Combo5 : 157,174,210
Combo6 : 255,70,107

[HitObjects]
69,42,11866,5,0,1:0:0:0:
9,230,12016,1,0,1:0:0:0:
197,290,12166,1,0,1:0:0:0:
257,102,12316,6,0,P|324:46|412:52,1,180,4|0,0:0|3:0,0:0:0:0:
178,179,12766,2,0,P|156:133|145:86,1,90,8|0,0:0|3:0,0:0:0:0:
335,182,13066,1,8,0:0:0:0:
335,182,13366,2,0,P|313:227|302:274,1,90,0|0,3:0|3:0,0:0:0:0:
383,366,13666,5,8,0:0:0:0:
210,245,13816,1,0,3:0:0:0:
58,293,13966,1,8,0:0:0:0:
34,255,14041,1,0,3:0:0:0:
38,211,14116,1,0,3:0:0:0:
66,176,14191,1,0,3:0:0:0:
109,165,14266,1,8,0:0:0:0:
236,354,14416,1,0,3:0:0:0:
236,354,14716,6,0,B|327:384|311:293|403:324,1,180,4|0,0:0|3:0,0:0:0:0:
512,332,15166,2,0,P|500:288|481:248,1,90,8|0,0:0|3:0,0:0:0:0:
316,83,15466,2,0,P|296:123|285:166,1,90,8|0,0:0|3:0,0:0:0:0:
391,159,15766,1,0,3:0:0:0:
218,17,15916,1,8,0:0:0:0:
103,182,16066,6,0,P|146:193|186:212,1,90,8|0,0:0|3:0,0:0:0:0:
101,47,16366,2,0,P|60:66|17:77,1,90,8|0,0:0|3:0,0:0:0:0:
213,236,16666,1,8,0:0:0:0:
220,191,16741,1,0,3:0:0:0:
228,147,16816,1,0,3:0:0:0:
236,103,16891,1,0,3:0:0:0:
244,58,16966,1,0,3:0:0:0:
69,170,17116,6,0,B|85:222|85:222|53:286|53:286|69:338,1,180,4|0,0:0|3:0,0:0:0:0:
308,230,17566,5,8,0:0:0:0:
500,363,17866,1,8,0:0:0:0:
394,78,18166,5,8,0:0:0:0:
156,251,18466,1,8,0:0:0:0:
60,74,18766,5,8,0:0:0:0:
308,230,18916,1,0,3:0:0:0:
321,186,18991,1,0,3:0:0:0:
295,148,19066,1,8,0:0:0:0:
181,347,19216,2,0,P|221:328|265:317,1,90,0|4,3:0|0:0,0:0:0:0:
75,217,19516,6,0,P|16:250|19:358,1,180,4|0,0:0|0:0,0:0:0:0:
204,239,19966,1,8,0:0:0:0:
197,194,20041,1,0,3:0:0:0:
189,150,20116,1,0,3:0:0:0:
181,106,20191,1,0,3:0:0:0:
173,61,20266,1,8,0:0:0:0:
350,195,20416,2,0,P|330:235|319:278,1,90,4|0,0:0|0:0,0:0:0:0:
261,18,20716,6,0,P|305:85|403:84,1,180,4|0,0:0|3:0,0:0:0:0:
476,11,21166,2,0,P|495:51|506:94,1,90,8|0,0:0|0:0,0:0:0:0:
388,220,21466,1,8,3:0:0:0:
478,314,21616,1,4,3:0:0:0:
247,246,21766,1,8,0:0:0:0:
247,246,22066,6,0,P|261:280|269:317,1,72,4|0,0:1|0:0,0:0:0:0:
126,171,22366,2,0,P|179:171|219:136,1,108,8|0,0:0|0:0,0:0:0:0:
265,65,22666,2,0,P|317:63|358:98,1,108,8|0,0:0|0:0,0:0:0:0:
389,179,22966,2,0,P|422:190|458:198,1,72,8|0,0:0|0:0,0:0:0:0:
313,350,23266,5,8,0:0:0:0:
323,249,23416,2,0,P|287:256|253:268,1,72,0|8,0:0|0:0,0:0:0:0:
99,209,23716,2,0,P|106:173|118:139,1,72,0|8,0:0|0:0,0:0:0:0:
201,187,24016,1,0,0:0:0:0:
74,53,24166,1,8,0:0:0:0:
257,108,24316,6,0,L|327:95,1,72,0|8,0:0|0:0,0:0:0:0:
486,68,24616,2,0,L|473:138,1,72,0|8,0:0|0:0,0:0:0:0:
327,95,24916,2,0,L|339:24,1,72,0|8,0:0|0:0,0:0:0:0:
392,190,25216,1,0,0:0:0:0:
282,259,25366,1,8,0:0:0:0:
201,199,25516,6,0,P|189:232|181:268,1,72,0|8,0:0|0:0,0:0:0:0:
394,355,25816,2,0,P|386:319|375:286,1,72,0|8,0:0|0:0,0:0:0:0:
294,346,26116,1,0,0:0:0:0:
399,155,26266,1,8,0:0:0:0:
497,307,26416,1,0,3:0:0:0:
292,194,26566,1,0,3:0:0:0:
449,50,26716,6,0,P|508:85|510:154,1,144,0|0,3:0|3:0,0:0:0:0:
394,355,27166,2,0,P|353:320|300:321,1,108,8|0,0:0|0:0,0:0:0:0:
224,282,27466,2,0,P|183:317|130:316,1,108,8|0,0:0|0:0,0:0:0:0:
60,259,27766,2,0,P|48:292|40:328,1,72,8|0,0:0|0:0,0:0:0:0:
179,197,28066,5,8,0:0:0:0:
95,149,28216,2,0,P|59:156|25:168,1,72,0|8,0:0|0:0,0:0:0:0:
179,197,28516,2,0,P|190:163|198:127,1,72,0|8,0:0|0:0,0:0:0:0:
276,72,28816,1,0,0:0:0:0:
95,149,28966,1,8,0:0:0:0:
171,311,29116,6,0,L|241:298,1,72,0|8,0:0|0:0,0:0:0:0:
416,212,29416,2,0,P|402:246|392:283,1,72,0|8,0:0|0:0,0:0:0:0:
251,139,29716,2,0,P|264:172|274:206,1,72,0|8,0:0|0:0,0:0:0:0:
398,52,30016,2,0,L|328:39,1,72,0|8,0:0|0:0,0:0:0:0:
446,233,30316,1,0,3:0:0:0:
479,201,30391,1,0,3:0:0:0:
477,156,30466,5,8,0:0:0:0:
250,212,30616,1,0,3:0:0:0:
352,352,30766,1,0,3:0:0:0:
324,66,30916,5,8,0:0:0:0:
181,58,31066,1,0,3:0:0:0:
90,167,31216,1,0,3:0:0:0:
163,311,31366,5,8,0:0:0:0:
146,304,31441,1,0,3:0:0:0:
129,298,31516,1,0,3:0:0:0:
111,294,31591,1,0,3:0:0:0:
94,292,31666,6,0,P|107:325|117:359,1,72,4|0,0:1|0:0,0:0:0:0:
250,212,31966,2,0,P|291:177|344:178,1,108,0|0,3:0|0:0,0:0:0:0:
427,156,32266,2,0,P|461:116|461:63,1,108,0|0,3:0|0:0,0:0:0:0:
394,8,32566,2,0,P|358:14|323:23,1,72,0|0,3:0|0:0,0:0:0:0:
159,137,32866,5,0,3:0:0:0:
262,123,33016,2,0,P|252:157|246:193,1,72,0|0,0:0|3:0,0:0:0:0:
83,77,33316,2,0,P|118:17|187:17,1,144
2,130,33766,1,0,3:0:0:0:
161,253,33916,6,0,P|172:287|180:328,1,72,2|0,0:3|3:0,0:0:0:0:
332,227,34216,2,0,P|315:258|301:292,1,72,0|2,0:0|3:2,0:0:0:0:
153,151,34516,2,0,P|119:164|87:181,1,72,0|0,0:0|3:2,0:0:0:0:
341,128,34816,2,0,P|374:141|406:158,1,72,0|2,0:0|3:2,0:0:0:0:
251,17,35116,6,0,P|227:46|222:83,1,72,0|2,0:0|3:2,0:0:0:0:
116,243,35416,2,0,P|110:208|87:181,1,72,0|2,0:0|3:2,0:0:0:0:
221,340,35716,2,0,L|362:314,1,144
450,258,36166,2,0,P|459:292|465:328,1,72,2|0,3:2|0:0,0:0:0:0:
306,163,36466,6,0,P|296:197|290:233,1,72,4|0,3:1|0:0,0:0:0:0:
455,131,36766,2,0,P|414:96|361:97,1,108,2|0,3:3|0:0,0:0:0:0:
285,57,37066,2,0,P|245:91|192:91,1,108,2|0,3:3|0:0,0:0:0:0:
96,73,37366,2,0,P|105:107|111:143,1,72,2|0,3:3|0:0,0:0:0:0:
31,336,37666,5,4,3:2:0:0:
86,251,37816,2,0,P|51:241|15:235,1,72,0|4,0:0|3:2,0:0:0:0:
171,334,38116,2,0,B|244:352|233:291|306:310,1,144
307,310,38566,2,0,P|315:288|323:268,1,45,8|0,0:0|0:0,0:0:0:0:
439,148,38716,6,0,B|391:72|391:72|304:100,1,180,4|0,3:1|3:0,0:0:0:0:
109,29,39166,2,0,P|119:54|127:75,1,45,8|0,0:0|0:0,0:0:0:0:
37,224,39316,6,0,B|49:187|74:164|74:164|179:195,1,180,4|0,3:2|3:0,0:0:0:0:
330,330,39766,2,0,P|308:338|288:346,1,45,8|0,0:0|0:0,0:0:0:0:
406,157,39916,6,0,P|459:173|481:249,1,135,4|0,3:2|0:0,0:0:0:0:
420,312,40216,1,8,0:0:0:0:
279,163,40366,1,8,0:0:0:0:
290,119,40441,1,0,3:0:0:0:
309,78,40516,1,0,3:0:0:0:
356,240,40666,1,8,0:0:0:0:
152,134,40816,2,0,P|172:126|194:118,1,45,4|0,3:2|0:0,0:0:0:0:
194,118,41116,6,0,P|146:55|53:62,1,180,0|0,3:2|3:2,0:0:0:0:
202,230,41566,2,0,P|244:216|282:187,1,90,8|0,3:2|0:0,0:0:0:0:
95,281,41866,2,0,P|86:324|92:371,1,90,0|0,3:2|3:2,0:0:0:0:
187,330,42166,1,8,3:2:0:0:
14,198,42316,1,0,0:0:0:0:
270,264,42466,6,0,L|358:248,1,90,0|0,3:2|3:2,0:0:0:0:
466,11,42766,1,8,3:2:0:0:
293,138,42916,1,0,0:0:0:0:
495,194,43066,1,8,3:2:0:0:
325,23,43216,1,0,3:2:0:0:
270,264,43366,1,8,3:2:0:0:
462,299,43516,6,0,P|452:210|398:140,1,180,0|0,3:2|0:0,0:0:0:0:
161,256,43966,2,0,P|181:299|192:345,1,90,8|0,3:2|3:0,0:0:0:0:
284,172,44266,1,0,3:2:0:0:
166,78,44416,1,0,3:2:0:0:
398,140,44566,1,8,3:2:0:0:
316,341,44716,2,0,P|301:335|278:314,1,45,0|0,3:2|3:0,0:0:0:0:
357,312,44866,5,8,0:2:0:0:
89,164,45016,2,0,P|36:202|41:267,1,135
195,209,45316,2,0,P|183:142|165:77,1,135,4|0,3:2|0:0,0:0:0:0:
89,19,45616,1,4,3:1:0:0:
328,112,45766,1,8,0:0:0:0:
190,340,45916,6,0,B|281:372|264:278|355:310,1,180,0|0,3:0|0:0,0:0:0:0:
512,369,46366,2,0,P|500:325|480:285,1,90,12|0,0:0|0:0,0:0:0:0:
314,140,46666,1,0,0:0:0:0:
435,66,46816,1,0,3:0:0:0:
235,223,46966,6,0,P|177:165|80:164,1,180,8|0,0:0|3:0,0:0:0:0:
7,263,47416,1,0,3:0:0:0:
229,334,47566,2,0,P|272:322|312:302,1,90,8|0,0:0|3:0,0:0:0:0:
145,131,47866,1,8,0:0:0:0:
81,330,48016,1,0,3:0:0:0:
270,104,48166,1,8,0:0:0:0:
0,36,48316,1,0,0:0:0:0:
222,220,48466,6,0,P|179:232|139:252,1,90,4|0,3:2|3:0,0:0:0:0:
219,21,48766,1,8,0:0:0:0:
347,160,48916,1,0,3:0:0:0:
40,189,49066,2,0,P|28:124|74:78,1,135,8|0,0:0|0:0,0:0:0:0:
168,104,49366,1,4,3:2:0:0:
225,312,49516,6,0,B|133:279|150:373|59:341,1,180,4|0,3:1|3:0,0:0:0:0:
58,340,49966,1,8,0:0:0:0:
168,104,50116,1,0,3:0:0:0:
359,240,50266,1,0,3:0:0:0:
379,200,50341,1,0,3:0:0:0:
374,156,50416,1,0,3:0:0:0:
345,122,50491,1,0,3:0:0:0:
303,109,50566,1,8,0:0:0:0:
225,312,50716,1,0,0:0:0:0:
91,224,50866,6,0,P|104:257|112:292,1,72,0|0,3:0|3:0,0:0:0:0:
12,287,51166,1,8,0:0:0:0:
214,152,51316,2,0,P|201:185|193:221,1,72,8|0,3:0|3:0,0:0:0:0:
0,88,51616,2,0,P|13:121|21:156,1,72,0|8,3:0|0:0,0:0:0:0:
126,19,51916,1,0,3:0:0:0:
304,171,52066,5,0,3:0:0:0:
178,126,52216,2,0,P|196:195|211:266,1,144,8|4,0:0|3:0,0:0:0:0:
44,359,52666,1,8,0:0:0:0:
102,254,52816,1,8,3:0:0:0:
206,370,52966,2,0,P|241:361|274:348,1,72,8|0,0:0|3:0,0:0:0:0:
434,210,53266,6,0,P|420:243|411:278,1,72,8|0,3:0|3:0,0:0:0:0:
512,277,53566,1,8,0:0:0:0:
305,143,53716,2,0,P|318:176|327:211,1,72,0|8,3:0|3:0,0:0:0:0:
510,65,54016,2,0,P|496:98|487:133,1,72,0|8,3:0|0:0,0:0:0:0:
307,29,54316,6,0,P|236:32|179:74,1,144,0|8,3:0|0:0,0:0:0:0:
232,263,54766,1,0,3:0:0:0:
289,129,54916,1,0,3:0:0:0:
66,49,55066,6,0,P|80:94|89:148,1,96,12|0,0:0|3:0,0:0:0:0:
58,180,55366,5,8,0:0:0:0:
99,155,55466,5,8,0:0:0:0:
146,163,55566,5,8,0:0:0:0:
182,194,55666,6,0,P|253:210|303:158,1,144,4|0,0:1|0:0,0:0:0:0:
205,26,56116,1,0,3:0:0:0:
386,100,56266,2,0,P|399:133|408:168,1,72,12|0,0:0|0:0,0:0:0:0:
480,20,56566,1,12,0:0:0:0:
300,165,56716,6,0,B|227:183|238:122|165:141,1,144,0|8,3:0|0:0,0:0:0:0:
23,354,57316,1,0,3:0:0:0:
139,272,57466,1,8,0:0:0:0:
11,212,57616,1,0,3:0:0:0:
208,366,57766,1,8,0:0:0:0:
315,28,58066,5,4,0:0:0:0:
315,28,59266,6,2,P|288:13|250:134,1,216,2|0,0:0|0:0,0:0:0:0:
464,285,60316,6,0,B|354:245|374:360|264:320,1,215.999993408203,4|0,3:1|3:0,0:0:0:0:
40,213,60766,2,0,P|59:262|72:320,1,107.999996704102,8|0,0:0|0:0,0:0:0:0:
219,99,61066,2,0,P|199:149|187:201,1,107.999996704102,0|0,3:0|3:0,0:0:0:0:
119,62,61366,1,8,0:0:0:0:
384,209,61516,1,0,0:0:0:0:
170,294,61666,5,0,3:0:0:0:
307,133,61816,1,0,3:0:0:0:
466,288,61966,2,0,P|478:236|498:186,1,107.999996704102,8|0,0:0|0:0,0:0:0:0:
284,267,62266,2,0,P|303:317|315:369,1,107.999996704102,0|0,3:0|3:0,0:0:0:0:
410,120,62566,1,8,0:0:0:0:
198,331,62716,6,0,B|131:311|131:311|67:351|67:351|0:331,1,215.999993408203,12|0,3:1|3:0,0:0:0:0:
182,132,63166,2,0,P|216:175|216:232,1,107.999996704102,8|0,0:0|0:0,0:0:0:0:
19,116,63466,2,0,P|21:62|54:21,1,107.999996704102,0|0,3:0|3:0,0:0:0:0:
306,125,63766,1,8,0:0:0:0:
101,297,63916,1,0,3:0:0:0:
79,248,63991,1,0,3:0:0:0:
118,211,64066,5,8,0:0:0:0:
260,326,64216,1,0,3:0:0:0:
399,94,64366,2,0,P|443:74|503:58,1,107.999996704102,0|0,3:0|3:0,0:0:0:0:
431,228,64666,1,8,0:0:0:0:
297,22,64816,1,0,3:0:0:0:
188,268,64966,1,8,0:0:0:0:
34,70,65116,6,0,P|94:61|223:158,1,215.999993408203,4|0,3:1|3:0,0:0:0:0:
132,362,65566,2,0,P|60:284|58:179,1,215.999993408203,8|0,0:0|3:0,0:0:0:0:
327,131,66016,2,0,P|311:188|288:235,1,107.999996704102,0|8,3:0|0:0,0:0:0:0:
236,65,66316,5,0,0:0:0:0:
419,202,66466,1,0,3:0:0:0:
157,273,66616,1,0,3:0:0:0:
426,89,66766,2,0,P|453:194|472:301,1,215.999993408203,8|0,0:0|3:0,0:0:0:0:
309,180,67216,1,0,3:0:0:0:
512,44,67366,1,8,0:0:0:0:
356,308,67516,6,0,B|246:348|266:233|156:273,1,215.999993408203,4|0,3:1|3:0,0:0:0:0:
46,368,67966,2,0,P|31:316|9:266,1,107.999996704102,8|0,0:0|0:0,0:0:0:0:
185,63,68266,2,0,P|163:112|148:164,1,107.999996704102,8|0,0:0|0:0,0:0:0:0:
66,22,68566,1,0,3:0:0:0:
287,130,68716,1,8,3:0:0:0:
12,209,68866,5,0,3:0:0:0:
18,230,68941,1,0,3:0:0:0:
8,251,69016,5,8,0:0:0:0:
24,209,69091,1,8,0:0:0:0:
59,182,69166,1,8,0:0:0:0:
103,176,69241,1,8,0:0:0:0:
144,193,69316,5,0,3:0:0:0:
154,213,69391,1,0,3:0:0:0:
191,237,69466,5,4,3:0:0:0:
230,248,69541,1,4,3:0:0:0:
266,243,69616,1,0,3:0:0:0:
293,227,69691,1,0,3:0:0:0:
312,208,69766,1,0,3:0:0:0:
321,188,69841,1,0,3:0:0:0:
325,171,69916,6,0,B|285:192|270:233|270:233|326:352,1,215.999993408203,4|0,3:1|3:0,0:0:0:0:
403,93,70366,2,0,P|362:63|303:59,1,107.999996704102,8|0,0:0|0:0,0:0:0:0:
416,257,70666,2,0,P|469:253|512:222,1,107.999996704102,0|0,3:0|3:0,0:0:0:0:
299,155,70966,1,8,0:0:0:0:
143,281,71116,6,0,P|132:224|118:175,1,107.999996704102,0|0,0:0|3:0,0:0:0:0:
324,245,71416,2,0,P|310:296|300:350,1,107.999996704102,0|8,3:0|0:0,0:0:0:0:
472,104,71716,2,0,B|342:130|342:130|303:101|306:48,1,215.999993408203,0|0,0:0|3:0,0:0:0:0:
441,213,72166,1,8,0:0:0:0:
342,326,72316,6,0,B|232:286|252:401|142:361,1,215.999993408203,4|0,3:1|3:0,0:0:0:0:
6,177,72766,2,0,P|23:227|36:282,1,107.999996704102,8|0,0:0|0:0,0:0:0:0:
231,115,73066,1,0,3:0:0:0:
71,52,73216,1,0,3:0:0:0:
169,233,73366,1,8,0:0:0:0:
351,113,73516,6,0,P|336:62|314:11,1,107.999996704102,4|0,3:2|0:0,0:0:0:0:
131,141,73816,2,0,P|146:89|167:39,1,107.999996704102,4|8,3:2|0:0,0:0:0:0:
332,224,74116,2,0,P|383:208|433:187,1,107.999996704102,4|0,3:2|3:0,0:0:0:0:
137,282,74416,2,0,P|85:266|35:245,1,107.999996704102,0|8,3:0|0:0,0:0:0:0:
303,121,74716,6,0,B|319:193|319:193|287:257|287:257|303:329,1,215.999993408203,4|0,3:1|3:0,0:0:0:0:
203,72,75166,2,0,P|255:27|303:14,1,107.999996704102,8|0,0:0|0:0,0:0:0:0:
218,235,75466,1,0,3:0:0:0:
103,68,75616,1,0,3:0:0:0:
37,282,75766,1,8,0:0:0:0:
303,121,75916,6,0,P|372:115|463:223,1,215.999993408203,0|0,3:0|3:0,0:0:0:0:
200,169,76366,2,0,P|196:115|211:63,1,107.999996704102,8|0,0:0|0:0,0:0:0:0:
310,233,76666,1,0,3:0:0:0:
104,95,76816,1,0,3:0:0:0:
333,26,76966,1,8,0:0:0:0:
402,297,77116,6,0,B|292:337|312:222|202:262,1,215.999993408203,4|0,3:1|3:0,0:0:0:0:
37,367,77566,2,0,P|57:317|65:262,1,107.999996704102,8|0,0:0|3:0,0:0:0:0:
12,31,77866,2,0,B|-1:66|16:97|16:97|165:137,1,215.999993408203,8|0,0:0|3:0,0:0:0:0:
372,60,78316,1,0,3:0:0:0:
248,51,78466,6,0,P|271:96|287:155,1,107.999996704102,8|0,0:0|3:0,0:0:0:0:
180,360,78766,1,8,0:0:0:0:
354,277,78916,1,0,3:0:0:0:
119,180,79066,1,8,0:0:0:0:
114,207,79141,1,0,3:0:0:0:
109,234,79216,1,0,3:0:0:0:
286,151,79366,1,8,3:0:0:0:
14,283,79516,6,0,P|99:267|160:329,1,180,4|0,3:1|0:0,0:0:0:0:
354,277,79966,5,8,0:0:0:0:
109,99,80266,1,0,3:0:0:0:
317,17,80566,5,8,0:0:0:0:
71,212,80866,1,0,3:0:0:0:
223,153,81166,5,8,0:0:0:0:
499,354,81466,1,8,0:0:0:0:
400,96,81616,1,8,0:0:0:0:
400,96,81916,6,0,B|461:54|461:54|504:192,1,215.999993408203,4|0,3:1|3:0,0:0:0:0:
253,222,82366,5,8,0:0:0:0:
347,0,82516,1,0,0:0:0:0:
385,235,82666,5,8,0:0:0:0:
258,69,82816,1,0,3:0:0:0:
116,149,82966,1,0,3:0:0:0:
83,32,83116,5,8,0:0:0:0:
427,132,83266,1,8,0:0:0:0:
308,256,83416,6,0,P|289:195|271:153,1,107.999996704102,0|8,3:0|0:0,0:0:0:0:
399,273,83716,1,0,0:0:0:0:
122,354,83866,1,8,0:0:0:0:
106,312,83941,1,0,3:0:0:0:
107,272,84016,1,0,3:0:0:0:
122,239,84091,1,0,3:0:0:0:
143,215,84166,1,0,3:0:0:0:
166,201,84241,1,0,3:0:0:0:
188,196,84316,6,0,B|279:162|262:258|354:225,1,180,4|0,3:1|3:0,0:0:0:0:
444,122,84766,5,8,0:0:0:0:
311,342,84916,1,0,0:0:0:0:
302,58,85066,5,8,0:0:0:0:
446,278,85216,1,0,3:0:0:0:
275,202,85366,5,8,0:0:0:0:
478,18,85516,1,0,3:0:0:0:
177,11,85666,5,8,0:0:0:0:
444,122,85816,1,0,3:0:0:0:
324,14,85966,5,8,0:0:0:0:
160,223,86116,1,0,3:0:0:0:
148,180,86191,1,0,3:0:0:0:
175,144,86266,5,8,0:0:0:0:
320,350,86416,2,0,P|278:332|235:318,1,90,4|4,3:2|3:2,0:0:0:0:
407,141,86716,2,0,P|481:183|478:269,1,180,4|0,3:1|3:0,0:0:0:0:
259,200,87166,2,0,P|281:107|304:16,1,180,8|0,0:0|3:0,0:0:0:0:
380,234,87616,1,0,3:0:0:0:
173,63,87766,1,8,0:0:0:0:
15,254,87916,6,0,B|34:284|68:301|68:301|166:253,1,180,4|0,3:1|3:0,0:0:0:0:
371,329,88366,1,8,0:0:0:0:
304,172,88516,1,0,3:0:0:0:
415,54,88666,5,4,3:0:0:0:
474,164,88816,1,0,3:0:0:0:
287,273,88966,2,0,L|195:253,1,90,8|0,0:0|0:0,0:0:0:0:
404,366,89266,6,0,P|425:309|414:259,1,90,0|0,3:0|3:0,0:0:0:0:
268,187,89566,2,0,P|268:232|287:273,1,90,8|0,0:0|3:0,0:0:0:0:
367,102,89866,2,0,L|472:90,2,90,4|0|8,3:0|3:0|0:0,0:0:0:0:
268,50,90316,1,0,3:0:0:0:
268,187,90466,5,0,3:0:0:0:
54,145,90616,2,0,P|36:87|45:37,1,90,8|0,0:0|3:0,0:0:0:0:
164,24,90916,1,0,3:0:0:0:
249,201,91066,1,8,0:0:0:0:
176,3,91216,1,0,3:0:0:0:
132,263,91366,1,8,0:0:0:0:
271,99,91516,2,0,P|316:86|376:92,1,90,0|8,3:0|3:0,0:0:0:0:
471,209,91816,2,0,P|426:222|366:216,1,90,0|8,3:0|0:0,0:0:0:0:
164,327,92116,6,0,P|160:262|129:241,1,90,0|4,3:0|3:0,0:0:0:0:
0,277,92416,2,0,P|4:342|35:363,1,90,0|8,3:0|0:0,0:0:0:0:
170,124,92716,2,0,L|49:108,1,90,0|0,3:0|3:0,0:0:0:0:
258,258,93016,2,0,L|379:242,1,90,8|0,0:0|3:0,0:0:0:0:
476,134,93316,5,0,3:0:0:0:
420,325,93466,1,8,0:0:0:0:
385,85,93616,1,0,3:0:0:0:
430,333,93766,1,8,0:0:0:0:
279,145,93916,5,0,3:0:0:0:
251,267,94066,1,0,3:0:0:0:
367,232,94216,1,0,3:0:0:0:
162,178,94366,2,0,P|151:233|148:285,1,90,8|0,0:0|3:0,0:0:0:0:
280,46,94666,2,0,P|291:101|294:153,1,90,0|0,3:0|3:0,0:0:0:0:
214,326,94966,1,8,0:0:0:0:
367,232,95116,1,0,3:0:0:0:
331,341,95266,5,0,3:0:0:0:
120,164,95416,2,0,P|124:119|134:76,1,90,8|0,0:0|3:0,0:0:0:0:
245,243,95716,1,0,3:0:0:0:
280,46,95866,5,8,0:0:0:0:
53,297,96016,1,8,0:0:0:0:
384,369,96166,1,8,0:0:0:0:
251,224,96316,5,2,0:3:0:0:
127,75,98866,5,0,3:0:0:0:
127,75,99166,2,0,P|171:71|211:90,1,90,2|0,3:2|0:0,0:0:0:0:
271,225,99466,2,0,B|318:176|293:113|293:113|283:148|253:166,1,180,0|2,3:0|3:2,0:0:0:0:
147,290,99916,1,0,0:0:0:0:
152,168,100066,5,0,3:0:0:0:
246,326,100216,2,0,P|334:311|355:295,1,90,0|2,0:0|3:2,0:0:0:0:
403,135,100516,2,0,P|371:218|375:244,1,90,0|0,0:0|3:0,0:0:0:0:
489,366,100816,2,0,P|432:297|407:287,1,90,0|2,0:0|3:2,0:0:0:0:
255,236,101116,6,0,P|246:304|245:342,1,90,0|0,0:0|3:0,0:0:0:0:
133,198,101416,2,0,P|142:266|143:304,1,90,0|2,0:0|3:2,0:0:0:0:
29,237,101716,2,0,P|20:305|19:343,1,90,0|0,0:0|3:0,0:0:0:0:
166,116,102016,1,0,0:0:0:0:
40,41,102166,1,2,3:2:0:0:
64,142,102316,1,0,0:0:0:0:
166,116,102466,6,0,L|272:105,1,90,2|8,3:2|0:1,0:0:0:0:
290,119,102691,1,8,0:1:0:0:
284,142,102766,1,2,3:2:0:0:
323,237,102916,1,8,0:1:0:0:
409,169,103066,5,0,3:2:0:0:
199,234,103216,1,8,0:1:0:0:
414,174,103366,5,0,3:2:0:0:
204,239,103516,1,0,0:0:0:0:
299,29,103666,6,0,P|290:97|289:135,1,90,4|0,3:2|0:0,0:0:0:0:
355,293,103966,2,0,P|295:292|258:331,1,90,0|0,3:0|0:0,0:0:0:0:
204,239,104266,2,0,B|193:275|156:281|156:281|24:254,1,180,4|0,3:2|3:0,0:0:0:0:
32,164,104716,1,0,0:0:0:0:
68,357,104866,5,4,3:2:0:0:
127,134,105016,2,0,P|100:87|40:67,1,90,0|4,0:0|3:2,0:0:0:0:
204,239,105316,2,0,B|301:263|282:187|386:214,1,180
343,307,105766,1,8,0:2:0:0:
234,143,105916,6,0,B|172:119|172:119|128:172,1,135.000005149842,4|0,3:1|0:0,0:0:0:0:
375,211,106216,1,0,3:0:0:0:
204,239,106366,1,8,0:0:0:0:
344,114,106516,2,0,B|406:90|406:90|450:144,1,135.000005149842,4|0,3:2|0:0,0:0:0:0:
122,352,106816,5,0,3:0:0:0:
293,324,106966,1,8,0:0:0:0:
151,255,107116,2,0,B|89:231|89:231|46:285,1,135.000005149842,4|0,3:2|0:0,0:0:0:0:
286,160,107416,5,8,0:0:0:0:
217,384,107566,1,8,0:0:0:0:
338,233,107716,1,0,0:0:0:0:
68,187,107866,1,0,3:0:0:0:
357,97,108016,1,0,3:0:0:0:
302,370,108166,2,0,P|245:370|198:400,1,90,8|0,0:0|0:0,0:0:0:0:
167,193,108466,5,4,3:0:0:0:
235,272,108616,1,0,3:0:0:0:
100,268,108766,2,0,P|70:215|75:161,1,90,8|0,0:0|0:0,0:0:0:0:
248,97,109066,5,8,3:0:0:0:
170,179,109216,1,0,3:0:0:0:
319,180,109366,1,8,0:0:0:0:
134,11,109516,2,0,P|122:54|118:99,1,90,0|8,0:0|3:0,0:0:0:0:
0,102,109816,1,8,0:0:0:0:
170,179,109966,2,0,P|181:222|185:267,1,90,0|4,0:0|3:0,0:0:0:0:
367,121,110266,5,8,0:0:0:0:
256,338,110416,1,0,3:0:0:0:
284,157,110566,5,8,0:0:0:0:
384,368,110716,1,8,3:0:0:0:
246,357,110866,5,0,3:0:0:0:
371,256,111016,1,0,3:0:0:0:
135,280,111166,2,0,P|105:227|110:173,1,90,8|0,0:0|0:0,0:0:0:0:
228,31,111466,1,4,3:0:0:0:
210,203,111616,1,0,3:0:0:0:
131,60,111766,1,8,0:0:0:0:
221,215,111916,6,0,P|272:237|337:225,1,90,0|8,0:0|3:0,0:0:0:0:
311,84,112216,1,8,0:0:0:0:
482,159,112366,2,0,P|437:160|397:180,1,90,0|8,0:0|3:0,0:0:0:0:
451,361,112666,2,0,L|466:273,2,90,8|0|8,0:0|0:0|3:0,0:0:0:0:
248,296,113116,1,0,3:0:0:0:
239,316,113191,1,0,3:0:0:0:
235,333,113266,6,0,B|275:312|290:271|290:271|238:236|240:166,1,180,4|0,3:1|0:0,0:0:0:0:
355,175,113716,1,0,3:0:0:0:
160,29,113866,2,0,B|115:47|118:106|118:106|130:190,1,180,12|0,0:0|0:0,0:0:0:0:
176,266,114316,6,0,B|221:248|218:189|218:189|201:76,1,180,4|0,3:1|3:0,0:0:0:0:
0,275,114766,2,0,L|90:262,1,90,0|0,3:0|0:0,0:0:0:0:
160,29,115066,2,0,B|115:47|118:106|118:106|130:190,1,180,12|0,0:0|0:0,0:0:0:0:
253,131,115516,1,0,0:0:0:0:
354,220,115666,5,0,3:0:0:0:
363,240,115741,1,0,3:0:0:0:
376,258,115816,2,0,P|413:294|426:299,1,45,8|8,0:0|0:0,0:0:0:0:
340,120,115966,5,0,3:0:0:0:
318,117,116041,1,0,3:0:0:0:
296,120,116116,2,0,P|245:134|235:142,1,45,8|8,0:0|0:0,0:0:0:0:
433,157,116266,5,0,3:0:0:0:
447,140,116341,1,0,3:0:0:0:
455,119,116416,2,0,P|467:68|465:55,1,45,8|8,0:0|0:0,0:0:0:0:
260,227,116566,1,8,0:0:0:0:
246,245,116641,1,8,0:0:0:0:
239,266,116716,1,8,0:0:0:0:
238,288,116791,1,8,0:0:0:0:
243,310,116866,5,0,3:0:0:0:
219,272,116941,1,0,3:0:0:0:
179,253,117016,1,8,0:0:0:0:
135,260,117091,1,8,0:0:0:0:
102,291,117166,5,8,0:0:0:0:
50,286,117241,1,8,0:0:0:0:
16,246,117316,1,8,0:0:0:0:
21,193,117391,1,8,0:0:0:0:
61,159,117466,1,8,3:0:0:0:
102,142,117541,5,8,3:0:0:0:
125,115,117616,1,8,3:0:0:0:
125,88,117691,1,8,3:0:0:0:
116,72,117766,1,8,3:0:0:0:
108,67,117841,1,0,3:0:0:0:
94,70,117916,6,0,B|210:104|186:5|299:33,1,215.999993408203,4|0,3:1|3:0,0:0:0:0:
470,185,118366,2,0,P|490:246|490:310,1,107.999996704102,8|0,0:0|0:0,0:0:0:0:
269,131,118666,2,0,P|249:192|249:256,1,107.999996704102,0|0,3:0|3:0,0:0:0:0:
388,279,118966,1,8,0:0:0:0:
232,358,119116,1,0,0:0:0:0:
490,175,119266,6,0,P|510:236|510:300,1,107.999996704102,0|0,3:0|3:0,0:0:0:0:
255,123,119566,2,0,P|235:184|235:248,1,107.999996704102,8|0,0:0|0:0,0:0:0:0:
512,38,119866,2,0,B|493:75|451:85|451:85|297:40,1,215.999993408203,0|8,3:0|0:0,0:0:0:0:
31,244,120316,6,0,L|162:205,1,107.999996704102,4|0,3:1|0:0,0:0:0:0:
319,282,120616,1,0,3:0:0:0:
320,46,120766,2,0,P|296:94|287:148,1,107.999996704102,8|0,0:0|0:0,0:0:0:0:
499,309,121066,2,0,P|490:255|466:207,1,107.999996704102,0|0,3:0|3:0,0:0:0:0:
309,296,121366,1,8,0:0:0:0:
197,87,121516,1,0,3:0:0:0:
180,138,121591,1,0,3:0:0:0:
185,191,121666,5,8,0:0:0:0:
345,141,121816,1,0,3:0:0:0:
123,344,121966,2,0,P|68:357|-20:357,1,107.999996704102,0|0,0:0|3:0,0:0:0:0:
82,76,122266,5,8,0:0:0:0:
262,280,122416,1,0,3:0:0:0:
337,46,122566,1,8,0:0:0:0:
55,267,122716,6,0,P|39:216|49:131,1,107.999996704102,4|0,3:1|0:0,0:0:0:0:
202,15,123016,1,0,3:0:0:0:
393,333,123166,2,0,B|277:367|301:268|188:296,1,215.999993408203,8|0,0:0|3:0,0:0:0:0:
314,117,123616,1,0,3:0:0:0:
162,185,123766,1,8,0:0:0:0:
444,183,123916,6,0,P|460:132|450:47,1,107.999996704102,0|0,0:0|3:0,0:0:0:0:
202,15,124216,1,0,3:0:0:0:
190,295,124366,2,0,B|306:329|282:230|395:258,1,215.999993408203,8|0,0:0|3:0,0:0:0:0:
322,102,124816,1,0,3:0:0:0:
480,296,124966,1,8,0:0:0:0:
193,86,125116,6,0,B|181:181|181:181|189:196|201:208|201:208|190:295,1,215.999993408203,4|0,3:1|3:0,0:0:0:0:
416,67,125566,2,0,P|421:157|420:187,1,107.999996704102,8|0,0:0|0:0,0:0:0:0:
96,67,125866,2,0,P|91:157|92:187,1,107.999996704102,8|0,0:0|0:0,0:0:0:0:
272,175,126166,1,0,3:0:0:0:
68,314,126316,1,8,0:0:0:0:
328,352,126466,5,0,3:0:0:0:
362,336,126541,1,0,3:0:0:0:
392,341,126616,5,8,0:0:0:0:
350,325,126691,1,8,0:0:0:0:
323,290,126766,1,8,0:0:0:0:
317,246,126841,1,8,0:0:0:0:
334,205,126916,5,0,3:0:0:0:
368,213,126991,1,0,3:0:0:0:
397,176,127066,5,4,3:0:0:0:
408,137,127141,1,4,3:0:0:0:
403,101,127216,1,0,3:0:0:0:
387,74,127291,1,0,3:0:0:0:
368,55,127366,1,0,3:0:0:0:
348,46,127441,1,0,3:0:0:0:
331,42,127516,6,0,B|327:91|288:104|288:104|141:83,1,215.999993408203,4|0,3:1|3:0,0:0:0:0:
101,251,127966,2,0,L|207:234,1,107.999996704102,8|0,0:0|0:0,0:0:0:0:
57,1,128266,2,0,P|25:71|33:116,1,107.999996704102,0|0,3:0|3:0,0:0:0:0:
196,333,128566,1,8,0:0:0:0:
22,232,128716,6,0,P|5:306|4:344,1,107.999996704102,0|0,0:0|3:0,0:0:0:0:
202,115,129016,2,0,P|218:189|219:227,1,107.999996704102,0|8,3:0|0:0,0:0:0:0:
512,336,129316,2,0,B|396:370|420:271|307:299,1,215.999993408203,0|0,0:0|3:0,0:0:0:0:
472,239,129766,1,8,0:0:0:0:
265,10,129916,6,0,P|238:115|219:222,1,215.999993408203,4|0,3:1|3:0,0:0:0:0:
0,16,130366,2,0,P|22:88|27:126,1,107.999996704102,8|0,0:0|0:0,0:0:0:0:
22,292,130666,1,0,3:0:0:0:
138,137,130816,1,0,3:0:0:0:
201,320,130966,1,8,0:0:0:0:
372,50,131116,6,0,P|376:103|373:157,1,107.999996704102,4|0,3:2|0:0,0:0:0:0:
158,31,131416,2,0,P|144:83|137:136,1,107.999996704102,4|8,3:2|0:0,0:0:0:0:
333,329,131716,2,0,P|373:293|408:251,1,107.999996704102,4|0,3:2|0:0,0:0:0:0:
148,312,132016,2,0,P|114:269|87:223,1,107.999996704102,0|8,3:0|0:0,0:0:0:0:
453,40,132316,6,0,P|426:145|407:252,1,215.999993408203,4|0,3:1|3:0,0:0:0:0:
244,361,132766,2,0,P|234:307|217:256,1,107.999996704102,8|0,0:0|0:0,0:0:0:0:
43,345,133066,1,0,3:0:0:0:
150,180,133216,1,0,3:0:0:0:
0,209,133366,1,8,0:0:0:0:
217,256,133516,6,0,P|251:190|173:82,1,215.999993408203,0|0,3:0|3:0,0:0:0:0:
427,21,133966,2,0,P|376:61|374:151,1,107.999996704102,8|0,0:0|0:0,0:0:0:0:
477,294,134266,1,0,3:0:0:0:
301,232,134416,1,0,3:0:0:0:
463,118,134566,1,8,0:0:0:0:
341,330,134716,6,0,B|225:364|249:265|136:293,1,215.999993408203,4|0,3:1|3:0,0:0:0:0:
0,129,135166,5,8,0:0:0:0:
56,336,135316,1,0,3:0:0:0:
187,52,135466,5,8,0:0:0:0:
33,221,135616,1,0,0:0:0:0:
218,199,135766,5,0,3:0:0:0:
6,63,135916,1,0,3:0:0:0:
3,96,135991,1,0,3:0:0:0:
0,129,136066,1,8,0:0:0:0:
167,36,136216,2,0,L|289:24,1,107.999996704102,0|8,3:0|0:0,0:0:0:0:
420,302,136516,1,0,3:0:0:0:
396,86,136666,1,8,0:0:0:0:
218,199,136816,1,0,3:0:0:0:
507,195,136966,1,8,3:0:0:0:
279,341,137116,1,4,3:1:0:0:
359,198,137266,6,0,L|369:268,1,72,0|0,0:0|3:0,0:0:0:0:
205,141,137566,2,0,L|194:211,1,72,0|0,3:0|0:0,0:0:0:0:
396,86,137866,2,0,P|327:96|283:44,1,144,0|0,3:0|3:0,0:0:0:0:
486,23,138316,2,0,P|498:56|505:92,1,72,0|0,0:0|3:0,0:0:0:0:
428,217,138616,2,0,P|394:204|358:197,1,72,0|0,0:0|3:0,0:0:0:0:
256,305,138916,2,0,P|262:340|275:374,1,72,0|0,0:0|3:0,0:0:0:0:
170,240,139216,2,0,B|96:218|108:285|34:263,1,144
4,229,139591,1,0,0:0:0:0:
4,229,139666,6,0,L|18:155,1,72,0|0,3:0|0:0,0:0:0:0:
167,85,139966,2,0,L|153:14,1,72,0|0,3:0|0:0,0:0:0:0:
116,161,140266,1,0,3:0:0:0:
264,77,140416,1,0,0:0:0:0:
66,3,140566,1,0,3:0:0:0:
290,86,140716,2,0,B|339:78|339:78|378:93|378:93|429:86,1,144
358,188,141166,1,0,3:0:0:0:
188,97,141316,2,0,P|191:61|203:27,1,72,0|0,0:0|3:0,0:0:0:0:
102,191,141616,2,0,P|69:206|34:212,1,72,2|0,0:0|3:0,0:0:0:0:
227,219,141916,1,2,0:0:0:0:
227,219,141991,1,0,0:0:0:0:
227,219,142066,6,0,P|256:239|279:267,1,72,4|0,3:2|0:0,0:0:0:0:
256,367,142366,1,0,3:0:0:0:
358,188,142516,2,0,P|390:171|425:164,1,72,0|0,0:0|3:0,0:0:0:0:
486,324,142816,2,0,P|453:307|418:300,1,72,0|2,0:0|3:0,0:0:0:0:
458,81,143116,2,0,P|482:148|495:219,1,144,0|2,0:0|0:3,0:0:0:0:
360,63,143566,2,0,P|371:29|395:2,1,72,0|0,3:0|0:0,0:0:0:0:
358,188,143866,1,0,3:0:0:0:
204,137,144016,2,0,P|233:116|268:109,1,72,0|0,0:0|3:0,0:0:0:0:
226,262,144316,6,0,B|152:240|164:307|90:285,1,144,2|0,0:3|0:0,0:0:0:0:
15,213,144766,1,0,3:0:0:0:
110,101,144916,2,0,P|125:133|134:168,1,72,0|0,0:0|3:0,0:0:0:0:
5,94,145216,2,0,P|14:59|29:26,1,72,2|0,0:3|3:0,0:0:0:0:
288,45,145516,2,0,L|219:64,1,72,0|2,0:0|3:0,0:0:0:0:
88,194,145816,2,0,L|157:213,1,72,0|2,0:0|3:0,0:0:0:0:
290,352,146116,2,0,P|282:316|269:283,1,72,0|4,0:0|3:2,0:0:0:0:
418,198,146416,2,0,P|404:231|397:266,1,72,0|4,0:0|3:2,0:0:0:0:
318,163,146716,1,0,0:0:0:0:
404,108,146866,5,4,3:1:0:0:
296,277,147016,1,8,3:0:0:0:
127,169,147166,1,0,3:0:0:0:
235,0,147316,1,0,0:0:0:0:
241,106,147466,2,0,P|207:93|172:84,1,72,0|0,3:0|0:0,0:0:0:0:
329,22,147766,1,0,3:0:0:0:
450,202,147916,6,0,P|450:271|394:311,1,144,4|0,3:0|0:0,0:0:0:0:
380,129,148366,2,0,P|411:110|445:100,1,72,0|0,3:0|0:0,0:0:0:0:
328,246,148666,1,0,3:0:0:0:
172,84,148816,2,0,P|189:115|200:149,1,72,0|0,0:0|3:0,0:0:0:0:
265,50,149116,1,0,0:0:0:0:
88,51,149266,5,0,3:0:0:0:
302,147,149416,1,8,3:0:0:0:
93,229,149566,1,0,3:0:0:0:
317,327,149716,1,0,0:0:0:0:
228,268,149866,2,0,P|216:302|212:337,1,72,0|0,3:0|0:0,0:0:0:0:
380,245,150166,1,0,3:0:0:0:
200,149,150316,1,4,3:0:0:0:
404,257,150466,6,0,P|440:246|472:223,1,72,0|0,3:0|0:0,0:0:0:0:
395,44,150766,1,0,3:0:0:0:
325,122,150916,2,0,P|367:134|395:152,1,72,0|0,0:0|3:0,0:0:0:0:
219,234,151216,1,4,3:0:0:0:
232,75,151366,2,0,P|253:47|283:28,1,72,0|0,3:0|0:0,0:0:0:0:
321,214,151666,5,0,3:0:0:0:
129,86,151816,1,8,3:0:0:0:
51,234,151966,1,0,3:0:0:0:
152,192,152116,2,0,P|167:224|179:258,1,72,0|0,0:0|3:0,0:0:0:0:
37,141,152416,1,0,0:0:0:0:
213,45,152566,1,0,3:0:0:0:
20,163,152716,1,4,3:0:0:0:
201,276,152866,6,0,B|274:257|263:318|336:299,1,144,0|0,3:0|3:0,0:0:0:0:
415,235,153316,1,4,3:0:0:0:
477,339,153466,1,0,3:0:0:0:
309,207,153616,1,4,3:0:0:0:
477,49,153766,1,0,3:0:0:0:
481,157,153916,6,0,P|444:141|408:133,1,72,0|4,0:0|3:2,0:0:0:0:
224,26,154216,2,0,P|188:42|157:65,1,72,0|4,0:0|3:2,0:0:0:0:
451,321,154516,6,0,P|439:282|422:249,1,72,0|4,0:0|3:1,0:0:0:0:
386,39,154816,2,0,P|350:21|313:12,1,72,0|4,0:0|3:1,0:0:0:0:
481,157,155116,1,0,0:0:0:0:
224,26,155266,5,2,3:0:0:0:
223,25,155866,6,0,P|155:33|127:96,1,144
0,303,156466,6,0,B|90:272|74:364|167:333,1,180,4|0,3:1|0:0,0:0:0:0:
291,185,156916,1,0,3:0:0:0:
257,192,156991,1,0,3:0:0:0:
254,228,157066,1,8,0:0:0:0:
451,345,157216,2,0,P|465:302|472:258,1,90,0|0,3:0|3:0,0:0:0:0:
157,278,157516,6,0,P|183:327|300:331,1,180,12|0,0:0|3:0,0:0:0:0:
129,156,157966,2,0,P|85:176|50:209,1,90,12|0,0:0|0:0,0:0:0:0:
254,228,158266,1,8,3:0:0:0:
184,86,158416,1,4,3:0:0:0:
270,25,158566,1,0,3:0:0:0:
451,129,158716,6,0,B|393:140|393:140|337:116|337:116|278:128,1,180,4|0,3:1|3:0,0:0:0:0:
330,256,159166,5,8,0:0:0:0:
403,19,159316,1,0,3:0:0:0:
278,128,159466,5,8,0:0:0:0:
452,310,159616,1,0,3:0:0:0:
411,176,159766,5,8,0:0:0:0:
199,293,159916,2,0,B|108:262|124:354|31:323,1,180,4|0,3:1|3:0,0:0:0:0:
178,140,160366,5,8,0:0:0:0:
277,362,160516,1,0,3:0:0:0:
108,273,160666,5,8,0:0:0:0:
275,61,160816,1,0,3:0:0:0:
381,219,160966,6,0,P|346:163|281:155,1,135,8|0,3:0|0:0,0:0:0:0:
230,234,161266,6,0,P|258:148|274:60,1,180,4|0,3:1|0:0,0:0:0:0:
125,229,161716,1,0,3:0:0:0:
123,264,161791,1,0,3:0:0:0:
145,291,161866,1,8,0:0:0:0:
82,117,162016,2,0,P|38:127|0:149,1,90,8|0,3:0|3:0,0:0:0:0:
160,384,162316,6,0,P|230:334|225:247,1,180,4|0,3:2|3:0,0:0:0:0:
375,104,162766,2,0,P|357:145|348:189,1,90,8|0,0:0|0:0,0:0:0:0:
273,36,163066,1,8,0:0:0:0:
453,176,163216,1,8,3:0:0:0:
225,247,163366,1,4,3:0:0:0:
460,139,163516,6,0,B|369:108|385:200|292:169,1,180,4|0,3:1|3:0,0:0:0:0:
162,99,163966,5,8,0:0:0:0:
316,300,164116,1,0,3:0:0:0:
118,267,164266,5,8,0:0:0:0:
261,20,164416,1,0,3:0:0:0:
359,135,164566,5,12,0:2:0:0:
80,5,164716,2,0,B|41:59|41:59|78:165,1,180,4|8,3:1|0:0,0:0:0:0:
178,198,165091,1,8,0:0:0:0:
178,198,165166,2,0,P|186:177|192:155,1,45,0|0,3:0|3:0,0:0:0:0:
35,260,165316,5,0,3:0:0:0:
77,249,165391,1,0,3:0:0:0:
118,267,165466,1,8,3:0:0:0:
138,306,165541,1,4,3:0:0:0:
158,345,165616,1,0,3:0:0:0:
198,363,165691,1,0,3:0:0:0:
241,352,165766,1,8,0:0:0:0:
310,217,165916,1,0,0:0:0:0:
416,360,166066,6,0,P|427:293|445:228,1,135,4|0,3:1|0:0,0:0:0:0:
506,157,166366,5,8,0:0:0:0:
331,313,166516,1,0,3:0:0:0:
512,315,166666,5,8,0:0:0:0:
276,145,166816,1,0,3:0:0:0:
411,110,166966,5,8,0:0:0:0:
241,352,167116,1,0,3:0:0:0:
243,43,167266,5,8,0:0:0:0:
407,282,167416,1,0,3:0:0:0:
248,242,167566,5,8,0:0:0:0:
437,21,167716,1,0,3:0:0:0:
162,99,167866,5,8,0:0:0:0:
468,206,168016,1,0,3:0:0:0:
331,82,168166,5,8,0:0:0:0:
134,271,168316,1,0,3:0:0:0:
134,234,168391,1,0,3:0:0:0:
162,207,168466,5,8,0:0:0:0:
373,332,168616,1,0,3:0:0:0:
92,360,168766,5,8,0:0:0:0:
336,189,168916,1,0,3:0:0:0:
246,315,169066,5,8,0:0:0:0:
43,125,169216,1,0,3:0:0:0:
381,102,169366,5,8,0:0:0:0:
134,271,169516,1,0,3:0:0:0:
351,329,169666,5,12,0:2:0:0:
229,49,169816,1,8,0:0:0:0:
178,357,169966,1,8,0:0:0:0:
322,26,170116,1,8,0:0:0:0:
439,370,170266,1,8,0:0:0:0:
295,120,170416,5,8,3:0:0:0:
482,217,170566,1,4,3:0:0:0:
351,329,170716,1,0,3:0:0:0:
441,68,170866,5,4,3:1:0:0:
256,192,170941,12,2,178066,0:0:0:0:
